osu file format v14

[General]
AudioFilename: audio.mp3
AudioLeadIn: 0
PreviewTime: 12398
Countdown: 0
SampleSet: Normal
StackLeniency: 0.7
Mode: 1
LetterboxInBreaks: 0
WidescreenStoryboard: 0

[Editor]
DistanceSpacing: 2.6
BeatDivisor: 2
GridSize: 4
TimelineZoom: 1.5

[Metadata]
Title:Creepy Castle Mine Cart
TitleUnicode:Creepy Castle Mine Cart
Artist:Grant Kirkhope
ArtistUnicode:Grant Kirkhope
Creator:-Tenshi-
Version:Kantan
Source:Donkey Kong 64
Tags:video game instrumental rareware nintendo bananas dk n64 kazaze
BeatmapID:2357048
BeatmapSetID:1127444

[Difficulty]
HPDrainRate:8
CircleSize:5
OverallDifficulty:2
ApproachRate:5
SliderMultiplier:1.4
SliderTickRate:1

[Events]
//Background and Video events
0,0,"bg.jpg",0,80
//Break Periods
//Storyboard Layer 0 (Background)
//Storyboard Layer 1 (Fail)
//Storyboard Layer 2 (Pass)
//Storyboard Layer 3 (Foreground)
//Storyboard Layer 4 (Overlay)
//Storyboard Sound Samples

[TimingPoints]
1435,342.596769312465,4,1,0,60,1,0
12398,-100,4,1,0,70,0,1
34324,-100,4,1,0,60,0,0
67213,-100,4,1,0,70,0,1
78176,-100,4,1,0,60,0,0

[HitObjects]
261,197,1435,5,12,0:0:0:0:
228,157,2805,1,0,0:0:0:0:
190,102,3490,1,0,0:0:0:0:
190,102,4175,1,12,0:0:0:0:
184,146,5546,1,0,0:0:0:0:
184,146,6231,1,8,0:0:0:0:
184,146,6916,1,12,0:0:0:0:
228,157,8286,1,0,0:0:0:0:
190,102,8972,1,0,0:0:0:0:
190,102,9657,1,12,0:0:0:0:
184,146,11027,1,0,0:0:0:0:
184,146,11712,1,8,0:0:0:0:
194,149,12055,1,0,0:0:0:0:
184,146,12398,1,12,0:0:0:0:
203,138,13768,1,8,0:0:0:0:
203,138,14453,1,8,0:0:0:0:
105,111,14796,1,8,0:0:0:0:
170,102,15138,1,4,0:0:0:0:
138,101,15824,1,0,0:0:0:0:
189,170,16509,1,8,0:0:0:0:
197,151,16851,1,8,0:0:0:0:
197,156,17194,1,0,0:0:0:0:
197,156,17537,1,0,0:0:0:0:
197,156,17879,1,12,0:0:0:0:
203,131,19250,1,0,0:0:0:0:
203,131,19935,1,8,0:0:0:0:
244,113,20620,1,12,0:0:0:0:
152,123,21305,1,0,0:0:0:0:
167,106,21990,1,8,0:0:0:0:
175,170,22333,1,0,0:0:0:0:
190,73,22675,1,8,0:0:0:0:
190,73,23018,1,0,0:0:0:0:
190,73,23361,1,12,0:0:0:0:
203,138,24731,1,8,0:0:0:0:
203,138,25416,1,0,0:0:0:0:
105,111,25759,1,0,0:0:0:0:
170,102,26101,1,12,0:0:0:0:
138,101,26787,1,8,0:0:0:0:
189,170,27472,1,0,0:0:0:0:
158,159,27814,1,0,0:0:0:0:
197,156,28157,1,8,0:0:0:0:
197,156,28500,1,8,0:0:0:0:
197,156,28842,1,4,0:0:0:0:
203,131,30213,1,8,0:0:0:0:
203,131,30898,1,8,0:0:0:0:
244,113,31583,1,4,0:0:0:0:
152,123,32268,1,8,0:0:0:0:
167,106,32953,1,0,0:0:0:0:
177,72,33296,1,8,0:0:0:0:
190,73,33639,1,0,0:0:0:0:
190,73,33981,1,8,0:0:0:0:
190,73,34324,1,4,0:0:0:0:
139,115,34666,1,8,0:0:0:0:
221,197,35694,1,12,0:0:0:0:
225,113,36037,1,8,0:0:0:0:
247,193,37065,1,4,0:0:0:0:
297,188,37407,1,0,0:0:0:0:
207,114,38435,1,12,0:0:0:0:
207,114,38778,1,0,0:0:0:0:
190,73,39805,1,4,0:0:0:0:
139,115,40148,1,8,0:0:0:0:
221,197,41176,1,12,0:0:0:0:
225,113,41518,1,8,0:0:0:0:
247,193,42546,1,4,0:0:0:0:
297,188,42889,1,0,0:0:0:0:
207,114,43916,1,12,0:0:0:0:
207,114,44259,1,0,0:0:0:0:
190,146,45287,1,12,0:0:0:0:
268,191,46657,1,12,0:0:0:0:
208,122,47000,1,0,0:0:0:0:
203,211,47342,1,0,0:0:0:0:
259,193,48028,1,12,0:0:0:0:
159,175,48713,1,8,0:0:0:0:
245,200,49398,1,4,0:0:0:0:
172,146,49741,1,8,0:0:0:0:
172,146,50083,1,0,0:0:0:0:
242,70,50768,1,12,0:0:0:0:
169,119,52139,1,4,0:0:0:0:
240,140,52481,1,0,0:0:0:0:
234,131,52824,1,8,0:0:0:0:
276,123,53509,1,12,0:0:0:0:
123,211,54194,1,8,0:0:0:0:
268,191,54880,1,12,0:0:0:0:
208,122,55222,1,0,0:0:0:0:
203,211,55565,1,8,0:0:0:0:
259,193,56250,1,12,0:0:0:0:
261,199,57620,1,4,0:0:0:0:
189,124,58306,1,0,0:0:0:0:
195,220,58991,1,12,0:0:0:0:
241,194,60361,1,12,0:0:0:0:
286,149,61046,1,0,0:0:0:0:
262,199,61732,1,4,0:0:0:0:
255,200,63102,1,4,0:0:0:0:
246,151,63787,1,8,0:0:0:0:
246,151,64472,1,4,0:0:0:0:
260,208,65843,1,12,0:0:0:0:
230,133,66185,1,8,0:0:0:0:
212,173,66528,1,0,0:0:0:0:
156,170,66870,1,0,0:0:0:0:
241,143,67213,1,12,0:0:0:0:
203,138,68583,1,12,0:0:0:0:
203,138,69269,1,8,0:0:0:0:
105,111,69611,1,8,0:0:0:0:
170,102,69954,1,4,0:0:0:0:
138,101,70639,1,0,0:0:0:0:
189,170,71324,1,12,0:0:0:0:
201,162,71667,1,8,0:0:0:0:
197,156,72009,1,0,0:0:0:0:
197,156,72352,1,0,0:0:0:0:
197,156,72695,1,12,0:0:0:0:
203,131,74065,1,12,0:0:0:0:
203,131,74750,1,8,0:0:0:0:
244,113,75435,1,12,0:0:0:0:
152,123,76121,1,0,0:0:0:0:
167,106,76806,1,12,0:0:0:0:
210,137,77148,1,0,0:0:0:0:
190,73,77491,1,8,0:0:0:0:
190,73,77834,1,0,0:0:0:0:
190,73,78176,1,12,0:0:0:0:
150,152,79547,1,12,0:0:0:0:
140,142,80917,1,4,0:0:0:0:
165,152,82287,1,12,0:0:0:0:
141,154,83658,1,4,0:0:0:0:
157,173,85028,1,12,0:0:0:0:
156,174,86398,1,12,0:0:0:0:
148,196,87769,1,4,0:0:0:0:
140,173,89139,1,12,0:0:0:0:
132,154,90510,1,4,0:0:0:0:
161,168,91880,1,12,0:0:0:0:
141,171,93250,1,4,0:0:0:0:
143,193,94621,1,12,0:0:0:0:
98,169,95991,1,4,0:0:0:0:
154,180,97362,1,12,0:0:0:0:
134,165,98732,1,12,0:0:0:0:
261,197,100102,5,12,0:0:0:0:
228,157,101473,1,0,0:0:0:0:
190,102,102158,1,0,0:0:0:0:
190,102,102843,1,12,0:0:0:0:
184,146,104214,1,0,0:0:0:0:
184,146,104899,1,8,0:0:0:0:
184,146,105584,1,12,0:0:0:0:
228,157,106954,1,0,0:0:0:0:
190,102,107639,1,0,0:0:0:0:
190,102,108325,1,12,0:0:0:0:
184,146,109695,1,0,0:0:0:0:
184,146,110380,1,8,0:0:0:0:
148,222,110723,1,0,0:0:0:0:
184,146,111065,1,12,0:0:0:0:
