osu file format v14

[General]
AudioFilename: audio.mp3
AudioLeadIn: 0
PreviewTime: 12398
Countdown: 0
SampleSet: Normal
StackLeniency: 0.7
Mode: 1
LetterboxInBreaks: 0
WidescreenStoryboard: 0

[Editor]
DistanceSpacing: 2.6
BeatDivisor: 2
GridSize: 4
TimelineZoom: 1.5

[Metadata]
Title:Creepy Castle Mine Cart
TitleUnicode:Creepy Castle Mine Cart
Artist:Grant Kirkhope
ArtistUnicode:Grant Kirkhope
Creator:-Tenshi-
Version:Futsuu
Source:Donkey Kong 64
Tags:video game instrumental rareware nintendo bananas dk n64 kazaze
BeatmapID:2359017
BeatmapSetID:1127444

[Difficulty]
HPDrainRate:7
CircleSize:5
OverallDifficulty:3
ApproachRate:5
SliderMultiplier:1.4
SliderTickRate:1

[Events]
//Background and Video events
0,0,"bg.jpg",0,80
//Break Periods
//Storyboard Layer 0 (Background)
//Storyboard Layer 1 (Fail)
//Storyboard Layer 2 (Pass)
//Storyboard Layer 3 (Foreground)
//Storyboard Layer 4 (Overlay)
//Storyboard Sound Samples

[TimingPoints]
1435,342.596769312465,4,1,0,60,1,0
12398,-100,4,1,0,70,0,1
34324,-100,4,1,0,60,0,0
67213,-100,4,1,0,70,0,1
78176,-100,4,1,0,60,0,0

[HitObjects]
261,197,1435,5,12,0:0:0:0:
239,206,2120,1,8,0:0:0:0:
228,157,2805,1,0,0:0:0:0:
185,180,3147,1,8,0:0:0:0:
190,102,3490,1,0,0:0:0:0:
247,75,3661,1,0,0:0:0:0:
134,139,3833,1,8,0:0:0:0:
190,102,4175,1,12,0:0:0:0:
205,136,4860,1,8,0:0:0:0:
184,146,5546,1,0,0:0:0:0:
230,123,5888,1,0,0:0:0:0:
184,146,6231,1,8,0:0:0:0:
158,132,6402,1,8,0:0:0:0:
208,131,6573,1,0,0:0:0:0:
184,146,6916,1,12,0:0:0:0:
141,117,7601,1,8,0:0:0:0:
228,157,8286,1,0,0:0:0:0:
203,112,8629,1,8,0:0:0:0:
190,102,8972,1,0,0:0:0:0:
223,93,9143,1,0,0:0:0:0:
188,107,9314,1,8,0:0:0:0:
190,102,9657,1,12,0:0:0:0:
182,111,10342,1,8,0:0:0:0:
184,146,11027,1,0,0:0:0:0:
205,111,11370,1,0,0:0:0:0:
184,146,11712,1,8,0:0:0:0:
168,134,11884,1,8,0:0:0:0:
205,111,12055,1,0,0:0:0:0:
155,230,12226,1,0,0:0:0:0:
184,146,12398,1,12,0:0:0:0:
121,102,13083,1,0,0:0:0:0:
239,102,13425,1,0,0:0:0:0:
239,102,13597,1,0,0:0:0:0:
203,138,13768,1,8,0:0:0:0:
137,129,14111,1,0,0:0:0:0:
203,138,14453,1,8,0:0:0:0:
105,111,14796,1,8,0:0:0:0:
170,102,15138,1,4,0:0:0:0:
138,101,15824,1,0,0:0:0:0:
154,102,16166,1,0,0:0:0:0:
154,102,16337,1,0,0:0:0:0:
189,170,16509,1,8,0:0:0:0:
100,103,16851,1,8,0:0:0:0:
197,156,17194,1,0,0:0:0:0:
177,113,17365,1,8,0:0:0:0:
197,156,17537,1,0,0:0:0:0:
166,100,17708,1,0,0:0:0:0:
197,156,17879,1,12,0:0:0:0:
183,95,18564,1,0,0:0:0:0:
168,75,18907,1,8,0:0:0:0:
169,75,19078,1,0,0:0:0:0:
203,131,19250,1,0,0:0:0:0:
168,75,19763,1,8,0:0:0:0:
203,131,19935,1,8,0:0:0:0:
244,113,20620,1,12,0:0:0:0:
144,98,21134,1,0,0:0:0:0:
152,123,21305,1,0,0:0:0:0:
184,88,21648,1,0,0:0:0:0:
184,88,21819,1,0,0:0:0:0:
167,106,21990,1,8,0:0:0:0:
190,91,22333,1,0,0:0:0:0:
190,73,22675,1,8,0:0:0:0:
239,115,22847,1,0,0:0:0:0:
190,73,23018,1,8,0:0:0:0:
209,123,23189,1,8,0:0:0:0:
190,73,23361,1,4,0:0:0:0:
121,102,24046,1,8,0:0:0:0:
239,102,24388,1,8,0:0:0:0:
239,102,24560,1,8,0:0:0:0:
203,138,24731,1,0,0:0:0:0:
137,129,25074,1,8,0:0:0:0:
203,138,25416,1,0,0:0:0:0:
105,111,25759,1,0,0:0:0:0:
170,102,26101,1,12,0:0:0:0:
138,101,26787,1,8,0:0:0:0:
154,102,27129,1,8,0:0:0:0:
154,102,27301,1,8,0:0:0:0:
189,170,27472,1,0,0:0:0:0:
100,103,27814,1,0,0:0:0:0:
197,156,28157,1,8,0:0:0:0:
229,88,28328,1,0,0:0:0:0:
197,156,28500,1,8,0:0:0:0:
229,88,28671,1,8,0:0:0:0:
197,156,28842,1,4,0:0:0:0:
183,95,29527,1,8,0:0:0:0:
168,75,29870,1,0,0:0:0:0:
169,75,30041,1,8,0:0:0:0:
203,131,30213,1,8,0:0:0:0:
168,75,30727,1,8,0:0:0:0:
203,131,30898,1,0,0:0:0:0:
244,113,31583,1,4,0:0:0:0:
144,98,32097,1,0,0:0:0:0:
152,123,32268,1,8,0:0:0:0:
184,88,32611,1,8,0:0:0:0:
184,88,32782,1,8,0:0:0:0:
167,106,32953,1,0,0:0:0:0:
190,91,33296,1,8,0:0:0:0:
190,73,33639,5,8,0:0:0:0:
185,46,33810,1,0,0:0:0:0:
190,73,33981,1,0,0:0:0:0:
185,46,34152,1,8,0:0:0:0:
190,73,34324,1,4,0:0:0:0:
139,115,34666,1,8,0:0:0:0:
74,155,35352,1,8,0:0:0:0:
221,197,35694,1,4,0:0:0:0:
225,113,36037,1,8,0:0:0:0:
170,88,36722,1,8,0:0:0:0:
247,193,37065,1,4,0:0:0:0:
297,188,37407,1,0,0:0:0:0:
176,94,38092,1,0,0:0:0:0:
207,114,38435,1,12,0:0:0:0:
207,114,38778,1,0,0:0:0:0:
166,84,39463,1,0,0:0:0:0:
190,73,39805,1,4,0:0:0:0:
139,115,40148,1,8,0:0:0:0:
186,48,40833,1,8,0:0:0:0:
221,197,41176,1,4,0:0:0:0:
225,113,41518,1,8,0:0:0:0:
185,98,42204,1,8,0:0:0:0:
247,193,42546,1,4,0:0:0:0:
297,188,42889,1,0,0:0:0:0:
198,90,43574,1,0,0:0:0:0:
207,114,43916,1,12,0:0:0:0:
207,114,44259,1,0,0:0:0:0:
95,77,44944,1,0,0:0:0:0:
190,146,45287,1,12,0:0:0:0:
174,67,45629,1,0,0:0:0:0:
174,67,45801,1,0,0:0:0:0:
174,67,45972,1,8,0:0:0:0:
268,191,46657,1,12,0:0:0:0:
239,62,46829,1,0,0:0:0:0:
208,122,47000,1,0,0:0:0:0:
203,211,47342,1,0,0:0:0:0:
259,193,48028,1,12,0:0:0:0:
170,92,48370,1,8,0:0:0:0:
170,92,48542,1,8,0:0:0:0:
194,57,48713,1,0,0:0:0:0:
245,200,49398,1,4,0:0:0:0:
229,51,49569,1,8,0:0:0:0:
172,146,49741,1,8,0:0:0:0:
172,146,50083,1,0,0:0:0:0:
242,70,50768,1,12,0:0:0:0:
92,101,51111,1,0,0:0:0:0:
92,101,51282,1,0,0:0:0:0:
92,101,51454,1,8,0:0:0:0:
169,119,52139,1,12,0:0:0:0:
130,77,52310,1,0,0:0:0:0:
240,140,52481,1,0,0:0:0:0:
234,131,52824,1,8,0:0:0:0:
276,123,53509,1,12,0:0:0:0:
151,64,53852,1,8,0:0:0:0:
151,64,54023,1,8,0:0:0:0:
151,64,54194,1,0,0:0:0:0:
268,191,54880,1,4,0:0:0:0:
154,77,55051,1,8,0:0:0:0:
208,122,55222,1,8,0:0:0:0:
203,211,55565,1,8,0:0:0:0:
112,109,55907,1,0,0:0:0:0:
259,193,56250,1,12,0:0:0:0:
181,85,56935,1,8,0:0:0:0:
181,85,57278,1,0,0:0:0:0:
181,85,57449,1,0,0:0:0:0:
261,199,57620,1,12,0:0:0:0:
189,124,58306,1,0,0:0:0:0:
124,106,58648,1,0,0:0:0:0:
195,220,58991,1,12,0:0:0:0:
78,90,59676,1,0,0:0:0:0:
175,100,60019,1,0,0:0:0:0:
175,100,60190,1,0,0:0:0:0:
241,194,60361,1,12,0:0:0:0:
286,149,61046,1,0,0:0:0:0:
262,199,61732,1,4,0:0:0:0:
152,104,62417,1,8,0:0:0:0:
159,100,62759,1,8,0:0:0:0:
159,100,62931,1,8,0:0:0:0:
255,200,63102,1,4,0:0:0:0:
246,151,63787,1,8,0:0:0:0:
246,151,64472,1,12,0:0:0:0:
272,69,65157,1,0,0:0:0:0:
155,84,65500,1,0,0:0:0:0:
155,84,65671,1,0,0:0:0:0:
260,208,65843,1,12,0:0:0:0:
135,104,66185,1,8,0:0:0:0:
215,183,66528,1,0,0:0:0:0:
135,104,66870,1,8,0:0:0:0:
205,78,67042,1,0,0:0:0:0:
184,146,67213,1,12,0:0:0:0:
121,102,67898,1,0,0:0:0:0:
239,102,68241,1,0,0:0:0:0:
239,102,68412,1,0,0:0:0:0:
203,138,68583,1,8,0:0:0:0:
137,129,68926,1,0,0:0:0:0:
203,138,69269,1,8,0:0:0:0:
105,111,69611,1,8,0:0:0:0:
170,102,69954,1,4,0:0:0:0:
138,101,70639,1,0,0:0:0:0:
154,102,70982,1,0,0:0:0:0:
154,102,71153,1,0,0:0:0:0:
189,170,71324,1,8,0:0:0:0:
100,103,71667,1,8,0:0:0:0:
197,156,72009,1,0,0:0:0:0:
202,89,72181,1,8,0:0:0:0:
197,156,72352,1,0,0:0:0:0:
202,89,72523,1,0,0:0:0:0:
197,156,72695,1,12,0:0:0:0:
183,95,73380,1,0,0:0:0:0:
168,75,73722,1,8,0:0:0:0:
169,75,73894,1,0,0:0:0:0:
203,131,74065,1,8,0:0:0:0:
168,75,74579,1,8,0:0:0:0:
203,131,74750,1,8,0:0:0:0:
244,113,75435,1,12,0:0:0:0:
144,98,75949,1,0,0:0:0:0:
152,123,76121,1,0,0:0:0:0:
184,88,76463,1,0,0:0:0:0:
184,88,76634,1,0,0:0:0:0:
167,106,76806,1,8,0:0:0:0:
190,91,77148,1,0,0:0:0:0:
190,73,77491,1,8,0:0:0:0:
205,105,77662,1,0,0:0:0:0:
190,73,77834,1,8,0:0:0:0:
205,107,78005,1,8,0:0:0:0:
190,73,78176,1,4,0:0:0:0:
150,152,79547,5,12,0:0:0:0:
140,142,80917,1,4,0:0:0:0:
165,152,82287,1,12,0:0:0:0:
141,154,83658,1,4,0:0:0:0:
157,173,85028,1,12,0:0:0:0:
156,174,86398,1,12,0:0:0:0:
148,196,87769,1,4,0:0:0:0:
140,173,89139,1,12,0:0:0:0:
132,154,90510,1,4,0:0:0:0:
161,168,91880,1,12,0:0:0:0:
141,171,93250,1,4,0:0:0:0:
143,193,94621,1,12,0:0:0:0:
98,169,95991,1,4,0:0:0:0:
154,180,97362,1,12,0:0:0:0:
134,165,98732,1,12,0:0:0:0:
261,197,100102,5,12,0:0:0:0:
239,206,100788,1,8,0:0:0:0:
228,157,101473,1,0,0:0:0:0:
205,148,101815,1,8,0:0:0:0:
190,102,102158,1,0,0:0:0:0:
217,212,102329,1,0,0:0:0:0:
134,139,102501,1,8,0:0:0:0:
190,102,102843,1,12,0:0:0:0:
205,136,103528,1,8,0:0:0:0:
184,146,104214,1,0,0:0:0:0:
218,231,104556,1,0,0:0:0:0:
184,146,104899,1,8,0:0:0:0:
218,231,105070,1,8,0:0:0:0:
208,131,105241,1,0,0:0:0:0:
184,146,105584,1,12,0:0:0:0:
141,117,106269,1,8,0:0:0:0:
228,157,106954,1,0,0:0:0:0:
203,112,107297,1,8,0:0:0:0:
190,102,107639,1,0,0:0:0:0:
220,172,107811,1,0,0:0:0:0:
188,107,107982,1,8,0:0:0:0:
190,102,108325,1,12,0:0:0:0:
182,111,109010,1,8,0:0:0:0:
184,146,109695,1,0,0:0:0:0:
205,111,110038,1,0,0:0:0:0:
184,146,110380,1,8,0:0:0:0:
215,183,110552,1,8,0:0:0:0:
205,111,110723,1,0,0:0:0:0:
197,199,110894,1,0,0:0:0:0:
184,146,111065,1,12,0:0:0:0:
