osu file format v14

[General]
AudioFilename: audio.mp3
AudioLeadIn: 0
PreviewTime: -1
Countdown: 1
SampleSet: Normal
StackLeniency: 0.7
Mode: 0
LetterboxInBreaks: 0
WidescreenStoryboard: 1

[Editor]
DistanceSpacing: 3
BeatDivisor: 6
GridSize: 8
TimelineZoom: 1

[Metadata]
Title:Atlantis - Banjo Tooie
TitleUnicode:Atlantis - Banjo Tooie
Artist:Grant Kirkhope
ArtistUnicode:Grant Kirkhope
Creator:RyokaTx
Version:Normal
Source:
Tags:
BeatmapID:950131
BeatmapSetID:441727

[Difficulty]
HPDrainRate:5
CircleSize:5
OverallDifficulty:5
ApproachRate:5
SliderMultiplier:1.4
SliderTickRate:1

[Events]
//Background and Video events
0,0,"410702-banjo_tooie__u___snap0072.jpg",0,0
//Break Periods
//Storyboard Layer 0 (Background)
//Storyboard Layer 1 (Fail)
//Storyboard Layer 2 (Pass)
//Storyboard Layer 3 (Foreground)
//Storyboard Sound Samples

[TimingPoints]
7809.64729790351,544.85627044711,4,1,0,100,1,0

[HitObjects]
232,176,8763,5,0,0:0:0:0:
232,176,9035,1,0,0:0:0:0:
232,176,9308,1,0,0:0:0:0:
232,176,9580,1,0,0:0:0:0:
360,128,10942,1,0,0:0:0:0:
360,128,11214,1,0,0:0:0:0:
360,128,11487,1,0,0:0:0:0:
360,128,11759,1,0,0:0:0:0:
224,88,13121,1,0,0:0:0:0:
224,88,13394,1,0,0:0:0:0:
224,88,13666,1,0,0:0:0:0:
224,88,13939,1,0,0:0:0:0:
296,216,15301,1,0,0:0:0:0:
296,216,15573,1,0,0:0:0:0:
296,216,15846,1,0,0:0:0:0:
296,216,16118,1,0,0:0:0:0:
440,176,17480,5,0,0:0:0:0:
440,176,17753,1,0,0:0:0:0:
440,176,18025,1,0,0:0:0:0:
440,176,18298,1,0,0:0:0:0:
320,304,19796,1,0,0:0:0:0:
320,304,20068,1,0,0:0:0:0:
320,304,20341,1,0,0:0:0:0:
320,304,20613,1,0,0:0:0:0:
64,168,21839,2,0,L|360:168,2,280
200,48,24563,2,0,P|168:288|264:280,2,420
256,120,28514,5,0,0:0:0:0:
288,120,28786,1,0,0:0:0:0:
320,120,29059,1,0,0:0:0:0:
240,216,29331,5,0,0:0:0:0:
256,192,30966,12,0,33283,0:0:0:0:
384,128,34961,5,0,0:0:0:0:
384,128,35234,1,0,0:0:0:0:
224,112,35506,1,0,0:0:0:0:
216,112,35778,1,0,0:0:0:0:
248,192,37231,5,0,0:0:0:0:
360,128,37504,1,0,0:0:0:0:
408,96,37776,1,0,0:0:0:0:
232,176,38049,1,0,0:0:0:0:
384,224,39411,1,0,0:0:0:0:
232,176,40228,1,0,0:0:0:0:
232,176,40501,1,0,0:0:0:0:
320,192,41045,1,0,0:0:0:0:
184,232,41590,1,0,0:0:0:0:
192,176,43770,5,8,0:0:0:0:
192,176,45268,1,8,0:0:0:0:
232,176,45540,1,8,0:0:0:0:
272,176,45813,1,8,0:0:0:0:
312,176,46085,1,8,0:0:0:0:
344,160,46358,1,0,0:0:0:0:
392,152,46630,1,0,0:0:0:0:
176,96,46903,1,12,0:0:0:0:
256,104,48129,5,0,0:0:0:0:
304,184,48946,1,0,0:0:0:0:
256,200,49218,1,0,0:0:0:0:
160,224,49763,5,0,0:0:0:0:
312,184,50308,1,0,0:0:0:0:
224,256,51398,1,0,0:0:0:0:
272,160,52487,1,0,0:0:0:0:
168,104,53032,5,0,0:0:0:0:
224,88,53305,1,0,0:0:0:0:
256,144,53577,1,0,0:0:0:0:
296,104,53850,1,0,0:0:0:0:
352,120,54122,1,0,0:0:0:0:
416,184,54394,1,0,0:0:0:0:
176,248,54667,5,8,0:0:0:0:
424,168,56301,1,0,0:0:0:0:
248,64,56846,1,0,0:0:0:0:
328,64,57663,1,0,0:0:0:0:
336,104,57936,1,0,0:0:0:0:
408,224,58481,1,0,0:0:0:0:
160,232,59026,5,0,0:0:0:0:
128,192,59298,1,0,0:0:0:0:
96,144,59570,1,0,0:0:0:0:
344,200,60115,1,0,0:0:0:0:
352,240,60388,1,0,0:0:0:0:
328,280,60660,1,0,0:0:0:0:
152,216,61205,1,0,0:0:0:0:
384,160,62022,5,0,0:0:0:0:
408,200,62295,1,0,0:0:0:0:
288,280,62840,1,0,0:0:0:0:
304,64,63384,1,0,0:0:0:0:
112,184,63929,1,0,0:0:0:0:
136,224,64202,1,0,0:0:0:0:
176,232,64474,1,0,0:0:0:0:
344,224,65019,1,0,0:0:0:0:
360,320,65564,5,0,0:0:0:0:
160,256,66109,1,0,0:0:0:0:
128,224,66381,1,0,0:0:0:0:
112,184,66654,1,0,0:0:0:0:
304,80,67198,1,0,0:0:0:0:
208,264,67743,1,0,0:0:0:0:
160,280,68016,1,0,0:0:0:0:
120,264,68288,1,0,0:0:0:0:
160,152,68833,21,0,0:0:0:0:
208,160,69105,1,0,0:0:0:0:
264,168,69378,1,0,0:0:0:0:
368,224,69923,1,0,0:0:0:0:
72,80,70468,1,0,0:0:0:0:
120,80,70740,1,0,0:0:0:0:
160,80,71012,1,0,0:0:0:0:
280,296,71557,1,0,0:0:0:0:
160,208,72102,1,0,0:0:0:0:
272,320,72919,37,0,0:0:0:0:
304,320,73056,1,0,0:0:0:0:
336,320,73192,1,0,0:0:0:0:
360,320,73328,1,0,0:0:0:0:
384,320,73464,1,0,0:0:0:0:
416,320,73601,1,0,0:0:0:0:
448,320,73737,1,0,0:0:0:0:
488,320,73873,1,4,0:0:0:0:
256,192,74418,12,0,75917,0:0:0:0:
