osu file format v14

[General]
AudioFilename: audio.mp3
AudioLeadIn: 0
PreviewTime: -1
Countdown: 1
SampleSet: Soft
StackLeniency: 0.7
Mode: 0
LetterboxInBreaks: 0
WidescreenStoryboard: 0

[Editor]
DistanceSpacing: 3
BeatDivisor: 2
GridSize: 8
TimelineZoom: 1

[Metadata]
Title:Atlantis
TitleUnicode:Atlantis
Artist:Grant Kirkhope
ArtistUnicode:Grant Kirkhope
Creator:RyokaTx
Version:Hard
Source:Banjo Tooie
Tags:Banjo Tooie, Grant Kirkhope, Atlantis, Nintendo, Rare
BeatmapID:950130
BeatmapSetID:441727

[Difficulty]
HPDrainRate:5
CircleSize:4
OverallDifficulty:6
ApproachRate:6
SliderMultiplier:1.4
SliderTickRate:1

[Events]
//Background and Video events
0,0,"410702-banjo_tooie__u___snap0072.jpg",0,0
//Break Periods
//Storyboard Layer 0 (Background)
//Storyboard Layer 1 (Fail)
//Storyboard Layer 2 (Pass)
//Storyboard Layer 3 (Foreground)
//Storyboard Sound Samples

[TimingPoints]
130,545.454545454546,4,2,0,100,1,0

[HitObjects]
232,176,8857,5,0,0:0:0:0:
232,176,9130,1,0,0:0:0:0:
232,176,9402,1,0,0:0:0:0:
232,176,9675,1,0,0:0:0:0:
360,128,11039,1,0,0:0:0:0:
360,128,11311,1,0,0:0:0:0:
360,128,11584,1,0,0:0:0:0:
360,128,11857,1,0,0:0:0:0:
224,88,13220,5,0,0:0:0:0:
224,88,13493,1,0,0:0:0:0:
224,88,13766,1,0,0:0:0:0:
224,88,14039,1,0,0:0:0:0:
296,216,15402,1,0,0:0:0:0:
296,216,15675,1,0,0:0:0:0:
296,216,15948,1,0,0:0:0:0:
296,216,16220,1,0,0:0:0:0:
440,176,17584,5,0,0:0:0:0:
440,176,17857,1,0,0:0:0:0:
440,176,18130,1,0,0:0:0:0:
440,176,18402,1,0,0:0:0:0:
312,296,19766,1,0,0:0:0:0:
320,304,20039,1,0,0:0:0:0:
320,304,20311,1,0,0:0:0:0:
320,304,20584,1,0,0:0:0:0:
64,168,21948,6,0,L|360:168,2,280
200,48,24675,2,0,P|168:288|264:280,2,420
312,184,28493,5,0,0:0:0:0:
360,168,28766,1,0,0:0:0:0:
312,128,29039,1,0,0:0:0:0:
240,216,29311,1,0,0:0:0:0:
256,192,30675,12,0,32857,0:0:0:0:
232,176,35039,5,0,0:0:0:0:
232,176,35311,1,0,0:0:0:0:
232,176,35584,1,0,0:0:0:0:
232,176,35857,1,0,0:0:0:0:
232,176,38311,1,0,0:0:0:0:
232,176,38857,1,0,0:0:0:0:
232,176,39402,1,0,0:0:0:0:
232,176,40220,1,0,0:0:0:0:
232,176,40493,1,0,0:0:0:0:
320,192,41039,1,0,0:0:0:0:
184,232,41584,1,0,0:0:0:0:
88,160,42130,2,0,L|368:168,1,280
192,176,43766,5,0,0:0:0:0:
192,176,45948,1,0,0:0:0:0:
232,224,46220,1,0,0:0:0:0:
328,232,46493,1,0,0:0:0:0:
408,136,46766,1,0,0:0:0:0:
288,96,48130,1,0,0:0:0:0:
160,104,48948,1,0,0:0:0:0:
376,128,49220,1,0,0:0:0:0:
160,224,49766,5,0,0:0:0:0:
312,184,50311,1,0,0:0:0:0:
224,256,51402,1,0,0:0:0:0:
272,160,52493,1,0,0:0:0:0:
184,168,53584,1,0,0:0:0:0:
176,248,54675,5,8,0:0:0:0:
280,280,55220,1,8,0:0:0:0:
424,168,56311,1,0,0:0:0:0:
248,64,56857,1,0,0:0:0:0:
112,200,57675,1,0,0:0:0:0:
120,248,57948,1,0,0:0:0:0:
488,176,58493,5,0,0:0:0:0:
160,232,59039,1,0,0:0:0:0:
128,192,59311,1,0,0:0:0:0:
96,144,59584,1,0,0:0:0:0:
328,248,60130,1,0,0:0:0:0:
296,280,60402,1,0,0:0:0:0:
264,296,60675,1,0,0:0:0:0:
152,216,61220,1,0,0:0:0:0:
368,176,62039,5,0,0:0:0:0:
408,200,62311,1,0,0:0:0:0:
408,312,62857,1,0,0:0:0:0:
272,336,63402,1,0,0:0:0:0:
160,264,63948,1,0,0:0:0:0:
136,224,64220,1,0,0:0:0:0:
120,184,64493,1,0,0:0:0:0:
344,224,65039,1,0,0:0:0:0:
432,112,65584,5,0,0:0:0:0:
192,328,66130,1,0,0:0:0:0:
152,312,66402,1,0,0:0:0:0:
136,272,66675,1,0,0:0:0:0:
240,96,67220,1,0,0:0:0:0:
200,280,67766,1,0,0:0:0:0:
160,280,68039,1,0,0:0:0:0:
128,272,68311,1,0,0:0:0:0:
200,200,68857,5,0,0:0:0:0:
200,200,69130,1,0,0:0:0:0:
200,200,69402,1,0,0:0:0:0:
368,224,69948,1,0,0:0:0:0:
176,120,70493,1,0,0:0:0:0:
208,120,70766,1,0,0:0:0:0:
224,96,71039,1,0,0:0:0:0:
280,296,71584,5,0,0:0:0:0:
280,296,72130,1,0,0:0:0:0:
216,216,72948,1,0,0:0:0:0:
240,216,73084,1,0,0:0:0:0:
272,216,73220,1,0,0:0:0:0:
304,216,73357,1,0,0:0:0:0:
328,216,73493,1,0,0:0:0:0:
352,216,73630,1,0,0:0:0:0:
376,216,73766,1,0,0:0:0:0:
408,216,74039,1,0,0:0:0:0:
256,192,74584,12,0,76084,0:0:0:0:
