osu file format v14

[General]
AudioFilename: audio.mp3
AudioLeadIn: 0
PreviewTime: 24122
Countdown: 0
SampleSet: Soft
StackLeniency: 0.7
Mode: 3
LetterboxInBreaks: 0
SpecialStyle: 0
WidescreenStoryboard: 1

[Editor]
Bookmarks: 124028,124215,124403,126278,127278,127465,128028,128215,131028
DistanceSpacing: 1
BeatDivisor: 4
GridSize: 4
TimelineZoom: 2.699999

[Metadata]
Title:Starship
TitleUnicode:Starship
Artist:Grant
ArtistUnicode:Grant
Creator:- Aries -
Version:Normal
Source:
Tags:future bass chill electronic instrumental monstercat uncaged
BeatmapID:1600962
BeatmapSetID:609900

[Difficulty]
HPDrainRate:7
CircleSize:4
OverallDifficulty:7
ApproachRate:5
SliderMultiplier:1.4
SliderTickRate:1

[Events]
//Background and Video events
0,0,"hanyijie_sky_scenery_ship_anime_art_104162_1920x1080.jpg",0,0
//Break Periods
//Storyboard Layer 0 (Background)
//Storyboard Layer 1 (Fail)
//Storyboard Layer 2 (Pass)
//Storyboard Layer 3 (Foreground)
//Storyboard Sound Samples
Sample,26184,0,"bass.wav",60
Sample,27684,0,"bass.wav",60
Sample,29184,0,"bass.wav",60
Sample,30684,0,"bass.wav",60
Sample,32184,0,"bass.wav",60
Sample,33684,0,"bass.wav",60
Sample,35184,0,"bass.wav",60
Sample,36684,0,"bass.wav",60
Sample,37247,0,"bass.wav",60
Sample,38184,0,"bass.wav",60
Sample,39684,0,"bass.wav",60
Sample,41184,0,"bass.wav",60
Sample,42684,0,"bass.wav",60
Sample,44184,0,"bass.wav",60
Sample,45684,0,"bass.wav",60
Sample,47184,0,"bass.wav",60
Sample,48684,0,"bass.wav",60
Sample,49247,0,"bass.wav",60
Sample,66497,0,"bass.wav",60
Sample,72497,0,"bass.wav",60
Sample,78497,0,"bass.wav",60
Sample,84497,0,"bass.wav",60
Sample,137184,0,"bass.wav",60
Sample,138309,0,"bass.wav",60
Sample,138684,0,"bass.wav",60
Sample,140184,0,"bass.wav",60
Sample,141309,0,"bass.wav",60
Sample,141684,0,"bass.wav",60
Sample,143184,0,"bass.wav",60
Sample,144684,0,"bass.wav",60
Sample,145247,0,"bass.wav",60
Sample,154247,0,"bass.wav",60

[TimingPoints]
1622,375,4,2,1,60,1,0
62372,-100,4,2,1,60,0,1
85622,-100,4,2,1,60,0,0
136622,-100,4,2,1,60,0,1
154622,-100,4,2,1,60,0,0
170372,-100,4,2,1,60,0,1
193622,-100,4,2,1,60,0,0

[HitObjects]
64,192,1622,5,0,0:0:0:0:
192,192,1809,1,0,0:0:0:0:
320,192,1997,1,0,0:0:0:0:
448,192,2184,1,0,0:0:0:0:
192,192,2372,1,0,0:0:0:0:
320,192,2559,1,0,0:0:0:0:
64,192,2747,1,0,0:0:0:0:
448,192,3122,1,0,0:0:0:0:
320,192,3309,1,0,0:0:0:0:
192,192,3497,1,0,0:0:0:0:
64,192,3684,1,0,0:0:0:0:
320,192,3872,1,0,0:0:0:0:
192,192,4059,1,0,0:0:0:0:
448,192,4247,1,0,0:0:0:0:
64,192,4622,1,0,0:0:0:0:
192,192,4809,1,0,0:0:0:0:
320,192,4997,1,0,0:0:0:0:
192,192,5184,1,0,0:0:0:0:
448,192,5372,1,0,0:0:0:0:
320,192,5559,1,0,0:0:0:0:
192,192,5747,1,0,0:0:0:0:
448,192,6122,1,0,0:0:0:0:
320,192,6309,1,0,0:0:0:0:
192,192,6497,1,0,0:0:0:0:
320,192,6684,1,0,0:0:0:0:
64,192,6872,1,0,0:0:0:0:
192,192,7059,1,0,0:0:0:0:
320,192,7247,1,0,0:0:0:0:
64,192,7622,1,0,0:0:0:0:
320,192,7809,1,0,0:0:0:0:
192,192,7997,1,0,0:0:0:0:
448,192,8184,1,0,0:0:0:0:
320,192,8372,1,0,0:0:0:0:
192,192,8559,1,0,0:0:0:0:
64,192,8747,1,0,0:0:0:0:
64,192,9122,1,0,0:0:0:0:
320,192,9309,1,0,0:0:0:0:
192,192,9497,1,0,0:0:0:0:
448,192,9684,1,0,0:0:0:0:
64,192,9872,1,0,0:0:0:0:
192,192,10059,1,0,0:0:0:0:
448,192,10247,1,0,0:0:0:0:
448,192,10622,1,0,0:0:0:0:
192,192,10809,1,0,0:0:0:0:
320,192,10997,1,0,0:0:0:0:
64,192,11184,1,0,0:0:0:0:
192,192,11372,1,0,0:0:0:0:
448,192,11559,1,0,0:0:0:0:
320,192,11747,1,0,0:0:0:0:
320,192,12122,1,0,0:0:0:0:
64,192,12309,1,0,0:0:0:0:
192,192,12497,1,0,0:0:0:0:
448,192,12684,1,0,0:0:0:0:
192,192,12872,1,0,0:0:0:0:
320,192,13059,128,0,13247:0:0:0:0:
64,192,13247,128,0,13434:0:0:0:0:
64,192,13622,1,0,0:0:0:60:bass.wav
320,192,13809,1,0,0:0:0:0:
192,192,13997,1,0,0:0:0:0:
448,192,14184,1,0,0:0:0:60:bass.wav
64,192,14372,1,0,0:0:0:0:
320,192,14559,1,0,0:0:0:0:
448,192,14747,1,0,0:0:0:60:bass.wav
192,192,14934,1,0,0:0:0:0:
64,192,15122,1,0,0:0:0:60:bass.wav
448,192,15309,1,0,0:0:0:0:
192,192,15497,1,0,0:0:0:0:
320,192,15684,1,0,0:0:0:60:bass.wav
64,192,15872,1,0,0:0:0:0:
448,192,16059,1,0,0:0:0:0:
320,192,16153,1,0,0:0:0:40:bass.wav
192,192,16247,1,0,0:0:0:60:bass.wav
64,192,16434,1,0,0:0:0:0:
320,192,16622,1,0,0:0:0:60:bass.wav
192,192,16809,1,0,0:0:0:0:
320,192,16997,1,0,0:0:0:0:
64,192,17184,1,0,0:0:0:60:bass.wav
448,192,17372,1,0,0:0:0:0:
192,192,17559,1,0,0:0:0:0:
320,192,17747,1,0,0:0:0:60:bass.wav
64,192,17934,1,0,0:0:0:0:
192,192,18122,1,0,0:0:0:60:bass.wav
448,192,18309,1,0,0:0:0:0:
64,192,18497,1,0,0:0:0:0:
320,192,18684,1,0,0:0:0:60:bass.wav
192,192,18872,1,0,0:0:0:0:
448,192,19059,1,0,0:0:0:0:
320,192,19247,1,0,0:0:0:60:bass.wav
64,192,19434,1,0,0:0:0:0:
448,192,19622,1,0,0:0:0:60:bass.wav
192,192,19809,1,0,0:0:0:0:
320,192,19997,1,0,0:0:0:0:
64,192,20184,1,0,0:0:0:60:bass.wav
448,192,20372,1,0,0:0:0:0:
192,192,20559,1,0,0:0:0:0:
320,192,20747,1,0,0:0:0:60:bass.wav
64,192,20934,1,0,0:0:0:0:
320,192,21122,1,0,0:0:0:60:bass.wav
192,192,21309,1,0,0:0:0:0:
448,192,21497,1,0,0:0:0:0:
64,192,21684,1,0,0:0:0:60:bass.wav
320,192,21872,1,0,0:0:0:0:
64,192,22059,1,0,0:0:0:0:
192,192,22153,1,0,0:0:0:40:bass.wav
320,192,22247,1,0,0:0:0:60:bass.wav
448,192,22434,1,0,0:0:0:0:
192,192,22622,1,0,0:0:0:60:bass.wav
448,192,22809,1,0,0:0:0:0:
64,192,22997,1,0,0:0:0:0:
320,192,23184,1,0,0:0:0:60:bass.wav
192,192,23372,1,0,0:0:0:0:
448,192,23559,1,0,0:0:0:0:
64,192,23747,1,0,0:0:0:60:bass.wav
320,192,23934,1,0,0:0:0:60:bass.wav
192,192,24028,1,0,0:0:0:40:bass.wav
64,192,24122,1,0,0:0:0:60:bass.wav
64,192,25622,1,0,0:0:0:60:bass.wav
448,192,25809,1,2,0:0:0:0:
320,192,25997,1,0,0:0:0:0:
448,192,26184,1,2,0:0:0:0:
192,192,26372,1,0,0:0:0:0:
320,192,26559,1,0,0:0:0:0:
64,192,26747,1,0,0:0:0:60:bass.wav
448,192,26934,1,0,0:0:0:0:
320,192,27122,1,0,0:0:0:60:bass.wav
64,192,27309,1,2,0:0:0:0:
448,192,27497,1,0,0:0:0:0:
192,192,27684,1,2,0:0:0:0:
320,192,27872,1,0,0:0:0:0:
64,192,28059,1,0,0:0:0:0:
448,192,28247,1,0,0:0:0:60:bass.wav
320,192,28434,1,2,0:0:0:0:
192,192,28528,1,2,0:0:0:0:
64,192,28622,1,0,0:0:0:60:bass.wav
192,192,28809,1,2,0:0:0:0:
448,192,28997,1,0,0:0:0:0:
320,192,29184,1,2,0:0:0:0:
64,192,29372,1,0,0:0:0:0:
192,192,29559,1,2,0:0:0:0:
448,192,29747,1,0,0:0:0:60:bass.wav
64,192,29934,1,0,0:0:0:0:
320,192,30122,1,0,0:0:0:60:bass.wav
64,192,30309,1,2,0:0:0:0:
448,192,30497,1,0,0:0:0:0:
192,192,30684,1,2,0:0:0:0:
448,192,30872,1,0,0:0:0:0:
64,192,31059,1,2,0:0:0:0:
320,192,31247,1,0,0:0:0:60:bass.wav
64,192,31434,1,2,0:0:0:0:
192,192,31528,1,2,0:0:0:0:
320,192,31622,1,0,0:0:0:60:bass.wav
448,192,31809,1,2,0:0:0:0:
64,192,31997,1,0,0:0:0:0:
320,192,32184,1,2,0:0:0:0:
64,192,32372,1,0,0:0:0:0:
192,192,32559,1,0,0:0:0:0:
448,192,32747,1,0,0:0:0:60:bass.wav
320,192,32934,1,0,0:0:0:0:
192,192,33122,1,0,0:0:0:60:bass.wav
448,192,33309,1,2,0:0:0:0:
320,192,33497,1,0,0:0:0:0:
64,192,33684,1,2,0:0:0:0:
448,192,33872,1,0,0:0:0:0:
320,192,34059,1,0,0:0:0:0:
192,192,34247,1,0,0:0:0:60:bass.wav
64,192,34434,1,2,0:0:0:0:
192,192,34528,1,2,0:0:0:0:
320,192,34622,1,0,0:0:0:60:bass.wav
448,192,34809,1,2,0:0:0:0:
64,192,34997,1,0,0:0:0:0:
320,192,35184,1,2,0:0:0:0:
64,192,35372,1,0,0:0:0:0:
192,192,35559,1,2,0:0:0:0:
448,192,35747,1,0,0:0:0:60:bass.wav
320,192,35934,1,0,0:0:0:0:
448,192,36122,1,0,0:0:0:60:bass.wav
192,192,36309,1,2,0:0:0:0:
320,192,36497,1,0,0:0:0:0:
64,192,36684,1,2,0:0:0:0:
192,192,36872,1,0,0:0:0:0:
320,192,37059,1,2,0:0:0:0:
64,192,37247,1,2,0:0:0:0:
64,192,37434,1,2,0:0:0:0:
448,192,37622,1,0,0:0:0:60:bass.wav
192,192,37809,1,2,0:0:0:0:
320,192,37997,1,0,0:0:0:0:
64,192,38184,1,2,0:0:0:0:
448,192,38372,1,0,0:0:0:0:
192,192,38559,1,0,0:0:0:0:
448,192,38747,1,0,0:0:0:60:bass.wav
64,192,38934,1,0,0:0:0:0:
192,192,39122,1,0,0:0:0:60:bass.wav
448,192,39309,1,2,0:0:0:0:
64,192,39497,1,0,0:0:0:0:
320,192,39684,1,2,0:0:0:0:
64,192,39872,1,0,0:0:0:0:
448,192,40059,1,0,0:0:0:0:
320,192,40247,1,0,0:0:0:60:bass.wav
192,192,40434,1,2,0:0:0:0:
320,192,40528,1,2,0:0:0:0:
448,192,40622,1,0,0:0:0:60:bass.wav
320,192,40809,1,2,0:0:0:0:
64,192,40997,1,0,0:0:0:0:
192,192,41184,1,2,0:0:0:0:
320,192,41372,1,0,0:0:0:0:
192,192,41559,1,2,0:0:0:0:
64,192,41747,1,0,0:0:0:60:bass.wav
448,192,41934,1,0,0:0:0:0:
192,192,42122,1,0,0:0:0:60:bass.wav
448,192,42309,1,2,0:0:0:0:
64,192,42497,1,0,0:0:0:0:
320,192,42684,1,2,0:0:0:0:
64,192,42872,1,0,0:0:0:0:
448,192,43059,1,2,0:0:0:0:
192,192,43247,1,0,0:0:0:60:bass.wav
448,192,43434,1,2,0:0:0:0:
320,192,43528,1,2,0:0:0:0:
192,192,43622,1,0,0:0:0:60:bass.wav
320,192,43809,1,2,0:0:0:0:
64,192,43997,1,0,0:0:0:0:
192,192,44184,1,2,0:0:0:0:
448,192,44372,1,0,0:0:0:0:
320,192,44559,1,0,0:0:0:0:
64,192,44747,1,0,0:0:0:60:bass.wav
192,192,44934,1,0,0:0:0:0:
320,192,45122,1,0,0:0:0:60:bass.wav
64,192,45309,1,2,0:0:0:0:
192,192,45497,1,0,0:0:0:0:
448,192,45684,1,2,0:0:0:0:
64,192,45872,1,0,0:0:0:0:
192,192,46059,1,0,0:0:0:0:
320,192,46247,1,0,0:0:0:60:bass.wav
448,192,46434,1,2,0:0:0:0:
320,192,46528,1,2,0:0:0:0:
192,192,46622,1,0,0:0:0:60:bass.wav
320,192,46809,1,2,0:0:0:0:
64,192,46997,1,0,0:0:0:0:
192,192,47184,1,2,0:0:0:0:
448,192,47372,1,0,0:0:0:0:
320,192,47559,1,2,0:0:0:0:
64,192,47747,1,0,0:0:0:60:bass.wav
192,192,47934,1,0,0:0:0:0:
64,192,48122,1,0,0:0:0:60:bass.wav
320,192,48309,1,2,0:0:0:0:
192,192,48497,1,0,0:0:0:0:
448,192,48684,1,2,0:0:0:0:
320,192,48872,1,0,0:0:0:0:
192,192,49059,1,2,0:0:0:0:
448,192,49247,1,2,0:0:0:0:
448,192,49434,1,2,0:0:0:0:
192,192,50372,1,0,0:0:0:0:
192,192,50747,1,0,0:0:0:0:
448,192,50934,128,0,51122:0:0:0:0:
64,192,51122,1,0,0:0:0:0:
320,192,51309,1,0,0:0:0:0:
192,192,51497,1,0,0:0:0:0:
64,192,51684,1,0,0:0:0:0:
448,192,51872,1,0,0:0:0:0:
320,192,51965,1,0,0:0:0:0:
192,192,52059,1,0,0:0:0:0:
64,192,52247,1,0,0:0:0:0:
448,192,52434,1,0,0:0:0:0:
192,192,52809,128,0,52997:0:0:0:0:
448,192,52997,1,0,0:0:0:0:
64,192,53090,1,0,0:0:0:0:
320,192,53278,1,0,0:0:0:0:
192,192,53372,1,0,0:0:0:0:
192,192,53747,1,0,0:0:0:0:
320,192,53934,128,0,54122:0:0:0:0:
64,192,54122,1,0,0:0:0:0:
448,192,54309,1,0,0:0:0:0:
320,192,54497,1,0,0:0:0:0:
192,192,54684,1,0,0:0:0:0:
64,192,54872,1,0,0:0:0:0:
192,192,54965,1,0,0:0:0:0:
320,192,55059,1,0,0:0:0:0:
448,192,55247,1,0,0:0:0:0:
192,192,55434,1,0,0:0:0:0:
320,192,56372,1,0,0:0:0:0:
320,192,56747,1,0,0:0:0:0:
64,192,56934,128,0,57122:0:0:0:0:
448,192,57122,1,0,0:0:0:0:
64,192,57309,1,0,0:0:0:0:
192,192,57497,1,0,0:0:0:0:
320,192,57684,1,0,0:0:0:0:
448,192,57872,1,0,0:0:0:0:
320,192,57965,1,0,0:0:0:0:
192,192,58059,1,0,0:0:0:0:
64,192,58247,1,0,0:0:0:0:
320,192,58434,1,0,0:0:0:0:
320,192,58809,128,0,58997:0:0:0:0:
64,192,58997,1,0,0:0:0:0:
448,192,59090,1,0,0:0:0:0:
320,192,59278,1,0,0:0:0:0:
192,192,59372,1,0,0:0:0:0:
320,192,59747,1,0,0:0:0:0:
64,192,59934,128,0,60122:0:0:0:0:
448,192,60122,1,0,0:0:0:0:
192,192,60309,1,0,0:0:0:0:
320,192,60497,1,0,0:0:0:0:
192,192,60684,1,0,0:0:0:0:
448,192,60872,1,0,0:0:0:0:
320,192,60965,1,0,0:0:0:0:
192,192,61059,1,0,0:0:0:0:
64,192,61247,1,0,0:0:0:0:
448,192,61622,128,0,62372:0:0:0:60:bass.wav
192,192,62372,1,8,0:0:0:0:
320,192,62747,1,0,0:0:0:60:bass.wav
64,192,62934,1,0,0:0:0:0:
448,192,63122,1,0,0:0:0:0:
320,192,63215,1,0,0:0:0:0:
192,192,63309,1,0,0:0:0:0:
64,192,63497,1,0,0:0:0:60:bass.wav
448,192,63684,1,0,0:0:0:0:
320,192,63872,1,8,0:0:0:0:
192,192,64247,1,0,0:0:0:0:
448,192,64434,1,2,0:0:0:0:
320,192,64622,1,0,0:0:0:60:bass.wav
192,192,64715,1,0,0:0:0:0:
64,192,64809,1,0,0:0:0:0:
448,192,64997,1,0,0:0:0:0:
192,192,65184,1,0,0:0:0:0:
320,192,65372,1,8,0:0:0:0:
448,192,65747,1,0,0:0:0:60:bass.wav
192,192,65934,128,0,66122:0:0:0:0:
320,192,66122,1,0,0:0:0:0:
64,192,66309,1,0,0:0:0:60:bass.wav
448,192,66497,1,8,0:0:0:0:
192,192,66684,1,0,0:0:0:0:
448,192,66872,1,8,0:0:0:0:
320,192,66965,1,0,0:0:0:0:
192,192,67059,1,0,0:0:0:60:bass.wav
64,192,67247,1,0,0:0:0:0:
320,192,67434,1,0,0:0:0:0:
64,192,67622,128,0,68372:0:0:0:60:bass.wav
448,192,68184,1,0,0:0:0:60:bass.wav
320,192,68372,1,8,0:0:0:0:
448,192,68747,1,0,0:0:0:60:bass.wav
192,192,68934,1,0,0:0:0:0:
448,192,69122,1,0,0:0:0:0:
320,192,69215,1,0,0:0:0:0:
192,192,69309,1,0,0:0:0:0:
64,192,69497,1,0,0:0:0:60:bass.wav
448,192,69684,1,0,0:0:0:0:
192,192,69872,1,8,0:0:0:0:
320,192,70247,1,0,0:0:0:0:
64,192,70434,1,2,0:0:0:0:
192,192,70622,1,0,0:0:0:60:bass.wav
320,192,70715,1,0,0:0:0:0:
448,192,70809,1,0,0:0:0:0:
192,192,70997,1,0,0:0:0:0:
64,192,71184,1,0,0:0:0:0:
320,192,71372,1,8,0:0:0:0:
64,192,71747,1,0,0:0:0:60:bass.wav
320,192,71934,128,0,72122:0:0:0:0:
192,192,72122,1,0,0:0:0:0:
448,192,72309,1,0,0:0:0:60:bass.wav
64,192,72497,1,8,0:0:0:0:
320,192,72684,1,0,0:0:0:0:
64,192,72872,1,8,0:0:0:0:
192,192,72965,1,0,0:0:0:0:
320,192,73059,1,0,0:0:0:60:bass.wav
448,192,73247,1,0,0:0:0:0:
192,192,73434,1,0,0:0:0:0:
64,192,73622,128,0,73903:0:0:0:0:
192,192,73903,128,0,74184:0:0:0:0:
320,192,74184,128,0,74372:0:0:0:0:
448,192,74372,1,0,0:0:0:60:bass.wav
192,192,74747,1,0,0:0:0:60:bass.wav
64,192,75122,1,0,0:0:0:0:
192,192,75215,1,0,0:0:0:0:
320,192,75309,1,0,0:0:0:0:
448,192,75497,1,0,0:0:0:60:bass.wav
64,192,75684,1,0,0:0:0:0:
320,192,75872,1,8,0:0:0:0:
192,192,76247,1,0,0:0:0:0:
448,192,76434,1,2,0:0:0:0:
320,192,76622,1,0,0:0:0:60:bass.wav
192,192,76715,1,0,0:0:0:0:
64,192,76809,1,0,0:0:0:0:
448,192,76997,1,0,0:0:0:0:
192,192,77184,1,0,0:0:0:0:
320,192,77372,1,8,0:0:0:0:
64,192,77747,1,0,0:0:0:60:bass.wav
320,192,77934,128,0,78122:0:0:0:0:
192,192,78122,1,0,0:0:0:0:
448,192,78309,1,0,0:0:0:60:bass.wav
64,192,78497,1,8,0:0:0:0:
320,192,78684,1,0,0:0:0:0:
64,192,78872,1,8,0:0:0:0:
192,192,78965,1,0,0:0:0:0:
320,192,79059,1,0,0:0:0:60:bass.wav
448,192,79247,1,0,0:0:0:0:
192,192,79434,1,0,0:0:0:0:
320,192,79622,128,0,80372:0:0:0:60:bass.wav
192,192,80184,1,0,0:0:0:60:bass.wav
64,192,80372,1,8,0:0:0:0:
448,192,80747,1,0,0:0:0:60:bass.wav
64,192,81122,1,0,0:0:0:0:
192,192,81215,1,0,0:0:0:0:
320,192,81309,1,0,0:0:0:0:
448,192,81497,1,0,0:0:0:60:bass.wav
64,192,81684,1,0,0:0:0:0:
320,192,81872,1,8,0:0:0:0:
448,192,82247,1,0,0:0:0:0:
64,192,82434,1,2,0:0:0:0:
192,192,82622,1,0,0:0:0:60:bass.wav
320,192,82715,1,0,0:0:0:0:
448,192,82809,1,0,0:0:0:0:
64,192,82997,1,0,0:0:0:0:
448,192,83184,1,0,0:0:0:0:
320,192,83372,1,8,0:0:0:0:
64,192,83747,1,0,0:0:0:60:bass.wav
192,192,83934,128,0,84122:0:0:0:0:
320,192,84122,1,0,0:0:0:0:
448,192,84309,1,0,0:0:0:60:bass.wav
64,192,84497,1,8,0:0:0:0:
320,192,84684,1,0,0:0:0:0:
64,192,84872,1,8,0:0:0:0:
192,192,84965,1,0,0:0:0:0:
320,192,85059,1,0,0:0:0:60:bass.wav
448,192,85247,1,0,0:0:0:0:
192,192,85434,1,0,0:0:0:0:
320,192,85622,128,0,86372:0:0:0:0:
64,192,86372,1,8,0:0:0:0:
448,192,86372,1,0,0:0:0:60:bass.wav
192,192,86559,1,0,0:0:0:0:
320,192,86747,1,0,0:0:0:60:bass.wav
64,192,86934,1,0,0:0:0:0:
448,192,87122,1,0,0:0:0:0:
320,192,87309,1,0,0:0:0:0:
192,192,87497,1,0,0:0:0:60:bass.wav
320,192,87684,1,0,0:0:0:0:
64,192,87872,1,8,0:0:0:0:
448,192,87872,1,0,0:0:0:0:
192,192,88059,1,0,0:0:0:60:bass.wav
448,192,88247,1,0,0:0:0:0:
192,192,88434,1,0,0:0:0:0:
320,192,88622,1,0,0:0:0:60:bass.wav
64,192,88809,1,0,0:0:0:0:
320,192,88997,1,0,0:0:0:0:
192,192,89184,1,0,0:0:0:0:
64,192,89372,1,8,0:0:0:0:
448,192,89372,1,0,0:0:0:0:
320,192,89559,1,0,0:0:0:0:
192,192,89747,1,0,0:0:0:60:bass.wav
448,192,89934,1,0,0:0:0:0:
192,192,90122,1,0,0:0:0:0:
64,192,90309,1,8,0:0:0:0:
448,192,90309,1,0,0:0:0:0:
320,192,90497,1,0,0:0:0:60:bass.wav
192,192,90684,1,0,0:0:0:0:
64,192,90872,1,8,0:0:0:0:
448,192,90872,1,0,0:0:0:0:
192,192,91059,1,0,0:0:0:60:bass.wav
448,192,91247,1,0,0:0:0:0:
320,192,91434,1,0,0:0:0:0:
192,192,91622,128,0,92372:0:0:0:60:bass.wav
64,192,92372,1,8,0:0:0:0:
448,192,92372,1,0,0:0:0:0:
320,192,92559,1,0,0:0:0:0:
64,192,92747,1,0,0:0:0:60:bass.wav
448,192,92934,1,0,0:0:0:0:
192,192,93122,1,0,0:0:0:0:
64,192,93309,1,0,0:0:0:0:
320,192,93497,1,0,0:0:0:60:bass.wav
192,192,93684,1,0,0:0:0:0:
64,192,93872,1,8,0:0:0:0:
448,192,93872,1,0,0:0:0:0:
320,192,94059,1,0,0:0:0:60:bass.wav
64,192,94247,1,0,0:0:0:0:
192,192,94434,1,0,0:0:0:0:
320,192,94622,1,0,0:0:0:60:bass.wav
64,192,94809,1,0,0:0:0:0:
448,192,94997,1,0,0:0:0:0:
192,192,95184,1,0,0:0:0:0:
64,192,95372,1,8,0:0:0:0:
448,192,95372,1,0,0:0:0:0:
320,192,95559,1,0,0:0:0:0:
192,192,95747,1,0,0:0:0:60:bass.wav
448,192,95934,1,0,0:0:0:0:
192,192,96122,1,0,0:0:0:0:
64,192,96309,1,0,0:0:0:60:bass.wav
448,192,96497,1,0,0:0:0:60:bass.wav
192,192,96684,1,0,0:0:0:0:
64,192,96872,1,8,0:0:0:0:
448,192,96872,1,0,0:0:0:0:
320,192,97059,1,0,0:0:0:60:bass.wav
192,192,97247,1,0,0:0:0:0:
448,192,97434,1,0,0:0:0:0:
64,192,97622,1,0,0:0:0:60:bass.wav
448,192,97809,1,0,0:0:0:0:
320,192,97903,1,0,0:0:0:0:
192,192,97997,1,0,0:0:0:0:
64,192,98184,1,0,0:0:0:60:bass.wav
320,192,98372,1,0,0:0:0:0:
448,192,98559,1,0,0:0:0:0:
64,192,98747,1,0,0:0:0:60:bass.wav
448,192,99122,1,0,0:0:0:60:bass.wav
64,192,99309,1,0,0:0:0:0:
192,192,99403,1,0,0:0:0:0:
320,192,99497,1,0,0:0:0:0:
448,192,99684,1,0,0:0:0:60:bass.wav
192,192,99872,1,0,0:0:0:0:
64,192,100059,1,0,0:0:0:0:
448,192,100247,1,0,0:0:0:60:bass.wav
320,192,100622,1,0,0:0:0:60:bass.wav
448,192,100809,1,0,0:0:0:0:
192,192,100903,1,0,0:0:0:0:
64,192,100997,1,0,0:0:0:0:
320,192,101184,1,0,0:0:0:60:bass.wav
64,192,101372,1,0,0:0:0:0:
448,192,101559,1,0,0:0:0:0:
320,192,101747,1,0,0:0:0:60:bass.wav
192,192,102122,1,0,0:0:0:60:bass.wav
64,192,102309,1,0,0:0:0:0:
320,192,102403,1,0,0:0:0:0:
448,192,102497,1,0,0:0:0:0:
192,192,102684,1,0,0:0:0:60:bass.wav
64,192,102872,1,0,0:0:0:0:
448,192,103059,1,0,0:0:0:0:
192,192,103247,1,0,0:0:0:60:bass.wav
448,192,103622,1,0,0:0:0:60:bass.wav
64,192,103809,1,0,0:0:0:0:
192,192,103903,1,0,0:0:0:0:
320,192,103997,1,0,0:0:0:0:
448,192,104184,1,0,0:0:0:60:bass.wav
192,192,104372,1,0,0:0:0:0:
64,192,104559,1,0,0:0:0:0:
448,192,104747,1,0,0:0:0:60:bass.wav
64,192,105122,1,0,0:0:0:60:bass.wav
448,192,105309,1,0,0:0:0:0:
320,192,105403,1,0,0:0:0:0:
192,192,105497,1,0,0:0:0:0:
64,192,105684,1,0,0:0:0:60:bass.wav
320,192,105872,1,0,0:0:0:0:
448,192,106059,1,0,0:0:0:0:
64,192,106247,1,0,0:0:0:60:bass.wav
192,192,106622,1,0,0:0:0:60:bass.wav
64,192,106809,1,0,0:0:0:0:
320,192,106903,1,0,0:0:0:0:
448,192,106997,1,0,0:0:0:0:
192,192,107184,1,0,0:0:0:60:bass.wav
64,192,107372,1,0,0:0:0:0:
448,192,107559,1,0,0:0:0:0:
192,192,107747,1,0,0:0:0:60:bass.wav
320,192,108122,1,0,0:0:0:60:bass.wav
448,192,108309,1,0,0:0:0:0:
192,192,108403,1,0,0:0:0:0:
64,192,108497,1,0,0:0:0:0:
448,192,108684,1,0,0:0:0:0:
192,192,108872,1,0,0:0:0:0:
320,192,109059,1,0,0:0:0:0:
64,192,109247,1,0,0:0:0:0:
192,192,109622,1,0,0:0:0:0:
448,192,109809,1,0,0:0:0:0:
64,192,109997,1,0,0:0:0:0:
320,192,110184,1,0,0:0:0:0:
192,192,110372,1,0,0:0:0:0:
64,192,110559,1,0,0:0:0:0:
448,192,110747,1,0,0:0:0:0:
192,192,111122,1,0,0:0:0:0:
448,192,111309,1,0,0:0:0:0:
64,192,111497,1,0,0:0:0:0:
320,192,111684,1,0,0:0:0:0:
192,192,111872,1,0,0:0:0:0:
64,192,112059,1,0,0:0:0:0:
448,192,112247,1,0,0:0:0:0:
192,192,112622,1,0,0:0:0:0:
448,192,112809,1,0,0:0:0:0:
64,192,112997,1,0,0:0:0:0:
320,192,113184,1,0,0:0:0:0:
192,192,113372,1,0,0:0:0:0:
64,192,113559,1,0,0:0:0:0:
448,192,113747,1,0,0:0:0:0:
192,192,114122,1,0,0:0:0:0:
448,192,114309,1,0,0:0:0:0:
64,192,114497,1,0,0:0:0:0:
320,192,114684,1,0,0:0:0:0:
192,192,114872,1,0,0:0:0:0:
64,192,115059,1,0,0:0:0:0:
448,192,115247,1,0,0:0:0:0:
64,192,115622,1,0,0:0:0:0:
320,192,115809,1,0,0:0:0:0:
192,192,115997,1,0,0:0:0:0:
448,192,116184,1,0,0:0:0:0:
320,192,116372,1,0,0:0:0:0:
192,192,116559,1,0,0:0:0:0:
64,192,116747,1,0,0:0:0:0:
64,192,117122,1,0,0:0:0:0:
320,192,117309,1,0,0:0:0:0:
192,192,117497,1,0,0:0:0:0:
448,192,117684,1,0,0:0:0:0:
320,192,117872,1,0,0:0:0:0:
192,192,118059,1,0,0:0:0:0:
64,192,118247,1,0,0:0:0:0:
320,192,118622,1,0,0:0:0:0:
192,192,118809,1,0,0:0:0:0:
448,192,118997,1,0,0:0:0:0:
64,192,119184,1,0,0:0:0:0:
192,192,119372,1,0,0:0:0:0:
448,192,119559,1,0,0:0:0:0:
320,192,119747,1,0,0:0:0:0:
64,192,120122,128,0,120309:0:0:0:0:
192,192,120309,128,0,120497:0:0:0:0:
320,192,120497,128,0,120684:0:0:0:0:
448,192,120684,128,0,120872:0:0:0:0:
64,192,120872,128,0,121059:0:0:0:0:
192,192,121059,128,0,121247:0:0:0:0:
320,192,121247,128,0,121622:0:0:0:0:
448,192,121715,1,0,0:0:0:0:
64,192,122028,1,0,0:0:0:0:
320,192,122372,1,0,0:0:0:0:
448,192,122559,1,0,0:0:0:0:
192,192,122747,1,0,0:0:0:0:
64,192,122934,1,0,0:0:0:0:
448,192,123309,1,0,0:0:0:0:
192,192,123684,1,0,0:0:0:0:
448,192,124028,1,0,0:0:0:0:
64,192,124215,1,0,0:0:0:0:
320,192,124434,1,0,0:0:0:0:
448,192,124997,1,0,0:0:0:0:
192,192,125372,1,0,0:0:0:0:
64,192,125747,1,0,0:0:0:0:
448,192,126122,1,0,0:0:0:0:
320,192,126278,1,0,0:0:0:0:
64,192,126497,1,0,0:0:0:0:
192,192,126684,1,0,0:0:0:0:
448,192,127278,1,0,0:0:0:0:
320,192,127465,1,0,0:0:0:0:
64,192,128059,1,0,0:0:0:0:
192,192,128247,1,0,0:0:0:0:
448,192,129497,1,0,0:0:0:0:
320,192,129684,1,0,0:0:0:0:
192,192,129872,1,0,0:0:0:0:
64,192,130247,1,0,0:0:0:0:
448,192,130622,1,0,0:0:0:0:
320,192,131028,1,0,0:0:0:0:
192,192,131184,1,0,0:0:0:0:
64,192,132872,1,0,0:0:0:0:
192,192,133059,1,0,0:0:0:0:
320,192,133247,1,0,0:0:0:0:
448,192,133434,1,0,0:0:0:0:
64,192,133622,128,0,134372:0:0:0:0:
192,192,134372,128,0,135122:0:0:0:0:
448,192,134559,1,0,0:0:0:0:
320,192,134747,1,0,0:0:0:0:
320,192,135122,128,0,135872:0:0:0:0:
64,192,135309,1,0,0:0:0:0:
448,192,135872,128,0,136622:0:0:0:0:
192,192,136340,1,0,0:0:0:0:
320,192,136434,1,0,0:0:0:0:
64,192,136622,1,0,0:0:0:60:bass.wav
192,192,136809,1,2,0:0:0:0:
448,192,136997,1,0,0:0:0:0:
320,192,137184,1,2,0:0:0:0:
192,192,137372,1,0,0:0:0:0:
320,192,137559,1,2,0:0:0:0:
448,192,137747,1,0,0:0:0:60:bass.wav
64,192,137934,1,0,0:0:0:0:
320,192,138122,1,0,0:0:0:0:
64,192,138309,1,2,0:0:0:0:
448,192,138497,1,0,0:0:0:0:
192,192,138684,1,2,0:0:0:0:
448,192,138872,1,0,0:0:0:0:
64,192,139059,1,2,0:0:0:0:
320,192,139247,1,0,0:0:0:60:bass.wav
64,192,139434,1,2,0:0:0:0:
192,192,139528,1,2,0:0:0:0:
320,192,139622,1,0,0:0:0:60:bass.wav
448,192,139809,1,2,0:0:0:0:
64,192,139997,1,0,0:0:0:0:
320,192,140184,1,2,0:0:0:0:
64,192,140372,1,0,0:0:0:0:
192,192,140559,1,2,0:0:0:0:
448,192,140747,1,0,0:0:0:60:bass.wav
320,192,140934,1,0,0:0:0:0:
192,192,141122,1,0,0:0:0:0:
448,192,141309,1,2,0:0:0:0:
320,192,141497,1,0,0:0:0:0:
64,192,141684,1,2,0:0:0:0:
448,192,141872,1,0,0:0:0:0:
320,192,142059,1,2,0:0:0:0:
192,192,142247,1,0,0:0:0:60:bass.wav
64,192,142434,1,2,0:0:0:0:
192,192,142528,1,2,0:0:0:0:
320,192,142622,1,0,0:0:0:60:bass.wav
192,192,142809,1,2,0:0:0:0:
448,192,142997,1,0,0:0:0:0:
64,192,143184,1,2,0:0:0:0:
320,192,143372,1,0,0:0:0:0:
192,192,143559,1,2,0:0:0:0:
448,192,143747,1,0,0:0:0:60:bass.wav
64,192,143934,1,0,0:0:0:0:
320,192,144122,1,0,0:0:0:60:bass.wav
192,192,144309,1,2,0:0:0:0:
320,192,144497,1,0,0:0:0:0:
64,192,144684,1,2,0:0:0:0:
448,192,144872,1,0,0:0:0:0:
320,192,145059,1,2,0:0:0:0:
64,192,145247,1,2,0:0:0:0:
64,192,145434,1,2,0:0:0:0:
320,192,145622,1,0,0:0:0:60:bass.wav
448,192,145622,1,0,0:0:0:0:
192,192,145809,1,2,0:0:0:0:
448,192,145997,1,0,0:0:0:0:
64,192,146184,1,2,0:0:0:0:
192,192,146184,1,0,0:0:0:60:bass.wav
320,192,146372,1,0,0:0:0:0:
64,192,146559,1,2,0:0:0:0:
320,192,146747,1,0,0:0:0:60:bass.wav
448,192,146747,1,0,0:0:0:0:
192,192,146934,1,0,0:0:0:0:
64,192,147122,1,2,0:0:0:0:
320,192,147309,1,0,0:0:0:60:bass.wav
448,192,147497,1,0,0:0:0:0:
64,192,147684,1,0,0:0:0:60:bass.wav
192,192,147684,1,0,0:0:0:0:
320,192,147872,1,0,0:0:0:0:
64,192,148059,1,2,0:0:0:0:
320,192,148247,1,0,0:0:0:60:bass.wav
448,192,148247,1,0,0:0:0:0:
64,192,148434,1,2,0:0:0:0:
192,192,148528,1,2,0:0:0:0:
320,192,148622,1,0,0:0:0:60:bass.wav
448,192,148622,1,0,0:0:0:0:
64,192,148809,1,2,0:0:0:0:
320,192,148997,1,0,0:0:0:0:
64,192,149184,1,2,0:0:0:0:
192,192,149184,1,0,0:0:0:60:bass.wav
448,192,149372,1,0,0:0:0:0:
192,192,149559,1,2,0:0:0:0:
320,192,149747,1,0,0:0:0:60:bass.wav
448,192,149747,1,0,0:0:0:0:
192,192,149934,1,0,0:0:0:0:
64,192,150122,1,2,0:0:0:0:
320,192,150309,1,0,0:0:0:60:bass.wav
448,192,150497,1,0,0:0:0:0:
64,192,150684,1,0,0:0:0:60:bass.wav
192,192,150684,1,0,0:0:0:0:
320,192,150872,1,0,0:0:0:0:
64,192,151059,1,2,0:0:0:0:
320,192,151247,1,0,0:0:0:60:bass.wav
448,192,151247,1,0,0:0:0:0:
64,192,151434,1,2,0:0:0:0:
192,192,151528,1,2,0:0:0:0:
320,192,151622,1,0,0:0:0:60:bass.wav
448,192,151622,1,0,0:0:0:0:
64,192,151809,1,2,0:0:0:0:
320,192,151997,1,0,0:0:0:0:
64,192,152184,1,2,0:0:0:0:
192,192,152184,1,0,0:0:0:60:bass.wav
448,192,152372,1,0,0:0:0:0:
192,192,152559,1,2,0:0:0:0:
320,192,152747,1,0,0:0:0:60:bass.wav
448,192,152747,1,0,0:0:0:0:
192,192,152934,1,0,0:0:0:0:
64,192,153122,1,0,0:0:0:60:bass.wav
448,192,153122,1,0,0:0:0:0:
320,192,153309,1,2,0:0:0:0:
448,192,153497,1,0,0:0:0:0:
64,192,153684,1,2,0:0:0:0:
192,192,153684,1,0,0:0:0:60:bass.wav
448,192,153872,1,0,0:0:0:0:
320,192,154059,1,2,0:0:0:0:
192,192,154247,1,2,0:0:0:0:
192,192,154434,1,2,0:0:0:0:
448,192,154622,128,0,156122:0:0:0:0:
64,192,156122,1,0,0:0:0:0:
192,192,156309,1,0,0:0:0:0:
320,192,156497,1,0,0:0:0:0:
192,192,156684,1,0,0:0:0:0:
448,192,156872,1,0,0:0:0:0:
320,192,156997,1,0,0:0:0:0:
192,192,157122,1,0,0:0:0:0:
64,192,157247,1,0,0:0:0:0:
448,192,157622,128,0,158372:0:0:0:60:bass.wav
320,192,158372,1,8,0:0:0:0:
64,192,158747,1,0,0:0:0:60:bass.wav
320,192,158934,1,0,0:0:0:0:
192,192,159122,1,0,0:0:0:0:
192,192,159309,1,0,0:0:0:0:
448,192,159497,1,0,0:0:0:60:bass.wav
192,192,159684,1,0,0:0:0:0:
320,192,159872,1,8,0:0:0:0:
448,192,160247,1,0,0:0:0:0:
192,192,160434,1,0,0:0:0:0:
64,192,160622,1,0,0:0:0:60:bass.wav
64,192,160809,1,0,0:0:0:0:
320,192,160997,1,0,0:0:0:0:
192,192,161184,1,0,0:0:0:0:
448,192,161372,1,8,0:0:0:0:
320,192,161747,1,0,0:0:0:60:bass.wav
64,192,161934,1,0,0:0:0:0:
192,192,162122,1,0,0:0:0:0:
320,192,162309,1,0,0:0:0:60:bass.wav
320,192,162497,1,0,0:0:0:60:bass.wav
448,192,162684,1,0,0:0:0:0:
64,192,162872,1,8,0:0:0:0:
320,192,163059,1,0,0:0:0:60:bass.wav
192,192,163247,128,0,163622:0:0:0:0:
448,192,163622,128,0,164184:0:0:0:60:bass.wav
320,192,164184,1,0,0:0:0:60:bass.wav
192,192,164372,1,8,0:0:0:0:
320,192,164747,1,0,0:0:0:60:bass.wav
64,192,164934,1,0,0:0:0:0:
320,192,165122,1,0,0:0:0:0:
320,192,165309,1,0,0:0:0:0:
192,192,165497,1,0,0:0:0:60:bass.wav
448,192,165684,1,0,0:0:0:0:
64,192,165872,1,8,0:0:0:0:
192,192,166247,1,0,0:0:0:0:
320,192,166434,1,0,0:0:0:0:
448,192,166622,1,0,0:0:0:60:bass.wav
448,192,166809,1,0,0:0:0:0:
192,192,166997,1,0,0:0:0:0:
320,192,167184,1,0,0:0:0:0:
64,192,167372,1,8,0:0:0:0:
448,192,167747,1,0,0:0:0:60:bass.wav
64,192,167934,1,0,0:0:0:0:
320,192,168122,1,0,0:0:0:0:
192,192,168309,1,0,0:0:0:60:bass.wav
192,192,168497,1,0,0:0:0:60:bass.wav
448,192,168684,1,0,0:0:0:0:
64,192,168872,1,8,0:0:0:0:
192,192,169059,1,0,0:0:0:60:bass.wav
320,192,169247,128,0,169622:0:0:0:0:
448,192,169622,128,0,169903:0:0:0:0:
192,192,169903,128,0,170184:0:0:0:0:
320,192,170184,128,0,170372:0:0:0:0:
64,192,170372,1,8,0:0:0:0:
192,192,170372,1,0,0:0:0:60:bass.wav
320,192,170747,1,0,0:0:0:60:bass.wav
448,192,170747,1,0,0:0:0:0:
320,192,171122,1,0,0:0:0:0:
192,192,171215,1,0,0:0:0:0:
320,192,171309,1,0,0:0:0:0:
64,192,171497,1,0,0:0:0:60:bass.wav
192,192,171497,1,0,0:0:0:0:
320,192,171684,1,0,0:0:0:0:
64,192,171872,1,8,0:0:0:0:
448,192,171872,1,0,0:0:0:0:
192,192,172247,1,0,0:0:0:0:
448,192,172434,1,2,0:0:0:0:
192,192,172622,1,0,0:0:0:60:bass.wav
320,192,172715,1,0,0:0:0:0:
192,192,172809,1,0,0:0:0:0:
320,192,172997,1,0,0:0:0:0:
64,192,173184,1,0,0:0:0:0:
320,192,173372,1,8,0:0:0:0:
448,192,173372,1,0,0:0:0:0:
64,192,173747,1,0,0:0:0:60:bass.wav
192,192,173747,1,0,0:0:0:0:
448,192,173934,1,0,0:0:0:0:
192,192,174122,1,0,0:0:0:0:
320,192,174309,1,0,0:0:0:60:bass.wav
448,192,174309,1,0,0:0:0:0:
64,192,174497,1,8,0:0:0:0:
192,192,174497,1,0,0:0:0:60:bass.wav
320,192,174684,1,0,0:0:0:0:
64,192,174872,1,8,0:0:0:0:
192,192,174965,1,0,0:0:0:0:
320,192,175059,1,0,0:0:0:60:bass.wav
448,192,175247,1,0,0:0:0:0:
192,192,175434,1,0,0:0:0:0:
320,192,175622,1,0,0:0:0:60:bass.wav
448,192,175622,128,0,176184:0:0:0:0:
64,192,176184,1,0,0:0:0:60:bass.wav
192,192,176184,1,0,0:0:0:0:
320,192,176372,1,8,0:0:0:0:
448,192,176372,1,0,0:0:0:0:
64,192,176747,1,0,0:0:0:60:bass.wav
192,192,176747,1,0,0:0:0:0:
192,192,177122,1,0,0:0:0:0:
320,192,177215,1,0,0:0:0:0:
192,192,177309,1,0,0:0:0:0:
320,192,177497,1,0,0:0:0:60:bass.wav
448,192,177497,1,0,0:0:0:0:
192,192,177684,1,0,0:0:0:0:
64,192,177872,1,8,0:0:0:0:
448,192,177872,1,0,0:0:0:0:
320,192,178247,1,0,0:0:0:0:
64,192,178434,1,2,0:0:0:0:
320,192,178622,1,0,0:0:0:60:bass.wav
192,192,178715,1,0,0:0:0:0:
320,192,178809,1,0,0:0:0:0:
64,192,178997,1,0,0:0:0:0:
448,192,179184,1,0,0:0:0:0:
64,192,179372,1,8,0:0:0:0:
192,192,179372,1,0,0:0:0:0:
320,192,179747,1,0,0:0:0:60:bass.wav
448,192,179747,1,0,0:0:0:0:
64,192,179934,1,0,0:0:0:0:
320,192,180122,1,0,0:0:0:0:
64,192,180309,1,0,0:0:0:60:bass.wav
192,192,180309,1,0,0:0:0:0:
320,192,180497,1,8,0:0:0:0:
448,192,180497,1,0,0:0:0:60:bass.wav
64,192,180684,1,0,0:0:0:0:
448,192,180872,1,8,0:0:0:0:
320,192,180965,1,0,0:0:0:0:
192,192,181059,1,0,0:0:0:60:bass.wav
64,192,181247,1,0,0:0:0:0:
320,192,181434,1,0,0:0:0:0:
192,192,181622,128,0,182372:0:0:0:0:
64,192,182372,1,8,0:0:0:0:
448,192,182372,1,0,0:0:0:60:bass.wav
320,192,182559,1,0,0:0:0:0:
64,192,182747,1,0,0:0:0:60:bass.wav
192,192,182747,1,0,0:0:0:0:
448,192,182934,1,0,0:0:0:0:
320,192,183122,1,0,0:0:0:0:
64,192,183309,1,0,0:0:0:0:
320,192,183497,1,0,0:0:0:60:bass.wav
448,192,183497,1,0,0:0:0:0:
192,192,183684,1,0,0:0:0:0:
64,192,183872,1,8,0:0:0:0:
448,192,183872,1,0,0:0:0:0:
192,192,184059,1,0,0:0:0:60:bass.wav
320,192,184059,1,0,0:0:0:0:
448,192,184247,1,0,0:0:0:0:
320,192,184434,1,0,0:0:0:0:
64,192,184622,1,0,0:0:0:60:bass.wav
192,192,184622,1,0,0:0:0:0:
448,192,184809,1,0,0:0:0:0:
192,192,184997,1,0,0:0:0:0:
320,192,185184,1,0,0:0:0:0:
64,192,185372,1,8,0:0:0:0:
448,192,185372,1,0,0:0:0:0:
192,192,185559,1,0,0:0:0:0:
320,192,185747,1,0,0:0:0:60:bass.wav
448,192,185747,1,0,0:0:0:0:
64,192,185934,1,0,0:0:0:0:
320,192,186122,1,0,0:0:0:0:
64,192,186309,1,0,0:0:0:60:bass.wav
192,192,186309,1,0,0:0:0:0:
320,192,186497,1,0,0:0:0:60:bass.wav
448,192,186497,1,0,0:0:0:0:
64,192,186872,1,8,0:0:0:0:
448,192,186872,1,0,0:0:0:0:
192,192,187059,1,0,0:0:0:60:bass.wav
320,192,187059,1,0,0:0:0:0:
64,192,187247,1,0,0:0:0:0:
192,192,187434,1,0,0:0:0:0:
320,192,187622,128,0,188372:0:0:0:60:bass.wav
64,192,188372,1,8,0:0:0:0:
448,192,188372,1,0,0:0:0:0:
192,192,188559,1,0,0:0:0:0:
320,192,188747,1,0,0:0:0:60:bass.wav
448,192,188747,1,0,0:0:0:0:
64,192,188934,1,0,0:0:0:0:
448,192,189122,1,0,0:0:0:0:
320,192,189309,1,0,0:0:0:0:
64,192,189497,1,0,0:0:0:60:bass.wav
192,192,189497,1,0,0:0:0:0:
320,192,189684,1,0,0:0:0:0:
64,192,189872,1,8,0:0:0:0:
448,192,189872,1,0,0:0:0:0:
192,192,190059,1,0,0:0:0:60:bass.wav
320,192,190059,1,0,0:0:0:0:
64,192,190247,1,0,0:0:0:0:
320,192,190434,1,0,0:0:0:0:
64,192,190622,1,0,0:0:0:60:bass.wav
192,192,190622,1,0,0:0:0:0:
448,192,190809,1,0,0:0:0:0:
192,192,190997,1,0,0:0:0:0:
320,192,191184,1,0,0:0:0:0:
64,192,191372,1,8,0:0:0:0:
448,192,191372,1,0,0:0:0:0:
192,192,191559,1,0,0:0:0:0:
320,192,191747,1,0,0:0:0:60:bass.wav
448,192,191747,1,0,0:0:0:0:
64,192,191934,1,0,0:0:0:0:
320,192,192122,1,0,0:0:0:0:
64,192,192309,1,0,0:0:0:60:bass.wav
192,192,192309,1,0,0:0:0:0:
320,192,192497,1,0,0:0:0:60:bass.wav
448,192,192497,1,0,0:0:0:0:
192,192,192684,1,0,0:0:0:0:
448,192,192872,1,0,0:0:0:0:
192,192,193059,1,0,0:0:0:60:bass.wav
320,192,193059,1,0,0:0:0:0:
64,192,193247,1,0,0:0:0:0:
320,192,193434,1,0,0:0:0:0:
64,192,193622,1,0,0:0:0:60:bass.wav
192,192,193622,1,0,0:0:0:0:
192,192,194184,1,0,0:0:0:60:bass.wav
320,192,194184,1,0,0:0:0:0:
64,192,194747,1,0,0:0:0:60:bass.wav
192,192,194747,1,0,0:0:0:0:
320,192,195309,1,0,0:0:0:60:bass.wav
448,192,195309,1,0,0:0:0:0:
64,192,195684,1,0,0:0:0:60:bass.wav
192,192,195684,1,0,0:0:0:0:
64,192,196247,1,0,0:0:0:60:bass.wav
192,192,196247,1,0,0:0:0:0:
320,192,196622,1,0,0:0:0:60:bass.wav
448,192,196622,1,0,0:0:0:0:
192,192,197184,1,0,0:0:0:60:bass.wav
320,192,197184,1,0,0:0:0:0:
64,192,197747,1,0,0:0:0:60:bass.wav
192,192,197747,1,0,0:0:0:0:
320,192,197934,1,0,0:0:0:60:bass.wav
448,192,197934,1,0,0:0:0:0:
320,192,198309,1,0,0:0:0:60:bass.wav
448,192,198309,1,0,0:0:0:0:
64,192,198872,1,0,0:0:0:60:bass.wav
192,192,198872,1,0,0:0:0:0:
320,192,199059,128,0,199247:0:0:0:0:
192,192,199247,128,0,199434:0:0:0:0:
320,192,199622,1,0,0:0:0:60:bass.wav
448,192,199622,1,0,0:0:0:0:
192,192,200184,1,0,0:0:0:60:bass.wav
320,192,200184,1,0,0:0:0:0:
64,192,200747,1,0,0:0:0:60:bass.wav
192,192,200747,1,0,0:0:0:0:
64,192,201309,1,0,0:0:0:60:bass.wav
192,192,201309,1,0,0:0:0:0:
320,192,201684,1,0,0:0:0:60:bass.wav
448,192,201684,1,0,0:0:0:0:
320,192,202247,1,0,0:0:0:60:bass.wav
448,192,202247,1,0,0:0:0:0:
64,192,202622,1,0,0:0:0:60:bass.wav
192,192,202622,1,0,0:0:0:0:
192,192,203184,1,0,0:0:0:60:bass.wav
320,192,203184,1,0,0:0:0:0:
320,192,203747,1,0,0:0:0:60:bass.wav
448,192,203747,1,0,0:0:0:0:
64,192,204122,128,0,204309:0:0:0:0:
192,192,204309,128,0,204497:0:0:0:60:bass.wav
448,192,204497,128,0,204684:0:0:0:0:
320,192,204684,128,0,204872:0:0:0:60:bass.wav
64,192,204872,128,0,205059:0:0:0:0:
192,192,205059,128,0,205247:0:0:0:0:
320,192,205247,128,0,205434:0:0:0:0:
448,192,205434,1,0,0:0:0:0:
