osu file format v14

[General]
AudioFilename: audio.mp3
AudioLeadIn: 0
PreviewTime: 24122
Countdown: 0
SampleSet: Soft
StackLeniency: 0.7
Mode: 3
LetterboxInBreaks: 0
SpecialStyle: 0
WidescreenStoryboard: 0

[Editor]
Bookmarks: 121653,122934,124028,124215,124997,126278,127278,127465,128059,128247,129840,131028
DistanceSpacing: 1
BeatDivisor: 6
GridSize: 4
TimelineZoom: 3.399998

[Metadata]
Title:Starship
TitleUnicode:Starship
Artist:Grant
ArtistUnicode:Grant
Creator:- Aries -
Version:Insane
Source:
Tags:future bass chill electronic instrumental monstercat uncaged
BeatmapID:1287903
BeatmapSetID:609900

[Difficulty]
HPDrainRate:8
CircleSize:4
OverallDifficulty:8
ApproachRate:5
SliderMultiplier:1.4
SliderTickRate:1

[Events]
//Background and Video events
0,0,"hanyijie_sky_scenery_ship_anime_art_104162_1920x1080.jpg",0,0
//Break Periods
//Storyboard Layer 0 (Background)
//Storyboard Layer 1 (Fail)
//Storyboard Layer 2 (Pass)
//Storyboard Layer 3 (Foreground)
//Storyboard Sound Samples

[TimingPoints]
1622,375,4,2,1,60,1,0
13059,-10,4,2,1,60,0,0
13064,-250,4,2,1,60,0,0
13247,-20,4,2,1,60,0,0
13270,-156.25,4,2,1,60,0,0
13528,-33.3333333333333,4,2,1,60,0,0
13551,-303.030303030303,4,2,1,60,0,0
13622,-100,4,2,1,60,0,0
24122,-12.5,4,2,1,60,0,0
24215,-188.679245283019,4,2,1,60,0,0
25622,-100,4,2,1,60,0,0
61622,-250,4,2,1,60,0,0
61809,-125,4,2,1,60,0,0
61997,-83.3333333333333,4,2,1,60,0,0
62184,-62.5,4,2,1,60,0,0
62372,-100,4,2,1,60,0,1
67622,-250,4,2,1,60,0,1
67809,-125,4,2,1,60,0,1
67997,-83.3333333333333,4,2,1,60,0,1
68184,-62.5,4,2,1,60,0,1
68372,-100,4,2,1,60,0,1
73622,-50,4,2,1,60,0,1
73715,-149.253731343284,4,2,1,60,0,1
73903,-50,4,2,1,60,0,1
73997,-149.253731343284,4,2,1,60,0,1
74184,-66.6666666666667,4,2,1,60,0,1
74278,-200,4,2,1,60,0,1
74372,-100,4,2,1,60,0,1
79622,-250,4,2,1,60,0,1
79809,-125,4,2,1,60,0,1
79997,-83.3333333333333,4,2,1,60,0,1
80184,-62.5,4,2,1,60,0,1
80372,-100,4,2,1,60,0,1
85622,-100,4,2,1,60,0,0
91622,-250,4,2,1,60,0,0
91809,-125,4,2,1,60,0,0
91997,-83.3333333333333,4,2,1,60,0,0
92184,-62.5,4,2,1,60,0,0
92372,-100,4,2,1,60,0,0
136622,-100,4,2,1,60,0,1
154622,-100,4,2,1,60,0,0
156872,-250,4,2,1,60,0,0
156934,-62.5,4,2,1,60,0,0
156997,-250.000000000001,4,2,1,60,0,0
157059,-62.5,4,2,1,60,0,0
157122,-250.000000000001,4,2,1,60,0,0
157184,-62.5,4,2,1,60,0,0
157247,-100,4,2,1,60,0,0
157622,-250,4,2,1,60,0,0
157809,-125,4,2,1,60,0,0
157997,-83.3333333333333,4,2,1,60,0,0
158184,-62.5,4,2,1,60,0,0
158372,-100,4,2,1,60,0,0
169622,-50,4,2,1,60,0,0
169715,-149.253731343284,4,2,1,60,0,0
169903,-50,4,2,1,60,0,0
169997,-149.253731343284,4,2,1,60,0,0
170184,-66.6666666666667,4,2,1,60,0,0
170278,-200,4,2,1,60,0,0
170372,-100,4,2,1,60,0,1
175622,-250,4,2,1,60,0,1
175809,-125,4,2,1,60,0,1
175997,-83.3333333333333,4,2,1,60,0,1
176184,-62.5,4,2,1,60,0,1
176278,-250,4,2,1,60,0,1
176372,-100,4,2,1,60,0,1
187622,-250,4,2,1,60,0,1
187809,-125,4,2,1,60,0,1
187997,-83.3333333333333,4,2,1,60,0,1
188184,-62.5,4,2,1,60,0,1
188372,-100,4,2,1,60,0,1
193622,-100,4,2,1,60,0,0
199059,-10,4,2,1,60,0,0
199064,-250,4,2,1,60,0,0
199247,-20,4,2,1,60,0,0
199270,-156.25,4,2,1,60,0,0
199528,-33.3333333333333,4,2,1,60,0,0
199551,-303.030303030303,4,2,1,60,0,0
199622,-100,4,2,1,60,0,0

[HitObjects]
448,192,1622,5,0,0:0:0:0:
64,192,1809,1,0,0:0:0:0:
320,192,1997,1,0,0:0:0:0:
64,192,2184,1,0,0:0:0:0:
320,192,2372,1,0,0:0:0:0:
192,192,2559,1,0,0:0:0:0:
320,192,2747,1,0,0:0:0:0:
448,192,3122,1,0,0:0:0:0:
64,192,3309,1,0,0:0:0:0:
320,192,3497,1,0,0:0:0:0:
64,192,3684,1,0,0:0:0:0:
320,192,3872,1,0,0:0:0:0:
192,192,4059,1,0,0:0:0:0:
320,192,4247,1,0,0:0:0:0:
448,192,4622,1,0,0:0:0:0:
320,192,4809,1,0,0:0:0:0:
192,192,4997,1,0,0:0:0:0:
320,192,5184,1,0,0:0:0:0:
64,192,5372,1,0,0:0:0:0:
192,192,5559,1,0,0:0:0:0:
320,192,5747,1,0,0:0:0:0:
448,192,6122,1,0,0:0:0:0:
320,192,6309,1,0,0:0:0:0:
192,192,6497,1,0,0:0:0:0:
320,192,6684,1,0,0:0:0:0:
64,192,6872,1,0,0:0:0:0:
192,192,7059,1,0,0:0:0:0:
320,192,7247,1,0,0:0:0:0:
64,192,7622,1,0,0:0:0:0:
192,192,7622,1,0,0:0:0:0:
320,192,7809,1,0,0:0:0:0:
64,192,7997,1,0,0:0:0:0:
448,192,7997,1,0,0:0:0:0:
192,192,8184,1,0,0:0:0:0:
320,192,8184,1,0,0:0:0:0:
192,192,8372,1,0,0:0:0:0:
448,192,8372,1,0,0:0:0:0:
64,192,8559,1,0,0:0:0:0:
320,192,8747,1,0,0:0:0:0:
448,192,8747,1,0,0:0:0:0:
64,192,9122,1,0,0:0:0:0:
192,192,9122,1,0,0:0:0:0:
320,192,9309,1,0,0:0:0:0:
64,192,9497,1,0,0:0:0:0:
448,192,9497,1,0,0:0:0:0:
192,192,9684,1,0,0:0:0:0:
320,192,9684,1,0,0:0:0:0:
192,192,9872,1,0,0:0:0:0:
448,192,9872,1,0,0:0:0:0:
64,192,10059,1,0,0:0:0:0:
320,192,10247,1,0,0:0:0:0:
448,192,10247,1,0,0:0:0:0:
320,192,10622,1,0,0:0:0:0:
448,192,10622,1,0,0:0:0:0:
192,192,10809,1,0,0:0:0:0:
64,192,10997,1,0,0:0:0:0:
448,192,10997,1,0,0:0:0:0:
192,192,11184,1,0,0:0:0:0:
320,192,11184,1,0,0:0:0:0:
64,192,11372,1,0,0:0:0:0:
320,192,11372,1,0,0:0:0:0:
448,192,11559,1,0,0:0:0:0:
64,192,11747,1,0,0:0:0:0:
192,192,11747,1,0,0:0:0:0:
320,192,12122,1,0,0:0:0:0:
448,192,12122,1,0,0:0:0:0:
192,192,12309,1,0,0:0:0:0:
64,192,12497,1,0,0:0:0:0:
448,192,12497,1,0,0:0:0:0:
192,192,12684,1,0,0:0:0:0:
320,192,12684,1,0,0:0:0:0:
64,192,12872,1,0,0:0:0:0:
320,192,12872,1,0,0:0:0:0:
64,192,13059,128,0,13153:0:0:0:0:
448,192,13059,128,0,13153:0:0:0:0:
192,192,13247,128,0,13528:0:0:0:0:
320,192,13247,128,0,13528:0:0:0:0:
64,192,13622,1,0,0:0:0:60:bass.wav
192,192,13622,1,0,0:0:0:0:
448,192,13622,1,0,0:0:0:0:
320,192,13809,1,0,0:0:0:0:
192,192,13903,1,0,0:0:0:0:
320,192,13997,1,0,0:0:0:0:
64,192,14184,1,0,0:0:0:60:bass.wav
192,192,14184,1,0,0:0:0:0:
448,192,14184,1,0,0:0:0:0:
448,192,14372,1,0,0:0:0:0:
320,192,14559,1,0,0:0:0:0:
64,192,14747,1,0,0:0:0:60:bass.wav
192,192,14747,1,0,0:0:0:0:
448,192,14747,1,0,0:0:0:0:
320,192,14934,1,0,0:0:0:0:
64,192,15122,1,0,0:0:0:60:bass.wav
192,192,15122,1,0,0:0:0:0:
448,192,15122,1,0,0:0:0:0:
320,192,15309,1,0,0:0:0:0:
192,192,15403,1,0,0:0:0:0:
320,192,15497,1,0,0:0:0:0:
64,192,15684,1,0,0:0:0:60:bass.wav
192,192,15684,1,0,0:0:0:0:
448,192,15684,1,0,0:0:0:0:
320,192,15872,1,0,0:0:0:0:
64,192,16059,1,0,0:0:0:0:
320,192,16153,1,0,0:0:0:40:bass.wav
64,192,16247,1,0,0:0:0:60:bass.wav
192,192,16247,1,0,0:0:0:0:
448,192,16247,1,0,0:0:0:0:
320,192,16434,1,0,0:0:0:0:
64,192,16622,1,0,0:0:0:60:bass.wav
320,192,16622,1,0,0:0:0:0:
448,192,16622,1,0,0:0:0:0:
192,192,16809,1,0,0:0:0:0:
320,192,16903,1,0,0:0:0:0:
192,192,16997,1,0,0:0:0:0:
64,192,17184,1,0,0:0:0:60:bass.wav
320,192,17184,1,0,0:0:0:0:
448,192,17184,1,0,0:0:0:0:
64,192,17372,1,0,0:0:0:0:
192,192,17559,1,0,0:0:0:0:
64,192,17747,1,0,0:0:0:60:bass.wav
320,192,17747,1,0,0:0:0:0:
448,192,17747,1,0,0:0:0:0:
192,192,17934,1,0,0:0:0:0:
64,192,18122,1,0,0:0:0:60:bass.wav
320,192,18122,1,0,0:0:0:0:
448,192,18122,1,0,0:0:0:0:
192,192,18309,1,0,0:0:0:0:
320,192,18403,1,0,0:0:0:0:
192,192,18497,1,0,0:0:0:0:
64,192,18684,1,0,0:0:0:60:bass.wav
320,192,18684,1,0,0:0:0:0:
448,192,18684,1,0,0:0:0:0:
64,192,18872,1,0,0:0:0:0:
192,192,19059,1,0,0:0:0:0:
64,192,19247,1,0,0:0:0:60:bass.wav
320,192,19247,1,0,0:0:0:0:
448,192,19247,1,0,0:0:0:0:
320,192,19434,1,0,0:0:0:0:
64,192,19622,1,0,0:0:0:60:bass.wav
192,192,19622,1,0,0:0:0:0:
448,192,19622,1,0,0:0:0:0:
320,192,19809,1,0,0:0:0:0:
192,192,19903,1,0,0:0:0:0:
320,192,19997,1,0,0:0:0:0:
64,192,20184,1,0,0:0:0:60:bass.wav
192,192,20184,1,0,0:0:0:0:
448,192,20184,1,0,0:0:0:0:
448,192,20372,1,0,0:0:0:0:
320,192,20559,1,0,0:0:0:0:
64,192,20747,1,0,0:0:0:60:bass.wav
192,192,20747,1,0,0:0:0:0:
448,192,20747,1,0,0:0:0:0:
320,192,20934,1,0,0:0:0:0:
64,192,21122,1,0,0:0:0:60:bass.wav
192,192,21122,1,0,0:0:0:0:
448,192,21122,1,0,0:0:0:0:
320,192,21309,1,0,0:0:0:0:
192,192,21403,1,0,0:0:0:0:
320,192,21497,1,0,0:0:0:0:
64,192,21684,1,0,0:0:0:60:bass.wav
192,192,21684,1,0,0:0:0:0:
448,192,21684,1,0,0:0:0:0:
320,192,21872,1,0,0:0:0:0:
64,192,22059,1,0,0:0:0:0:
320,192,22153,1,0,0:0:0:40:bass.wav
64,192,22247,1,0,0:0:0:60:bass.wav
192,192,22247,1,0,0:0:0:0:
448,192,22247,1,0,0:0:0:0:
320,192,22434,1,0,0:0:0:0:
64,192,22622,1,0,0:0:0:60:bass.wav
320,192,22622,1,0,0:0:0:0:
448,192,22622,1,0,0:0:0:0:
192,192,22809,1,0,0:0:0:0:
320,192,22903,1,0,0:0:0:0:
192,192,22997,1,0,0:0:0:0:
64,192,23184,1,0,0:0:0:60:bass.wav
320,192,23184,1,0,0:0:0:0:
448,192,23184,1,0,0:0:0:0:
64,192,23372,1,0,0:0:0:0:
192,192,23559,1,0,0:0:0:0:
64,192,23747,1,0,0:0:0:60:bass.wav
320,192,23747,1,0,0:0:0:0:
448,192,23747,1,0,0:0:0:0:
64,192,23934,1,0,0:0:0:60:bass.wav
192,192,23934,1,0,0:0:0:0:
320,192,24028,1,0,0:0:0:40:bass.wav
448,192,24028,1,0,0:0:0:0:
64,192,24122,1,0,0:0:0:60:bass.wav
192,192,24122,1,0,0:0:0:0:
448,192,24122,1,0,0:0:0:0:
320,192,25622,1,0,0:0:0:60:bass.wav
448,192,25622,128,0,26372:0:0:0:0:
64,192,25809,1,2,0:0:0:0:
192,192,25809,1,0,0:0:0:0:
64,192,25997,1,0,0:0:0:0:
192,192,26184,1,2,0:0:0:0:
320,192,26184,1,0,0:0:0:60:bass.wav
64,192,26372,128,0,27122:0:0:0:0:
192,192,26559,1,0,0:0:0:0:
320,192,26747,1,0,0:0:0:60:bass.wav
448,192,26747,1,0,0:0:0:0:
192,192,26934,1,0,0:0:0:0:
320,192,27122,128,0,27872:0:0:0:60:bass.wav
448,192,27122,1,0,0:0:0:0:
64,192,27309,1,2,0:0:0:0:
192,192,27309,1,0,0:0:0:0:
192,192,27497,1,0,0:0:0:0:
64,192,27684,1,2,0:0:0:0:
448,192,27684,1,0,0:0:0:60:bass.wav
192,192,27872,128,0,28622:0:0:0:0:
320,192,28059,1,0,0:0:0:0:
64,192,28247,1,0,0:0:0:60:bass.wav
448,192,28247,1,0,0:0:0:0:
320,192,28434,1,2,0:0:0:0:
64,192,28528,1,2,0:0:0:0:
320,192,28622,1,0,0:0:0:60:bass.wav
448,192,28622,128,0,29372:0:0:0:0:
64,192,28809,1,2,0:0:0:0:
192,192,28809,1,0,0:0:0:0:
64,192,28997,1,0,0:0:0:0:
192,192,29184,1,2,0:0:0:0:
320,192,29184,1,0,0:0:0:60:bass.wav
64,192,29372,128,0,30122:0:0:0:0:
320,192,29559,1,2,0:0:0:0:
192,192,29653,1,2,0:0:0:0:
320,192,29747,1,0,0:0:0:60:bass.wav
448,192,29747,1,0,0:0:0:0:
192,192,29934,1,0,0:0:0:0:
320,192,30122,128,0,30872:0:0:0:60:bass.wav
448,192,30122,1,0,0:0:0:0:
64,192,30309,1,2,0:0:0:0:
192,192,30309,1,0,0:0:0:0:
192,192,30497,1,0,0:0:0:0:
64,192,30684,1,2,0:0:0:0:
448,192,30684,1,0,0:0:0:60:bass.wav
192,192,30872,128,0,31622:0:0:0:0:
320,192,31059,1,2,0:0:0:0:
64,192,31153,1,2,0:0:0:0:
320,192,31247,1,0,0:0:0:60:bass.wav
448,192,31247,1,0,0:0:0:0:
64,192,31434,1,2,0:0:0:0:
448,192,31528,1,2,0:0:0:0:
64,192,31622,128,0,32372:0:0:0:60:bass.wav
320,192,31622,1,0,0:0:0:0:
192,192,31809,1,2,0:0:0:0:
448,192,31809,1,0,0:0:0:0:
448,192,31997,1,0,0:0:0:0:
192,192,32184,1,2,0:0:0:0:
320,192,32184,1,0,0:0:0:60:bass.wav
448,192,32372,128,0,33122:0:0:0:0:
320,192,32559,1,0,0:0:0:0:
64,192,32747,1,0,0:0:0:60:bass.wav
192,192,32747,1,0,0:0:0:0:
320,192,32934,1,0,0:0:0:0:
64,192,33122,1,0,0:0:0:60:bass.wav
192,192,33122,128,0,33872:0:0:0:0:
320,192,33309,1,2,0:0:0:0:
448,192,33309,1,0,0:0:0:0:
320,192,33497,1,0,0:0:0:0:
64,192,33684,1,2,0:0:0:0:
448,192,33684,1,0,0:0:0:60:bass.wav
320,192,33872,128,0,34622:0:0:0:0:
192,192,34059,1,0,0:0:0:0:
64,192,34247,1,0,0:0:0:60:bass.wav
448,192,34247,1,0,0:0:0:0:
192,192,34434,1,2,0:0:0:0:
448,192,34528,1,2,0:0:0:0:
64,192,34622,128,0,35372:0:0:0:60:bass.wav
192,192,34622,1,0,0:0:0:0:
320,192,34809,1,2,0:0:0:0:
448,192,34809,1,0,0:0:0:0:
448,192,34997,1,0,0:0:0:0:
192,192,35184,1,2,0:0:0:0:
320,192,35184,1,0,0:0:0:60:bass.wav
448,192,35372,128,0,36122:0:0:0:0:
192,192,35559,1,2,0:0:0:0:
320,192,35653,1,2,0:0:0:0:
64,192,35747,1,0,0:0:0:60:bass.wav
192,192,35747,1,0,0:0:0:0:
320,192,35934,1,0,0:0:0:0:
64,192,36122,1,0,0:0:0:60:bass.wav
192,192,36122,128,0,36872:0:0:0:0:
320,192,36309,1,2,0:0:0:0:
448,192,36309,1,0,0:0:0:0:
320,192,36497,1,0,0:0:0:0:
64,192,36684,1,2,0:0:0:0:
448,192,36684,1,0,0:0:0:60:bass.wav
320,192,36872,128,0,37622:0:0:0:0:
192,192,37059,1,2,0:0:0:0:
448,192,37059,1,0,0:0:0:0:
64,192,37247,1,2,0:0:0:0:
448,192,37247,1,0,0:0:0:60:bass.wav
64,192,37434,1,2,0:0:0:0:
192,192,37434,1,0,0:0:0:0:
64,192,37622,1,0,0:0:0:60:bass.wav
448,192,37622,128,0,38372:0:0:0:0:
64,192,37809,1,2,0:0:0:0:
192,192,37809,1,0,0:0:0:0:
320,192,37997,1,0,0:0:0:0:
192,192,38184,1,2,0:0:0:0:
320,192,38184,1,0,0:0:0:60:bass.wav
64,192,38372,128,0,39122:0:0:0:0:
192,192,38559,1,0,0:0:0:0:
320,192,38747,1,0,0:0:0:60:bass.wav
448,192,38747,1,0,0:0:0:0:
192,192,38934,1,0,0:0:0:0:
320,192,39122,128,0,39872:0:0:0:60:bass.wav
448,192,39122,1,0,0:0:0:0:
64,192,39309,1,2,0:0:0:0:
192,192,39309,1,0,0:0:0:0:
448,192,39497,1,0,0:0:0:0:
64,192,39684,1,2,0:0:0:0:
448,192,39684,1,0,0:0:0:60:bass.wav
192,192,39872,128,0,40622:0:0:0:0:
320,192,40059,1,0,0:0:0:0:
64,192,40247,1,0,0:0:0:60:bass.wav
448,192,40247,1,0,0:0:0:0:
320,192,40434,1,2,0:0:0:0:
64,192,40528,1,2,0:0:0:0:
320,192,40622,1,0,0:0:0:60:bass.wav
448,192,40622,128,0,41372:0:0:0:0:
64,192,40809,1,2,0:0:0:0:
192,192,40809,1,0,0:0:0:0:
320,192,40997,1,0,0:0:0:0:
192,192,41184,1,2,0:0:0:0:
320,192,41184,1,0,0:0:0:60:bass.wav
64,192,41372,128,0,42122:0:0:0:0:
320,192,41559,1,2,0:0:0:0:
192,192,41653,1,2,0:0:0:0:
320,192,41747,1,0,0:0:0:60:bass.wav
448,192,41747,1,0,0:0:0:0:
192,192,41934,1,0,0:0:0:0:
320,192,42122,128,0,42872:0:0:0:60:bass.wav
448,192,42122,1,0,0:0:0:0:
64,192,42309,1,2,0:0:0:0:
192,192,42309,1,0,0:0:0:0:
448,192,42497,1,0,0:0:0:0:
64,192,42684,1,2,0:0:0:0:
448,192,42684,1,0,0:0:0:60:bass.wav
192,192,42872,128,0,43622:0:0:0:0:
320,192,43059,1,2,0:0:0:0:
448,192,43153,1,2,0:0:0:0:
64,192,43247,1,0,0:0:0:60:bass.wav
320,192,43247,1,0,0:0:0:0:
448,192,43434,1,2,0:0:0:0:
320,192,43528,1,2,0:0:0:0:
64,192,43622,128,0,44372:0:0:0:60:bass.wav
448,192,43622,1,0,0:0:0:0:
320,192,43809,1,2,0:0:0:0:
448,192,43809,1,0,0:0:0:0:
192,192,43997,1,0,0:0:0:0:
192,192,44184,1,2,0:0:0:0:
320,192,44184,1,0,0:0:0:60:bass.wav
448,192,44372,128,0,45122:0:0:0:0:
320,192,44559,1,0,0:0:0:0:
64,192,44747,1,0,0:0:0:60:bass.wav
192,192,44747,1,0,0:0:0:0:
320,192,44934,1,0,0:0:0:0:
64,192,45122,1,0,0:0:0:60:bass.wav
192,192,45122,128,0,45872:0:0:0:0:
320,192,45309,1,2,0:0:0:0:
448,192,45309,1,0,0:0:0:0:
64,192,45497,1,0,0:0:0:0:
64,192,45684,1,2,0:0:0:0:
448,192,45684,1,0,0:0:0:60:bass.wav
320,192,45872,128,0,46622:0:0:0:0:
192,192,46059,1,0,0:0:0:0:
64,192,46247,1,0,0:0:0:60:bass.wav
448,192,46247,1,0,0:0:0:0:
192,192,46434,1,2,0:0:0:0:
448,192,46528,1,2,0:0:0:0:
64,192,46622,128,0,47372:0:0:0:60:bass.wav
192,192,46622,1,0,0:0:0:0:
320,192,46809,1,2,0:0:0:0:
448,192,46809,1,0,0:0:0:0:
192,192,46997,1,0,0:0:0:0:
192,192,47184,1,2,0:0:0:0:
320,192,47184,1,0,0:0:0:60:bass.wav
448,192,47372,128,0,48122:0:0:0:0:
192,192,47559,1,2,0:0:0:0:
320,192,47653,1,2,0:0:0:0:
64,192,47747,1,0,0:0:0:60:bass.wav
192,192,47747,1,0,0:0:0:0:
320,192,47934,1,0,0:0:0:0:
64,192,48122,1,0,0:0:0:60:bass.wav
192,192,48122,128,0,48872:0:0:0:0:
320,192,48309,1,2,0:0:0:0:
448,192,48309,1,0,0:0:0:0:
64,192,48497,1,0,0:0:0:0:
64,192,48684,1,2,0:0:0:0:
448,192,48684,1,0,0:0:0:60:bass.wav
320,192,48872,128,0,49622:0:0:0:0:
64,192,49059,1,2,0:0:0:0:
448,192,49059,1,0,0:0:0:0:
192,192,49247,1,2,0:0:0:0:
448,192,49247,1,0,0:0:0:60:bass.wav
192,192,49434,1,2,0:0:0:0:
448,192,49434,1,0,0:0:0:0:
64,192,49622,1,0,0:0:0:0:
448,192,49809,1,0,0:0:0:0:
192,192,49997,1,0,0:0:0:0:
64,192,50184,1,0,0:0:0:0:
320,192,50372,1,0,0:0:0:0:
448,192,50372,1,0,0:0:0:0:
192,192,50559,1,0,0:0:0:0:
320,192,50747,1,0,0:0:0:0:
448,192,50747,1,0,0:0:0:0:
64,192,50934,1,0,0:0:0:0:
192,192,50997,1,0,0:0:0:0:
320,192,51059,1,0,0:0:0:0:
64,192,51122,1,0,0:0:0:0:
448,192,51122,1,0,0:0:0:0:
192,192,51309,1,0,0:0:0:0:
320,192,51309,1,0,0:0:0:0:
64,192,51497,1,0,0:0:0:0:
320,192,51497,1,0,0:0:0:0:
64,192,51684,1,0,0:0:0:0:
192,192,51684,1,0,0:0:0:0:
320,192,51872,1,0,0:0:0:0:
448,192,51872,1,0,0:0:0:0:
64,192,51965,1,0,0:0:0:0:
192,192,51965,1,0,0:0:0:0:
320,192,52059,1,0,0:0:0:0:
448,192,52059,1,0,0:0:0:0:
64,192,52247,1,0,0:0:0:0:
320,192,52247,1,0,0:0:0:0:
192,192,52434,1,0,0:0:0:0:
448,192,52434,1,0,0:0:0:0:
64,192,52622,1,0,0:0:0:0:
448,192,52809,1,0,0:0:0:0:
320,192,52872,1,0,0:0:0:0:
192,192,52934,1,0,0:0:0:0:
64,192,52997,1,0,0:0:0:0:
448,192,52997,1,0,0:0:0:0:
192,192,53090,1,0,0:0:0:0:
320,192,53090,1,0,0:0:0:0:
64,192,53278,1,0,0:0:0:0:
320,192,53278,1,0,0:0:0:0:
192,192,53372,1,0,0:0:0:0:
448,192,53372,1,0,0:0:0:0:
64,192,53559,1,0,0:0:0:0:
192,192,53559,1,0,0:0:0:0:
320,192,53747,1,0,0:0:0:0:
448,192,53747,1,0,0:0:0:0:
64,192,53934,1,0,0:0:0:0:
192,192,53997,1,0,0:0:0:0:
320,192,54059,1,0,0:0:0:0:
64,192,54122,1,0,0:0:0:0:
448,192,54122,1,0,0:0:0:0:
192,192,54309,1,0,0:0:0:0:
320,192,54309,1,0,0:0:0:0:
192,192,54497,1,0,0:0:0:0:
448,192,54497,1,0,0:0:0:0:
320,192,54684,1,0,0:0:0:0:
448,192,54684,1,0,0:0:0:0:
64,192,54872,1,0,0:0:0:0:
192,192,54872,1,0,0:0:0:0:
320,192,54965,1,0,0:0:0:0:
448,192,54965,1,0,0:0:0:0:
64,192,55059,1,0,0:0:0:0:
192,192,55059,1,0,0:0:0:0:
192,192,55247,1,0,0:0:0:0:
448,192,55247,1,0,0:0:0:0:
64,192,55434,1,0,0:0:0:0:
320,192,55434,1,0,0:0:0:0:
448,192,55622,1,0,0:0:0:0:
192,192,55809,1,0,0:0:0:0:
320,192,55997,1,0,0:0:0:0:
64,192,56184,1,0,0:0:0:0:
320,192,56372,1,0,0:0:0:0:
448,192,56372,1,0,0:0:0:0:
192,192,56559,1,0,0:0:0:0:
320,192,56747,1,0,0:0:0:0:
448,192,56747,1,0,0:0:0:0:
64,192,56934,1,0,0:0:0:0:
192,192,56997,1,0,0:0:0:0:
320,192,57059,1,0,0:0:0:0:
64,192,57122,1,0,0:0:0:0:
448,192,57122,1,0,0:0:0:0:
192,192,57309,1,0,0:0:0:0:
320,192,57309,1,0,0:0:0:0:
64,192,57497,1,0,0:0:0:0:
320,192,57497,1,0,0:0:0:0:
64,192,57684,1,0,0:0:0:0:
192,192,57684,1,0,0:0:0:0:
320,192,57872,1,0,0:0:0:0:
448,192,57872,1,0,0:0:0:0:
64,192,57965,1,0,0:0:0:0:
192,192,57965,1,0,0:0:0:0:
320,192,58059,1,0,0:0:0:0:
448,192,58059,1,0,0:0:0:0:
64,192,58247,1,0,0:0:0:0:
448,192,58247,1,0,0:0:0:0:
192,192,58434,1,0,0:0:0:0:
320,192,58434,1,0,0:0:0:0:
64,192,58622,1,0,0:0:0:0:
448,192,58809,1,0,0:0:0:0:
320,192,58872,1,0,0:0:0:0:
192,192,58934,1,0,0:0:0:0:
64,192,58997,1,0,0:0:0:0:
448,192,58997,1,0,0:0:0:0:
192,192,59090,1,0,0:0:0:0:
320,192,59090,1,0,0:0:0:0:
192,192,59278,1,0,0:0:0:0:
448,192,59278,1,0,0:0:0:0:
64,192,59372,1,0,0:0:0:0:
320,192,59372,1,0,0:0:0:0:
448,192,59559,1,0,0:0:0:0:
192,192,59747,1,0,0:0:0:0:
320,192,59747,1,0,0:0:0:0:
64,192,59934,1,0,0:0:0:0:
192,192,59997,1,0,0:0:0:0:
320,192,60059,1,0,0:0:0:0:
64,192,60122,128,0,61247:0:0:0:0:
448,192,60122,1,0,0:0:0:0:
448,192,60309,1,0,0:0:0:0:
448,192,60497,1,0,0:0:0:0:
448,192,60684,1,0,0:0:0:0:
192,192,60872,1,0,0:0:0:0:
448,192,60965,1,0,0:0:0:0:
320,192,61059,1,0,0:0:0:0:
192,192,61247,1,0,0:0:0:0:
64,192,61622,128,0,62372:0:0:0:60:bass.wav
192,192,61622,128,0,62184:0:0:0:0:
192,192,62372,1,8,0:0:0:0:
320,192,62372,128,0,62653:0:0:0:0:
448,192,62372,128,0,62653:0:0:0:0:
64,192,62747,1,0,0:0:0:60:bass.wav
192,192,62747,1,0,0:0:0:0:
64,192,62934,1,0,0:0:0:0:
448,192,62934,1,0,0:0:0:0:
192,192,62997,1,0,0:0:0:0:
320,192,62997,1,0,0:0:0:0:
64,192,63122,1,0,0:0:0:0:
192,192,63122,1,0,0:0:0:0:
320,192,63215,1,0,0:0:0:0:
448,192,63215,1,0,0:0:0:0:
64,192,63309,1,0,0:0:0:0:
192,192,63309,1,0,0:0:0:0:
320,192,63497,1,0,0:0:0:60:bass.wav
448,192,63497,1,0,0:0:0:0:
64,192,63684,1,0,0:0:0:0:
448,192,63684,1,0,0:0:0:0:
64,192,63872,1,8,0:0:0:0:
192,192,63872,1,0,0:0:0:0:
320,192,63872,1,0,0:0:0:0:
192,192,64059,1,0,0:0:0:60:bass.wav
448,192,64059,1,0,0:0:0:0:
320,192,64247,1,0,0:0:0:0:
448,192,64247,1,0,0:0:0:0:
64,192,64434,1,2,0:0:0:0:
192,192,64497,1,2,0:0:0:0:
320,192,64559,1,2,0:0:0:0:
64,192,64622,1,0,0:0:0:60:bass.wav
448,192,64622,1,0,0:0:0:0:
192,192,64715,1,0,0:0:0:0:
320,192,64715,1,0,0:0:0:0:
64,192,64809,1,0,0:0:0:0:
448,192,64809,1,0,0:0:0:0:
192,192,64997,1,0,0:0:0:0:
320,192,64997,1,0,0:0:0:0:
64,192,65184,1,0,0:0:0:0:
448,192,65184,1,0,0:0:0:0:
192,192,65372,128,8,65653:0:0:0:0:
320,192,65372,128,0,65653:0:0:0:0:
448,192,65372,1,0,0:0:0:0:
64,192,65747,1,0,0:0:0:60:bass.wav
448,192,65747,1,0,0:0:0:0:
64,192,65934,1,0,0:0:0:0:
192,192,65934,1,0,0:0:0:0:
320,192,65997,1,0,0:0:0:0:
448,192,65997,1,0,0:0:0:0:
64,192,66059,1,0,0:0:0:0:
192,192,66059,1,0,0:0:0:0:
320,192,66122,1,0,0:0:0:0:
448,192,66122,1,0,0:0:0:0:
320,192,66309,1,0,0:0:0:60:bass.wav
448,192,66309,1,0,0:0:0:0:
64,192,66497,1,8,0:0:0:0:
192,192,66497,1,0,0:0:0:60:bass.wav
448,192,66497,1,0,0:0:0:0:
192,192,66684,1,0,0:0:0:0:
320,192,66684,1,0,0:0:0:0:
64,192,66872,1,8,0:0:0:0:
320,192,66872,1,0,0:0:0:0:
448,192,66872,1,0,0:0:0:0:
64,192,66965,1,0,0:0:0:0:
192,192,66965,1,0,0:0:0:0:
320,192,67059,1,0,0:0:0:60:bass.wav
448,192,67059,1,0,0:0:0:0:
64,192,67247,1,0,0:0:0:0:
448,192,67247,1,0,0:0:0:0:
64,192,67434,1,0,0:0:0:0:
192,192,67434,1,0,0:0:0:0:
320,192,67622,128,0,68184:0:0:0:60:bass.wav
448,192,67622,128,0,68372:0:0:0:0:
64,192,68184,1,0,0:0:0:60:bass.wav
192,192,68184,1,0,0:0:0:0:
64,192,68372,128,8,68653:0:0:0:0:
192,192,68372,128,0,68653:0:0:0:0:
320,192,68372,1,0,0:0:0:0:
320,192,68747,1,0,0:0:0:60:bass.wav
448,192,68747,1,0,0:0:0:0:
64,192,68934,1,0,0:0:0:0:
448,192,68934,1,0,0:0:0:0:
192,192,68997,1,0,0:0:0:0:
320,192,68997,1,0,0:0:0:0:
320,192,69122,1,0,0:0:0:0:
448,192,69122,1,0,0:0:0:0:
64,192,69215,1,0,0:0:0:0:
192,192,69215,1,0,0:0:0:0:
320,192,69309,1,0,0:0:0:0:
448,192,69309,1,0,0:0:0:0:
64,192,69497,1,0,0:0:0:60:bass.wav
192,192,69497,1,0,0:0:0:0:
64,192,69684,1,0,0:0:0:0:
448,192,69684,1,0,0:0:0:0:
192,192,69872,1,8,0:0:0:0:
320,192,69872,1,0,0:0:0:0:
448,192,69872,1,0,0:0:0:0:
64,192,70059,1,0,0:0:0:60:bass.wav
320,192,70059,1,0,0:0:0:0:
64,192,70247,1,0,0:0:0:0:
192,192,70247,1,0,0:0:0:0:
448,192,70434,1,2,0:0:0:0:
320,192,70497,1,2,0:0:0:0:
192,192,70559,1,2,0:0:0:0:
64,192,70622,1,0,0:0:0:60:bass.wav
448,192,70622,1,0,0:0:0:0:
192,192,70715,1,0,0:0:0:0:
320,192,70715,1,0,0:0:0:0:
64,192,70809,1,0,0:0:0:0:
448,192,70809,1,0,0:0:0:0:
192,192,70997,1,0,0:0:0:0:
320,192,70997,1,0,0:0:0:0:
64,192,71184,1,0,0:0:0:0:
448,192,71184,1,0,0:0:0:0:
64,192,71372,1,8,0:0:0:0:
192,192,71372,128,0,71653:0:0:0:0:
320,192,71372,128,0,71653:0:0:0:0:
64,192,71747,1,0,0:0:0:60:bass.wav
448,192,71747,1,0,0:0:0:0:
320,192,71934,1,0,0:0:0:0:
448,192,71934,1,0,0:0:0:0:
64,192,71997,1,0,0:0:0:0:
192,192,71997,1,0,0:0:0:0:
320,192,72059,1,0,0:0:0:0:
448,192,72059,1,0,0:0:0:0:
64,192,72122,1,0,0:0:0:0:
192,192,72122,1,0,0:0:0:0:
64,192,72309,1,0,0:0:0:60:bass.wav
192,192,72309,1,0,0:0:0:0:
64,192,72497,1,8,0:0:0:0:
320,192,72497,1,0,0:0:0:60:bass.wav
448,192,72497,1,0,0:0:0:0:
192,192,72684,1,0,0:0:0:0:
320,192,72684,1,0,0:0:0:0:
64,192,72872,1,8,0:0:0:0:
192,192,72872,1,0,0:0:0:0:
448,192,72872,1,0,0:0:0:0:
320,192,72965,1,0,0:0:0:0:
448,192,72965,1,0,0:0:0:0:
64,192,73059,1,0,0:0:0:60:bass.wav
192,192,73059,1,0,0:0:0:0:
64,192,73247,1,0,0:0:0:0:
448,192,73247,1,0,0:0:0:0:
320,192,73434,1,0,0:0:0:0:
448,192,73434,1,0,0:0:0:0:
64,192,73622,128,0,73903:0:0:0:0:
320,192,73622,128,0,73903:0:0:0:0:
192,192,73903,128,0,74184:0:0:0:0:
448,192,73903,128,0,74184:0:0:0:0:
320,192,74184,128,0,74372:0:0:0:0:
64,192,74372,1,0,0:0:0:60:bass.wav
192,192,74372,1,0,0:0:0:0:
448,192,74559,1,0,0:0:0:0:
192,192,74747,1,0,0:0:0:60:bass.wav
320,192,74747,1,0,0:0:0:0:
64,192,74934,1,0,0:0:0:0:
320,192,75122,1,0,0:0:0:0:
448,192,75122,1,0,0:0:0:0:
64,192,75215,1,0,0:0:0:0:
192,192,75215,1,0,0:0:0:0:
320,192,75309,1,0,0:0:0:0:
448,192,75309,1,0,0:0:0:0:
64,192,75497,1,0,0:0:0:60:bass.wav
192,192,75497,1,0,0:0:0:0:
64,192,75684,1,0,0:0:0:0:
448,192,75684,1,0,0:0:0:0:
192,192,75872,1,8,0:0:0:0:
320,192,75872,1,0,0:0:0:0:
448,192,75872,1,0,0:0:0:0:
64,192,76059,1,0,0:0:0:60:bass.wav
320,192,76059,1,0,0:0:0:0:
64,192,76247,1,0,0:0:0:0:
192,192,76247,1,0,0:0:0:0:
448,192,76434,1,2,0:0:0:0:
320,192,76497,1,2,0:0:0:0:
192,192,76559,1,2,0:0:0:0:
64,192,76622,1,0,0:0:0:60:bass.wav
448,192,76622,1,0,0:0:0:0:
192,192,76715,1,0,0:0:0:0:
320,192,76715,1,0,0:0:0:0:
64,192,76809,1,0,0:0:0:0:
448,192,76809,1,0,0:0:0:0:
192,192,76997,1,0,0:0:0:0:
320,192,76997,1,0,0:0:0:0:
64,192,77184,1,0,0:0:0:0:
448,192,77184,1,0,0:0:0:0:
64,192,77372,1,8,0:0:0:0:
192,192,77372,128,0,77653:0:0:0:0:
320,192,77372,128,0,77653:0:0:0:0:
64,192,77747,1,0,0:0:0:60:bass.wav
448,192,77747,1,0,0:0:0:0:
320,192,77934,1,0,0:0:0:0:
448,192,77934,1,0,0:0:0:0:
64,192,77997,1,0,0:0:0:0:
192,192,77997,1,0,0:0:0:0:
320,192,78059,1,0,0:0:0:0:
448,192,78059,1,0,0:0:0:0:
64,192,78122,1,0,0:0:0:0:
192,192,78122,1,0,0:0:0:0:
64,192,78309,1,0,0:0:0:60:bass.wav
192,192,78309,1,0,0:0:0:0:
64,192,78497,1,8,0:0:0:0:
320,192,78497,1,0,0:0:0:60:bass.wav
448,192,78497,1,0,0:0:0:0:
192,192,78684,1,0,0:0:0:0:
320,192,78684,1,0,0:0:0:0:
64,192,78872,1,8,0:0:0:0:
192,192,78872,1,0,0:0:0:0:
448,192,78872,1,0,0:0:0:0:
320,192,78965,1,0,0:0:0:0:
448,192,78965,1,0,0:0:0:0:
64,192,79059,1,0,0:0:0:60:bass.wav
192,192,79059,1,0,0:0:0:0:
64,192,79247,1,0,0:0:0:0:
448,192,79247,1,0,0:0:0:0:
320,192,79434,1,0,0:0:0:0:
448,192,79434,1,0,0:0:0:0:
64,192,79622,128,0,80372:0:0:0:60:bass.wav
192,192,79622,128,0,80184:0:0:0:0:
320,192,80184,1,0,0:0:0:60:bass.wav
448,192,80184,1,0,0:0:0:0:
192,192,80372,1,8,0:0:0:0:
320,192,80372,1,0,0:0:0:0:
448,192,80372,1,0,0:0:0:0:
192,192,80559,1,0,0:0:0:0:
64,192,80747,1,0,0:0:0:60:bass.wav
320,192,80747,1,0,0:0:0:0:
448,192,80934,1,0,0:0:0:0:
64,192,81122,1,0,0:0:0:0:
192,192,81122,1,0,0:0:0:0:
320,192,81215,1,0,0:0:0:0:
448,192,81215,1,0,0:0:0:0:
64,192,81309,1,0,0:0:0:0:
192,192,81309,1,0,0:0:0:0:
320,192,81497,1,0,0:0:0:60:bass.wav
448,192,81497,1,0,0:0:0:0:
64,192,81684,1,0,0:0:0:0:
448,192,81684,1,0,0:0:0:0:
64,192,81872,1,8,0:0:0:0:
192,192,81872,1,0,0:0:0:0:
320,192,81872,1,0,0:0:0:0:
192,192,82059,1,0,0:0:0:60:bass.wav
448,192,82059,1,0,0:0:0:0:
320,192,82247,1,0,0:0:0:0:
448,192,82247,1,0,0:0:0:0:
64,192,82434,1,2,0:0:0:0:
192,192,82497,1,2,0:0:0:0:
320,192,82559,1,2,0:0:0:0:
64,192,82622,1,0,0:0:0:60:bass.wav
448,192,82622,1,0,0:0:0:0:
192,192,82715,1,0,0:0:0:0:
320,192,82715,1,0,0:0:0:0:
64,192,82809,1,0,0:0:0:0:
448,192,82809,1,0,0:0:0:0:
192,192,82997,1,0,0:0:0:0:
320,192,82997,1,0,0:0:0:0:
64,192,83184,1,0,0:0:0:0:
448,192,83184,1,0,0:0:0:0:
192,192,83372,128,8,83653:0:0:0:0:
320,192,83372,128,0,83653:0:0:0:0:
448,192,83372,1,0,0:0:0:0:
64,192,83747,1,0,0:0:0:60:bass.wav
448,192,83747,1,0,0:0:0:0:
320,192,83934,1,0,0:0:0:0:
448,192,83934,1,0,0:0:0:0:
64,192,83997,1,0,0:0:0:0:
192,192,83997,1,0,0:0:0:0:
320,192,84059,1,0,0:0:0:0:
448,192,84059,1,0,0:0:0:0:
64,192,84122,1,0,0:0:0:0:
192,192,84122,1,0,0:0:0:0:
64,192,84309,1,0,0:0:0:60:bass.wav
192,192,84309,1,0,0:0:0:0:
64,192,84497,1,8,0:0:0:0:
320,192,84497,1,0,0:0:0:60:bass.wav
448,192,84497,1,0,0:0:0:0:
192,192,84684,1,0,0:0:0:0:
320,192,84684,1,0,0:0:0:0:
64,192,84872,1,8,0:0:0:0:
192,192,84872,1,0,0:0:0:0:
448,192,84872,1,0,0:0:0:0:
320,192,84965,1,0,0:0:0:0:
448,192,84965,1,0,0:0:0:0:
64,192,85059,1,0,0:0:0:60:bass.wav
192,192,85059,1,0,0:0:0:0:
64,192,85247,1,0,0:0:0:0:
448,192,85247,1,0,0:0:0:0:
320,192,85434,1,0,0:0:0:0:
448,192,85434,1,0,0:0:0:0:
64,192,85622,1,0,0:0:0:0:
192,192,85668,1,0,0:0:0:0:
448,192,85715,1,0,0:0:0:0:
320,192,85762,1,0,0:0:0:0:
192,192,85809,1,0,0:0:0:0:
64,192,85856,1,0,0:0:0:0:
448,192,85903,1,0,0:0:0:0:
320,192,85950,1,0,0:0:0:0:
64,192,85997,1,0,0:0:0:0:
192,192,86043,1,0,0:0:0:0:
320,192,86090,1,0,0:0:0:0:
448,192,86137,1,0,0:0:0:0:
64,192,86184,1,0,0:0:0:0:
192,192,86231,1,0,0:0:0:0:
448,192,86278,1,0,0:0:0:0:
320,192,86325,1,0,0:0:0:0:
64,192,86372,1,8,0:0:0:0:
192,192,86372,1,0,0:0:0:60:bass.wav
320,192,86559,1,0,0:0:0:0:
192,192,86653,1,0,0:0:0:0:
64,192,86747,1,0,0:0:0:60:bass.wav
448,192,86747,1,0,0:0:0:0:
192,192,86934,1,0,0:0:0:0:
320,192,87028,1,0,0:0:0:0:
448,192,87122,1,0,0:0:0:0:
64,192,87309,1,0,0:0:0:0:
192,192,87403,1,0,0:0:0:0:
320,192,87497,1,0,0:0:0:60:bass.wav
448,192,87497,1,0,0:0:0:0:
192,192,87684,1,0,0:0:0:0:
64,192,87872,1,8,0:0:0:0:
320,192,87872,1,0,0:0:0:0:
448,192,87872,1,0,0:0:0:0:
64,192,88059,128,0,88247:0:0:0:60:bass.wav
448,192,88059,1,0,0:0:0:0:
192,192,88247,1,0,0:0:0:0:
320,192,88434,1,0,0:0:0:0:
448,192,88434,128,0,88622:0:0:0:0:
64,192,88622,1,0,0:0:0:60:bass.wav
192,192,88622,1,0,0:0:0:0:
320,192,88809,1,0,0:0:0:0:
192,192,88903,1,0,0:0:0:0:
448,192,88997,1,0,0:0:0:0:
192,192,89184,1,0,0:0:0:0:
64,192,89372,1,8,0:0:0:0:
320,192,89372,1,0,0:0:0:0:
448,192,89372,1,0,0:0:0:0:
192,192,89559,1,0,0:0:0:0:
320,192,89653,1,0,0:0:0:0:
64,192,89747,1,0,0:0:0:60:bass.wav
192,192,89747,1,0,0:0:0:0:
320,192,89934,1,0,0:0:0:0:
448,192,90028,1,0,0:0:0:0:
192,192,90122,1,0,0:0:0:0:
64,192,90309,1,8,0:0:0:0:
320,192,90309,1,0,0:0:0:0:
448,192,90309,1,0,0:0:0:0:
64,192,90497,1,0,0:0:0:60:bass.wav
192,192,90497,1,0,0:0:0:0:
320,192,90684,1,0,0:0:0:0:
64,192,90872,1,8,0:0:0:0:
192,192,90872,1,0,0:0:0:0:
448,192,90872,1,0,0:0:0:0:
64,192,91059,128,0,91622:0:0:0:60:bass.wav
448,192,91059,1,0,0:0:0:0:
320,192,91247,1,0,0:0:0:0:
192,192,91434,1,0,0:0:0:0:
320,192,91622,128,0,92184:0:0:0:60:bass.wav
448,192,91622,128,0,92372:0:0:0:0:
64,192,92184,1,0,0:0:0:60:bass.wav
192,192,92184,1,0,0:0:0:0:
64,192,92372,1,8,0:0:0:0:
192,192,92372,1,0,0:0:0:0:
320,192,92372,1,0,0:0:0:0:
448,192,92559,1,0,0:0:0:0:
320,192,92653,1,0,0:0:0:0:
64,192,92747,1,0,0:0:0:60:bass.wav
192,192,92747,1,0,0:0:0:0:
320,192,92934,1,0,0:0:0:0:
192,192,93028,1,0,0:0:0:0:
448,192,93122,1,0,0:0:0:0:
192,192,93309,1,0,0:0:0:0:
320,192,93403,1,0,0:0:0:0:
64,192,93497,1,0,0:0:0:60:bass.wav
192,192,93497,1,0,0:0:0:0:
320,192,93684,1,0,0:0:0:0:
64,192,93872,128,8,94622:0:0:0:0:
192,192,93872,1,0,0:0:0:0:
448,192,93872,1,0,0:0:0:0:
320,192,94059,1,0,0:0:0:60:bass.wav
448,192,94059,1,0,0:0:0:0:
192,192,94247,128,0,94622:0:0:0:0:
448,192,94434,1,0,0:0:0:0:
320,192,94622,1,0,0:0:0:60:bass.wav
448,192,94622,1,0,0:0:0:0:
192,192,94809,1,0,0:0:0:0:
320,192,94903,1,0,0:0:0:0:
64,192,94997,1,0,0:0:0:0:
320,192,95184,1,0,0:0:0:0:
64,192,95372,1,8,0:0:0:0:
192,192,95372,1,0,0:0:0:0:
448,192,95372,1,0,0:0:0:0:
320,192,95559,1,0,0:0:0:0:
448,192,95653,1,0,0:0:0:0:
64,192,95747,1,0,0:0:0:60:bass.wav
192,192,95747,1,0,0:0:0:0:
320,192,95934,1,0,0:0:0:0:
192,192,96028,1,0,0:0:0:0:
448,192,96122,1,0,0:0:0:0:
64,192,96309,1,0,0:0:0:60:bass.wav
192,192,96309,1,0,0:0:0:0:
320,192,96497,1,0,0:0:0:60:bass.wav
448,192,96497,1,0,0:0:0:0:
192,192,96684,1,0,0:0:0:0:
64,192,96872,1,8,0:0:0:0:
320,192,96872,1,0,0:0:0:0:
448,192,96872,1,0,0:0:0:0:
64,192,97059,1,0,0:0:0:60:bass.wav
448,192,97059,128,0,97622:0:0:0:0:
320,192,97247,128,0,97622:0:0:0:0:
64,192,97434,1,0,0:0:0:0:
64,192,97622,128,0,98372:0:0:0:60:bass.wav
192,192,97622,1,0,0:0:0:0:
448,192,97809,1,0,0:0:0:0:
192,192,97903,1,0,0:0:0:0:
320,192,97997,1,0,0:0:0:0:
192,192,98184,1,0,0:0:0:60:bass.wav
448,192,98184,1,0,0:0:0:0:
320,192,98372,128,0,99122:0:0:0:0:
448,192,98559,1,0,0:0:0:0:
64,192,98747,1,0,0:0:0:60:bass.wav
192,192,98747,1,0,0:0:0:0:
64,192,99122,128,0,99872:0:0:0:60:bass.wav
192,192,99122,1,0,0:0:0:0:
320,192,99309,1,0,0:0:0:0:
192,192,99403,1,0,0:0:0:0:
448,192,99497,1,0,0:0:0:0:
192,192,99684,1,0,0:0:0:60:bass.wav
320,192,99684,1,0,0:0:0:0:
448,192,99872,128,0,100622:0:0:0:0:
192,192,100059,1,0,0:0:0:0:
64,192,100153,1,0,0:0:0:0:
192,192,100247,1,0,0:0:0:60:bass.wav
320,192,100247,1,0,0:0:0:0:
64,192,100622,1,0,0:0:0:60:bass.wav
192,192,100622,128,0,101372:0:0:0:0:
320,192,100809,1,0,0:0:0:0:
448,192,100903,1,0,0:0:0:0:
64,192,100997,1,0,0:0:0:0:
320,192,101184,1,0,0:0:0:60:bass.wav
448,192,101184,1,0,0:0:0:0:
64,192,101372,128,0,102122:0:0:0:0:
448,192,101559,1,0,0:0:0:0:
192,192,101747,1,0,0:0:0:60:bass.wav
320,192,101747,1,0,0:0:0:0:
320,192,102122,128,0,102872:0:0:0:60:bass.wav
448,192,102122,1,0,0:0:0:0:
64,192,102309,1,0,0:0:0:0:
192,192,102403,1,0,0:0:0:0:
448,192,102497,1,0,0:0:0:0:
64,192,102684,1,0,0:0:0:60:bass.wav
192,192,102684,1,0,0:0:0:0:
448,192,102872,128,0,103622:0:0:0:0:
192,192,103059,1,0,0:0:0:0:
64,192,103247,1,0,0:0:0:60:bass.wav
320,192,103247,1,0,0:0:0:0:
320,192,103434,1,0,0:0:0:0:
64,192,103622,128,0,104372:0:0:0:60:bass.wav
192,192,103622,1,0,0:0:0:0:
320,192,103809,1,0,0:0:0:0:
192,192,103903,1,0,0:0:0:0:
448,192,103997,1,0,0:0:0:0:
192,192,104184,1,0,0:0:0:60:bass.wav
320,192,104184,1,0,0:0:0:0:
448,192,104372,128,0,105122:0:0:0:0:
64,192,104559,1,0,0:0:0:0:
192,192,104747,1,0,0:0:0:60:bass.wav
320,192,104747,1,0,0:0:0:0:
64,192,105122,1,0,0:0:0:60:bass.wav
192,192,105122,128,0,105872:0:0:0:0:
448,192,105309,1,0,0:0:0:0:
64,192,105403,1,0,0:0:0:0:
320,192,105497,1,0,0:0:0:0:
64,192,105684,1,0,0:0:0:60:bass.wav
448,192,105684,1,0,0:0:0:0:
320,192,105872,128,0,106622:0:0:0:0:
64,192,106059,1,0,0:0:0:0:
192,192,106153,1,0,0:0:0:0:
64,192,106247,1,0,0:0:0:60:bass.wav
448,192,106247,1,0,0:0:0:0:
64,192,106622,1,0,0:0:0:60:bass.wav
448,192,106622,128,0,107372:0:0:0:0:
320,192,106809,1,0,0:0:0:0:
64,192,106903,1,0,0:0:0:0:
192,192,106997,1,0,0:0:0:0:
64,192,107184,1,0,0:0:0:60:bass.wav
320,192,107184,1,0,0:0:0:0:
192,192,107372,128,0,108122:0:0:0:0:
64,192,107559,1,0,0:0:0:0:
320,192,107747,1,0,0:0:0:60:bass.wav
448,192,107747,1,0,0:0:0:0:
64,192,107934,1,0,0:0:0:0:
320,192,108122,128,0,108872:0:0:0:60:bass.wav
448,192,108122,1,0,0:0:0:0:
192,192,108309,1,0,0:0:0:0:
448,192,108403,1,0,0:0:0:0:
64,192,108497,1,0,0:0:0:0:
448,192,108684,1,0,0:0:0:0:
64,192,108872,128,0,109622:0:0:0:0:
192,192,108872,1,0,0:0:0:0:
320,192,109059,1,0,0:0:0:0:
192,192,109247,1,0,0:0:0:0:
448,192,109247,128,0,109622:0:0:0:0:
320,192,109622,1,0,0:0:0:0:
64,192,109809,1,0,0:0:0:0:
448,192,109997,1,0,0:0:0:0:
320,192,110184,1,0,0:0:0:0:
192,192,110372,1,0,0:0:0:0:
64,192,110559,1,0,0:0:0:0:
448,192,110747,1,0,0:0:0:0:
320,192,111122,1,0,0:0:0:0:
64,192,111309,1,0,0:0:0:0:
448,192,111497,1,0,0:0:0:0:
320,192,111684,1,0,0:0:0:0:
192,192,111872,1,0,0:0:0:0:
64,192,112059,1,0,0:0:0:0:
448,192,112247,1,0,0:0:0:0:
192,192,112622,1,0,0:0:0:0:
448,192,112809,1,0,0:0:0:0:
64,192,112997,1,0,0:0:0:0:
320,192,113184,1,0,0:0:0:0:
192,192,113372,1,0,0:0:0:0:
64,192,113559,1,0,0:0:0:0:
448,192,113747,1,0,0:0:0:0:
192,192,114122,1,0,0:0:0:0:
448,192,114309,1,0,0:0:0:0:
64,192,114497,1,0,0:0:0:0:
320,192,114684,1,0,0:0:0:0:
192,192,114872,1,0,0:0:0:0:
64,192,115059,1,0,0:0:0:0:
448,192,115247,1,0,0:0:0:0:
320,192,115622,1,0,0:0:0:0:
64,192,115809,1,0,0:0:0:0:
448,192,115997,1,0,0:0:0:0:
320,192,116184,1,0,0:0:0:0:
192,192,116372,1,0,0:0:0:0:
64,192,116559,1,0,0:0:0:0:
448,192,116747,1,0,0:0:0:0:
320,192,117122,1,0,0:0:0:0:
64,192,117309,1,0,0:0:0:0:
448,192,117497,1,0,0:0:0:0:
320,192,117684,1,0,0:0:0:0:
192,192,117872,1,0,0:0:0:0:
64,192,118059,1,0,0:0:0:0:
448,192,118247,1,0,0:0:0:0:
192,192,118622,1,0,0:0:0:0:
448,192,118809,1,0,0:0:0:0:
64,192,118997,1,0,0:0:0:0:
320,192,119184,1,0,0:0:0:0:
192,192,119372,1,0,0:0:0:0:
64,192,119559,1,0,0:0:0:0:
448,192,119747,1,0,0:0:0:0:
192,192,120122,128,0,120309:0:0:0:0:
320,192,120309,128,0,120497:0:0:0:0:
64,192,120497,128,0,120684:0:0:0:0:
448,192,120684,128,0,120872:0:0:0:0:
192,192,120872,128,0,121059:0:0:0:0:
320,192,121059,128,0,121247:0:0:0:0:
448,192,121247,128,0,121622:0:0:0:0:
320,192,121653,1,0,0:0:0:0:
64,192,121715,1,0,0:0:0:0:
192,192,121715,1,0,0:0:0:0:
320,192,122028,1,0,0:0:0:0:
448,192,122028,1,0,0:0:0:0:
320,192,122372,1,0,0:0:0:0:
448,192,122372,1,0,0:0:0:0:
64,192,122559,1,0,0:0:0:0:
448,192,122559,1,0,0:0:0:0:
64,192,122747,1,0,0:0:0:0:
192,192,122747,1,0,0:0:0:0:
320,192,122934,1,0,0:0:0:0:
64,192,122997,1,0,0:0:0:0:
192,192,122997,1,0,0:0:0:0:
320,192,123309,1,0,0:0:0:0:
448,192,123309,1,0,0:0:0:0:
320,192,123684,1,0,0:0:0:0:
448,192,123684,1,0,0:0:0:0:
64,192,124028,1,0,0:0:0:0:
192,192,124028,1,0,0:0:0:0:
64,192,124215,1,0,0:0:0:0:
448,192,124215,1,0,0:0:0:0:
320,192,124434,1,0,0:0:0:0:
448,192,124434,1,0,0:0:0:0:
320,192,124997,1,0,0:0:0:0:
64,192,125028,1,0,0:0:0:0:
192,192,125028,1,0,0:0:0:0:
64,192,125372,1,0,0:0:0:0:
192,192,125372,1,0,0:0:0:0:
320,192,125747,1,0,0:0:0:0:
448,192,125747,1,0,0:0:0:0:
64,192,126122,1,0,0:0:0:0:
192,192,126122,1,0,0:0:0:0:
64,192,126278,1,0,0:0:0:0:
448,192,126278,1,0,0:0:0:0:
320,192,126497,1,0,0:0:0:0:
448,192,126497,1,0,0:0:0:0:
64,192,126684,1,0,0:0:0:0:
192,192,126684,1,0,0:0:0:0:
192,192,127278,1,0,0:0:0:0:
448,192,127278,1,0,0:0:0:0:
64,192,127465,1,0,0:0:0:0:
320,192,127465,1,0,0:0:0:0:
64,192,128059,1,0,0:0:0:0:
320,192,128059,1,0,0:0:0:0:
192,192,128247,1,0,0:0:0:0:
448,192,128247,1,0,0:0:0:0:
64,192,129497,1,0,0:0:0:0:
192,192,129497,1,0,0:0:0:0:
64,192,129684,1,0,0:0:0:0:
448,192,129684,1,0,0:0:0:0:
192,192,129840,1,0,0:0:0:0:
320,192,129872,1,0,0:0:0:0:
448,192,129872,1,0,0:0:0:0:
320,192,130247,1,0,0:0:0:0:
64,192,130309,1,0,0:0:0:0:
192,192,130309,1,0,0:0:0:0:
320,192,130622,1,0,0:0:0:0:
448,192,130622,1,0,0:0:0:0:
192,192,131028,1,0,0:0:0:0:
448,192,131028,1,0,0:0:0:0:
64,192,131184,1,0,0:0:0:0:
320,192,131184,1,0,0:0:0:0:
192,192,132872,1,0,0:0:0:0:
320,192,132872,1,0,0:0:0:0:
64,192,133059,1,0,0:0:0:0:
448,192,133059,1,0,0:0:0:0:
320,192,133106,1,0,0:0:0:0:
64,192,133247,1,0,0:0:0:0:
192,192,133247,1,0,0:0:0:0:
64,192,133434,1,0,0:0:0:0:
448,192,133434,1,0,0:0:0:0:
320,192,133622,1,0,0:0:0:0:
448,192,133622,128,0,134372:0:0:0:0:
64,192,134372,128,0,135122:0:0:0:0:
192,192,134372,1,0,0:0:0:0:
320,192,134559,1,0,0:0:0:0:
448,192,134653,1,0,0:0:0:0:
192,192,134747,1,0,0:0:0:0:
320,192,134747,1,0,0:0:0:0:
320,192,135122,128,0,135872:0:0:0:0:
448,192,135122,1,0,0:0:0:0:
64,192,135309,1,0,0:0:0:0:
192,192,135309,1,0,0:0:0:0:
64,192,135872,1,0,0:0:0:0:
192,192,135872,128,0,136622:0:0:0:0:
64,192,136340,1,0,0:0:0:0:
320,192,136434,1,0,0:0:0:0:
448,192,136434,1,0,0:0:0:0:
64,192,136622,128,0,137372:0:0:0:60:bass.wav
448,192,136622,1,0,0:0:0:0:
192,192,136809,1,2,0:0:0:0:
320,192,136809,1,0,0:0:0:0:
320,192,136997,1,0,0:0:0:0:
192,192,137184,1,2,0:0:0:0:
448,192,137184,1,0,0:0:0:60:bass.wav
320,192,137372,128,0,138122:0:0:0:0:
448,192,137559,1,2,0:0:0:0:
64,192,137653,1,2,0:0:0:0:
192,192,137747,1,0,0:0:0:60:bass.wav
448,192,137747,1,0,0:0:0:0:
64,192,137934,1,0,0:0:0:0:
192,192,138122,128,0,138872:0:0:0:0:
448,192,138122,1,0,0:0:0:0:
64,192,138309,1,2,0:0:0:0:
320,192,138309,1,0,0:0:0:60:bass.wav
448,192,138497,1,0,0:0:0:0:
64,192,138684,1,2,0:0:0:0:
320,192,138684,1,0,0:0:0:60:bass.wav
448,192,138872,128,0,139622:0:0:0:0:
64,192,139059,1,2,0:0:0:0:
320,192,139153,1,2,0:0:0:0:
64,192,139247,1,0,0:0:0:60:bass.wav
192,192,139247,1,0,0:0:0:0:
320,192,139434,1,2,0:0:0:0:
64,192,139528,1,2,0:0:0:0:
192,192,139622,1,0,0:0:0:60:bass.wav
320,192,139622,128,0,140372:0:0:0:0:
64,192,139809,1,2,0:0:0:0:
448,192,139809,1,0,0:0:0:0:
64,192,139997,1,0,0:0:0:0:
192,192,140184,1,2,0:0:0:0:
448,192,140184,1,0,0:0:0:60:bass.wav
64,192,140372,128,0,141122:0:0:0:0:
192,192,140559,1,2,0:0:0:0:
320,192,140653,1,2,0:0:0:0:
192,192,140747,1,0,0:0:0:60:bass.wav
448,192,140747,1,0,0:0:0:0:
320,192,140934,1,0,0:0:0:0:
192,192,141122,128,0,141872:0:0:0:0:
448,192,141122,1,0,0:0:0:0:
64,192,141309,1,2,0:0:0:0:
320,192,141309,1,0,0:0:0:60:bass.wav
448,192,141497,1,0,0:0:0:0:
64,192,141684,1,2,0:0:0:0:
320,192,141684,1,0,0:0:0:60:bass.wav
448,192,141872,128,0,142622:0:0:0:0:
320,192,142059,1,2,0:0:0:0:
64,192,142247,1,0,0:0:0:60:bass.wav
192,192,142247,1,0,0:0:0:0:
320,192,142434,1,2,0:0:0:0:
192,192,142528,1,2,0:0:0:0:
64,192,142622,128,0,143372:0:0:0:60:bass.wav
320,192,142622,1,0,0:0:0:0:
192,192,142809,1,2,0:0:0:0:
448,192,142809,1,0,0:0:0:0:
320,192,142997,1,0,0:0:0:0:
192,192,143184,1,2,0:0:0:0:
448,192,143184,1,0,0:0:0:60:bass.wav
320,192,143372,128,0,144122:0:0:0:0:
448,192,143559,1,2,0:0:0:0:
192,192,143653,1,2,0:0:0:0:
64,192,143747,1,0,0:0:0:60:bass.wav
448,192,143747,1,0,0:0:0:0:
192,192,143934,1,0,0:0:0:0:
64,192,144122,1,0,0:0:0:60:bass.wav
448,192,144122,128,0,144872:0:0:0:0:
192,192,144309,1,2,0:0:0:0:
320,192,144309,1,0,0:0:0:0:
192,192,144497,1,0,0:0:0:0:
64,192,144684,1,2,0:0:0:0:
320,192,144684,1,0,0:0:0:60:bass.wav
192,192,144872,128,0,145622:0:0:0:0:
64,192,145059,1,2,0:0:0:0:
320,192,145059,1,0,0:0:0:0:
320,192,145247,1,2,0:0:0:0:
448,192,145247,1,0,0:0:0:60:bass.wav
64,192,145434,1,2,0:0:0:0:
448,192,145434,1,0,0:0:0:0:
64,192,145622,1,0,0:0:0:60:bass.wav
320,192,145622,1,0,0:0:0:0:
448,192,145809,1,2,0:0:0:0:
192,192,145809,1,0,0:0:0:0:
320,192,145997,1,0,0:0:0:0:
64,192,146184,1,2,0:0:0:0:
192,192,146184,1,0,0:0:0:60:bass.wav
448,192,146184,1,0,0:0:0:0:
320,192,146372,1,0,0:0:0:0:
64,192,146559,1,2,0:0:0:0:
192,192,146559,1,0,0:0:0:0:
320,192,146653,1,0,0:0:0:0:
448,192,146653,1,2,0:0:0:0:
64,192,146747,1,0,0:0:0:60:bass.wav
192,192,146747,1,0,0:0:0:0:
448,192,146747,1,0,0:0:0:0:
320,192,146934,1,0,0:0:0:0:
64,192,147122,1,2,0:0:0:0:
192,192,147122,1,0,0:0:0:0:
448,192,147309,1,0,0:0:0:60:bass.wav
320,192,147309,1,0,0:0:0:0:
64,192,147309,1,0,0:0:0:0:
320,192,147497,1,0,0:0:0:0:
64,192,147684,1,0,0:0:0:60:bass.wav
192,192,147684,1,0,0:0:0:0:
448,192,147684,1,0,0:0:0:0:
192,192,147872,1,0,0:0:0:0:
320,192,148059,1,2,0:0:0:0:
448,192,148059,1,0,0:0:0:0:
64,192,148247,1,0,0:0:0:60:bass.wav
192,192,148247,1,0,0:0:0:0:
448,192,148247,1,0,0:0:0:0:
320,192,148434,1,2,0:0:0:0:
448,192,148434,1,0,0:0:0:0:
64,192,148528,1,2,0:0:0:0:
192,192,148528,1,0,0:0:0:0:
64,192,148622,1,0,0:0:0:60:bass.wav
320,192,148622,1,0,0:0:0:0:
448,192,148622,1,0,0:0:0:0:
192,192,148809,1,2,0:0:0:0:
64,192,148809,1,0,0:0:0:0:
320,192,148997,1,0,0:0:0:0:
64,192,149184,1,2,0:0:0:0:
192,192,149184,1,0,0:0:0:60:bass.wav
448,192,149184,1,0,0:0:0:0:
320,192,149372,1,0,0:0:0:0:
64,192,149559,1,2,0:0:0:0:
192,192,149559,1,0,0:0:0:0:
320,192,149653,1,2,0:0:0:0:
448,192,149653,1,0,0:0:0:0:
64,192,149747,1,0,0:0:0:60:bass.wav
192,192,149747,1,0,0:0:0:0:
448,192,149747,1,0,0:0:0:0:
320,192,149934,1,0,0:0:0:0:
64,192,150122,1,2,0:0:0:0:
192,192,150122,1,0,0:0:0:0:
64,192,150309,1,0,0:0:0:60:bass.wav
320,192,150309,1,0,0:0:0:0:
448,192,150309,1,0,0:0:0:0:
320,192,150497,1,0,0:0:0:0:
64,192,150684,1,0,0:0:0:60:bass.wav
192,192,150684,1,0,0:0:0:0:
448,192,150684,1,0,0:0:0:0:
192,192,150872,1,0,0:0:0:0:
448,192,151059,1,2,0:0:0:0:
320,192,151059,1,0,0:0:0:0:
64,192,151247,1,0,0:0:0:60:bass.wav
192,192,151247,1,0,0:0:0:0:
448,192,151247,1,0,0:0:0:0:
320,192,151434,1,2,0:0:0:0:
448,192,151434,1,0,0:0:0:0:
64,192,151528,1,2,0:0:0:0:
192,192,151528,1,0,0:0:0:0:
64,192,151622,1,0,0:0:0:60:bass.wav
320,192,151622,1,0,0:0:0:0:
448,192,151622,1,0,0:0:0:0:
192,192,151809,1,2,0:0:0:0:
320,192,151997,1,0,0:0:0:0:
64,192,152184,1,2,0:0:0:0:
192,192,152184,1,0,0:0:0:60:bass.wav
448,192,152184,1,0,0:0:0:0:
320,192,152372,1,0,0:0:0:0:
64,192,152559,1,2,0:0:0:0:
192,192,152559,1,0,0:0:0:0:
320,192,152653,1,2,0:0:0:0:
448,192,152653,1,0,0:0:0:0:
64,192,152747,1,0,0:0:0:60:bass.wav
192,192,152747,1,0,0:0:0:0:
448,192,152747,1,0,0:0:0:0:
192,192,152934,1,0,0:0:0:0:
64,192,153122,1,0,0:0:0:60:bass.wav
320,192,153122,1,0,0:0:0:0:
448,192,153122,1,0,0:0:0:0:
192,192,153309,1,2,0:0:0:0:
64,192,153309,1,0,0:0:0:0:
320,192,153497,1,0,0:0:0:0:
64,192,153684,1,2,0:0:0:0:
192,192,153684,1,0,0:0:0:60:bass.wav
448,192,153684,1,0,0:0:0:0:
320,192,153872,1,0,0:0:0:0:
64,192,154059,1,2,0:0:0:0:
192,192,154059,1,0,0:0:0:0:
64,192,154247,1,2,0:0:0:0:
320,192,154247,1,0,0:0:0:60:bass.wav
448,192,154247,1,0,0:0:0:0:
64,192,154434,1,2,0:0:0:0:
192,192,154434,1,0,0:0:0:0:
320,192,154622,128,0,155934:0:0:0:0:
448,192,154622,128,0,156122:0:0:0:0:
64,192,156122,1,0,0:0:0:0:
320,192,156215,1,0,0:0:0:0:
192,192,156309,1,0,0:0:0:0:
448,192,156403,1,0,0:0:0:0:
64,192,156497,1,0,0:0:0:0:
192,192,156543,1,0,0:0:0:0:
320,192,156590,1,0,0:0:0:0:
448,192,156684,1,0,0:0:0:0:
64,192,156778,1,0,0:0:0:0:
192,192,156872,1,0,0:0:0:0:
448,192,156872,128,0,157247:0:0:0:0:
192,192,156997,1,0,0:0:0:0:
192,192,157122,1,0,0:0:0:0:
320,192,157247,1,0,0:0:0:0:
320,192,157622,128,0,158184:0:0:0:60:bass.wav
448,192,157622,128,0,158372:0:0:0:0:
64,192,158372,128,8,158747:0:0:0:0:
192,192,158372,128,0,158747:0:0:0:0:
320,192,158372,1,0,0:0:0:0:
320,192,158747,128,0,158872:0:0:0:60:bass.wav
448,192,158747,128,0,158872:0:0:0:0:
64,192,158934,128,0,159059:0:0:0:0:
320,192,158934,128,0,159059:0:0:0:0:
192,192,159122,128,0,159247:0:0:0:0:
448,192,159122,128,0,159247:0:0:0:0:
192,192,159309,128,0,159434:0:0:0:0:
448,192,159309,128,0,159434:0:0:0:0:
192,192,159497,128,0,159622:0:0:0:60:bass.wav
320,192,159497,128,0,159622:0:0:0:0:
64,192,159684,128,0,159809:0:0:0:0:
448,192,159684,128,0,159809:0:0:0:0:
64,192,159872,1,8,0:0:0:0:
320,192,159872,1,0,0:0:0:0:
448,192,159872,1,0,0:0:0:0:
192,192,160059,1,0,0:0:0:60:bass.wav
320,192,160059,1,0,0:0:0:0:
64,192,160247,128,0,160372:0:0:0:0:
448,192,160247,128,0,160372:0:0:0:0:
192,192,160434,128,0,160559:0:0:0:0:
448,192,160434,128,0,160559:0:0:0:0:
64,192,160622,128,0,160747:0:0:0:60:bass.wav
320,192,160622,128,0,160747:0:0:0:0:
64,192,160809,128,0,160934:0:0:0:0:
320,192,160809,128,0,160934:0:0:0:0:
192,192,160997,128,0,161122:0:0:0:0:
448,192,160997,128,0,161122:0:0:0:0:
64,192,161184,128,0,161309:0:0:0:0:
320,192,161184,128,0,161309:0:0:0:0:
64,192,161372,1,8,0:0:0:0:
192,192,161372,128,0,161684:0:0:0:0:
448,192,161372,128,0,161684:0:0:0:0:
192,192,161747,128,0,161872:0:0:0:60:bass.wav
320,192,161747,128,0,161872:0:0:0:0:
64,192,161934,128,0,162059:0:0:0:0:
320,192,161934,128,0,162059:0:0:0:0:
192,192,162122,128,0,162247:0:0:0:0:
448,192,162122,128,0,162247:0:0:0:0:
64,192,162309,128,0,162434:0:0:0:60:bass.wav
320,192,162309,128,0,162434:0:0:0:0:
64,192,162497,128,0,162622:0:0:0:60:bass.wav
320,192,162497,128,0,162622:0:0:0:0:
192,192,162684,128,0,162809:0:0:0:0:
448,192,162684,128,0,162809:0:0:0:0:
64,192,162872,128,8,163528:0:0:0:0:
192,192,162872,128,0,163528:0:0:0:0:
320,192,162872,1,0,0:0:0:0:
320,192,163059,1,0,0:0:0:60:bass.wav
448,192,163059,1,0,0:0:0:0:
448,192,163247,128,0,163528:0:0:0:0:
64,192,163622,1,0,0:0:0:60:bass.wav
320,192,163622,1,0,0:0:0:0:
448,192,163622,1,0,0:0:0:0:
192,192,163809,1,0,0:0:0:0:
448,192,163856,1,0,0:0:0:0:
320,192,163903,1,0,0:0:0:0:
192,192,163997,1,0,0:0:0:0:
448,192,164043,1,0,0:0:0:0:
320,192,164090,1,0,0:0:0:0:
64,192,164184,1,0,0:0:0:60:bass.wav
448,192,164184,1,0,0:0:0:0:
64,192,164372,128,8,164747:0:0:0:0:
192,192,164372,1,0,0:0:0:0:
448,192,164372,1,0,0:0:0:0:
192,192,164747,128,0,164872:0:0:0:60:bass.wav
448,192,164747,128,0,164872:0:0:0:0:
64,192,164934,128,0,165059:0:0:0:0:
448,192,164934,128,0,165059:0:0:0:0:
192,192,165122,128,0,165247:0:0:0:0:
320,192,165122,128,0,165247:0:0:0:0:
192,192,165309,128,0,165434:0:0:0:0:
320,192,165309,128,0,165434:0:0:0:0:
64,192,165497,128,0,165622:0:0:0:60:bass.wav
320,192,165497,128,0,165622:0:0:0:0:
192,192,165684,128,0,165809:0:0:0:0:
448,192,165684,128,0,165809:0:0:0:0:
64,192,165872,1,8,0:0:0:0:
320,192,165872,1,0,0:0:0:0:
448,192,165872,1,0,0:0:0:0:
192,192,166059,1,0,0:0:0:60:bass.wav
320,192,166059,1,0,0:0:0:0:
192,192,166247,128,0,166372:0:0:0:0:
320,192,166247,128,0,166372:0:0:0:0:
64,192,166434,128,0,166559:0:0:0:0:
320,192,166434,128,0,166559:0:0:0:0:
192,192,166622,128,0,166747:0:0:0:60:bass.wav
448,192,166622,128,0,166747:0:0:0:0:
192,192,166809,128,0,166934:0:0:0:0:
448,192,166809,128,0,166934:0:0:0:0:
64,192,166997,128,0,167122:0:0:0:0:
320,192,166997,128,0,167122:0:0:0:0:
192,192,167184,128,0,167309:0:0:0:0:
448,192,167184,128,0,167309:0:0:0:0:
64,192,167372,1,8,0:0:0:0:
192,192,167372,128,0,167684:0:0:0:0:
320,192,167372,128,0,167684:0:0:0:0:
192,192,167747,128,0,167872:0:0:0:60:bass.wav
448,192,167747,128,0,167872:0:0:0:0:
64,192,167934,128,0,168059:0:0:0:0:
320,192,167934,128,0,168059:0:0:0:0:
64,192,168122,128,0,168247:0:0:0:0:
192,192,168122,128,0,168247:0:0:0:0:
320,192,168309,128,0,168434:0:0:0:60:bass.wav
448,192,168309,128,0,168434:0:0:0:0:
320,192,168497,128,0,168622:0:0:0:60:bass.wav
448,192,168497,128,0,168622:0:0:0:0:
64,192,168684,128,0,168809:0:0:0:0:
192,192,168684,128,0,168809:0:0:0:0:
192,192,168872,1,8,0:0:0:0:
320,192,168872,128,0,169528:0:0:0:0:
448,192,168872,128,0,169528:0:0:0:0:
64,192,169059,1,0,0:0:0:60:bass.wav
192,192,169059,1,0,0:0:0:0:
64,192,169247,128,0,169528:0:0:0:0:
64,192,169622,128,0,169903:0:0:0:0:
192,192,169622,128,0,169903:0:0:0:0:
320,192,169903,128,0,170184:0:0:0:0:
448,192,169903,128,0,170184:0:0:0:0:
192,192,170184,128,0,170372:0:0:0:0:
64,192,170372,1,8,0:0:0:0:
320,192,170372,1,0,0:0:0:60:bass.wav
448,192,170372,1,0,0:0:0:0:
192,192,170559,1,0,0:0:0:0:
320,192,170747,1,0,0:0:0:60:bass.wav
448,192,170747,1,0,0:0:0:0:
64,192,170934,1,0,0:0:0:0:
320,192,171122,1,0,0:0:0:0:
448,192,171122,1,0,0:0:0:0:
64,192,171215,1,0,0:0:0:0:
192,192,171215,1,0,0:0:0:0:
320,192,171309,1,0,0:0:0:0:
448,192,171309,1,0,0:0:0:0:
64,192,171497,1,0,0:0:0:60:bass.wav
192,192,171497,128,0,171684:0:0:0:0:
320,192,171684,1,0,0:0:0:0:
448,192,171684,128,0,171872:0:0:0:0:
64,192,171872,1,8,0:0:0:0:
192,192,171872,1,0,0:0:0:0:
320,192,171872,1,0,0:0:0:0:
64,192,172059,1,0,0:0:0:60:bass.wav
320,192,172059,1,0,0:0:0:0:
192,192,172247,1,0,0:0:0:0:
448,192,172247,128,0,172434:0:0:0:0:
64,192,172434,1,2,0:0:0:0:
192,192,172497,1,2,0:0:0:0:
320,192,172559,1,2,0:0:0:0:
64,192,172622,1,0,0:0:0:60:bass.wav
192,192,172622,1,0,0:0:0:0:
320,192,172715,1,0,0:0:0:0:
448,192,172715,1,0,0:0:0:0:
64,192,172809,1,0,0:0:0:0:
192,192,172809,1,0,0:0:0:0:
320,192,172997,128,0,173184:0:0:0:0:
448,192,172997,1,0,0:0:0:0:
64,192,173184,128,0,173372:0:0:0:0:
192,192,173184,1,0,0:0:0:0:
192,192,173372,1,8,0:0:0:0:
320,192,173372,128,0,173653:0:0:0:0:
448,192,173372,128,0,173653:0:0:0:0:
64,192,173747,1,0,0:0:0:60:bass.wav
192,192,173747,1,0,0:0:0:0:
320,192,173934,1,0,0:0:0:0:
448,192,173934,1,0,0:0:0:0:
64,192,173997,1,0,0:0:0:0:
192,192,173997,1,0,0:0:0:0:
320,192,174059,1,0,0:0:0:0:
448,192,174059,1,0,0:0:0:0:
64,192,174122,1,0,0:0:0:0:
192,192,174122,1,0,0:0:0:0:
192,192,174309,128,0,174497:0:0:0:60:bass.wav
320,192,174309,1,0,0:0:0:0:
64,192,174497,1,8,0:0:0:0:
320,192,174497,1,0,0:0:0:60:bass.wav
448,192,174497,128,0,174684:0:0:0:0:
64,192,174684,1,0,0:0:0:0:
192,192,174684,1,0,0:0:0:0:
64,192,174872,1,8,0:0:0:0:
320,192,174872,1,0,0:0:0:0:
448,192,174872,1,0,0:0:0:0:
64,192,174965,1,0,0:0:0:0:
192,192,174965,1,0,0:0:0:0:
320,192,175059,1,0,0:0:0:60:bass.wav
448,192,175059,1,0,0:0:0:0:
64,192,175247,1,0,0:0:0:0:
192,192,175247,1,0,0:0:0:0:
64,192,175434,1,0,0:0:0:0:
448,192,175434,1,0,0:0:0:0:
192,192,175622,128,0,176184:0:0:0:60:bass.wav
320,192,175622,128,0,176184:0:0:0:0:
64,192,176184,1,0,0:0:0:60:bass.wav
448,192,176184,1,0,0:0:0:0:
64,192,176372,1,8,0:0:0:0:
192,192,176372,1,0,0:0:0:0:
448,192,176372,1,0,0:0:0:0:
320,192,176559,1,0,0:0:0:0:
64,192,176747,1,0,0:0:0:60:bass.wav
192,192,176747,1,0,0:0:0:0:
448,192,176934,1,0,0:0:0:0:
64,192,177122,1,0,0:0:0:0:
192,192,177122,1,0,0:0:0:0:
320,192,177215,1,0,0:0:0:0:
448,192,177215,1,0,0:0:0:0:
64,192,177309,1,0,0:0:0:0:
192,192,177309,1,0,0:0:0:0:
320,192,177497,128,0,177684:0:0:0:60:bass.wav
448,192,177497,1,0,0:0:0:0:
64,192,177684,128,0,177872:0:0:0:0:
192,192,177684,1,0,0:0:0:0:
192,192,177872,1,8,0:0:0:0:
320,192,177872,1,0,0:0:0:0:
448,192,177872,1,0,0:0:0:0:
192,192,178059,1,0,0:0:0:60:bass.wav
448,192,178059,1,0,0:0:0:0:
64,192,178247,128,0,178434:0:0:0:0:
320,192,178247,1,0,0:0:0:0:
448,192,178434,1,2,0:0:0:0:
320,192,178497,1,2,0:0:0:0:
192,192,178559,1,2,0:0:0:0:
320,192,178622,1,0,0:0:0:60:bass.wav
448,192,178622,1,0,0:0:0:0:
64,192,178715,1,0,0:0:0:0:
192,192,178715,1,0,0:0:0:0:
320,192,178809,1,0,0:0:0:0:
448,192,178809,1,0,0:0:0:0:
64,192,178997,1,0,0:0:0:0:
192,192,178997,128,0,179184:0:0:0:0:
320,192,179184,1,0,0:0:0:0:
448,192,179184,128,0,179372:0:0:0:0:
64,192,179372,128,8,179653:0:0:0:0:
192,192,179372,128,0,179653:0:0:0:0:
320,192,179372,1,0,0:0:0:0:
320,192,179747,1,0,0:0:0:60:bass.wav
448,192,179747,1,0,0:0:0:0:
64,192,179934,1,0,0:0:0:0:
192,192,179934,1,0,0:0:0:0:
320,192,179997,1,0,0:0:0:0:
448,192,179997,1,0,0:0:0:0:
64,192,180122,1,0,0:0:0:0:
192,192,180122,1,0,0:0:0:0:
192,192,180309,1,0,0:0:0:60:bass.wav
320,192,180309,128,0,180497:0:0:0:0:
64,192,180497,1,8,0:0:0:0:
192,192,180497,128,0,180684:0:0:0:60:bass.wav
448,192,180497,1,0,0:0:0:0:
320,192,180684,1,0,0:0:0:0:
448,192,180684,1,0,0:0:0:0:
64,192,180872,1,8,0:0:0:0:
192,192,180872,1,0,0:0:0:0:
448,192,180872,1,0,0:0:0:0:
320,192,180965,1,0,0:0:0:0:
448,192,180965,1,0,0:0:0:0:
64,192,181059,1,0,0:0:0:60:bass.wav
192,192,181059,1,0,0:0:0:0:
320,192,181247,1,0,0:0:0:0:
448,192,181247,1,0,0:0:0:0:
192,192,181434,1,0,0:0:0:0:
448,192,181434,1,0,0:0:0:0:
64,192,181622,1,0,0:0:0:0:
192,192,181668,1,0,0:0:0:0:
448,192,181715,1,0,0:0:0:0:
320,192,181762,1,0,0:0:0:0:
192,192,181809,1,0,0:0:0:0:
64,192,181856,1,0,0:0:0:0:
448,192,181903,1,0,0:0:0:0:
320,192,181950,1,0,0:0:0:0:
64,192,181997,1,0,0:0:0:0:
192,192,182043,1,0,0:0:0:0:
320,192,182090,1,0,0:0:0:0:
448,192,182137,1,0,0:0:0:0:
64,192,182184,1,0,0:0:0:0:
192,192,182231,1,0,0:0:0:0:
448,192,182278,1,0,0:0:0:0:
320,192,182325,1,0,0:0:0:0:
64,192,182372,1,8,0:0:0:0:
192,192,182372,1,0,0:0:0:60:bass.wav
320,192,182559,1,0,0:0:0:0:
192,192,182653,1,0,0:0:0:0:
64,192,182747,1,0,0:0:0:60:bass.wav
448,192,182747,1,0,0:0:0:0:
192,192,182934,1,0,0:0:0:0:
320,192,183028,1,0,0:0:0:0:
64,192,183122,1,0,0:0:0:0:
320,192,183309,1,0,0:0:0:0:
192,192,183403,1,0,0:0:0:0:
320,192,183497,1,0,0:0:0:60:bass.wav
448,192,183497,1,0,0:0:0:0:
192,192,183684,1,0,0:0:0:0:
64,192,183872,1,8,0:0:0:0:
320,192,183872,1,0,0:0:0:0:
448,192,183872,1,0,0:0:0:0:
64,192,184059,1,0,0:0:0:60:bass.wav
448,192,184059,128,0,184247:0:0:0:0:
192,192,184247,1,0,0:0:0:0:
64,192,184434,128,0,184622:0:0:0:0:
320,192,184434,1,0,0:0:0:0:
192,192,184622,1,0,0:0:0:60:bass.wav
448,192,184622,1,0,0:0:0:0:
320,192,184809,1,0,0:0:0:0:
192,192,184903,1,0,0:0:0:0:
448,192,184997,1,0,0:0:0:0:
192,192,185184,1,0,0:0:0:0:
64,192,185372,1,8,0:0:0:0:
320,192,185372,1,0,0:0:0:0:
448,192,185372,1,0,0:0:0:0:
192,192,185559,1,0,0:0:0:0:
320,192,185653,1,0,0:0:0:0:
64,192,185747,1,0,0:0:0:60:bass.wav
192,192,185747,1,0,0:0:0:0:
320,192,185934,1,0,0:0:0:0:
192,192,186028,1,0,0:0:0:0:
448,192,186122,1,0,0:0:0:0:
64,192,186309,1,0,0:0:0:60:bass.wav
192,192,186309,1,0,0:0:0:0:
320,192,186497,1,0,0:0:0:60:bass.wav
448,192,186497,1,0,0:0:0:0:
192,192,186684,1,0,0:0:0:0:
64,192,186872,1,8,0:0:0:0:
320,192,186872,1,0,0:0:0:0:
448,192,186872,1,0,0:0:0:0:
64,192,187059,1,0,0:0:0:60:bass.wav
448,192,187059,128,0,187622:0:0:0:0:
192,192,187247,1,0,0:0:0:0:
320,192,187434,1,0,0:0:0:0:
64,192,187622,128,0,188372:0:0:0:60:bass.wav
192,192,187622,128,0,188184:0:0:0:0:
320,192,188184,1,0,0:0:0:60:bass.wav
448,192,188184,1,0,0:0:0:0:
192,192,188372,1,8,0:0:0:0:
320,192,188372,1,0,0:0:0:0:
448,192,188372,1,0,0:0:0:0:
64,192,188559,1,0,0:0:0:0:
192,192,188653,1,0,0:0:0:0:
320,192,188747,1,0,0:0:0:60:bass.wav
448,192,188747,1,0,0:0:0:0:
192,192,188934,1,0,0:0:0:0:
64,192,189028,1,0,0:0:0:0:
320,192,189122,1,0,0:0:0:0:
192,192,189309,1,0,0:0:0:0:
320,192,189403,1,0,0:0:0:0:
64,192,189497,1,0,0:0:0:60:bass.wav
192,192,189497,1,0,0:0:0:0:
320,192,189684,1,0,0:0:0:0:
64,192,189872,128,8,190622:0:0:0:0:
192,192,189872,1,0,0:0:0:0:
448,192,189872,1,0,0:0:0:0:
320,192,190059,1,0,0:0:0:60:bass.wav
448,192,190059,1,0,0:0:0:0:
192,192,190247,128,0,190622:0:0:0:0:
448,192,190434,1,0,0:0:0:0:
320,192,190622,1,0,0:0:0:60:bass.wav
448,192,190622,1,0,0:0:0:0:
192,192,190809,1,0,0:0:0:0:
320,192,190903,1,0,0:0:0:0:
64,192,190997,1,0,0:0:0:0:
320,192,191184,1,0,0:0:0:0:
64,192,191372,1,8,0:0:0:0:
192,192,191372,1,0,0:0:0:0:
448,192,191372,1,0,0:0:0:0:
320,192,191559,1,0,0:0:0:0:
192,192,191653,1,0,0:0:0:0:
64,192,191747,1,0,0:0:0:60:bass.wav
448,192,191747,1,0,0:0:0:0:
320,192,191934,1,0,0:0:0:0:
192,192,192028,1,0,0:0:0:0:
448,192,192122,1,0,0:0:0:0:
64,192,192309,1,0,0:0:0:60:bass.wav
192,192,192309,1,0,0:0:0:0:
320,192,192497,1,0,0:0:0:60:bass.wav
448,192,192497,1,0,0:0:0:0:
192,192,192684,1,0,0:0:0:0:
320,192,192872,1,0,0:0:0:0:
64,192,193059,1,0,0:0:0:60:bass.wav
448,192,193059,128,0,193622:0:0:0:0:
320,192,193247,128,0,193622:0:0:0:0:
64,192,193434,1,0,0:0:0:0:
64,192,193622,1,0,0:0:0:60:bass.wav
192,192,193622,1,0,0:0:0:0:
320,192,193903,1,0,0:0:0:0:
64,192,193997,1,0,0:0:0:0:
320,192,194184,1,0,0:0:0:60:bass.wav
448,192,194184,1,0,0:0:0:0:
64,192,194465,1,0,0:0:0:0:
320,192,194559,1,0,0:0:0:0:
64,192,194747,1,0,0:0:0:60:bass.wav
192,192,194747,1,0,0:0:0:0:
320,192,195309,1,0,0:0:0:60:bass.wav
448,192,195309,1,0,0:0:0:0:
64,192,195403,1,0,0:0:0:0:
64,192,195684,1,0,0:0:0:60:bass.wav
192,192,195684,1,0,0:0:0:0:
320,192,195965,1,0,0:0:0:0:
64,192,196059,1,0,0:0:0:0:
320,192,196247,1,0,0:0:0:60:bass.wav
448,192,196247,1,0,0:0:0:0:
64,192,196434,1,0,0:0:0:0:
320,192,196528,1,0,0:0:0:60:bass.wav
448,192,196528,1,0,0:0:0:0:
64,192,196622,1,0,0:0:0:60:bass.wav
192,192,196622,1,0,0:0:0:0:
448,192,196809,1,0,0:0:0:0:
192,192,196903,1,0,0:0:0:0:
320,192,197184,1,0,0:0:0:60:bass.wav
448,192,197184,1,0,0:0:0:0:
64,192,197465,1,0,0:0:0:0:
320,192,197559,1,0,0:0:0:0:
64,192,197747,1,0,0:0:0:60:bass.wav
192,192,197747,1,0,0:0:0:0:
320,192,197934,1,0,0:0:0:60:bass.wav
448,192,197934,1,0,0:0:0:0:
64,192,198122,1,0,0:0:0:0:
320,192,198309,1,0,0:0:0:60:bass.wav
448,192,198309,1,0,0:0:0:0:
192,192,198403,1,0,0:0:0:0:
64,192,198497,1,0,0:0:0:0:
320,192,198684,1,0,0:0:0:0:
64,192,198872,1,0,0:0:0:60:bass.wav
192,192,198872,1,0,0:0:0:0:
320,192,199059,128,0,199153:0:0:0:0:
448,192,199059,128,0,199153:0:0:0:0:
64,192,199247,128,0,199528:0:0:0:0:
192,192,199247,128,0,199528:0:0:0:0:
320,192,199622,1,0,0:0:0:60:bass.wav
448,192,199622,1,0,0:0:0:0:
192,192,199809,1,0,0:0:0:0:
448,192,199903,1,0,0:0:0:0:
64,192,200184,1,0,0:0:0:60:bass.wav
192,192,200184,1,0,0:0:0:0:
320,192,200465,1,0,0:0:0:0:
64,192,200559,1,0,0:0:0:0:
320,192,200747,1,0,0:0:0:60:bass.wav
448,192,200747,1,0,0:0:0:0:
64,192,201309,1,0,0:0:0:60:bass.wav
192,192,201309,1,0,0:0:0:0:
448,192,201403,1,0,0:0:0:0:
320,192,201684,1,0,0:0:0:60:bass.wav
448,192,201684,1,0,0:0:0:0:
192,192,201965,1,0,0:0:0:0:
448,192,202059,1,0,0:0:0:0:
64,192,202247,1,0,0:0:0:60:bass.wav
192,192,202247,1,0,0:0:0:0:
448,192,202434,1,0,0:0:0:0:
64,192,202528,1,0,0:0:0:60:bass.wav
192,192,202528,1,0,0:0:0:0:
320,192,202622,1,0,0:0:0:60:bass.wav
448,192,202622,1,0,0:0:0:0:
192,192,202809,1,0,0:0:0:0:
448,192,202903,1,0,0:0:0:0:
64,192,203184,1,0,0:0:0:60:bass.wav
192,192,203184,1,0,0:0:0:0:
448,192,203465,1,0,0:0:0:0:
192,192,203559,1,0,0:0:0:0:
320,192,203747,1,0,0:0:0:60:bass.wav
448,192,203747,1,0,0:0:0:0:
448,192,204122,128,0,204309:0:0:0:0:
64,192,204309,128,0,204497:0:0:0:60:bass.wav
192,192,204309,1,0,0:0:0:0:
320,192,204497,128,0,204684:0:0:0:0:
192,192,204684,128,0,204872:0:0:0:60:bass.wav
448,192,204684,1,0,0:0:0:0:
64,192,204872,128,0,205434:0:0:0:0:
448,192,205059,128,0,205434:0:0:0:0:
320,192,205247,128,0,205434:0:0:0:0:
192,192,205434,1,0,0:0:0:0:
