osu file format v14

[General]
AudioFilename: audio.mp3
AudioLeadIn: 0
PreviewTime: 74761
Countdown: 0
SampleSet: None
StackLeniency: 0.7
Mode: 1
LetterboxInBreaks: 0
WidescreenStoryboard: 0

[Editor]
Bookmarks: 13124,39306,74215,91670,109124,127124,161488
DistanceSpacing: 0.8
BeatDivisor: 4
GridSize: 32
TimelineZoom: 2.6

[Metadata]
Title:Are We Still Young (Ft. Jessi Mason)
TitleUnicode:Are We Still Young (Ft. Jessi Mason)
Artist:Grant
ArtistUnicode:Grant
Creator:Ulqui
Version:Inner Oni
Source:
Tags:
BeatmapID:1324685
BeatmapSetID:628316

[Difficulty]
HPDrainRate:7
CircleSize:2
OverallDifficulty:4
ApproachRate:10
SliderMultiplier:1.4
SliderTickRate:1

[Events]
//Background and Video events
0,0,"17173-festivals-anime_girls-birds-dancing-musical_instrument-flowers.jpg",0,0
//Break Periods
2,109324,112493
2,114234,116584
2,157324,160765
//Storyboard Layer 0 (Background)
//Storyboard Layer 1 (Fail)
//Storyboard Layer 2 (Pass)
//Storyboard Layer 3 (Foreground)
//Storyboard Sound Samples

[TimingPoints]
34,272.727272727273,4,1,0,100,1,0
3852,-142.857142857143,4,1,0,100,0,0
4124,-166.666666666667,4,1,0,100,0,0
4397,-200,4,1,0,100,0,0
12443,-166.666666666667,4,1,0,100,0,0
12579,-142.857142857143,4,1,0,100,0,0
13124,-166.666666666667,4,1,0,100,0,0
21579,-142.857142857143,4,1,0,100,0,0
21852,-125,4,1,0,100,0,0
30306,-117.647058823529,4,1,0,100,0,0
30579,-111.111111111111,4,1,0,100,0,0
30852,-108.695652173913,4,1,0,100,0,0
30920,-106.382978723404,4,1,0,100,0,0
30988,-104.166666666667,4,1,0,100,0,0
31056,-102.040816326531,4,1,0,100,0,0
31124,-100,4,1,0,100,0,0
39306,-142.857142857143,4,1,0,100,0,0
47079,-125,4,1,0,100,0,0
47215,-111.111111111111,4,1,0,100,0,0
47352,-100,4,1,0,100,0,0
47488,-90.909090909091,4,1,0,100,0,0
47761,-111.111111111111,4,1,0,100,0,0
48034,-142.857142857143,4,1,0,100,0,0
55806,-153.846153846153,4,1,0,100,0,0
55943,-166.666666666667,4,1,0,100,0,0
56079,-181.818181818182,4,1,0,100,0,0
56215,-200,4,1,0,100,0,0
56488,-222.222222222222,4,1,0,100,0,0
56761,-250,4,1,0,100,0,0
57306,-125,4,1,0,100,0,0
73124,-111.111111111111,4,1,0,100,0,0
73261,-125,4,1,0,100,0,0
73397,-142.857142857143,4,1,0,100,0,0
73534,-166.666666666666,4,1,0,100,0,0
73670,-200,4,1,0,100,0,0
73943,-250,4,1,0,100,0,0
74215,-333.333333333333,4,1,0,100,0,0
74488,-166.666666666667,4,1,0,100,0,0
74624,-125,4,1,0,100,0,0
74761,-100,4,1,0,100,0,1
78170,-111.111111111111,4,1,0,100,0,1
78306,-125,4,1,0,100,0,1
78443,-142.857142857143,4,1,0,100,0,1
78579,-166.666666666667,4,1,0,100,0,0
78852,-125,4,1,0,100,0,0
79124,-100,4,1,0,100,0,1
82943,-50,4,1,0,100,0,0
83215,-125,4,1,0,100,0,0
83352,-111.111111111111,4,1,0,100,0,0
83488,-100,4,1,0,100,0,1
87034,-111.111111111111,4,1,0,100,0,0
87306,-125,4,1,0,100,0,0
87579,-108.695652173913,4,1,0,100,0,0
87647,-106.382978723404,4,1,0,100,0,0
87715,-104.166666666667,4,1,0,100,0,0
87784,-102.040816326531,4,1,0,100,0,0
87852,-100,4,1,0,100,0,1
91397,-111.111111111111,4,1,0,100,0,1
91670,-125,4,1,0,100,0,0
91806,-117.647058823529,4,1,0,100,0,0
92079,-111.111111111111,4,1,0,100,0,0
92215,-100,4,1,0,100,0,0
96034,-166.666666666667,4,1,0,100,0,0
96170,-142.857142857143,4,1,0,100,0,0
96306,-125,4,1,0,100,0,0
96443,-111.111111111111,4,1,0,100,0,0
96579,-100,4,1,0,100,0,1
100124,-111.111111111111,4,1,0,100,0,1
100397,-50,4,1,0,100,0,0
100670,-125,4,1,0,100,0,0
100806,-111.111111111111,4,1,0,100,0,0
100943,-100,4,1,0,100,0,0
101488,-100,4,1,0,100,0,0
103670,-111.111111111111,4,1,0,100,0,0
104215,-125,4,1,0,100,0,0
104761,-142.857142857143,4,1,0,100,0,0
105034,-111.111111111111,4,1,0,100,0,0
105306,-100,4,1,0,100,0,1
108034,-111.111111111111,4,1,0,100,0,0
108852,-125,4,1,0,100,0,0
109124,-142.857142857143,4,1,0,100,0,0
110215,-166.666666666667,4,1,0,100,0,0
111306,-200,4,1,0,100,0,0
112397,-250,4,1,0,100,0,0
115670,-200,4,1,0,100,0,0
116761,-166.666666666667,4,1,0,100,0,0
126579,-250.000000000001,4,1,0,100,0,0
127124,-142.857142857143,4,1,0,100,0,0
133943,-166.666666666667,4,1,0,100,0,0
134488,-200,4,1,0,100,0,0
135306,-142.857142857143,4,1,0,100,0,0
142670,-166.666666666667,4,1,0,100,0,0
143215,-200,4,1,0,100,0,0
143761,-250.000000000001,4,1,0,100,0,0
144579,-125,4,1,0,100,0,0
152215,-121.951219512195,4,1,0,100,0,0
152352,-119.047619047619,4,1,0,100,0,0
152488,-116.279069767442,4,1,0,100,0,0
152624,-113.636363636364,4,1,0,100,0,0
152761,-111.111111111111,4,1,0,100,0,0
161215,-99.9999999999999,4,1,0,100,0,0
161488,-90.9090909090909,4,1,0,100,0,1
162306,-100,4,1,0,100,0,0
162579,-90.9090909090909,4,1,0,100,0,1
163397,-100,4,1,0,100,0,0
163670,-90.9090909090909,4,1,0,100,0,1
164761,-100,4,1,0,100,0,0
164897,-111.111111111111,4,1,0,100,0,0
165170,-125,4,1,0,100,0,0
165306,-142.857142857143,4,1,0,100,0,0
165579,-111.111111111111,4,1,0,100,0,0
165852,-90.909090909091,4,1,0,100,0,1
169397,-100,4,1,0,100,0,1
169534,-111.111111111111,4,1,0,100,0,1
169670,-125,4,1,0,100,0,1
169943,-142.857142857143,4,1,0,100,0,0
170215,-90.9090909090909,4,1,0,100,0,1
170761,-90.9090909090909,4,1,0,100,0,0
170897,-100,4,1,0,100,0,0
171034,-111.111111111111,4,1,0,100,0,0
171306,-90.9090909090908,4,1,0,100,0,1
171852,-90.9090909090908,4,1,0,100,0,0
172124,-111.111111111111,4,1,0,100,0,0
172397,-90.9090909090908,4,1,0,100,0,1
172943,-90.9090909090908,4,1,0,100,0,0
173215,-111.111111111111,4,1,0,100,0,0
173488,-125,4,1,0,100,0,0
173624,-117.647058823529,4,1,0,100,0,0
173897,-111.111111111111,4,1,0,100,0,0
174034,-100,4,1,0,100,0,0
174579,-90.9090909090909,4,1,0,100,0,1
178124,-100,4,1,0,100,0,1
178397,-111.111111111111,4,1,0,100,0,1
178670,-50,4,1,0,100,0,0
179215,-111.111111111111,4,1,0,100,0,0
179352,-99.9999999999999,4,1,0,100,0,0
179488,-90.9090909090909,4,1,0,100,0,1
183034,-100,4,1,0,100,0,1
183170,-111.111111111111,4,1,0,100,0,1
183306,-125,4,1,0,100,0,0
183579,-100,4,1,0,100,0,0
183852,-90.9090909090909,4,1,0,100,0,1
187397,-100,4,1,0,100,0,1
187670,-50,4,1,0,100,0,0
187943,-111.111111111111,4,1,0,100,0,0
188079,-100,4,1,0,100,0,0
188215,-90.9090909090909,4,1,0,100,0,1
191488,-100,4,1,0,100,0,1
191761,-111.111111111111,4,1,0,100,0,1
192034,-125,4,1,0,100,0,0
192306,-100,4,1,0,100,0,0
192579,-90.9090909090909,4,1,0,100,0,1
196124,-111.111111111111,4,1,0,100,0,1
196397,-125,4,1,0,100,0,0
196943,-142.857142857143,4,1,0,100,0,0
204852,-166.666666666666,4,1,0,100,0,0
205124,-200,4,1,0,100,0,0
205670,-250.000000000001,4,1,0,100,0,0

[HitObjects]
160,160,3852,5,0,0:0:0:0:
160,160,4124,1,8,0:0:0:0:
160,160,4397,1,0,0:0:0:0:
192,64,4943,1,0,0:0:0:0:
192,64,5215,1,8,0:0:0:0:
192,64,5488,1,0,0:0:0:0:
192,64,5761,1,0,0:0:0:0:
192,64,6034,1,8,0:0:0:0:
192,64,6579,1,0,0:0:0:0:
192,64,7124,1,0,0:0:0:0:
192,64,7397,1,8,0:0:0:0:
192,64,7670,1,0,0:0:0:0:
192,64,7943,1,8,0:0:0:0:
192,64,8079,1,0,0:0:0:0:
192,64,8215,1,8,0:0:0:0:
192,64,8488,1,8,0:0:0:0:
192,64,8761,1,0,0:0:0:0:
192,64,9306,1,0,0:0:0:0:
192,64,9579,1,8,0:0:0:0:
192,64,9852,1,0,0:0:0:0:
192,64,10124,1,0,0:0:0:0:
192,64,10397,1,8,0:0:0:0:
192,64,10670,1,8,0:0:0:0:
192,64,10943,1,0,0:0:0:0:
192,32,11215,1,8,0:0:0:0:
192,64,11284,1,8,0:0:0:0:
192,32,11352,1,8,0:0:0:0:
192,64,11420,1,8,0:0:0:0:
192,64,11488,1,0,0:0:0:0:
224,64,11624,1,8,0:0:0:0:
192,64,11761,1,0,0:0:0:0:
192,64,12034,1,0,0:0:0:0:
192,64,12306,1,8,0:0:0:0:
192,64,12443,1,0,0:0:0:0:
192,64,12579,1,8,0:0:0:0:
128,128,12852,1,8,0:0:0:0:
160,128,13124,5,0,0:0:0:0:
160,128,13397,1,8,0:0:0:0:
160,32,13534,1,8,0:0:0:0:
160,128,13670,1,0,0:0:0:0:
160,128,13943,1,8,0:0:0:0:
160,128,14215,1,0,0:0:0:0:
160,32,14352,1,0,0:0:0:0:
160,128,14488,1,8,0:0:0:0:
160,32,14624,1,8,0:0:0:0:
160,128,14761,1,0,0:0:0:0:
160,128,15034,1,0,0:0:0:0:
160,32,15170,1,8,0:0:0:0:
160,96,15306,1,0,0:0:0:0:
160,96,15579,1,0,0:0:0:0:
160,96,15852,1,8,0:0:0:0:
160,32,15988,1,0,0:0:0:0:
160,32,16124,1,8,0:0:0:0:
160,32,16397,1,0,0:0:0:0:
160,32,16670,1,8,0:0:0:0:
160,32,16806,1,0,0:0:0:0:
160,32,16943,1,8,0:0:0:0:
192,32,17215,1,8,0:0:0:0:
192,32,17488,1,0,0:0:0:0:
192,96,17761,1,8,0:0:0:0:
192,96,17897,1,8,0:0:0:0:
192,96,18034,1,0,0:0:0:0:
192,96,18306,1,8,0:0:0:0:
192,96,18579,1,0,0:0:0:0:
192,96,18715,1,8,0:0:0:0:
192,96,18852,1,0,0:0:0:0:
192,96,18988,1,0,0:0:0:0:
192,96,19124,1,8,0:0:0:0:
192,96,19397,1,0,0:0:0:0:
192,96,19534,1,0,0:0:0:0:
192,96,19670,1,8,0:0:0:0:
192,96,19943,1,0,0:0:0:0:
192,96,20215,1,8,0:0:0:0:
192,96,20352,1,0,0:0:0:0:
192,96,20488,1,8,0:0:0:0:
160,64,20761,1,0,0:0:0:0:
160,64,21034,1,8,0:0:0:0:
160,64,21170,1,8,0:0:0:0:
160,64,21306,1,0,0:0:0:0:
160,64,21579,1,8,0:0:0:0:
160,64,21852,1,0,0:0:0:0:
224,32,22124,1,8,0:0:0:0:
224,32,22261,1,8,0:0:0:0:
224,32,22397,1,0,0:0:0:0:
192,32,22534,1,0,0:0:0:0:
192,32,22670,1,8,0:0:0:0:
128,64,22943,1,0,0:0:0:0:
128,64,23079,1,0,0:0:0:0:
160,160,23147,1,0,0:0:0:0:
128,64,23215,1,8,0:0:0:0:
128,64,23352,1,8,0:0:0:0:
128,64,23488,1,0,0:0:0:0:
192,32,23761,1,8,0:0:0:0:
192,32,23897,1,8,0:0:0:0:
192,32,24034,1,0,0:0:0:0:
192,32,24306,1,0,0:0:0:0:
192,32,24443,1,0,0:0:0:0:
192,32,24579,1,8,0:0:0:0:
192,32,24715,1,0,0:0:0:0:
192,32,24852,1,8,0:0:0:0:
192,32,25124,1,0,0:0:0:0:
192,64,25397,1,8,0:0:0:0:
192,64,25533,1,0,0:0:0:0:
192,64,25670,1,8,0:0:0:0:
224,64,25943,1,8,0:0:0:0:
224,64,26215,1,0,0:0:0:0:
192,128,26488,1,8,0:0:0:0:
192,128,26624,1,0,0:0:0:0:
192,128,26761,1,8,0:0:0:0:
192,128,26897,1,8,0:0:0:0:
192,128,27034,1,0,0:0:0:0:
192,128,27306,1,0,0:0:0:0:
192,128,27443,1,8,0:0:0:0:
224,96,27511,1,8,0:0:0:0:
192,128,27579,1,0,0:0:0:0:
192,128,27715,1,0,0:0:0:0:
192,128,27852,1,8,0:0:0:0:
192,128,27988,1,8,0:0:0:0:
192,128,28124,1,0,0:0:0:0:
160,64,28397,1,8,0:0:0:0:
160,64,28670,1,0,0:0:0:0:
160,64,28806,1,0,0:0:0:0:
192,64,28874,1,0,0:0:0:0:
160,64,28943,1,8,0:0:0:0:
192,64,29079,1,0,0:0:0:0:
160,64,29215,1,8,0:0:0:0:
160,64,29488,1,0,0:0:0:0:
160,64,29761,1,8,0:0:0:0:
160,64,29897,1,0,0:0:0:0:
160,64,30034,1,8,0:0:0:0:
160,64,30306,1,8,0:0:0:0:
160,96,30579,1,0,0:0:0:0:
64,224,30852,1,0,0:0:0:0:
64,224,30920,1,8,0:0:0:0:
64,224,30988,1,0,0:0:0:0:
64,224,31056,1,0,0:0:0:0:
64,224,31124,1,8,0:0:0:0:
128,96,31261,1,0,0:0:0:0:
128,96,31397,1,8,0:0:0:0:
160,32,31670,1,0,0:0:0:0:
160,64,31806,1,8,0:0:0:0:
160,64,31874,1,8,0:0:0:0:
160,64,31943,1,0,0:0:0:0:
160,64,32079,1,0,0:0:0:0:
160,64,32215,1,8,0:0:0:0:
160,64,32488,1,0,0:0:0:0:
160,64,32624,1,8,0:0:0:0:
160,64,32761,1,0,0:0:0:0:
192,32,33034,1,0,0:0:0:0:
192,32,33170,1,0,0:0:0:0:
192,32,33306,1,8,0:0:0:0:
192,32,33443,1,0,0:0:0:0:
192,32,33511,1,0,0:0:0:0:
192,32,33579,1,8,0:0:0:0:
192,64,33852,1,0,0:0:0:0:
192,64,33988,1,0,0:0:0:0:
192,64,34056,1,0,0:0:0:0:
192,64,34124,1,8,0:0:0:0:
192,32,34261,1,8,0:0:0:0:
192,32,34397,1,0,0:0:0:0:
192,32,34670,1,8,0:0:0:0:
192,32,34943,1,0,0:0:0:0:
160,128,35215,1,0,0:0:0:0:
160,128,35352,1,0,0:0:0:0:
160,128,35420,1,0,0:0:0:0:
160,160,35488,1,8,0:0:0:0:
192,64,35624,1,0,0:0:0:0:
192,64,35761,1,8,0:0:0:0:
192,64,35829,1,0,0:0:0:0:
192,64,35897,1,8,0:0:0:0:
192,64,35965,1,8,0:0:0:0:
192,64,36034,1,0,0:0:0:0:
192,32,36170,1,0,0:0:0:0:
160,0,36238,1,0,0:0:0:0:
192,32,36306,1,8,0:0:0:0:
192,32,36443,1,0,0:0:0:0:
192,32,36579,1,8,0:0:0:0:
192,32,36715,1,0,0:0:0:0:
224,96,36784,1,0,0:0:0:0:
192,32,36852,1,8,0:0:0:0:
192,32,36988,1,8,0:0:0:0:
192,32,37124,1,0,0:0:0:0:
192,32,37397,1,0,0:0:0:0:
192,32,37534,1,8,0:0:0:0:
224,96,37602,1,8,0:0:0:0:
192,32,37670,1,0,0:0:0:0:
160,32,37806,1,0,0:0:0:0:
192,32,37943,1,8,0:0:0:0:
192,32,38215,1,0,0:0:0:0:
192,32,38352,1,0,0:0:0:0:
160,32,38420,1,0,0:0:0:0:
128,32,38488,1,8,0:0:0:0:
160,32,38556,1,8,0:0:0:0:
160,32,38624,1,0,0:0:0:0:
160,32,38761,1,8,0:0:0:0:
160,32,39034,1,8,0:0:0:0:
192,64,39852,5,8,0:0:0:0:
160,224,40397,1,0,0:0:0:0:
160,224,40943,1,8,0:0:0:0:
160,224,41215,1,0,0:0:0:0:
160,224,41761,1,0,0:0:0:0:
160,224,42306,1,8,0:0:0:0:
160,224,42852,1,0,0:0:0:0:
192,64,43670,1,8,0:0:0:0:
192,96,44215,1,0,0:0:0:0:
192,96,44488,1,8,0:0:0:0:
192,64,45034,1,0,0:0:0:0:
192,64,45579,1,8,0:0:0:0:
192,64,45852,1,0,0:0:0:0:
224,64,46124,1,8,0:0:0:0:
224,96,46670,1,8,0:0:0:0:
192,32,46943,1,0,0:0:0:0:
160,32,47079,1,0,0:0:0:0:
224,96,47215,1,8,0:0:0:0:
160,32,47352,1,8,0:0:0:0:
192,96,47488,1,0,0:0:0:0:
192,96,47761,1,8,0:0:0:0:
192,32,48034,1,0,0:0:0:0:
192,128,48579,1,8,0:0:0:0:
192,128,48852,1,0,0:0:0:0:
192,128,49124,1,8,0:0:0:0:
128,96,49397,1,8,0:0:0:0:
128,96,49670,1,0,0:0:0:0:
128,96,49943,1,8,0:0:0:0:
128,96,50488,1,0,0:0:0:0:
128,96,50761,1,8,0:0:0:0:
128,96,51034,1,0,0:0:0:0:
160,96,51579,1,0,0:0:0:0:
160,96,51715,1,0,0:0:0:0:
160,96,51852,1,8,0:0:0:0:
192,64,51988,1,8,0:0:0:0:
160,96,52124,1,0,0:0:0:0:
160,96,52397,1,8,0:0:0:0:
192,96,52943,1,0,0:0:0:0:
192,96,53215,1,0,0:0:0:0:
192,96,53488,1,8,0:0:0:0:
192,96,53761,1,0,0:0:0:0:
192,96,54034,1,8,0:0:0:0:
192,96,54579,1,0,0:0:0:0:
192,96,54852,1,0,0:0:0:0:
192,96,55124,1,8,0:0:0:0:
192,96,55397,1,8,0:0:0:0:
192,96,55670,1,0,0:0:0:0:
224,64,55806,1,0,0:0:0:0:
224,64,55943,1,8,0:0:0:0:
224,64,56079,1,8,0:0:0:0:
224,64,56215,1,0,0:0:0:0:
224,64,56488,1,8,0:0:0:0:
224,64,56761,1,0,0:0:0:0:
128,224,57306,1,0,0:0:0:0:
128,96,57443,1,0,0:0:0:0:
128,96,57579,1,0,0:0:0:0:
128,96,57715,1,8,0:0:0:0:
128,96,57852,1,0,0:0:0:0:
192,64,57988,1,0,0:0:0:0:
192,64,58124,1,0,0:0:0:0:
192,64,58261,1,8,0:0:0:0:
192,64,58397,1,0,0:0:0:0:
192,64,58670,1,8,0:0:0:0:
192,64,58806,1,8,0:0:0:0:
192,64,58943,1,0,0:0:0:0:
160,32,59079,1,0,0:0:0:0:
160,32,59215,1,0,0:0:0:0:
160,32,59352,1,8,0:0:0:0:
160,32,59488,1,0,0:0:0:0:
160,32,59624,1,0,0:0:0:0:
160,32,59761,1,0,0:0:0:0:
160,32,59897,1,8,0:0:0:0:
160,32,60033,1,0,0:0:0:0:
192,32,60306,1,0,0:0:0:0:
192,0,60443,1,0,0:0:0:0:
192,32,60579,1,8,0:0:0:0:
160,32,60852,1,8,0:0:0:0:
160,32,60988,1,8,0:0:0:0:
160,32,61124,1,0,0:0:0:0:
192,64,61261,1,0,0:0:0:0:
192,64,61397,1,0,0:0:0:0:
192,64,61534,1,8,0:0:0:0:
192,64,61670,1,0,0:0:0:0:
192,64,61806,1,0,0:0:0:0:
192,64,61943,1,8,0:0:0:0:
192,64,62079,1,8,0:0:0:0:
224,64,62215,1,0,0:0:0:0:
224,128,62352,1,0,0:0:0:0:
224,128,62488,1,0,0:0:0:0:
224,128,62624,1,8,0:0:0:0:
224,128,62761,1,0,0:0:0:0:
224,128,63034,1,8,0:0:0:0:
224,128,63170,1,8,0:0:0:0:
192,96,63306,1,0,0:0:0:0:
192,32,63443,1,0,0:0:0:0:
192,32,63579,1,0,0:0:0:0:
192,32,63715,1,8,0:0:0:0:
192,32,63852,1,0,0:0:0:0:
192,32,63988,1,0,0:0:0:0:
192,32,64124,1,8,0:0:0:0:
192,32,64261,1,8,0:0:0:0:
192,32,64397,1,0,0:0:0:0:
192,64,64534,1,0,0:0:0:0:
192,64,64670,1,8,0:0:0:0:
192,64,64806,1,0,0:0:0:0:
192,64,64943,1,8,0:0:0:0:
160,32,65079,1,8,0:0:0:0:
160,64,65215,1,0,0:0:0:0:
160,64,65352,1,8,0:0:0:0:
160,64,65488,1,0,0:0:0:0:
160,96,65761,1,0,0:0:0:0:
160,64,66034,1,8,0:0:0:0:
160,96,66306,1,0,0:0:0:0:
160,96,66579,1,0,0:0:0:0:
160,96,66715,1,0,0:0:0:0:
160,96,66852,1,0,0:0:0:0:
160,96,67124,1,8,0:0:0:0:
192,64,67397,1,0,0:0:0:0:
160,96,67534,1,0,0:0:0:0:
160,64,67670,1,0,0:0:0:0:
160,64,67943,1,0,0:0:0:0:
160,64,68215,1,8,0:0:0:0:
160,64,68488,1,8,0:0:0:0:
160,96,68624,1,8,0:0:0:0:
160,64,68761,1,0,0:0:0:0:
160,64,69034,1,0,0:0:0:0:
160,64,69306,1,8,0:0:0:0:
160,64,69443,1,8,0:0:0:0:
160,64,69579,1,0,0:0:0:0:
160,32,69715,1,8,0:0:0:0:
224,64,69852,1,0,0:0:0:0:
224,64,69988,1,8,0:0:0:0:
224,64,70124,1,0,0:0:0:0:
224,64,70261,1,0,0:0:0:0:
224,64,70397,1,8,0:0:0:0:
224,64,70534,1,8,0:0:0:0:
192,32,70602,1,8,0:0:0:0:
160,32,70670,1,0,0:0:0:0:
224,64,70806,1,0,0:0:0:0:
192,32,70943,1,8,0:0:0:0:
192,32,71079,1,0,0:0:0:0:
160,64,71147,1,0,0:0:0:0:
192,32,71215,1,8,0:0:0:0:
192,32,71352,1,0,0:0:0:0:
192,32,71420,1,0,0:0:0:0:
192,32,71488,1,8,0:0:0:0:
160,64,71556,1,8,0:0:0:0:
192,32,71624,1,0,0:0:0:0:
160,64,71693,1,8,0:0:0:0:
192,32,71761,1,0,0:0:0:0:
192,32,71829,1,0,0:0:0:0:
192,32,71897,1,8,0:0:0:0:
192,32,71965,1,8,0:0:0:0:
192,32,72034,1,0,0:0:0:0:
128,128,73124,1,0,0:0:0:0:
128,128,73261,1,8,0:0:0:0:
128,128,73397,1,0,0:0:0:0:
128,128,73534,1,0,0:0:0:0:
128,128,73670,1,8,0:0:0:0:
128,128,73943,1,8,0:0:0:0:
128,128,74215,1,0,0:0:0:0:
128,128,74488,1,0,0:0:0:0:
128,128,74624,1,0,0:0:0:0:
128,128,74761,1,8,0:0:0:0:
192,32,74897,1,0,0:0:0:0:
192,32,74965,1,0,0:0:0:0:
192,32,75034,1,8,0:0:0:0:
192,96,75170,1,0,0:0:0:0:
192,96,75306,1,8,0:0:0:0:
192,64,75374,1,8,0:0:0:0:
192,64,75443,1,0,0:0:0:0:
192,64,75511,1,0,0:0:0:0:
192,64,75579,1,8,0:0:0:0:
192,32,75715,1,0,0:0:0:0:
192,32,75784,1,0,0:0:0:0:
192,32,75852,1,8,0:0:0:0:
192,0,75988,1,0,0:0:0:0:
192,0,76124,1,8,0:0:0:0:
192,0,76193,1,0,0:0:0:0:
192,0,76261,1,8,0:0:0:0:
192,0,76329,1,8,0:0:0:0:
192,0,76397,1,0,0:0:0:0:
160,0,76534,1,8,0:0:0:0:
160,32,76602,1,8,0:0:0:0:
160,32,76670,1,0,0:0:0:0:
160,32,76806,1,0,0:0:0:0:
160,32,76943,1,8,0:0:0:0:
160,32,77011,1,8,0:0:0:0:
160,32,77079,1,0,0:0:0:0:
192,64,77147,1,0,0:0:0:0:
160,32,77215,1,8,0:0:0:0:
160,64,77352,1,8,0:0:0:0:
192,64,77488,1,0,0:0:0:0:
160,64,77761,1,8,0:0:0:0:
160,64,77897,1,8,0:0:0:0:
160,64,78034,1,0,0:0:0:0:
160,64,78170,1,0,0:0:0:0:
160,64,78306,1,8,0:0:0:0:
160,64,78443,1,8,0:0:0:0:
160,64,78579,1,0,0:0:0:0:
160,32,78852,1,8,0:0:0:0:
160,32,79124,1,8,0:0:0:0:
192,64,79261,1,0,0:0:0:0:
192,64,79329,1,0,0:0:0:0:
192,64,79397,1,8,0:0:0:0:
192,64,79534,1,0,0:0:0:0:
192,64,79670,1,8,0:0:0:0:
192,64,79738,1,8,0:0:0:0:
192,64,79806,1,0,0:0:0:0:
192,64,79874,1,0,0:0:0:0:
192,64,79943,1,8,0:0:0:0:
192,96,80079,1,0,0:0:0:0:
192,64,80147,1,0,0:0:0:0:
192,96,80215,1,8,0:0:0:0:
192,64,80352,1,0,0:0:0:0:
192,64,80488,1,8,0:0:0:0:
160,64,80556,1,8,0:0:0:0:
160,64,80624,1,0,0:0:0:0:
192,64,80761,1,0,0:0:0:0:
192,64,80829,1,8,0:0:0:0:
192,64,80897,1,0,0:0:0:0:
192,64,80965,1,0,0:0:0:0:
192,64,81034,1,8,0:0:0:0:
192,64,81170,1,0,0:0:0:0:
192,64,81238,1,0,0:0:0:0:
192,64,81306,1,8,0:0:0:0:
160,96,81443,1,0,0:0:0:0:
160,96,81579,1,8,0:0:0:0:
160,96,81647,1,8,0:0:0:0:
160,96,81715,1,0,0:0:0:0:
192,96,81852,1,0,0:0:0:0:
192,96,82124,1,8,0:0:0:0:
192,96,82261,1,0,0:0:0:0:
192,96,82397,1,8,0:0:0:0:
192,96,82670,1,8,0:0:0:0:
192,160,82943,1,4,0:0:0:0:
224,96,83215,1,0,0:0:0:0:
224,96,83352,1,0,0:0:0:0:
224,96,83488,1,8,0:0:0:0:
128,224,83624,1,0,0:0:0:0:
128,224,83693,1,0,0:0:0:0:
192,96,83761,1,8,0:0:0:0:
160,160,83897,1,8,0:0:0:0:
160,160,84034,1,0,0:0:0:0:
192,64,84170,1,8,0:0:0:0:
192,32,84443,1,0,0:0:0:0:
192,32,84579,1,8,0:0:0:0:
192,64,84647,1,8,0:0:0:0:
160,64,84715,1,0,0:0:0:0:
192,64,84784,1,0,0:0:0:0:
160,64,84852,1,8,0:0:0:0:
160,64,84988,1,8,0:0:0:0:
192,32,85124,1,0,0:0:0:0:
192,64,85193,1,8,0:0:0:0:
192,32,85261,1,0,0:0:0:0:
192,32,85329,1,0,0:0:0:0:
192,32,85397,1,8,0:0:0:0:
160,64,85534,1,0,0:0:0:0:
160,64,85602,1,0,0:0:0:0:
160,64,85670,1,8,0:0:0:0:
160,64,85806,1,0,0:0:0:0:
160,64,85874,1,0,0:0:0:0:
160,64,85943,1,8,0:0:0:0:
192,64,86011,1,0,0:0:0:0:
160,64,86079,1,8,0:0:0:0:
160,64,86147,1,8,0:0:0:0:
160,64,86215,1,0,0:0:0:0:
192,64,86488,1,8,0:0:0:0:
192,64,86624,1,0,0:0:0:0:
192,96,86761,1,8,0:0:0:0:
192,64,87034,1,8,0:0:0:0:
192,64,87306,1,0,0:0:0:0:
192,64,87579,1,0,0:0:0:0:
192,64,87647,1,0,0:0:0:0:
192,64,87715,1,0,0:0:0:0:
192,64,87784,1,0,0:0:0:0:
192,64,87852,1,8,0:0:0:0:
128,32,87988,1,0,0:0:0:0:
128,32,88056,1,0,0:0:0:0:
160,64,88124,1,8,0:0:0:0:
160,96,88261,1,0,0:0:0:0:
192,32,88397,1,8,0:0:0:0:
192,64,88465,1,8,0:0:0:0:
192,64,88534,1,0,0:0:0:0:
192,64,88602,1,0,0:0:0:0:
192,64,88670,1,8,0:0:0:0:
192,32,88806,1,0,0:0:0:0:
192,64,88874,1,0,0:0:0:0:
192,32,88943,1,8,0:0:0:0:
192,64,89079,1,8,0:0:0:0:
192,96,89147,1,0,0:0:0:0:
192,64,89215,1,8,0:0:0:0:
192,96,89284,1,8,0:0:0:0:
192,96,89352,1,0,0:0:0:0:
192,64,89488,1,0,0:0:0:0:
192,64,89556,1,8,0:0:0:0:
192,32,89624,1,0,0:0:0:0:
192,32,89693,1,0,0:0:0:0:
192,32,89761,1,8,0:0:0:0:
192,32,89897,1,0,0:0:0:0:
192,32,89965,1,0,0:0:0:0:
192,32,90034,1,8,0:0:0:0:
192,32,90170,1,0,0:0:0:0:
192,32,90306,1,8,0:0:0:0:
192,64,90374,1,0,0:0:0:0:
192,64,90443,1,8,0:0:0:0:
192,64,90511,1,8,0:0:0:0:
160,32,90579,1,0,0:0:0:0:
192,64,90852,1,8,0:0:0:0:
192,64,90988,1,0,0:0:0:0:
192,64,91124,1,8,0:0:0:0:
192,64,91397,1,8,0:0:0:0:
224,64,91670,1,0,0:0:0:0:
192,32,91806,1,8,0:0:0:0:
192,32,92079,1,0,0:0:0:0:
192,32,92215,1,8,0:0:0:0:
192,64,92488,1,8,0:0:0:0:
160,64,92624,1,8,0:0:0:0:
192,64,92761,1,0,0:0:0:0:
192,96,92897,1,0,0:0:0:0:
192,96,92965,1,0,0:0:0:0:
192,96,93034,1,8,0:0:0:0:
192,96,93170,1,0,0:0:0:0:
192,96,93306,1,8,0:0:0:0:
192,32,93374,1,8,0:0:0:0:
192,32,93443,1,0,0:0:0:0:
192,32,93579,1,8,0:0:0:0:
224,64,93715,1,8,0:0:0:0:
192,32,93852,1,0,0:0:0:0:
192,64,93920,1,0,0:0:0:0:
192,64,93988,1,0,0:0:0:0:
192,64,94056,1,0,0:0:0:0:
192,64,94124,1,8,0:0:0:0:
192,64,94261,1,0,0:0:0:0:
192,64,94397,1,8,0:0:0:0:
224,96,94534,1,8,0:0:0:0:
224,96,94670,1,0,0:0:0:0:
224,64,94806,1,8,0:0:0:0:
192,64,94943,1,0,0:0:0:0:
160,32,95488,1,0,0:0:0:0:
192,32,96034,1,0,0:0:0:0:
160,0,96170,1,8,0:0:0:0:
160,0,96306,1,0,0:0:0:0:
160,0,96443,1,0,0:0:0:0:
192,0,96579,1,8,0:0:0:0:
160,96,96715,1,0,0:0:0:0:
160,96,96784,1,0,0:0:0:0:
160,96,96852,1,8,0:0:0:0:
160,32,96988,1,0,0:0:0:0:
160,32,97124,1,8,0:0:0:0:
192,32,97193,1,8,0:0:0:0:
192,32,97261,1,0,0:0:0:0:
192,32,97329,1,0,0:0:0:0:
192,32,97397,1,8,0:0:0:0:
160,64,97534,1,0,0:0:0:0:
160,64,97602,1,0,0:0:0:0:
160,64,97670,1,8,0:0:0:0:
160,64,97806,1,0,0:0:0:0:
160,32,97874,1,0,0:0:0:0:
160,32,97943,1,8,0:0:0:0:
160,32,98011,1,8,0:0:0:0:
160,32,98079,1,0,0:0:0:0:
160,32,98215,1,8,0:0:0:0:
160,32,98352,1,0,0:0:0:0:
160,32,98420,1,0,0:0:0:0:
160,0,98488,1,8,0:0:0:0:
160,0,98624,1,0,0:0:0:0:
192,0,98693,1,0,0:0:0:0:
192,0,98761,1,8,0:0:0:0:
192,32,98829,1,8,0:0:0:0:
192,0,98897,1,0,0:0:0:0:
192,0,99034,1,8,0:0:0:0:
160,128,99170,1,8,0:0:0:0:
160,96,99306,1,0,0:0:0:0:
160,96,99579,1,8,0:0:0:0:
160,96,99715,1,0,0:0:0:0:
160,96,99852,1,8,0:0:0:0:
160,96,100124,1,8,0:0:0:0:
192,64,100397,1,4,0:0:0:0:
160,96,100670,1,0,0:0:0:0:
160,96,100806,1,0,0:0:0:0:
160,96,100943,1,8,0:0:0:0:
160,96,101215,1,8,0:0:0:0:
224,64,101352,1,8,0:0:0:0:
160,96,101488,1,0,0:0:0:0:
224,64,101624,1,8,0:0:0:0:
160,64,101693,1,8,0:0:0:0:
224,64,101761,1,0,0:0:0:0:
192,64,101897,1,0,0:0:0:0:
192,64,102034,1,8,0:0:0:0:
160,64,102102,1,8,0:0:0:0:
192,32,102170,1,0,0:0:0:0:
160,96,102238,1,0,0:0:0:0:
160,96,102306,1,8,0:0:0:0:
192,64,102443,1,8,0:0:0:0:
192,64,102511,1,8,0:0:0:0:
192,64,102579,1,0,0:0:0:0:
224,64,102715,1,0,0:0:0:0:
224,64,102852,1,8,0:0:0:0:
192,32,102988,1,0,0:0:0:0:
192,0,103056,1,0,0:0:0:0:
192,32,103124,1,8,0:0:0:0:
192,32,103261,1,0,0:0:0:0:
192,32,103397,1,8,0:0:0:0:
192,32,103670,1,0,0:0:0:0:
192,64,104215,1,8,0:0:0:0:
224,64,104761,1,12,0:0:0:0:
192,64,105034,1,8,0:0:0:0:
192,64,105306,1,8,0:0:0:0:
160,96,105443,1,0,0:0:0:0:
160,96,105511,1,0,0:0:0:0:
160,64,105579,1,8,0:0:0:0:
160,96,105715,1,0,0:0:0:0:
160,96,105852,1,8,0:0:0:0:
160,96,105920,1,8,0:0:0:0:
192,32,105988,1,0,0:0:0:0:
192,32,106056,1,0,0:0:0:0:
192,32,106124,1,8,0:0:0:0:
192,32,106261,1,0,0:0:0:0:
192,32,106329,1,8,0:0:0:0:
192,64,106397,1,0,0:0:0:0:
192,32,106465,1,0,0:0:0:0:
192,32,106534,1,8,0:0:0:0:
160,32,106670,1,8,0:0:0:0:
160,32,106738,1,0,0:0:0:0:
160,32,106806,1,8,0:0:0:0:
160,32,106874,1,8,0:0:0:0:
160,32,106943,1,0,0:0:0:0:
192,0,107079,1,0,0:0:0:0:
192,0,107147,1,0,0:0:0:0:
192,0,107215,1,8,0:0:0:0:
192,0,107352,1,0,0:0:0:0:
192,0,107488,1,8,0:0:0:0:
192,0,107556,1,8,0:0:0:0:
192,0,107624,1,0,0:0:0:0:
192,32,107761,1,8,0:0:0:0:
192,128,108034,1,0,0:0:0:0:
160,32,108170,1,8,0:0:0:0:
160,32,108306,1,0,0:0:0:0:
160,32,108443,1,0,0:0:0:0:
160,32,108579,1,8,0:0:0:0:
160,32,108852,1,8,0:0:0:0:
192,32,109124,1,0,0:0:0:0:
160,32,112943,5,8,0:0:0:0:
160,64,113215,1,0,0:0:0:0:
192,64,114034,1,8,0:0:0:0:
160,64,117034,5,0,0:0:0:0:
160,64,117306,1,8,0:0:0:0:
160,32,117579,1,0,0:0:0:0:
192,64,118124,1,0,0:0:0:0:
256,192,118397,12,0,119352,0:0:0:0:
160,256,120579,5,0,0:0:0:0:
160,64,120852,1,8,0:0:0:0:
160,64,121534,1,0,0:0:0:0:
224,32,122215,5,8,0:0:0:0:
224,64,122761,1,8,0:0:0:0:
256,192,123034,12,0,123715,0:0:0:0:
224,32,123852,5,0,0:0:0:0:
256,192,124261,12,0,124806,0:0:0:0:
160,0,124943,5,0,0:0:0:0:
256,192,125215,12,0,125897,0:0:0:0:
192,64,126034,5,0,0:0:0:0:
192,64,126579,1,4,0:0:0:0:
32,96,127124,1,8,0:0:0:0:
128,128,127397,1,8,0:0:0:0:
128,128,127670,1,0,0:0:0:0:
192,64,127943,1,0,0:0:0:0:
192,64,128079,1,0,0:0:0:0:
192,96,128215,1,8,0:0:0:0:
192,64,128488,1,8,0:0:0:0:
192,64,128624,1,8,0:0:0:0:
192,96,128761,1,0,0:0:0:0:
192,96,129034,1,0,0:0:0:0:
192,96,129306,1,8,0:0:0:0:
192,64,129579,1,0,0:0:0:0:
192,64,129852,1,0,0:0:0:0:
192,64,129988,1,8,0:0:0:0:
192,32,130124,1,0,0:0:0:0:
192,64,130261,1,0,0:0:0:0:
192,64,130397,1,8,0:0:0:0:
192,64,130670,1,0,0:0:0:0:
192,32,130806,1,8,0:0:0:0:
192,32,130943,1,0,0:0:0:0:
192,96,131488,1,8,0:0:0:0:
192,96,131761,1,0,0:0:0:0:
192,96,131897,1,8,0:0:0:0:
192,96,132034,1,0,0:0:0:0:
192,32,132306,1,0,0:0:0:0:
192,32,132579,1,8,0:0:0:0:
192,64,132852,1,8,0:0:0:0:
192,64,133124,1,0,0:0:0:0:
192,64,133397,1,8,0:0:0:0:
160,32,133943,1,8,0:0:0:0:
256,192,134488,12,0,135170,0:0:0:0:
160,96,135306,5,0,0:0:0:0:
192,96,135443,1,8,0:0:0:0:
192,96,135579,1,0,0:0:0:0:
192,96,135852,1,8,0:0:0:0:
160,96,136124,1,0,0:0:0:0:
160,96,136261,1,0,0:0:0:0:
160,96,136397,1,8,0:0:0:0:
192,64,136670,1,0,0:0:0:0:
192,64,136943,1,8,0:0:0:0:
192,64,137079,1,8,0:0:0:0:
192,64,137215,1,0,0:0:0:0:
192,64,137352,1,8,0:0:0:0:
192,64,137488,1,0,0:0:0:0:
224,96,137761,1,0,0:0:0:0:
224,96,137897,1,0,0:0:0:0:
224,96,138034,1,8,0:0:0:0:
192,64,138306,1,0,0:0:0:0:
192,64,138579,1,8,0:0:0:0:
192,64,138852,1,0,0:0:0:0:
192,64,138988,1,0,0:0:0:0:
192,64,139124,1,8,0:0:0:0:
192,96,139261,1,8,0:0:0:0:
192,64,139397,1,0,0:0:0:0:
192,96,139534,1,8,0:0:0:0:
192,96,139670,1,0,0:0:0:0:
192,96,139943,1,0,0:0:0:0:
192,96,140215,1,8,0:0:0:0:
192,96,140352,1,8,0:0:0:0:
192,96,140488,1,0,0:0:0:0:
192,96,140761,1,0,0:0:0:0:
192,96,141034,1,8,0:0:0:0:
192,96,141170,1,8,0:0:0:0:
192,96,141306,1,0,0:0:0:0:
160,64,141579,1,8,0:0:0:0:
160,64,141852,1,0,0:0:0:0:
160,64,142124,1,8,0:0:0:0:
160,64,142670,1,8,0:0:0:0:
192,160,143215,1,8,0:0:0:0:
192,160,143761,1,0,0:0:0:0:
256,192,144034,12,0,144443,0:0:0:0:
160,96,144579,5,0,0:0:0:0:
224,32,144715,1,0,0:0:0:0:
192,160,144852,1,8,0:0:0:0:
192,160,144988,1,8,0:0:0:0:
192,160,145124,1,0,0:0:0:0:
160,32,145397,1,0,0:0:0:0:
160,64,145533,1,8,0:0:0:0:
160,64,145670,1,0,0:0:0:0:
192,64,145806,1,0,0:0:0:0:
192,64,145943,1,8,0:0:0:0:
192,64,146079,1,8,0:0:0:0:
192,64,146215,1,0,0:0:0:0:
192,64,146488,1,0,0:0:0:0:
192,64,146624,1,8,0:0:0:0:
192,64,146761,1,0,0:0:0:0:
192,32,147034,1,8,0:0:0:0:
192,32,147170,1,8,0:0:0:0:
192,32,147306,1,0,0:0:0:0:
192,32,147579,1,0,0:0:0:0:
192,32,147716,1,8,0:0:0:0:
192,32,147852,1,0,0:0:0:0:
224,64,147988,1,0,0:0:0:0:
224,64,148124,1,8,0:0:0:0:
224,64,148397,1,0,0:0:0:0:
192,32,148670,1,0,0:0:0:0:
192,32,148806,1,8,0:0:0:0:
192,32,148943,1,0,0:0:0:0:
160,32,149215,1,8,0:0:0:0:
160,32,149352,1,8,0:0:0:0:
160,32,149488,1,0,0:0:0:0:
192,64,149761,1,0,0:0:0:0:
192,64,149897,1,8,0:0:0:0:
192,64,150034,1,0,0:0:0:0:
192,64,150170,1,0,0:0:0:0:
192,64,150306,1,8,0:0:0:0:
192,64,150443,1,8,0:0:0:0:
192,64,150579,1,0,0:0:0:0:
192,160,150852,1,0,0:0:0:0:
192,160,150988,1,8,0:0:0:0:
192,160,151124,1,0,0:0:0:0:
192,96,151397,1,0,0:0:0:0:
192,96,151534,1,0,0:0:0:0:
192,32,151670,1,8,0:0:0:0:
192,96,151943,1,0,0:0:0:0:
192,96,152215,1,8,0:0:0:0:
192,96,152352,1,0,0:0:0:0:
192,96,152488,1,8,0:0:0:0:
192,96,152624,1,8,0:0:0:0:
192,96,152761,1,0,0:0:0:0:
192,96,153034,1,0,0:0:0:0:
192,96,153306,1,8,0:0:0:0:
192,96,153579,1,0,0:0:0:0:
192,96,153852,1,0,0:0:0:0:
192,32,154124,1,8,0:0:0:0:
192,32,154397,1,0,0:0:0:0:
192,32,154670,1,8,0:0:0:0:
192,32,154943,1,0,0:0:0:0:
192,32,155215,1,0,0:0:0:0:
192,32,155488,1,8,0:0:0:0:
160,64,155761,1,0,0:0:0:0:
160,64,156034,1,0,0:0:0:0:
160,64,156170,1,8,0:0:0:0:
160,64,156306,1,0,0:0:0:0:
160,64,156443,1,0,0:0:0:0:
160,64,156579,1,8,0:0:0:0:
160,64,156715,1,8,0:0:0:0:
160,64,156852,1,0,0:0:0:0:
160,64,156988,1,8,0:0:0:0:
160,64,157056,1,8,0:0:0:0:
160,64,157124,1,0,0:0:0:0:
288,128,161215,5,8,0:0:0:0:
256,128,161488,1,0,0:0:0:0:
192,192,161556,1,8,0:0:0:0:
192,192,161624,1,0,0:0:0:0:
192,192,161693,1,0,0:0:0:0:
192,192,161761,1,8,0:0:0:0:
192,192,161829,1,8,0:0:0:0:
192,192,161897,1,0,0:0:0:0:
192,192,161965,1,0,0:0:0:0:
192,192,162034,1,8,0:0:0:0:
192,192,162306,1,8,0:0:0:0:
192,192,162579,1,8,0:0:0:0:
192,192,162647,1,8,0:0:0:0:
192,192,162715,1,0,0:0:0:0:
192,192,162784,1,8,0:0:0:0:
192,192,162852,1,0,0:0:0:0:
192,192,162920,1,0,0:0:0:0:
192,192,162988,1,8,0:0:0:0:
192,192,163056,1,0,0:0:0:0:
192,192,163124,1,8,0:0:0:0:
192,192,163397,1,0,0:0:0:0:
192,192,163670,1,8,0:0:0:0:
192,192,163738,1,0,0:0:0:0:
192,192,163806,1,8,0:0:0:0:
192,192,163874,1,8,0:0:0:0:
192,192,163943,1,0,0:0:0:0:
192,192,164011,1,8,0:0:0:0:
192,192,164079,1,0,0:0:0:0:
192,192,164147,1,0,0:0:0:0:
192,192,164215,1,8,0:0:0:0:
192,192,164352,1,0,0:0:0:0:
160,32,164420,1,0,0:0:0:0:
192,192,164488,1,8,0:0:0:0:
192,192,164624,1,0,0:0:0:0:
192,192,164761,1,8,0:0:0:0:
192,192,164897,1,0,0:0:0:0:
192,192,165170,1,0,0:0:0:0:
192,192,165306,1,8,0:0:0:0:
192,64,165579,1,8,0:0:0:0:
160,32,165852,1,0,0:0:0:0:
160,96,165988,1,8,0:0:0:0:
160,96,166056,1,8,0:0:0:0:
192,128,166124,1,0,0:0:0:0:
192,32,166261,1,8,0:0:0:0:
192,32,166397,1,8,0:0:0:0:
192,32,166465,1,8,0:0:0:0:
192,32,166534,1,0,0:0:0:0:
192,32,166602,1,0,0:0:0:0:
192,32,166670,1,8,0:0:0:0:
192,64,166738,1,0,0:0:0:0:
192,64,166806,1,8,0:0:0:0:
192,64,166874,1,8,0:0:0:0:
192,64,166943,1,0,0:0:0:0:
224,32,167079,1,0,0:0:0:0:
224,32,167147,1,0,0:0:0:0:
192,32,167215,1,8,0:0:0:0:
224,32,167352,1,0,0:0:0:0:
224,32,167488,1,8,0:0:0:0:
192,64,167556,1,0,0:0:0:0:
192,64,167624,1,8,0:0:0:0:
192,64,167693,1,8,0:0:0:0:
192,64,167761,1,0,0:0:0:0:
192,64,167897,1,8,0:0:0:0:
192,64,168034,1,0,0:0:0:0:
160,96,168102,1,0,0:0:0:0:
160,96,168170,1,8,0:0:0:0:
160,96,168238,1,0,0:0:0:0:
192,32,168306,1,8,0:0:0:0:
192,32,168374,1,8,0:0:0:0:
192,32,168443,1,0,0:0:0:0:
192,64,168511,1,0,0:0:0:0:
192,64,168579,1,8,0:0:0:0:
192,32,168715,1,0,0:0:0:0:
192,32,168852,1,8,0:0:0:0:
160,64,168988,1,8,0:0:0:0:
160,64,169124,1,0,0:0:0:0:
192,32,169397,1,0,0:0:0:0:
192,32,169534,1,0,0:0:0:0:
192,32,169670,1,8,0:0:0:0:
192,32,169943,1,8,0:0:0:0:
192,32,170215,1,8,0:0:0:0:
224,128,170284,1,0,0:0:0:0:
224,128,170352,1,8,0:0:0:0:
224,128,170420,1,0,0:0:0:0:
224,128,170488,1,8,0:0:0:0:
224,128,170556,1,8,0:0:0:0:
224,128,170624,1,0,0:0:0:0:
224,128,170693,1,0,0:0:0:0:
224,128,170761,1,8,0:0:0:0:
224,128,170897,1,8,0:0:0:0:
224,128,171034,1,8,0:0:0:0:
192,0,171306,1,8,0:0:0:0:
192,128,171374,1,0,0:0:0:0:
192,128,171443,1,8,0:0:0:0:
192,128,171511,1,8,0:0:0:0:
192,128,171579,1,0,0:0:0:0:
192,128,171647,1,0,0:0:0:0:
192,128,171715,1,8,0:0:0:0:
192,128,171784,1,0,0:0:0:0:
192,128,171852,1,8,0:0:0:0:
192,128,172124,1,8,0:0:0:0:
192,96,172397,1,8,0:0:0:0:
192,96,172465,1,0,0:0:0:0:
192,96,172534,1,8,0:0:0:0:
192,96,172602,1,8,0:0:0:0:
192,96,172670,1,0,0:0:0:0:
192,96,172738,1,8,0:0:0:0:
192,96,172806,1,0,0:0:0:0:
192,96,172874,1,0,0:0:0:0:
192,96,172943,1,8,0:0:0:0:
192,96,173215,1,8,0:0:0:0:
192,96,173488,1,8,0:0:0:0:
192,96,173624,1,0,0:0:0:0:
192,96,173897,1,0,0:0:0:0:
192,32,174034,1,8,0:0:0:0:
128,96,174306,1,8,0:0:0:0:
128,96,174579,1,0,0:0:0:0:
64,96,174715,1,8,0:0:0:0:
64,96,174784,1,8,0:0:0:0:
160,32,174852,1,0,0:0:0:0:
160,64,174988,1,8,0:0:0:0:
192,64,175124,1,0,0:0:0:0:
192,64,175193,1,0,0:0:0:0:
192,64,175261,1,8,0:0:0:0:
192,64,175329,1,0,0:0:0:0:
192,64,175397,1,8,0:0:0:0:
192,64,175465,1,8,0:0:0:0:
192,64,175534,1,0,0:0:0:0:
192,64,175602,1,0,0:0:0:0:
192,64,175670,1,8,0:0:0:0:
192,64,175806,1,0,0:0:0:0:
192,64,175874,1,0,0:0:0:0:
192,64,175943,1,8,0:0:0:0:
192,64,176079,1,0,0:0:0:0:
192,64,176215,1,8,0:0:0:0:
192,64,176284,1,8,0:0:0:0:
192,64,176352,1,0,0:0:0:0:
192,64,176420,1,0,0:0:0:0:
192,64,176488,1,8,0:0:0:0:
192,64,176556,1,0,0:0:0:0:
192,64,176624,1,8,0:0:0:0:
192,64,176761,1,0,0:0:0:0:
192,64,176829,1,8,0:0:0:0:
192,64,176897,1,0,0:0:0:0:
160,32,176965,1,0,0:0:0:0:
160,32,177034,1,8,0:0:0:0:
160,32,177102,1,8,0:0:0:0:
160,32,177170,1,0,0:0:0:0:
160,32,177238,1,0,0:0:0:0:
160,32,177306,1,8,0:0:0:0:
160,32,177374,1,0,0:0:0:0:
160,32,177443,1,0,0:0:0:0:
160,32,177511,1,0,0:0:0:0:
160,32,177579,1,8,0:0:0:0:
160,32,177715,1,8,0:0:0:0:
160,32,177852,1,0,0:0:0:0:
224,32,178124,1,0,0:0:0:0:
192,32,178397,1,8,0:0:0:0:
160,32,178670,1,4,0:0:0:0:
160,64,179215,1,0,0:0:0:0:
160,64,179352,1,0,0:0:0:0:
160,64,179488,1,8,0:0:0:0:
256,128,179624,1,0,0:0:0:0:
224,160,179693,1,0,0:0:0:0:
224,160,179761,1,8,0:0:0:0:
224,160,179829,1,0,0:0:0:0:
224,160,179897,1,8,0:0:0:0:
224,160,179965,1,8,0:0:0:0:
224,160,180034,1,0,0:0:0:0:
192,32,180170,1,8,0:0:0:0:
192,32,180238,1,8,0:0:0:0:
192,32,180306,1,0,0:0:0:0:
192,32,180443,1,0,0:0:0:0:
192,32,180579,1,8,0:0:0:0:
192,32,180647,1,0,0:0:0:0:
192,32,180715,1,8,0:0:0:0:
192,32,180784,1,0,0:0:0:0:
192,32,180852,1,8,0:0:0:0:
192,32,180920,1,8,0:0:0:0:
160,32,180988,1,0,0:0:0:0:
192,32,181056,1,0,0:0:0:0:
160,32,181124,1,8,0:0:0:0:
192,32,181261,1,0,0:0:0:0:
192,32,181329,1,0,0:0:0:0:
192,32,181397,1,8,0:0:0:0:
160,64,181534,1,8,0:0:0:0:
160,32,181602,1,0,0:0:0:0:
160,64,181670,1,8,0:0:0:0:
192,32,181738,1,8,0:0:0:0:
192,32,181806,1,0,0:0:0:0:
192,32,181874,1,0,0:0:0:0:
160,32,181943,1,8,0:0:0:0:
160,64,182079,1,8,0:0:0:0:
160,64,182215,1,0,0:0:0:0:
160,64,182488,1,8,0:0:0:0:
160,64,182556,1,0,0:0:0:0:
160,64,182624,1,8,0:0:0:0:
160,64,182693,1,8,0:0:0:0:
160,64,182761,1,0,0:0:0:0:
160,32,182897,1,0,0:0:0:0:
192,32,183034,1,8,0:0:0:0:
192,32,183170,1,8,0:0:0:0:
192,32,183306,1,0,0:0:0:0:
192,160,183579,1,8,0:0:0:0:
160,64,183852,1,8,0:0:0:0:
192,128,183988,1,0,0:0:0:0:
192,128,184056,1,0,0:0:0:0:
192,128,184124,1,8,0:0:0:0:
192,64,184193,1,0,0:0:0:0:
192,64,184261,1,8,0:0:0:0:
192,64,184329,1,8,0:0:0:0:
192,32,184397,1,0,0:0:0:0:
192,64,184534,1,0,0:0:0:0:
192,64,184602,1,0,0:0:0:0:
192,64,184670,1,8,0:0:0:0:
192,64,184806,1,0,0:0:0:0:
192,64,184943,1,8,0:0:0:0:
192,64,185011,1,8,0:0:0:0:
192,64,185079,1,0,0:0:0:0:
192,64,185147,1,0,0:0:0:0:
192,64,185215,1,8,0:0:0:0:
192,32,185284,1,0,0:0:0:0:
192,32,185352,1,8,0:0:0:0:
192,32,185420,1,8,0:0:0:0:
192,32,185488,1,0,0:0:0:0:
256,64,185624,1,8,0:0:0:0:
192,32,185693,1,8,0:0:0:0:
160,64,185761,1,0,0:0:0:0:
160,64,185897,1,8,0:0:0:0:
192,64,185965,1,0,0:0:0:0:
160,64,186034,1,8,0:0:0:0:
160,32,186102,1,8,0:0:0:0:
160,32,186170,1,0,0:0:0:0:
160,32,186238,1,0,0:0:0:0:
192,32,186306,1,8,0:0:0:0:
192,64,186443,1,8,0:0:0:0:
192,32,186579,1,0,0:0:0:0:
192,32,186852,1,8,0:0:0:0:
160,32,186988,1,0,0:0:0:0:
160,32,187124,1,8,0:0:0:0:
192,0,187397,1,8,0:0:0:0:
192,0,187670,1,4,0:0:0:0:
96,96,187943,1,0,0:0:0:0:
96,96,188079,1,0,0:0:0:0:
96,96,188215,1,8,0:0:0:0:
160,96,188352,1,0,0:0:0:0:
160,96,188420,1,0,0:0:0:0:
160,96,188488,1,8,0:0:0:0:
160,96,188556,1,0,0:0:0:0:
160,96,188624,1,8,0:0:0:0:
160,96,188693,1,8,0:0:0:0:
160,96,188761,1,0,0:0:0:0:
192,64,188897,1,8,0:0:0:0:
192,32,188965,1,8,0:0:0:0:
192,64,189034,1,0,0:0:0:0:
160,64,189170,1,0,0:0:0:0:
160,64,189238,1,0,0:0:0:0:
160,64,189306,1,8,0:0:0:0:
192,32,189374,1,8,0:0:0:0:
192,32,189443,1,0,0:0:0:0:
192,32,189511,1,0,0:0:0:0:
192,32,189579,1,8,0:0:0:0:
224,32,189715,1,8,0:0:0:0:
224,32,189784,1,8,0:0:0:0:
224,32,189852,1,0,0:0:0:0:
192,0,189988,1,8,0:0:0:0:
192,0,190056,1,0,0:0:0:0:
192,0,190124,1,8,0:0:0:0:
192,64,190193,1,8,0:0:0:0:
192,64,190261,1,0,0:0:0:0:
192,64,190329,1,0,0:0:0:0:
160,32,190397,1,8,0:0:0:0:
224,32,190534,1,0,0:0:0:0:
224,64,190602,1,0,0:0:0:0:
192,64,190670,1,8,0:0:0:0:
192,64,190806,1,8,0:0:0:0:
192,64,190943,1,0,0:0:0:0:
192,64,191215,1,8,0:0:0:0:
192,64,191488,1,8,0:0:0:0:
192,32,191761,1,8,0:0:0:0:
192,32,192034,1,0,0:0:0:0:
128,96,192306,1,8,0:0:0:0:
128,96,192579,1,8,0:0:0:0:
224,160,192647,1,0,0:0:0:0:
224,160,192715,1,8,0:0:0:0:
224,160,192784,1,0,0:0:0:0:
224,160,192852,1,8,0:0:0:0:
224,160,192920,1,8,0:0:0:0:
224,160,192988,1,0,0:0:0:0:
224,160,193056,1,8,0:0:0:0:
224,160,193124,1,0,0:0:0:0:
224,32,193261,1,0,0:0:0:0:
192,32,193329,1,0,0:0:0:0:
160,0,193397,1,8,0:0:0:0:
192,96,193465,1,0,0:0:0:0:
192,96,193534,1,8,0:0:0:0:
192,96,193602,1,8,0:0:0:0:
192,96,193670,1,0,0:0:0:0:
192,64,193806,1,8,0:0:0:0:
192,64,193874,1,0,0:0:0:0:
192,64,193943,1,8,0:0:0:0:
192,128,194011,1,8,0:0:0:0:
192,128,194079,1,0,0:0:0:0:
192,128,194147,1,0,0:0:0:0:
192,128,194215,1,8,0:0:0:0:
256,96,194352,1,0,0:0:0:0:
192,32,194420,1,0,0:0:0:0:
256,96,194488,1,8,0:0:0:0:
224,128,194556,1,8,0:0:0:0:
192,64,194624,1,0,0:0:0:0:
224,96,194761,1,8,0:0:0:0:
224,96,194829,1,0,0:0:0:0:
224,96,194897,1,8,0:0:0:0:
224,96,194965,1,0,0:0:0:0:
224,96,195034,1,8,0:0:0:0:
192,32,195102,1,8,0:0:0:0:
192,32,195170,1,0,0:0:0:0:
192,32,195238,1,8,0:0:0:0:
192,32,195306,1,0,0:0:0:0:
256,128,195579,1,0,0:0:0:0:
256,128,195715,1,0,0:0:0:0:
256,128,195852,1,8,0:0:0:0:
224,96,196124,1,8,0:0:0:0:
224,96,196397,1,0,0:0:0:0:
160,96,196943,1,8,0:0:0:0:
192,96,197488,1,0,0:0:0:0:
224,96,197761,1,0,0:0:0:0:
192,96,198034,1,8,0:0:0:0:
192,96,198579,1,0,0:0:0:0:
192,96,199124,1,8,0:0:0:0:
192,96,199670,1,0,0:0:0:0:
224,32,199943,1,8,0:0:0:0:
224,32,200079,1,0,0:0:0:0:
192,96,200215,1,8,0:0:0:0:
192,64,200488,1,8,0:0:0:0:
192,96,200761,1,0,0:0:0:0:
192,96,201306,1,8,0:0:0:0:
192,96,201852,1,0,0:0:0:0:
192,64,202124,1,0,0:0:0:0:
192,96,202397,1,8,0:0:0:0:
192,96,202943,1,0,0:0:0:0:
192,96,203488,1,8,0:0:0:0:
192,96,204034,1,0,0:0:0:0:
224,64,204306,1,0,0:0:0:0:
192,32,204443,1,0,0:0:0:0:
192,96,204579,1,8,0:0:0:0:
192,32,204852,1,8,0:0:0:0:
192,96,205124,1,0,0:0:0:0:
160,64,205670,1,8,0:0:0:0:
256,128,205943,1,0,0:0:0:0:
256,128,206488,1,0,0:0:0:0:
224,128,206761,1,8,0:0:0:0:
256,128,207306,1,0,0:0:0:0:
224,64,207579,1,0,0:0:0:0:
224,128,207852,1,8,0:0:0:0:
256,128,208124,1,0,0:0:0:0:
256,128,208670,1,0,0:0:0:0:
256,128,208943,1,8,0:0:0:0:
256,128,209488,1,0,0:0:0:0:
256,128,210034,1,8,0:0:0:0:
256,128,210306,1,0,0:0:0:0:
224,96,210852,1,0,0:0:0:0:
224,96,211124,1,8,0:0:0:0:
224,96,211670,1,0,0:0:0:0:
224,64,211943,1,0,0:0:0:0:
224,96,212215,1,8,0:0:0:0:
224,96,212488,1,0,0:0:0:0:
160,96,213034,1,0,0:0:0:0:
192,32,213170,1,0,0:0:0:0:
160,96,213306,1,8,0:0:0:0:
160,64,213579,1,8,0:0:0:0:
