osu file format v14

[General]
AudioFilename: audio.mp3
AudioLeadIn: 0
PreviewTime: 277
Countdown: 0
SampleSet: None
StackLeniency: 0.2
Mode: 0
LetterboxInBreaks: 0
WidescreenStoryboard: 1

[Editor]
DistanceSpacing: 1.1
BeatDivisor: 8
GridSize: 8
TimelineZoom: 2.5

[Metadata]
Title:MAYBE I'LL BE CREEPER
TitleUnicode:MAYBE I'LL BE CREEPER
Artist:Grandayy
ArtistUnicode:Grandayy
Creator:schoolboy
Version:light insane
Source:
Tags:Maybe I'll Be Tracer I'm already Tracer What about Widowmaker? I'm already Widowmaker I'll be Bastion Nerf Bastion You're right. So, Winston I wanna be Winston I guess I'll be Genji I'm already Genji Then I'll be McCree I already chose McCree I have an idea What's your idea? minecraft tik tok hit or miss maybe ill be tracer
BeatmapID:1870548
BeatmapSetID:894128

[Difficulty]
HPDrainRate:5
CircleSize:4
OverallDifficulty:7
ApproachRate:8
SliderMultiplier:3.19999990463257
SliderTickRate:1

[Events]
//Background and Video events
0,0,"bg.jpg",0,0
Video,0,"vidya.mp4"
//Break Periods
//Storyboard Layer 0 (Background)
//Storyboard Layer 1 (Fail)
//Storyboard Layer 2 (Pass)
//Storyboard Layer 3 (Foreground)
//Storyboard Sound Samples

[TimingPoints]
358,645.161290322581,4,2,1,40,1,0
1003,-83.3333333333333,4,2,1,40,0,0
1245,-83.3333333333333,4,2,1,5,0,0
1325,-100,4,2,1,40,0,0
2293,-83.3333333333333,4,2,1,40,0,0
2535,-83.3333333333333,4,2,1,5,0,0
2616,-100,4,2,1,40,0,0
5519,-83.3333333333333,4,2,1,40,0,0
5761,-83.3333333333333,4,2,1,5,0,0
5841,-100,4,2,1,40,0,0
6164,-83.3333333333333,4,2,1,40,0,0
6406,-83.3333333333333,4,2,1,5,0,0
6487,-100,4,2,1,40,0,0
8099,-83.3333333333333,4,2,1,40,0,0
8341,-83.3333333333333,4,2,1,5,0,0
8422,-83.3333333333333,4,2,1,40,0,0
8745,-100,4,2,1,40,0,0
10035,-83.3333333333333,4,2,1,40,0,0
10277,-83.3333333333333,4,2,1,5,0,0
10357,-100,4,2,1,40,0,0
11325,-83.3333333333333,4,2,1,40,0,0
11567,-83.3333333333333,4,2,1,5,0,0
11648,-100,4,2,1,40,0,0
12938,-83.3333333333333,4,2,1,40,0,0
13180,-83.3333333333333,4,2,1,5,0,0
13261,-83.3333333333333,4,2,1,40,0,0
14148,-83.3333333333333,4,2,1,5,0,0
14228,-100,4,2,1,40,0,0
15519,-83.3333333333333,4,2,1,40,0,0
15841,-100,4,2,1,40,0,0
16728,-83.3333333333333,4,2,1,5,0,0
16809,-100,4,2,1,40,0,0
17132,-100,4,2,1,40,0,0
17374,-100,4,2,1,5,0,0
17454,-100,4,2,1,40,0,0
17777,-100,4,2,1,40,0,0
18422,-100,4,2,1,40,0,0
20116,645.161290322581,4,2,1,40,1,0
20116,-83.3333333333333,4,2,1,40,0,0
20339,645.161290322581,4,2,1,40,1,0
20339,-200,4,2,1,40,0,0
20985,322.58064516129,4,2,1,40,1,0
20985,-200,4,2,1,40,0,0
22597,-166.666666666667,4,2,1,40,0,0
22839,-166.666666666667,4,2,1,5,0,0
22920,-200,4,2,1,40,0,0
23484,-200,4,2,1,5,0,0
23565,-200,4,2,1,40,0,0
23807,-200,4,2,1,5,0,0
23888,-200,4,2,1,40,0,0
24049,-200,4,2,1,40,0,0
26791,-200,4,2,1,40,0,0
27194,-200,4,2,1,40,0,0
27355,-200,4,2,1,5,0,0
27436,-200,4,2,1,40,0,0
28081,-200,4,2,1,40,0,0
28323,-200,4,2,1,5,0,0
28404,-200,4,2,1,40,0,0
28726,-200,4,2,1,40,0,0
28968,-200,4,2,1,5,0,0
29049,-200,4,2,1,40,0,0
29210,-200,4,2,1,40,0,0
30017,-1000,4,2,1,40,0,0
30339,-1000,4,2,1,10,0,0

[Colours]
Combo1 : 91,255,173
Combo2 : 194,244,170
Combo3 : 36,236,121
Combo4 : 0,185,0

[HitObjects]
46,233,358,6,0,P|63:197|72:158,1,79.9999976158142
201,307,680,2,0,P|166:310|108:322,1,79.9999976158142
278,214,1003,2,0,L|447:240,1,143.999991313935
489,281,1325,1,0,0:0:0:0:
489,281,1648,6,0,P|498:239|514:200,1,79.9999976158142
416,37,1970,2,0,L|429:131,1,79.9999976158142
310,207,2293,2,0,P|240:202|201:145,1,143.999991313935
225,65,2616,1,0,0:0:0:0:
225,65,2938,6,0,L|138:80,1,79.9999976158142
17,167,3261,2,0,P|26:125|22:84,1,79.9999976158142
135,192,3583,1,0,0:0:0:0:
25,274,3745,1,0,0:0:0:0:
106,344,3906,2,0,P|151:332|197:333,1,79.9999976158142
394,293,4228,6,0,L|376:389,1,79.9999976158142
284,271,4551,1,0,0:0:0:0:
411,190,4712,1,0,0:0:0:0:
321,136,4874,2,0,P|305:89|311:35,1,79.9999976158142
490,260,5196,2,0,P|488:299|474:336,1,79.9999976158142
403,15,5519,5,0,0:0:0:0:
256,292,5841,1,0,0:0:0:0:
109,15,6164,2,0,P|32:28|16:104,1,143.999991313935
64,148,6487,2,0,P|116:137|167:139,1,79.9999976158142
290,13,6809,6,0,P|282:92|273:172,1,159.999995231628
421,266,7293,2,0,P|411:227|411:187,1,79.9999976158142
268,351,7696,1,0,0:0:0:0:
268,351,7777,2,0,P|215:337|168:343,1,79.9999976158142
0,258,8099,6,0,P|68:272|131:209,1,143.999991313935
164,159,8422,2,0,P|121:164|63:170,1,95.9999942092898
280,292,8745,2,0,P|294:224|306:197,1,79.9999976158142
149,357,9067,1,0,0:0:0:0:
439,205,9390,5,0,0:0:0:0:
431,182,9551,1,0,0:0:0:0:
456,65,9712,1,0,0:0:0:0:
464,42,9873,1,0,0:0:0:0:
331,127,10035,2,0,P|265:118|171:105,1,143.999991313935
123,156,10358,1,0,0:0:0:0:
123,156,10680,6,0,L|136:247,1,79.9999976158142
15,384,11003,2,0,P|16:346|45:294,1,79.9999976158142
312,305,11325,2,0,L|168:321,1,143.999991313935
98,364,11648,1,0,0:0:0:0:
380,128,11970,6,0,P|419:132|453:152,1,79.9999976158142
286,79,12293,2,0,L|274:-13,1,79.9999976158142
191,162,12616,2,0,P|138:188|60:172,1,119.999996423721
16,129,12938,1,0,0:0:0:0:
438,339,13261,5,0,0:0:0:0:
446,316,13422,1,0,0:0:0:0:
363,227,13583,1,0,0:0:0:0:
355,204,13744,1,0,0:0:0:0:
277,311,13906,2,0,B|211:300|200:338|135:329,1,143.999991313935
69,280,14228,1,0,0:0:0:0:
183,29,14551,6,0,L|200:112,1,79.9999976158142
281,41,14874,1,0,0:0:0:0:
305,34,15035,1,0,0:0:0:0:
101,93,15196,1,0,0:0:0:0:
77,100,15357,1,0,0:0:0:0:
251,224,15519,2,0,P|313:229|367:146,1,143.999991313935
437,233,15841,6,0,P|492:214|528:219,2,79.9999976158142
268,332,16325,1,0,0:0:0:0:
353,384,16487,2,0,P|343:304|336:224,1,159.999995231628
176,29,17132,6,0,P|113:71|122:146,1,159.999995231628
264,361,17616,1,0,0:0:0:0:
181,307,17777,2,0,B|106:294|111:356|30:348,1,159.999995231628
415,384,18422,6,0,P|437:310|511:290,2,159.999995231628
237,163,20116,5,0,0:0:0:0:
237,163,20339,5,0,0:0:0:0:
340,104,20500,1,0,0:0:0:0:
39,174,20661,1,0,0:0:0:0:
39,173,20985,6,0,P|112:192|131:266,1,159.999995231628
340,104,21468,1,0,0:0:0:0:
233,5,21630,2,0,P|231:85|225:165,1,159.999995231628
486,383,22275,6,0,P|487:303|493:223,1,159.999995231628
304,59,22920,2,0,L|314:149,1,79.9999976158142
328,239,23243,1,0,0:0:0:0:
13,363,23565,6,0,P|75:297|147:315,1,159.999995231628
84,101,24049,2,0,P|90:154|91:195,1,79.9999976158142
308,363,24452,1,0,0:0:0:0:
308,363,24533,2,0,P|310:323|315:283,1,79.9999976158142
411,195,24855,6,0,P|479:206|528:130,1,159.999995231628
304,66,25339,1,0,0:0:0:0:
424,0,25501,2,0,P|416:57|417:97,2,79.9999976158142
199,152,26146,6,0,B|129:167|121:118|42:137,1,159.999995231628
261,285,26630,2,0,B|331:270|339:319|417:299,1,159.999995231628
495,230,27114,2,0,P|501:189|509:151,1,79.9999976158142
423,40,27436,6,0,P|361:86|284:73,1,159.999995231628
43,179,27920,2,0,P|105:225|182:212,1,159.999995231628
281,297,28404,2,0,L|269:393,1,79.9999976158142
470,133,28726,5,0,0:0:0:0:
470,133,29049,5,0,0:0:0:0:
288,186,29210,2,0,L|194:170,1,79.9999976158142
439,267,29533,5,0,0:0:0:0:
164,97,29694,2,0,L|70:113,1,79.9999976158142
13,347,30017,6,0,L|18:379,1,31.9999990463257
