osu file format v14

[General]
AudioFilename: audio.mp3
AudioLeadIn: 0
PreviewTime: 182
Countdown: 0
SampleSet: Normal
StackLeniency: 0.7
Mode: 0
LetterboxInBreaks: 0
WidescreenStoryboard: 0

[Editor]
Bookmarks: 15871,26671,38271,54271
DistanceSpacing: 1.6
BeatDivisor: 12
GridSize: 16
TimelineZoom: 2.3

[Metadata]
Title:Axolotl in the Ocean
TitleUnicode:Axolotl in the Ocean
Artist:grandayy
ArtistUnicode:grandayy
Creator:wafer
Version:Axolotl in a Bucket
Source:
Tags:english hip hop hiphop hip-hop parody minecraft grandayy1899 goopert kami no kotoba danny magee phynta torriru mine craft akeruyri keysounds astronaut in the ocean apo11o apollo mrowswares
BeatmapID:3390574
BeatmapSetID:1660818

[Difficulty]
HPDrainRate:5.5
CircleSize:3.6
OverallDifficulty:8.8
ApproachRate:9
SliderMultiplier:1.6
SliderTickRate:1

[Events]
//Background and Video events
0,0,"wahedup2x.jpg",0,0
//Break Periods
//Storyboard Layer 0 (Background)
//Storyboard Layer 1 (Fail)
//Storyboard Layer 2 (Pass)
//Storyboard Layer 3 (Foreground)
//Storyboard Layer 4 (Overlay)
//Storyboard Sound Samples
Sample,1063,0,"wafer pitched.wav",40

[TimingPoints]
279,392.156862745098,4,1,3,40,1,0
1455,-133.333333333333,4,1,3,40,0,0
1749,-133.333333333333,4,1,3,5,0,0
1847,-133.333333333333,4,1,3,40,0,0
2141,-133.333333333333,4,1,3,5,0,0
2239,-117.647058823529,4,1,3,40,0,0
2533,-117.647058823529,4,1,3,5,0,0
2631,-117.647058823529,4,1,3,40,0,0
3071,400,4,1,2,70,1,0
3071,-40,4,1,2,70,0,0
3421,-40,4,1,2,5,0,0
3471,-40,4,1,2,70,0,0
3871,-45.4545454545455,4,1,2,70,0,0
4171,-45.4545454545455,4,1,2,5,0,0
4271,-100,4,1,2,70,0,0
4621,-100,4,1,2,5,0,0
4671,-40,4,1,2,70,0,0
4971,-45.4545454545455,4,1,2,5,0,0
5071,-50,4,1,2,70,0,0
5471,-33.3333333333333,4,1,2,70,0,0
5621,-33.3333333333333,4,1,2,5,0,0
5671,-66.6666666666667,4,1,2,70,0,0
5821,-33.3333333333333,4,1,2,5,0,0
5871,-33.3333333333333,4,1,2,70,0,0
6071,-66.6666666666667,4,1,2,70,0,0
6221,-66.6666666666667,4,1,2,5,0,0
6271,-40,4,1,2,70,0,0
6621,-40,4,1,2,5,0,0
6671,-40,4,1,2,70,0,0
7071,-45.4545454545455,4,1,2,70,0,0
7471,-40,4,1,2,70,0,0
7821,-100,4,1,2,70,0,0
7871,-40,4,1,2,70,0,0
8171,-45.4545454545455,4,1,2,5,0,0
8271,-50,4,1,2,70,0,0
8671,-33.3333333333333,4,1,2,70,0,0
8821,-33.3333333333333,4,1,2,5,0,0
8871,-50,4,1,2,70,0,0
9021,-33.3333333333333,4,1,2,5,0,0
9071,-33.3333333333333,4,1,2,70,0,0
9271,-100,4,1,2,70,0,0
9421,-66.6666666666667,4,1,2,5,0,0
9471,-40,4,1,2,70,0,0
10071,-100,4,1,2,70,0,0
10221,-100,4,1,2,5,0,0
10271,-50,4,1,2,70,0,0
10671,-45.4545454545455,4,1,2,70,0,0
10971,-45.4545454545455,4,1,2,5,0,0
11071,-66.6666666666667,4,1,2,70,0,0
11171,-66.6666666666667,4,1,2,5,0,0
11271,-66.6666666666667,4,1,2,70,0,0
11371,-66.6666666666667,4,1,2,5,0,0
11471,-45.4545454545455,4,1,2,70,0,0
11871,-33.3333333333333,4,1,2,70,0,0
12021,-33.3333333333333,4,1,2,5,0,0
12071,-66.6666666666667,4,1,2,70,0,0
12221,-66.6666666666667,4,1,2,5,0,0
12271,-33.3333333333333,4,1,2,70,0,0
12421,-33.3333333333333,4,1,2,5,0,0
12471,-66.6666666666667,4,1,2,70,0,0
12621,-66.6666666666667,4,1,2,5,0,0
12671,-40,4,1,2,70,0,0
13071,-100,4,1,2,70,0,0
14871,-50,4,1,2,70,0,0
15071,-40,4,1,2,70,0,0
15471,-66.6666666666667,4,1,2,70,0,0
15871,-40,4,1,2,70,0,0
16221,-40,4,1,2,5,0,0
16271,-40,4,1,2,70,0,0
16671,-45.4545454545455,4,1,2,70,0,0
16971,-45.4545454545455,4,1,2,5,0,0
17071,-100,4,1,2,70,0,0
17421,-100,4,1,2,5,0,0
17471,-40,4,1,2,70,0,0
17771,-45.4545454545455,4,1,2,5,0,0
17871,-50,4,1,2,70,0,0
18271,-33.3333333333333,4,1,2,70,0,0
18421,-33.3333333333333,4,1,2,5,0,0
18471,-66.6666666666667,4,1,2,70,0,0
18621,-33.3333333333333,4,1,2,5,0,0
18671,-33.3333333333333,4,1,2,70,0,0
18871,-66.6666666666667,4,1,2,70,0,0
19021,-66.6666666666667,4,1,2,5,0,0
19071,-40,4,1,2,70,0,0
19421,-40,4,1,2,5,0,0
19471,-40,4,1,2,70,0,0
19871,-45.4545454545455,4,1,2,70,0,0
20271,-40,4,1,2,70,0,0
20621,-100,4,1,2,70,0,0
20671,-40,4,1,2,70,0,0
20971,-45.4545454545455,4,1,2,5,0,0
21071,-50,4,1,2,70,0,0
21471,-33.3333333333333,4,1,2,70,0,0
21621,-33.3333333333333,4,1,2,5,0,0
21671,-50,4,1,2,70,0,0
21821,-33.3333333333333,4,1,2,5,0,0
21871,-33.3333333333333,4,1,2,70,0,0
22071,-100,4,1,2,70,0,0
22221,-66.6666666666667,4,1,2,5,0,0
22271,-35.7142857142857,4,1,2,70,0,0
22871,-100,4,1,2,70,0,0
23021,-100,4,1,2,5,0,0
23071,-50,4,1,2,70,0,0
23471,-45.4545454545455,4,1,2,70,0,0
23771,-45.4545454545455,4,1,2,5,0,0
23871,-66.6666666666667,4,1,2,70,0,0
23971,-66.6666666666667,4,1,2,5,0,0
24071,-66.6666666666667,4,1,2,70,0,0
24171,-66.6666666666667,4,1,2,5,0,0
24271,-45.4545454545455,4,1,2,70,0,0
24671,-33.3333333333333,4,1,2,70,0,0
24821,-33.3333333333333,4,1,2,5,0,0
24871,-66.6666666666667,4,1,2,70,0,0
25021,-66.6666666666667,4,1,2,5,0,0
25071,-33.3333333333333,4,1,2,70,0,0
25221,-33.3333333333333,4,1,2,5,0,0
25271,-66.6666666666667,4,1,2,70,0,0
25421,-66.6666666666667,4,1,2,5,0,0
25471,-40,4,1,3,40,0,0
25871,-100,4,1,3,40,0,0
26671,-57.1428571428571,4,1,2,60,0,0
27071,-76.9230769230769,4,1,2,60,0,0
27371,-76.9230769230769,4,1,2,5,0,0
27471,-76.9230769230769,4,1,2,60,0,0
28971,-76.9230769230769,4,1,2,5,0,0
29071,-76.9230769230769,4,1,2,60,0,0
31471,-66.6666666666667,4,1,2,60,0,0
31621,-66.6666666666667,4,1,2,5,0,0
31671,-66.6666666666667,4,1,2,60,0,0
31821,-66.6666666666667,4,1,2,5,0,0
31871,-66.6666666666667,4,1,2,60,0,0
32871,-133.333333333333,4,1,2,60,0,0
33071,-66.6666666666667,4,1,2,60,0,0
33471,-100,4,1,2,60,0,0
34671,-58.8235294117647,4,1,2,60,0,0
34871,-133.333333333333,4,1,2,60,0,0
35071,-66.6666666666667,4,1,2,60,0,0
36671,-66.6666666666667,4,1,2,40,0,0
38271,-133.333333333333,4,1,3,50,0,0
39871,-133.333333333333,4,1,4,50,0,0
41471,-133.333333333333,4,1,3,50,0,0
43071,-133.333333333333,4,1,4,50,0,0
43871,-133.333333333333,4,1,5,50,0,0
44671,-133.333333333333,4,1,3,50,0,0
46271,-133.333333333333,4,1,4,50,0,0
47871,-133.333333333333,4,1,3,50,0,0
49471,-133.333333333333,4,1,4,50,0,0
50271,-133.333333333333,4,1,5,50,0,0
50871,-133.333333333333,4,1,2,50,0,0
51471,392.156862745098,4,1,3,40,1,0
54271,400,4,1,2,70,1,0
54271,-40,4,1,2,70,0,0
54621,-40,4,1,2,5,0,0
54671,-40,4,1,2,70,0,0
55071,-45.4545454545455,4,1,2,70,0,0
55371,-45.4545454545455,4,1,2,5,0,0
55471,-100,4,1,2,70,0,0
55821,-100,4,1,2,5,0,0
55871,-40,4,1,2,70,0,0
56171,-45.4545454545455,4,1,2,5,0,0
56271,-50,4,1,2,70,0,0
56671,-33.3333333333333,4,1,2,70,0,0
56821,-33.3333333333333,4,1,2,5,0,0
56871,-66.6666666666667,4,1,2,70,0,0
57021,-33.3333333333333,4,1,2,5,0,0
57071,-33.3333333333333,4,1,2,70,0,0
57271,-66.6666666666667,4,1,2,70,0,0
57421,-66.6666666666667,4,1,2,5,0,0
57471,-40,4,1,2,70,0,0
57821,-40,4,1,2,5,0,0
57871,-40,4,1,2,70,0,0
58271,-45.4545454545455,4,1,2,70,0,0
58671,-40,4,1,2,70,0,0
59021,-100,4,1,2,70,0,0
59071,-40,4,1,2,70,0,0
59371,-45.4545454545455,4,1,2,5,0,0
59471,-50,4,1,2,70,0,0
59871,-33.3333333333333,4,1,2,70,0,0
60021,-33.3333333333333,4,1,2,5,0,0
60071,-50,4,1,2,70,0,0
60221,-33.3333333333333,4,1,2,5,0,0
60271,-33.3333333333333,4,1,2,70,0,0
60471,-100,4,1,2,70,0,0
60621,-66.6666666666667,4,1,2,5,0,0
60671,-40,4,1,2,70,0,0
61071,-55.5555555555556,4,1,2,70,0,0
61271,-100,4,1,2,70,0,0
61421,-100,4,1,2,5,0,0
61471,-50,4,1,2,70,0,0
61871,-45.4545454545455,4,1,2,70,0,0
62171,-45.4545454545455,4,1,2,5,0,0
62271,-66.6666666666667,4,1,2,70,0,0
62371,-66.6666666666667,4,1,2,5,0,0
62471,-66.6666666666667,4,1,2,70,0,0
62571,-66.6666666666667,4,1,2,5,0,0
62671,-45.4545454545455,4,1,2,70,0,0
63071,-33.3333333333333,4,1,2,70,0,0
63221,-33.3333333333333,4,1,2,5,0,0
63271,-66.6666666666667,4,1,2,70,0,0
63421,-66.6666666666667,4,1,2,5,0,0
63471,-33.3333333333333,4,1,2,70,0,0
63621,-33.3333333333333,4,1,2,5,0,0
63671,-66.6666666666667,4,1,2,70,0,0
63821,-66.6666666666667,4,1,2,5,0,0
63871,-40,4,1,2,70,0,0
64271,-100,4,1,2,70,0,0
66071,-50,4,1,2,70,0,0
66271,-40,4,1,2,70,0,0
66671,-66.6666666666667,4,1,2,70,0,0
67071,-40,4,1,2,70,0,0
67421,-40,4,1,2,70,0,0
67471,-40,4,1,2,70,0,0
67871,-45.4545454545455,4,1,2,70,0,0
68171,-45.4545454545455,4,1,2,5,0,0
68271,-100,4,1,2,70,0,0
68621,-100,4,1,2,5,0,0
68671,-40,4,1,2,70,0,0
68971,-45.4545454545455,4,1,2,5,0,0
69071,-50,4,1,2,70,0,0
69471,-33.3333333333333,4,1,2,70,0,0
69621,-33.3333333333333,4,1,2,5,0,0
69671,-66.6666666666667,4,1,2,70,0,0
69821,-33.3333333333333,4,1,2,5,0,0
69871,-33.3333333333333,4,1,2,70,0,0
70071,-66.6666666666667,4,1,2,70,0,0
70221,-66.6666666666667,4,1,2,5,0,0
70271,-40,4,1,2,70,0,0
70621,-40,4,1,2,5,0,0
70671,-40,4,1,2,70,0,0
71071,-45.4545454545455,4,1,2,70,0,0
71471,-40,4,1,2,70,0,0
71821,-100,4,1,2,70,0,0
71871,-40,4,1,2,70,0,0
72171,-45.4545454545455,4,1,2,5,0,0
72271,-50,4,1,2,70,0,0
72671,-33.3333333333333,4,1,2,70,0,0
72821,-33.3333333333333,4,1,2,5,0,0
72871,-50,4,1,2,70,0,0
73021,-33.3333333333333,4,1,2,5,0,0
73071,-33.3333333333333,4,1,2,70,0,0
73271,-100,4,1,2,70,0,0
73421,-66.6666666666667,4,1,2,5,0,0
73471,-35.7142857142857,4,1,2,70,0,0
73871,-55.5555555555556,4,1,2,70,0,0
74071,-100,4,1,2,70,0,0
74221,-100,4,1,2,5,0,0
74271,-50,4,1,2,70,0,0
74671,-45.4545454545455,4,1,2,70,0,0
74971,-45.4545454545455,4,1,2,5,0,0
75071,-66.6666666666667,4,1,2,70,0,0
75171,-66.6666666666667,4,1,2,5,0,0
75271,-66.6666666666667,4,1,2,70,0,0
75371,-66.6666666666667,4,1,2,5,0,0
75471,-45.4545454545455,4,1,2,70,0,0
75871,-33.3333333333333,4,1,2,70,0,0
76021,-33.3333333333333,4,1,2,5,0,0
76071,-66.6666666666667,4,1,2,70,0,0
76221,-66.6666666666667,4,1,2,5,0,0
76271,-33.3333333333333,4,1,2,70,0,0
76421,-33.3333333333333,4,1,2,5,0,0
76471,-66.6666666666667,4,1,2,70,0,0
76621,-66.6666666666667,4,1,2,5,0,0
76671,-40,4,1,4,40,0,0

[Colours]
Combo1 : 250,190,230
Combo2 : 130,200,230
Combo3 : 255,230,140
Combo4 : 170,245,170

[HitObjects]
44,64,279,5,4,0:2:0:0:
120,120,475,5,0,0:0:0:0:
256,48,671,5,0,0:0:0:0:
392,120,867,5,0,0:0:0:0:
468,64,1063,5,0,0:0:0:0:
392,119,1455,6,0,P|403:165|409:217,1,90.0000034332277
495,269,1847,6,0,P|501:224|511:180,1,90.0000034332277
352,264,2239,6,0,B|286:277|320:287|256:295,1,102.000001945496
252,303,2631,1,0,0:0:0:0:
267,381,2828,1,0,0:0:0:0:
38,215,3071,6,0,B|-7:239|24:342|160:349|244:259|212:154|127:176,1,350,12|0,0:3|0:0,0:0:0:0:
70,139,3471,6,0,P|72:91|112:63,1,100,8|0,0:1|0:0,0:0:0:0:
220,203,3671,2,0,P|257:210|271:214,2,50,8|0|8,0:3|0:0|0:1,0:0:0:0:
117,344,3871,6,0,P|148:245|223:101,1,264.000008056641,8|0,0:2|0:0,0:0:0:0:
504,70,4271,6,0,P|431:62|440:1,1,140,8|0,0:3|0:0,0:0:0:0:
432,9,4671,6,0,P|492:152|386:215,1,300,8|0,0:1|0:0,0:0:0:0:
119,52,5071,6,0,P|80:43|40:36,1,80,8|8,0:3|0:1,0:0:0:0:
42,52,5271,2,0,P|81:45|120:36,1,80,8|8,0:1|0:1,0:0:0:0:
304,105,5471,6,0,P|400:125|497:142,1,180.000006866455,8|0,0:2|0:0,0:0:0:0:
502,217,5671,2,0,B|511:236|497:260|497:260|494:237|482:217,1,90.0000034332277,8|0,0:3|0:0,0:0:0:0:
218,103,5871,6,0,P|261:29|347:26,1,180.000006866455,8|0,0:1|0:0,0:0:0:0:
439,54,6071,2,0,B|422:40|425:12|425:12|437:32|457:45,1,90.0000034332277,8|0,0:1|0:0,0:0:0:0:
258,181,6271,6,0,B|215:257|96:272|-6:191|26:55|164:102|149:163,1,350,8|0,0:3|0:0,0:0:0:0:
138,129,6671,6,0,P|136:177|96:205,1,100,8|0,0:1|0:0,0:0:0:0:
49,340,6871,2,0,P|12:347|-2:351,2,50,8|0|0,0:3|0:0|0:0,0:0:0:0:
121,384,7071,6,0,P|75:310|18:243,1,176.000005371094,8|8,0:2|0:1,0:0:0:0:
502,261,7471,6,0,P|490:313|423:327,1,100,8|0,0:3|0:0,0:0:0:0:
389,288,7671,2,0,P|401:236|468:222,1,100,8|0,0:1|0:0,0:0:0:0:
382,383,7871,6,0,P|325:245|299:98,1,300,8|0,0:1|0:0,0:0:0:0:
427,22,8271,6,0,P|466:13|506:6,1,80,8|8,0:3|0:1,0:0:0:0:
504,22,8471,2,0,P|465:15|426:6,1,80,8|8,0:1|0:1,0:0:0:0:
215,78,8671,6,0,P|119:58|22:41,1,180.000006866455,8|0,0:2|0:0,0:0:0:0:
42,35,8871,2,0,P|118:51|196:64,1,120,8|0,0:3|0:0,0:0:0:0:
350,196,9071,6,0,P|393:122|479:119,1,180.000006866455,8|0,0:1|0:0,0:0:0:0:
512,193,9271,2,0,B|529:202|511:244|491:210|500:193,1,60,8|0,0:1|0:0,0:0:0:0:
240,215,9471,6,0,P|335:237|384:321,2,200,8|8|8,0:3|0:1|0:1,0:0:0:0:
36,330,10071,2,0,P|14:337|26:316,1,60,8|0,0:3|0:0,0:0:0:0:
97,277,10271,6,0,B|238:257|179:374|329:350,1,240,8|0,0:2|0:0,0:0:0:0:
112,358,10671,2,0,B|258:358|182:246|338:250,1,264.000008056641,8|0,0:3|0:0,0:0:0:0:
510,323,11071,6,0,P|502:352|497:382,1,60.0000022888184,8|0,0:1|0:0,0:0:0:0:
435,305,11271,2,0,P|427:334|422:364,1,60.0000022888184,8|0,0:1|0:0,0:0:0:0:
286,171,11471,6,0,P|273:126|264:81,1,88.000002685547,10|8,0:3|0:1,0:0:0:0:
208,193,11671,2,0,P|196:150|187:107,1,88.000002685547,8|8,0:1|0:1,0:0:0:0:
378,7,11871,6,0,P|423:79|510:78,1,180.000006866455,8|0,0:2|0:0,0:0:0:0:
510,78,12071,2,0,P|462:89|444:125,1,90.0000034332277,8|0,0:3|0:0,0:0:0:0:
174,25,12271,6,0,P|128:97|41:96,1,180.000006866455,8|0,0:1|0:0,0:0:0:0:
42,96,12471,2,0,P|89:107|107:143,1,90.0000034332277,8|0,0:1|0:0,0:0:0:0:
2,355,12671,6,0,P|55:325|136:302,1,100,8|0,0:3|0:0,0:0:0:0:
147,252,12871,2,0,P|204:267|278:309,1,100,8|0,0:1|0:0,0:0:0:0:
481,375,13071,6,0,P|499:353|477:371,1,80,8|8,0:1|0:3,0:0:0:0:
10,197,13471,5,8,0:2:0:0:
106,141,13671,5,8,0:1:0:0:
256,288,13871,5,8,0:3:0:0:
406,141,14071,5,8,0:1:0:0:
502,197,14271,5,8,0:1:0:0:
502,197,14471,1,8,0:1:0:0:
320,27,14671,5,8,0:3:0:0:
271,46,14771,1,8,0:1:0:0:
256,96,14871,2,0,P|311:116|331:138,1,80,8|8,0:1|0:1,0:0:0:0:
245,378,15071,6,0,P|213:231|164:89,1,300,8|0,0:2|0:0,0:0:0:0:
91,55,15471,6,0,B|79:79|79:79|91:127,1,60.0000022888184,8|0,0:1|0:0,0:0:0:0:
228,220,15671,2,0,B|256:202|256:202|264:177,1,60.0000022888184,8|0,0:1|0:0,0:0:0:0:
5,222,15871,6,0,B|69:289|92:210|186:156|233:236|213:323|318:286,1,350,8|0,0:3|0:0,0:0:0:0:
368,227,16271,6,0,P|416:229|444:269,1,100,8|0,0:1|0:0,0:0:0:0:
245,378,16471,2,0,P|238:341|234:327,2,50,8|0|0,0:3|0:0|0:0,0:0:0:0:
389,331,16671,6,0,P|430:205|493:90,1,264.000008056641,8|0,0:2|0:0,0:0:0:0:
227,1,17071,6,0,P|173:35|203:92,1,140,8|0,0:3|0:0,0:0:0:0:
228,1,17471,6,0,P|123:115|21:46,1,300,8|0,0:1|0:0,0:0:0:0:
263,160,17871,6,0,P|299:175|338:189,1,80,8|0,0:3|0:0,0:0:0:0:
341,156,18071,2,0,P|304:171|265:185,1,80,8|8,0:1|0:1,0:0:0:0:
30,213,18271,6,0,P|114:244|197:279,1,180.000006866455,8|0,0:2|0:0,0:0:0:0:
265,322,18471,2,0,B|291:350|291:350|294:327|294:327|268:318,1,90.0000034332277,8|0,0:3|0:0,0:0:0:0:
20,298,18671,6,0,P|104:266|187:231,1,180.000006866455,8|0,0:1|0:0,0:0:0:0:
265,181,18871,2,0,B|291:152|291:152|294:175|294:175|268:184,1,90.0000034332277,8|0,0:1|0:0,0:0:0:0:
188,374,19071,6,0,P|223:202|242:26,1,350,8|0,0:3|0:0,0:0:0:0:
150,34,19471,6,0,P|152:82|192:110,1,100,8|0,0:1|0:0,0:0:0:0:
336,254,19671,2,0,P|373:261|387:265,2,50,8|0|8,0:3|0:0|0:1,0:0:0:0:
456,310,19871,6,0,P|460:215|373:184,1,176.000005371094,8|8,0:2|0:1,0:0:0:0:
73,107,20271,6,0,P|21:119|7:186,1,100,8|0,0:3|0:0,0:0:0:0:
47,222,20471,2,0,P|99:210|113:143,1,100,8|0,0:1|0:0,0:0:0:0:
136,28,20671,6,0,P|86:170|60:317,1,300,8|0,0:1|0:0,0:0:0:0:
270,375,21071,6,0,P|254:338|240:299,1,80,8|8,0:3|0:1,0:0:0:0:
274,297,21271,2,0,P|258:333|244:372,1,80,8|8,0:1|0:1,0:0:0:0:
399,100,21471,6,0,P|423:183|537:184,1,180.000006866455,8|0,0:2|0:0,0:0:0:0:
511,209,21671,2,0,P|467:217|392:148,1,120,8|0,0:3|0:0,0:0:0:0:
287,15,21871,6,0,P|203:34|180:116,1,180.000006866455,8|0,0:1|0:0,0:0:0:0:
191,193,22071,2,0,B|192:212|175:220|175:220|181:202|177:189,1,60,8|0,0:1|0:0,0:0:0:0:
92,140,22271,6,0,P|202:156|275:238,2,223.999993164063,8|0|8,0:3|0:0|0:1,0:0:0:0:
37,331,22871,2,0,P|13:336|27:317,1,60,8|0,0:3|0:0,0:0:0:0:
99,275,23071,6,0,B|119:134|2:193|26:43,1,240,8|0,0:2|0:0,0:0:0:0:
119,13,23471,2,0,B|119:159|7:83|11:239,1,264.000008056641,8|0,0:3|0:0,0:0:0:0:
218,377,23871,6,0,P|247:369|277:364,1,60.0000022888184,8|0,0:1|0:0,0:0:0:0:
258,289,24071,2,0,P|228:294|200:302,1,60.0000022888184,8|0,0:1|0:0,0:0:0:0:
420,89,24271,6,0,P|465:102|510:111,1,88.000002685547,10|8,0:3|0:1,0:0:0:0:
398,167,24471,2,0,P|441:179|484:188,1,88.000002685547,8|8,0:1|0:1,0:0:0:0:
357,0,24671,6,0,P|312:72|225:71,1,180.000006866455,8|0,0:3|0:0,0:0:0:0:
225,71,24871,2,0,P|273:82|291:118,1,90.0000034332277,8|0,0:3|0:0,0:0:0:0:
366,373,25071,6,0,P|411:301|498:302,1,180.000006866455,8|0,0:1|0:0,0:0:0:0:
498,302,25271,2,0,P|450:291|432:255,1,90.0000034332277,8|0,0:1|0:0,0:0:0:0:
510,29,25471,6,0,P|457:59|376:82,1,100,4|0,0:3|0:0,0:0:0:0:
418,81,25671,1,0,0:0:0:0:
32,192,25871,5,0,0:0:0:0:
3,178,25971,1,0,0:0:0:0:
480,192,26271,5,0,0:0:0:0:
509,178,26371,1,0,0:0:0:0:
3,178,26671,6,0,B|47:157|83:192|56:201|92:236|168:211,1,140.000001335144,8|8,0:3|0:1,0:0:0:0:
234,311,27071,2,0,P|217:241|194:145,1,155.999992858887,8|0,0:1|0:0,0:0:0:0:
197,159,27471,6,0,P|236:170|281:185,1,51.999997619629,8|0,0:3|0:0,0:0:0:0:
319,200,27671,1,8,0:1:0:0:
194,72,27871,6,0,P|155:83|110:98,1,51.999997619629,8|0,0:2|0:0,0:0:0:0:
148,65,28071,2,0,P|187:76|232:91,1,51.999997619629,8|0,0:3|0:0,0:0:0:0:
185,156,28271,1,8,0:1:0:0:
377,30,28471,1,8,0:1:0:0:
512,207,28671,6,0,B|468:186|428:222|453:227|420:270|347:240,1,155.999992858887,8|0,0:3|0:0,0:0:0:0:
331,309,29071,1,8,0:1:0:0:
104,263,29271,1,8,0:3:0:0:
62,294,29371,1,0,0:0:0:0:
67,345,29471,1,8,0:2:0:0:
219,284,29671,1,8,0:1:0:0:
66,132,29871,6,0,P|62:162|54:192,1,51.999997619629,8|0,0:3|0:0,0:0:0:0:
135,190,30071,2,0,P|138:159|146:129,1,51.999997619629
214,99,30271,2,0,P|274:78|274:24,1,103.999995239258,8|8,0:1|0:1,0:0:0:0:
472,87,30671,5,8,0:3:0:0:
420,79,30771,1,8,0:1:0:0:
387,118,30871,1,8,0:1:0:0:
497,317,31071,1,8,0:2:0:0:
310,225,31271,2,0,P|316:199|319:174,1,51.999997619629,8|0,0:3|0:0,0:0:0:0:
276,312,31471,6,0,P|230:301|179:295,1,90.0000034332277,8|0,0:1|0:0,0:0:0:0:
149,215,31671,6,0,P|194:209|238:199,1,90.0000034332277,8|0,0:1|0:0,0:0:0:0:
314,233,31871,6,0,B|397:249|347:269|426:280,1,120.000004577637,8|0,0:3|0:0,0:0:0:0:
126,355,32271,5,8,0:1:0:0:
419,194,32471,1,8,0:3:0:0:
179,78,32671,5,8,0:2:0:0:
128,92,32771,1,8,0:1:0:0:
107,131,32871,2,0,B|100:138|97:149|97:149|89:138|101:123,1,45.0000017166138,8|0,0:1|0:0,0:0:0:0:
57,54,33071,6,0,P|78:170|92:273,1,180.000006866455,8|0,0:3|0:0,0:0:0:0:
2,354,33471,6,0,P|21:319|59:304,1,80,8|8,0:1|0:1,0:0:0:0:
319,326,33871,5,8,0:3:0:0:
352,365,33971,1,8,0:1:0:0:
404,357,34071,1,8,0:1:0:0:
484,132,34271,1,8,0:2:0:0:
238,275,34471,1,8,0:3:0:0:
492,324,34671,6,0,P|480:259|472:201,1,102.000001945496
475,223,34871,6,0,P|491:242|519:246,1,45.0000017166138,8|0,0:1|0:0,0:0:0:0:
411,170,35071,2,0,P|350:179|322:233,1,120.000004577637,8|8,0:3|0:1,0:0:0:0:
60,303,35471,5,8,0:3:0:0:
21,270,35571,1,8,0:1:0:0:
29,218,35671,1,8,0:3:0:0:
260,142,35871,1,8,0:2:0:0:
111,363,36071,1,8,0:1:0:0:
239,316,36271,6,0,P|224:221|221:207,1,90.0000034332277,8|0,0:3|0:0,0:0:0:0:
166,179,36471,2,0,P|180:84|183:70,1,90.0000034332277,8|0,0:1|0:0,0:0:0:0:
238,43,36671,5,8,0:1:0:0:
94,116,36871,1,8,0:1:0:0:
145,21,37071,1,8,0:3:0:0:
145,21,37171,1,8,0:1:0:0:
145,21,37271,1,8,0:1:0:0:
260,142,37471,2,0,L|325:127,1,60.0000022888184,8|0,0:2|0:0,0:0:0:0:
399,171,37671,1,8,0:3:0:0:
399,171,37771,1,8,0:1:0:0:
399,171,37871,1,8,0:1:0:0:
462,96,38071,1,8,0:1:0:0:
326,207,38271,6,0,L|319:284,1,60.0000022888184,2|0,0:1|0:0,0:0:0:0:
312,264,38671,2,0,L|317:204,1,60.0000022888184,2|0,0:1|0:0,0:0:0:0:
462,296,39071,6,0,L|469:373,1,60.0000022888184,2|0,0:2|0:0,0:0:0:0:
476,353,39471,2,0,L|471:293,1,60.0000022888184,2|0,0:2|0:0,0:0:0:0:
221,195,39871,5,2,0:1:0:0:
215,254,40071,1,0,0:0:0:0:
228,258,40271,1,2,0:1:0:0:
233,198,40471,1,0,0:0:0:0:
447,143,40671,5,2,0:2:0:0:
452,202,40871,1,0,0:0:0:0:
456,140,41071,2,0,L|461:200,1,60.0000022888184,2|0,0:2|0:0,0:0:0:0:
282,343,41471,6,0,L|222:348,1,60.0000022888184,2|0,0:0|0:0,0:0:0:0:
219,339,41871,2,0,L|279:334,1,60.0000022888184,2|0,0:0|0:0,0:0:0:0:
111,267,42271,5,2,0:2:0:0:
52,262,42471,1,0,0:0:0:0:
114,258,42671,2,0,L|54:253,1,60.0000022888184,2|0,0:2|0:0,0:0:0:0:
179,138,43071,5,2,0:0:0:0:
238,132,43271,1,0,0:0:0:0:
242,145,43471,1,2,0:0:0:0:
182,150,43671,1,0,0:0:0:0:
103,49,43871,5,2,0:0:0:0:
44,44,44071,1,0,0:0:0:0:
106,40,44271,2,0,L|46:35,1,60.0000022888184,2|0,0:0|0:0,0:0:0:0:
254,150,44671,5,2,0:0:0:0:
277,141,44771,1,0,0:0:0:0:
273,118,44871,1,0,0:0:0:0:
162,238,45071,2,0,L|222:233,1,60.0000022888184,2|0,0:0|0:0,0:0:0:0:
339,300,45471,5,2,0:2:0:0:
344,359,45671,1,0,0:0:0:0:
348,297,45871,2,0,L|353:357,1,60.0000022888184,2|0,0:2|0:0,0:0:0:0:
422,219,46271,5,2,0:0:0:0:
481,225,46471,1,0,0:0:0:0:
485,212,46671,1,2,0:0:0:0:
449,208,46871,2,0,L|416:203,1,30.0000011444092
346,91,47071,5,2,0:2:0:0:
341,150,47271,1,0,0:0:0:0:
337,88,47471,2,0,L|332:148,1,60.0000022888184,2|0,0:2|0:0,0:0:0:0:
190,79,47871,5,2,0:0:0:0:
131,85,48071,1,0,0:0:0:0:
127,72,48271,1,2,0:0:0:0:
161,69,48371,1,0,0:0:0:0:
187,67,48471,1,0,0:0:0:0:
60,207,48671,5,2,0:2:0:0:
55,148,48871,1,0,0:0:0:0:
51,210,49071,2,0,L|46:150,1,60.0000022888184,2|0,0:2|0:0,0:0:0:0:
175,285,49404,5,0,0:0:0:0:
166,262,49504,1,0,0:0:0:0:
143,266,49604,1,0,0:0:0:0:
337,285,49737,5,0,0:0:0:0:
346,262,49871,5,2,0:0:0:0:
369,266,50004,5,0,0:0:0:0:
256,368,50271,5,2,0:0:0:0:
256,256,50471,1,0,0:0:0:0:
256,144,50671,1,6,0:0:0:0:
256,144,50871,1,0,0:0:0:0:
468,64,51471,5,4,0:2:0:0:
276,57,51667,5,0,0:0:0:0:
400,249,51863,5,0,0:0:0:0:
477,168,52059,5,0,0:0:0:0:
256,240,52255,5,0,0:0:0:0:
44,64,52647,5,0,0:0:0:0:
236,57,53039,5,0,0:0:0:0:
112,249,53431,5,0,0:0:0:0:
35,168,53823,5,0,0:0:0:0:
256,240,54020,1,0,0:0:0:0:
484,99,54271,6,0,B|500:167|465:264|342:270|265:189|293:90|386:96|382:153,1,350,12|0,0:3|0:0,0:0:0:0:
373,128,54671,6,0,P|325:126|297:86,1,100,8|0,0:1|0:0,0:0:0:0:
411,53,54871,2,0,P|404:16|400:2,2,50,8|0|8,0:3|0:0|0:1,0:0:0:0:
500,188,55071,6,0,P|372:221|305:329,1,264.000008056641,8|0,0:2|0:0,0:0:0:0:
512,344,55471,6,0,P|442:320|466:265,1,140,8|0,0:3|0:0,0:0:0:0:
456,271,55871,6,0,B|406:319|372:101|183:226|230:104,1,300,8|0,0:1|0:0,0:0:0:0:
120,38,56271,6,0,P|81:47|43:68,1,80,8|8,0:3|0:1,0:0:0:0:
123,53,56471,2,0,P|84:44|46:23,1,80,8|8,0:1|0:1,0:0:0:0:
0,157,56671,6,0,P|104:168|142:244,1,180.000006866455,8|0,0:2|0:0,0:0:0:0:
91,287,56871,2,0,B|74:300|77:328|77:328|89:308|109:295,1,90.0000034332277,8|0,0:3|0:0,0:0:0:0:
225,119,57071,6,0,P|268:193|354:196,1,180.000006866455,8|0,0:1|0:0,0:0:0:0:
421,261,57271,2,0,B|438:275|435:303|435:303|423:283|403:270,1,90.0000034332277,8|0,0:1|0:0,0:0:0:0:
510,128,57471,6,0,B|521:163|490:255|367:261|290:180|315:64|420:64,1,350,8|0,0:3|0:0,0:0:0:0:
336,3,57871,6,0,P|287:-5|241:30,1,100,8|0,0:1|0:0,0:0:0:0:
129,117,58071,2,0,P|122:80|118:66,2,50,8|0|0,0:3|0:0|0:0,0:0:0:0:
56,168,58271,6,0,P|141:146|228:133,1,176.000005371094,8|8,0:2|0:1,0:0:0:0:
496,310,58671,6,0,P|484:258|417:244,1,100,8|0,0:3|0:0,0:0:0:0:
383,283,58871,2,0,P|395:335|462:349,1,100,8|0,0:1|0:0,0:0:0:0:
512,142,59071,6,0,P|398:244|237:247,1,300,8|0,0:1|0:0,0:0:0:0:
120,346,59471,6,0,P|81:337|43:316,1,80,8|8,0:3|0:1,0:0:0:0:
123,331,59671,2,0,P|84:340|46:361,1,80,8|8,0:1|0:1,0:0:0:0:
196,183,59871,6,0,P|216:279|233:376,1,180.000006866455,8|0,0:2|0:0,0:0:0:0:
239,353,60071,2,0,P|223:277|213:204,1,120,8|0,0:3|0:0,0:0:0:0:
11,47,60271,6,0,P|54:121|140:124,1,180.000006866455,8|0,0:1|0:0,0:0:0:0:
198,71,60471,2,0,B|224:70|210:21|182:49|186:67,1,60,8|0,0:1|0:0,0:0:0:0:
126,212,60671,6,0,P|171:130|289:116,1,200,8|8,0:3|0:1,0:0:0:0:
487,316,61071,6,0,P|435:305|405:263,1,107.999996704102,8|0,0:1|0:0,0:0:0:0:
468,224,61271,2,0,P|491:229|477:210,1,60,8|0,0:3|0:0,0:0:0:0:
405,263,61471,6,0,B|264:243|323:360|173:336,1,240,8|0,0:2|0:0,0:0:0:0:
386,364,61871,2,0,B|235:345|328:241|167:224,1,264.000008056641,8|0,0:3|0:0,0:0:0:0:
2,61,62271,6,0,P|10:32|15:2,1,60.0000022888184,8|0,0:1|0:0,0:0:0:0:
77,79,62471,2,0,P|85:50|90:20,1,60.0000022888184,8|0,0:1|0:0,0:0:0:0:
301,127,62671,6,0,P|288:82|279:37,1,88.000002685547,10|8,0:3|0:1,0:0:0:0:
223,149,62871,2,0,P|211:106|202:63,1,88.000002685547,8|8,0:1|0:1,0:0:0:0:
134,377,63071,6,0,P|89:305|2:306,1,180.000006866455,8|0,0:2|0:0,0:0:0:0:
2,306,63271,2,0,P|50:295|68:259,1,90.0000034332277,8|0,0:3|0:0,0:0:0:0:
338,359,63471,6,0,P|384:287|471:288,1,180.000006866455,8|0,0:1|0:0,0:0:0:0:
470,288,63671,2,0,P|423:277|405:241,1,90.0000034332277,8|0,0:1|0:0,0:0:0:0:
461,80,63871,6,0,P|408:110|327:133,1,100,8|0,0:3|0:0,0:0:0:0:
317,181,64071,2,0,P|260:166|186:124,1,100,8|0,0:1|0:0,0:0:0:0:
50,44,64271,6,0,P|32:22|54:40,1,80,8|8,0:1|0:3,0:0:0:0:
16,352,64671,5,8,0:2:0:0:
256,336,64871,5,8,0:1:0:0:
102,107,65071,5,8,0:3:0:0:
8,226,65271,5,8,0:1:0:0:
256,128,65471,5,8,0:1:0:0:
256,128,65671,1,8,0:1:0:0:
256,336,65871,5,8,0:3:0:0:
207,317,65971,1,8,0:1:0:0:
191,266,66071,2,0,P|161:242|118:248,1,80,8|8,0:1|0:1,0:0:0:0:
60,333,66271,6,0,P|201:284|348:252,1,300,8|0,0:2|0:0,0:0:0:0:
424,296,66671,6,0,B|436:272|436:272|424:224,1,60.0000022888184,8|0,0:1|0:0,0:0:0:0:
246,138,66871,2,0,B|238:170|238:170|250:193,1,60.0000022888184,8|0,0:1|0:0,0:0:0:0:
510,199,67071,6,0,P|391:192|345:15,1,300,8|0,0:3|0:0,0:0:0:0:
418,39,67471,6,0,P|450:74|442:122,1,100,8|0,0:1|0:0,0:0:0:0:
340,257,67671,2,0,P|303:267|290:272,2,50,8|0|0,0:3|0:0|0:0,0:0:0:0:
342,369,67871,6,0,P|383:243|446:128,1,264.000008056641,8|0,0:2|0:0,0:0:0:0:
222,5,68271,6,0,P|201:63|262:74,1,140,8|0,0:3|0:0,0:0:0:0:
259,164,68671,6,0,P|154:50|10:34,1,300,8|0,0:1|0:0,0:0:0:0:
7,190,69071,6,0,P|29:224|42:262,1,80,8|8,0:3|0:1,0:0:0:0:
9,266,69271,2,0,P|15:226|31:189,1,80,8|8,0:1|0:1,0:0:0:0:
78,342,69471,6,0,L|310:300,1,180.000006866455,8|0,0:2|0:0,0:0:0:0:
324,351,69671,2,0,B|368:362|368:362|318:330,1,90.0000034332277,8|0,0:3|0:0,0:0:0:0:
173,213,69871,6,0,L|405:255,1,180.000006866455,8|0,0:1|0:0,0:0:0:0:
419,204,70071,2,0,B|463:193|463:193|413:225,1,90.0000034332277,8|0,0:1|0:0,0:0:0:0:
193,372,70271,6,0,L|247:24,1,350,8|0,0:3|0:0,0:0:0:0:
162,0,70671,6,0,P|114:2|86:42,1,100,8|0,0:1|0:0,0:0:0:0:
269,121,70871,2,0,P|306:114|320:110,2,50,8|0|8,0:3|0:0|0:1,0:0:0:0:
181,208,71071,6,0,P|98:219|52:149,1,176.000005371094,8|8,0:2|0:1,0:0:0:0:
400,119,71471,6,0,P|452:131|466:198,1,100,8|0,0:3|0:0,0:0:0:0:
426,234,71671,2,0,P|374:222|360:155,1,100,8|0,0:1|0:0,0:0:0:0:
504,70,71871,6,0,P|454:212|428:359,1,300,8|0,0:1|0:0,0:0:0:0:
262,327,72271,6,0,P|296:305|334:292,1,80,8|8,0:3|0:1,0:0:0:0:
338,325,72471,2,0,P|298:319|261:303,1,80,8|8,0:1|0:1,0:0:0:0:
38,260,72671,6,0,P|122:279|146:361,1,180.000006866455,8|0,0:2|0:0,0:0:0:0:
152,363,72871,2,0,P|152:310|102:257,1,120,8|0,0:3|0:0,0:0:0:0:
0,146,73071,6,0,P|84:127|107:45,1,180.000006866455,8|0,0:1|0:0,0:0:0:0:
40,4,73271,2,0,B|23:-4|8:7|8:7|27:9|37:18,1,60,8|0,0:1|0:0,0:0:0:0:
119,50,73471,6,0,P|211:43|296:150,1,223.999993164063,8|0,0:3|0:0,0:0:0:0:
499,0,73871,2,0,P|498:32|431:61,1,107.999996704102,8|0,0:1|0:0,0:0:0:0:
363,21,74071,2,0,P|339:24|359:37,1,60,8|0,0:3|0:0,0:0:0:0:
436,62,74271,6,0,B|456:203|339:144|363:294,1,240,8|0,0:2|0:0,0:0:0:0:
306,113,74671,2,0,B|363:253|439:137|497:288,1,264.000008056641,8|0,0:3|0:0,0:0:0:0:
262,374,75071,6,0,P|233:366|203:361,1,60.0000022888184,8|0,0:1|0:0,0:0:0:0:
222,286,75271,2,0,P|252:291|280:299,1,60.0000022888184,8|0,0:1|0:0,0:0:0:0:
265,4,75471,6,0,P|222:15|178:22,1,88.000002685547,10|8,0:3|0:1,0:0:0:0:
197,100,75671,2,0,P|241:92|282:81,1,88.000002685547,8|8,0:1|0:1,0:0:0:0:
0,123,75871,6,0,P|45:195|132:194,1,180.000006866455,8|0,0:3|0:0,0:0:0:0:
132,194,76071,2,0,P|84:205|66:241,1,90.0000034332277,8|0,0:3|0:0,0:0:0:0:
512,123,76271,6,0,P|467:195|380:194,1,180.000006866455,8|0,0:1|0:0,0:0:0:0:
380,194,76471,2,0,P|428:205|446:241,1,90.0000034332277,8|0,0:1|0:0,0:0:0:0:
256,384,76671,6,0,L|256:256,1,100,4|0,0:0|0:0,0:0:0:0:
256,16,76871,1,0,0:0:0:0:
