osu file format v14

[General]
AudioFilename: SOLROS.mp3
AudioLeadIn: 0
PreviewTime: 182342
Countdown: 0
SampleSet: Soft
StackLeniency: 0.5
Mode: 0
LetterboxInBreaks: 0
WidescreenStoryboard: 1

[Editor]
Bookmarks: 67609
DistanceSpacing: 1.4
BeatDivisor: 6
GridSize: 32
TimelineZoom: 2.799999

[Metadata]
Title:SOLROS
TitleUnicode:SOLROS
Artist:Grand Thaw
ArtistUnicode:Grand Thaw
Creator:Riana
Version:Wings of Courage
Source:
Tags:InoueDelta Groundbreaking 2011 THE BMS OF FIGHTERS - Intersection of conflict - bof2011 compilation 3rd Album japanese female vocal folk omc7 にゃん汰 nyanta ~Vocal Edition~ Badgames kaguya_sama sanairrt
BeatmapID:3054812
BeatmapSetID:1360321

[Difficulty]
HPDrainRate:6
CircleSize:4
OverallDifficulty:9
ApproachRate:9.4
SliderMultiplier:1.8
SliderTickRate:1

[Events]
//Background and Video events
0,0,"010.jpg",0,0
//Break Periods
2,133813,136903
2,172089,174542
//Storyboard Layer 0 (Background)
//Storyboard Layer 1 (Fail)
//Storyboard Layer 2 (Pass)
//Storyboard Layer 3 (Foreground)
//Storyboard Layer 4 (Overlay)
//Storyboard Sound Samples

[TimingPoints]
12736,337.078651685393,3,2,1,45,1,0
20825,-133.333333333333,3,2,1,45,0,0
34980,319.148936170213,3,2,1,55,1,0
35458,-133.333333333333,3,2,1,55,0,0
38650,312.174817898023,3,2,1,55,1,0
38806,319.148936170213,3,2,1,55,1,0
42635,-100,3,2,1,60,0,0
43114,-125,3,2,1,60,0,0
50295,-100,3,2,1,60,0,0
51252,-66.6666666666667,3,2,1,70,0,0
51731,-100,3,2,1,70,0,0
53167,-66.6666666666667,3,2,1,70,0,0
53806,-100,3,2,1,70,0,0
54125,-83.3333333333333,3,2,1,70,0,0
55082,-66.6666666666667,3,2,1,70,0,0
56040,-66.6666666666667,3,2,1,80,0,1
63061,-83.3333333333333,3,2,1,80,0,1
64657,-500,3,2,1,80,0,0
66252,-500,3,2,1,50,0,0
66571,-133.333333333333,3,2,1,50,0,0
80933,-66.6666666666667,3,2,1,65,0,0
81891,-66.6666666666667,3,2,1,70,0,0
82848,-83.3333333333333,3,2,1,70,0,0
84763,-66.6666666666667,3,2,1,70,0,0
86678,-83.3333333333333,3,2,1,70,0,0
88593,-66.6666666666667,3,2,1,70,0,0
89550,-66.6666666666667,3,2,1,80,0,1
90508,-45.4545454545455,3,2,1,80,0,1
91465,-50,3,2,1,80,0,1
93061,-66.6666666666667,3,2,1,80,0,1
95295,-66.6666666666667,3,2,1,40,0,0
113806,-133.333333333333,3,2,1,40,0,0
114444,-83.3333333333333,3,2,1,50,0,0
122103,-83.3333333333333,3,2,1,60,0,0
125933,-50,3,2,1,70,0,1
129444,340.909090909091,3,2,1,70,1,0
129784,319.148936170213,3,2,1,60,1,0
133613,-100,3,2,1,30,0,0
137443,-133.333333333333,3,2,1,50,0,0
148932,315.789473684211,3,2,1,50,1,0
148933,-133.333333333333,3,2,1,50,0,0
151774,319.148936170213,3,2,1,65,1,0
151774,-66.6666666666667,3,2,1,65,0,0
152412,329.67032967033,3,2,1,65,1,0
152741,319.148936170213,3,2,1,65,1,0
152741,-66.6666666666667,3,2,1,70,0,0
153698,-83.3333333333333,3,2,1,70,0,0
155613,-66.6666666666667,3,2,1,70,0,0
157528,-83.3333333333333,3,2,1,70,0,0
159442,-66.6666666666667,3,2,1,70,0,0
160400,-66.6666666666667,3,2,1,80,0,1
161358,-45.4545454545455,3,2,1,80,0,1
162315,-66.6666666666667,3,2,1,80,0,1
163272,-50,3,2,1,80,0,1
163910,-66.6666666666667,3,2,1,80,0,1
166145,-66.6666666666667,3,2,1,40,0,0
167102,-66.6666666666667,3,2,1,70,0,0
168059,-66.6666666666667,3,2,1,55,0,0
175082,-133.333333333333,3,2,1,55,0,0
175720,-133.333333333333,3,2,1,60,0,0
179549,-71.4285714285714,3,2,1,65,0,0
180507,-55.5555555555556,3,2,1,70,0,0
182422,-45.4545454545455,3,2,1,75,0,0
183379,-45.4545454545455,3,2,1,80,0,1
183380,-40,3,2,1,80,0,1
183698,-40,3,2,1,80,0,1
184177,-40,3,2,1,80,0,1
184655,-40,3,2,1,80,0,1
185055,-40,3,2,1,80,0,1
186252,-45.4545454545455,3,2,1,80,0,1
186889,-45.4545454545455,3,2,1,80,0,0
187209,-40,3,2,1,80,0,1
187528,-40,3,2,1,80,0,1
188007,-40,3,2,1,80,0,1
188485,-40,3,2,1,80,0,1
188885,-40,3,2,1,80,0,1
190081,-50,3,2,1,80,0,1
190719,-50,3,2,1,80,0,0
191038,-50,3,2,1,80,0,1
191039,-55.5555555555556,3,2,1,80,0,1
192954,-60.6060606060606,3,2,1,80,0,1
194869,-66.6666666666667,3,2,1,80,0,1
196146,-55.5555555555556,3,2,1,80,0,1
197741,-66.6666666666667,3,2,1,80,0,1
198061,-76.9230769230769,3,2,1,80,0,1
198380,-90.9090909090909,3,2,1,80,0,1
198698,-111.111111111111,3,2,1,70,0,0
202848,-133.333333333333,3,2,1,65,0,0
205081,-133.333333333333,3,2,1,50,0,0
209230,-133.333333333333,3,2,1,5,0,0

[Colours]
Combo1 : 255,128,0
Combo2 : 255,111,111
Combo3 : 255,200,106
Combo4 : 207,207,207
Combo5 : 170,170,170
Combo6 : 220,157,141
Combo7 : 227,202,155
Combo8 : 255,70,17

[HitObjects]
152,176,20825,70,0,B|212:113|281:150|281:150|244:183|250:228,1,202.500007724762,2|2,3:2|2:2,0:0:0:0:
391,328,21668,1,2,2:2:0:0:
391,328,21837,2,0,P|389:271|327:212,2,135.000005149842,2|2|2,2:2|2:2|2:2,0:0:0:0:
210,276,22848,5,2,2:2:0:0:
15,232,23353,2,0,P|2:176|-2:159,1,67.5000025749208,2|2,2:2|0:0,0:0:0:0:
130,162,23859,2,0,P|205:134|231:81,1,135.000005149842,2|2,2:2|2:2,0:0:0:0:
113,157,24533,1,2,2:2:0:0:
113,157,24870,102,0,P|213:134|331:115,1,202.500007724762,2|2,2:2|0:0,0:0:0:0:
402,45,25544,1,2,2:2:0:0:
402,45,25713,1,2,2:2:0:0:
366,219,25882,2,0,P|404:176|489:171,2,135.000005149842,2|2|2,2:2|2:2|2:2,0:0:0:0:
161,195,26893,6,0,P|173:259|183:344,1,135.000005149842,2|0,2:2|0:0,0:0:0:0:
181,328,27398,1,2,2:2:0:0:
181,328,27567,1,2,2:2:0:0:
181,328,27735,1,2,2:2:0:0:
132,250,27904,2,0,P|141:176|155:88,1,135.000005149842,2|0,2:2|0:0,0:0:0:0:
150,116,28578,2,0,P|154:149|156:183,1,67.5000025749208,2|2,2:2|0:0,0:0:0:0:
240,304,28915,102,0,B|271:354|321:367|321:367|342:306|406:301,1,202.500007724762,2|2,2:2|0:0,0:0:0:0:
389,304,29758,1,2,2:2:0:0:
316,233,29927,2,0,P|295:187|281:83,2,135.000005149842,2|2|2,2:2|2:2|2:2,0:0:0:0:
316,233,30938,6,0,B|290:289|246:303|246:303|206:252|137:268,1,202.500007724762,2|2,3:2|2:2,0:0:0:0:
79,323,31612,1,2,2:2:0:0:
79,323,31780,1,2,0:0:0:0:
44,189,31949,2,0,P|31:141|35:37,2,135.000005149842,2|2|2,2:2|2:2|2:2,0:0:0:0:
44,189,32960,102,0,B|71:244|115:258|115:258|154:228|224:223,1,202.500007724762,2|2,3:2|2:2,0:0:0:0:
208,224,33803,1,2,0:0:0:0:
376,252,33971,2,0,P|417:222|481:139,2,135.000005149842,2|2|2,2:2|2:2|2:2,0:0:0:0:
376,252,34980,85,0,3:3:0:0:
264,384,35458,2,0,P|274:332|286:221,1,135.000005149842,8|8,2:1|2:1,0:0:0:0:
210,168,35937,1,0,3:3:0:0:
241,184,36575,5,0,3:3:0:0:
350,111,36735,2,0,L|355:143,3,22.5000008583069,2|2|2|2,2:2|2:2|2:2|3:2,0:0:0:0:
305,34,37214,101,2,2:2:0:0:
373,149,37373,1,10,2:1:0:0:
305,284,37692,6,0,L|310:248,2,33.7500012874604,10|2|2,2:1|2:2|3:2,0:0:0:0:
375,327,38171,2,0,P|286:326|224:355,1,135.000005149842,10|0,2:1|3:3,0:0:0:0:
160,189,38650,102,0,L|177:145,2,30,2|2|2,2:2|2:2|2:2,0:0:0:0:
142,212,38806,6,0,P|121:101|92:27,1,180,2|0,3:2|3:3,0:0:0:0:
12,9,39284,1,10,2:1:0:0:
147,107,39603,1,10,2:1:0:0:
162,109,39683,1,2,2:2:0:0:
175,112,39763,1,2,3:2:0:0:
326,41,40082,101,0,3:3:0:0:
401,87,40242,2,0,L|410:150,2,45,2|2|2,2:2|0:0|3:2,0:0:0:0:
507,141,40561,2,0,L|512:112,2,30,10|2|2,2:1|2:2|2:2,0:0:0:0:
493,172,40720,38,0,B|475:145|454:137|454:137|400:164|396:216|428:251,1,180,2|2,3:1|0:0,0:0:0:0:
348,301,41199,2,0,B|380:298|397:284|397:284|401:224|358:194|312:205,1,180,2|2,2:1|0:0,0:0:0:0:
334,93,41598,1,2,2:2:0:0:
310,103,41678,2,0,B|295:132|299:154|299:154|349:187|396:165|410:119,2,180,2|10|10,3:1|2:1|2:1,0:0:0:0:
194,47,42476,101,0,0:0:0:0:
38,260,42635,1,12,3:1:0:0:
127,213,42954,5,2,2:1:0:0:
127,213,43114,2,0,P|92:82|81:58,1,144,2|2,2:2|2:2,0:0:0:0:
217,155,43593,2,0,P|238:84|266:18,2,144,2|2|2,3:1|2:1|2:1,0:0:0:0:
210,281,44391,102,0,L|222:237,2,24,2|2|2,2:2|2:2|2:2,0:0:0:0:
191,310,44550,2,0,P|280:275|336:260,1,144,2|2,3:1|0:0,0:0:0:0:
387,338,45029,1,2,2:2:0:0:
387,338,45188,2,0,P|442:335|478:346,1,72,2|2,2:1|2:2,0:0:0:0:
421,213,45508,2,0,P|352:227|295:186,1,144,2|2,3:1|2:1,0:0:0:0:
494,71,46146,6,0,L|489:38,5,24,2|2|2|2|2|2,2:1|2:2|2:2|2:2|2:2|2:2,0:0:0:0:
498,13,46465,2,0,P|446:34|343:67,1,144,2|0,3:1|3:3,0:0:0:0:
466,218,46944,2,0,P|400:188|332:160,1,144,10|2,2:1|2:2,0:0:0:0:
243,198,47423,2,0,P|195:153|93:173,2,144,2|2|2,3:1|3:1|3:1,0:0:0:0:
186,359,48220,102,0,L|191:404,2,24,2|2|2,2:2|2:2|2:2,0:0:0:0:
180,330,48379,2,0,P|92:358|41:369,1,144,2|8,3:1|2:1,0:0:0:0:
83,233,48859,1,8,2:1:0:0:
83,233,49018,2,0,L|170:244,1,72,2|2,2:1|2:2,0:0:0:0:
273,361,49337,2,0,P|345:322|437:330,2,144,2|2|2,3:1|2:1|3:1,0:0:0:0:
458,166,50135,6,0,L|451:207,2,24,2|2|2,2:2|2:2|2:2,0:0:0:0:
448,219,50295,2,0,P|385:165|277:192,1,180,2|2,3:2|0:0,0:0:0:0:
246,286,50774,2,0,P|245:256|252:286,1,90,2|0,2:2|0:0,0:0:0:0:
287,349,51093,101,2,2:2:0:0:
281,362,51173,1,2,2:2:0:0:
271,370,51252,2,0,B|209:386|126:324|191:312|102:243|37:264,1,270.000010299683,2|2,3:1|0:0,0:0:0:0:
84,119,51731,2,0,L|70:46,2,45,2|0|10,2:2|0:0|2:1,0:0:0:0:
220,120,52050,6,0,L|227:71,2,30,2|2|2,2:2|2:2|2:2,0:0:0:0:
228,61,52210,2,0,P|314:68|375:6,1,180,2|2,3:2|0:0,0:0:0:0:
414,215,52688,2,0,L|402:126,2,90,2|2|2,2:2|0:0|2:2,0:0:0:0:
362,315,53087,101,2,2:2:0:0:
368,302,53167,2,0,B|429:203|532:253|532:253|481:259|462:320,1,270.000010299683,2|0,3:1|0:0,0:0:0:0:
234,257,53806,6,0,L|237:286,5,30,8|2|2|2|2|2,2:1|2:2|2:2|2:2|2:2|2:2,0:0:0:0:
240,313,54125,2,0,P|154:280|65:378,1,215.999993408203,2|2,3:1|0:0,0:0:0:0:
0,145,54603,2,0,P|8:92|47:50,1,107.999996704102,2|2,2:2|0:0,0:0:0:0:
77,202,54923,101,2,2:2:0:0:
85,210,55002,1,2,2:2:0:0:
95,214,55082,2,0,B|157:230|240:168|175:156|264:87|329:108,1,270.000010299683,2|2,3:1|0:0,0:0:0:0:
204,23,55561,1,2,2:2:0:0:
446,193,55720,1,8,2:1:0:0:
204,23,55880,1,8,2:1:0:0:
474,79,56040,54,0,B|524:85|519:23|396:-61|314:130,1,270.000010299683,14|2,3:1|0:0,0:0:0:0:
318,209,56518,1,2,2:2:0:0:
318,209,56837,5,2,2:2:0:0:
337,211,56916,1,2,2:2:0:0:
354,212,56996,1,2,3:2:0:0:
489,260,57156,1,2,2:2:0:0:
394,108,57316,101,2,2:2:0:0:
276,136,57475,1,2,2:2:0:0:
128,279,57635,5,8,2:1:0:0:
298,324,57795,2,0,L|367:315,2,45.0000017166138,2|2|2,2:2|2:2|2:2,0:0:0:0:
215,303,57954,1,2,3:2:0:0:
215,303,58274,101,2,2:2:0:0:
156,379,58433,1,2,2:2:0:0:
309,321,58593,1,10,2:1:0:0:
187,211,58752,1,2,2:2:0:0:
39,255,58912,5,2,3:2:0:0:
21,257,58992,1,2,2:2:0:0:
1,259,59072,1,2,2:2:0:0:
187,211,59231,1,8,2:1:0:0:
187,211,59550,101,10,2:1:0:0:
169,213,59630,1,2,2:2:0:0:
149,215,59710,1,2,3:2:0:0:
70,54,59869,6,0,B|32:6|85:-38|165:-32|198:100|81:134,1,270.000010299683,6|2,3:1|0:0,0:0:0:0:
64,249,60348,1,2,2:2:0:0:
64,249,60667,101,2,2:2:0:0:
62,229,60747,1,2,2:2:0:0:
60,213,60826,1,2,3:2:0:0:
217,154,60986,1,2,2:2:0:0:
281,297,61146,5,10,2:1:0:0:
173,275,61305,1,2,2:2:0:0:
325,223,61465,101,8,2:1:0:0:
107,356,61625,2,0,L|64:368,2,45.0000017166138,2|2|2,2:2|2:2|2:2,0:0:0:0:
189,381,61784,5,2,3:2:0:0:
63,268,61944,1,2,2:2:0:0:
43,213,62024,1,2,2:2:0:0:
88,173,62103,1,10,2:1:0:0:
256,122,62263,101,2,0:0:0:0:
357,248,62423,1,8,2:1:0:0:
512,195,62582,1,8,2:1:0:0:
367,36,62742,5,2,3:2:0:0:
329,73,62821,1,2,2:2:0:0:
342,122,62901,1,2,2:2:0:0:
75,376,63061,102,0,P|169:323|304:344,1,215.999993408203,10|2,2:1|0:0,0:0:0:0:
385,383,63540,1,2,2:2:0:0:
421,378,63619,1,2,2:2:0:0:
456,372,63699,1,2,3:2:0:0:
200,180,64018,6,0,P|293:235|309:266,1,107.999996704102,10|0,2:1|0:0,0:0:0:0:
512,71,64337,1,8,2:1:0:0:
450,297,64497,101,2,2:2:0:0:
450,297,64550,1,2,2:2:0:0:
450,297,64603,1,2,2:2:0:0:
450,297,64657,2,0,P|350:309|272:331,1,180,6|0,2:1|0:0,0:0:0:0:
358,113,66571,22,0,P|421:121|506:153,2,135.000005149842,2|2|2,2:2|0:0|0:0,0:0:0:0:
234,195,67529,1,2,2:1:0:0:
370,85,67848,1,2,2:2:0:0:
134,11,68167,1,2,2:2:0:0:
317,227,68486,6,0,P|254:235|169:267,1,135.000005149842,2|2,2:2|0:0,0:0:0:0:
123,343,68965,1,2,2:2:0:0:
123,343,69125,1,2,2:2:0:0:
63,156,69444,2,0,P|97:179|268:221,1,202.500007724762,2|0,2:1|0:0,0:0:0:0:
352,184,70082,101,2,2:2:0:0:
352,184,70242,1,2,2:2:0:0:
352,184,70401,1,2,2:2:0:0:
284,65,70720,2,0,P|270:7|268:-19,2,67.5000025749208,2|2|2,2:1|0:0|0:0,0:0:0:0:
63,156,71359,6,0,P|126:164|211:196,2,135.000005149842,2|2|2,2:1|0:0|0:0,0:0:0:0:
356,289,72316,2,0,P|289:294|227:320,1,135.000005149842,2|0,2:1|0:0,0:0:0:0:
502,319,72954,2,0,P|488:377|486:403,2,67.5000025749208,2|2|2,2:1|0:0|0:0,0:0:0:0:
267,144,73912,101,2,2:2:0:0:
48,273,74231,2,0,P|125:266|177:233,1,135.000005149842,2|2,2:2|0:0,0:0:0:0:
372,64,74869,2,0,P|365:109|366:140,1,67.5000025749208,2|2,2:2|0:0,0:0:0:0:
450,254,75188,2,0,P|391:221|324:217,1,135.000005149842,2|2,2:2|0:0,0:0:0:0:
198,290,75827,1,2,2:2:0:0:
0,138,76146,6,0,P|58:105|198:116,1,202.500007724762,2|0,2:2|0:0,0:0:0:0:
274,69,76784,2,0,P|262:3|247:-25,2,67.5000025749208,2|2|2,2:1|0:0|0:0,0:0:0:0:
380,190,77423,2,0,P|383:168|396:135,2,33.7500012874604,2|2|2,2:1|2:2|2:2,0:0:0:0:
464,118,77742,1,2,2:2:0:0:
512,281,78061,102,0,P|445:281|385:312,2,135.000005149842,2|2|2,2:1|2:2|2:2,0:0:0:0:
163,192,79018,1,2,2:1:0:0:
163,192,79178,2,0,L|170:244,1,33.7500012874604,2|2,2:2|2:2,0:0:0:0:
154,309,79337,2,0,P|191:253|248:219,1,135.000005149842,2|2,2:2|2:2,0:0:0:0:
353,169,79976,5,2,2:1:0:0:
431,248,80135,2,0,P|442:281|447:296,2,33.7500012874604,2|2|2,2:2|2:2|2:2,0:0:0:0:
472,84,80454,1,2,2:2:0:0:
472,84,80614,2,0,P|454:137|445:176,1,67.5000025749208,2|0,2:2|0:0,0:0:0:0:
324,334,80933,102,0,P|144:227|82:211,1,270.000010299683,10|4,2:1|2:3,0:0:0:0:
87,211,81306,5,4,2:3:0:0:
87,211,81359,1,4,2:3:0:0:
87,211,81412,2,0,L|76:138,2,45.0000017166138,4|4|4,2:3|2:3|2:3,0:0:0:0:
140,113,81571,21,2,2:2:0:0:
365,31,81731,1,8,0:1:0:0:
473,237,81891,102,1,B|408:263|323:216|390:184|306:135|228:171,1,270.000010299683,4|2,3:1|0:0,0:0:0:0:
234,169,82370,1,8,3:1:0:0:
213,372,82688,5,2,2:2:0:0:
215,357,82768,1,2,2:2:0:0:
213,342,82848,2,0,P|167:274|30:249,1,215.999993408203,2|2,3:1|0:0,0:0:0:0:
233,169,83327,2,0,L|246:90,2,53.9999983520508,2|2|2,2:2|2:2|2:2,0:0:0:0:
145,35,83646,2,0,L|136:-10,3,35.9999989013672,2|0|0|2,2:2|0:0|0:0|3:2,0:0:0:0:
368,41,84125,102,0,P|356:95|345:116,1,53.9999983520508,2|2,2:1|2:2,0:0:0:0:
369,183,84285,2,0,P|315:200|291:201,1,53.9999983520508,2|0,2:1|0:0,0:0:0:0:
239,246,84444,1,2,2:2:0:0:
117,345,84603,1,2,2:2:0:0:
123,332,84683,1,2,2:2:0:0:
134,325,84763,2,0,B|197:297|252:369|252:369|272:302|375:280,1,270.000010299683,2|8,3:1|2:1,0:0:0:0:
348,286,85401,6,0,L|361:226,5,45.0000017166138,10|0|0|10|0|0,2:1|0:0|0:0|2:1|0:0|0:0,0:0:0:0:
391,373,85720,2,0,L|362:78,1,270.000010299683,2|2,3:1|0:0,0:0:0:0:
176,165,86199,1,10,2:1:0:0:
176,165,86518,101,2,2:2:0:0:
173,178,86598,1,2,2:2:0:0:
174,193,86678,2,0,B|196:258|256:264|256:264|284:213|366:216,1,215.999993408203,2|2,3:1|2:2,0:0:0:0:
440,300,87157,2,0,L|431:364,2,53.9999983520508,2|2|2,2:2|0:0|2:2,0:0:0:0:
512,169,87476,2,0,L|509:130,3,35.9999989013672,2|2|2|2,2:2|2:2|2:2|3:2,0:0:0:0:
389,6,87954,6,0,P|368:33|352:82,1,53.9999983520508,2|2,2:2|0:0,0:0:0:0:
233,64,88114,2,0,P|245:95|280:134,1,53.9999983520508,2|2,2:2|2:2,0:0:0:0:
321,233,88274,2,0,P|308:264|273:303,1,53.9999983520508,2|0,2:2|0:0,0:0:0:0:
68,171,88433,101,2,2:2:0:0:
61,183,88513,1,2,2:2:0:0:
58,195,88593,2,0,B|44:275|116:303|116:303|142:216|249:213,1,270.000010299683,2|4,3:1|2:3,0:0:0:0:
200,192,88992,5,4,2:3:0:0:
214,176,89072,1,4,2:3:0:0:
204,152,89152,1,4,2:3:0:0:
220,139,89231,1,8,2:1:0:0:
415,193,89391,37,10,2:1:0:0:
415,193,89444,1,2,2:2:0:0:
415,193,89497,1,2,2:2:0:0:
415,193,89550,2,0,B|460:162|435:119|435:119|391:107|307:125|321:281,1,270.000010299683,6|2,2:1|0:0,0:0:0:0:
321,228,90029,1,2,2:2:0:0:
86,19,90348,5,2,2:2:0:0:
108,55,90428,1,2,2:2:0:0:
89,97,90508,2,0,B|43:128|55:177|55:177|112:232|186:187|186:187|283:129|340:267,1,396.000012084961,10|8,3:1|2:1,0:0:0:0:
261,74,90986,1,2,2:2:0:0:
243,35,91066,1,2,2:2:0:0:
272,0,91146,1,10,2:1:0:0:
389,374,91306,101,2,2:1:0:0:
389,374,91359,1,2,2:2:0:0:
389,374,91412,1,2,2:2:0:0:
389,374,91465,2,0,B|451:405|496:345|496:345|473:239|387:219|269:228,1,360,2|2,3:1|0:0,0:0:0:0:
398,96,91944,1,2,2:2:0:0:
427,61,92024,1,2,2:2:0:0:
409,22,92104,1,2,2:2:0:0:
115,272,92263,5,2,2:2:0:0:
168,283,92343,1,2,2:2:0:0:
184,330,92423,2,0,B|144:336|126:374|126:374|135:228|255:190|371:246,1,360,2|8,3:1|2:1,0:0:0:0:
435,44,93061,102,0,L|422:-29,5,45.0000017166138,10|2|2|10|2|2,2:1|2:2|2:2|2:1|2:2|2:2,0:0:0:0:
512,83,93380,2,0,P|396:104|319:261,1,270.000010299683,2|2,3:1|0:0,0:0:0:0:
256,329,93859,5,2,2:2:0:0:
319,227,94018,1,10,2:1:0:0:
197,114,94178,1,2,2:2:0:0:
197,114,94258,1,2,2:2:0:0:
197,114,94337,1,10,2:1:0:0:
349,26,94497,1,10,2:1:0:0:
402,14,94577,1,2,2:2:0:0:
453,0,94657,1,10,2:1:0:0:
169,24,94816,101,8,2:1:0:0:
322,109,94976,1,2,3:2:0:0:
215,194,95135,1,2,3:2:0:0:
257,335,95295,1,6,3:1:0:0:
400,331,96252,21,2,2:2:0:0:
295,287,96571,1,2,2:2:0:0:
274,84,96891,1,2,2:2:0:0:
453,0,97210,1,2,2:2:0:0:
408,106,97369,1,2,2:2:0:0:
408,106,97449,1,2,2:2:0:0:
408,106,97529,1,2,2:2:0:0:
408,106,98009,5,2,0:0:0:0:
186,39,98167,1,2,2:2:0:0:
241,152,98486,1,2,2:2:0:0:
270,68,98806,1,2,2:2:0:0:
155,125,99125,1,2,2:2:0:0:
248,160,99284,1,2,2:2:0:0:
248,160,99364,1,2,2:2:0:0:
248,160,99444,1,2,2:2:0:0:
248,160,100082,101,2,2:2:0:0:
185,81,100401,1,2,2:2:0:0:
50,190,100720,1,2,2:2:0:0:
117,366,101040,1,2,2:2:0:0:
199,319,101359,1,2,2:2:0:0:
199,319,101997,5,2,2:2:0:0:
308,210,102316,1,2,2:2:0:0:
342,361,102635,1,2,2:2:0:0:
281,295,102954,1,2,2:2:0:0:
199,319,103114,1,2,2:2:0:0:
199,319,103194,1,2,2:2:0:0:
199,319,103274,1,2,2:2:0:0:
199,319,103912,101,2,2:2:0:0:
199,319,104231,1,2,2:2:0:0:
199,319,104311,1,0,0:0:0:0:
199,319,104391,1,2,2:2:0:0:
122,210,104550,1,2,2:2:0:0:
215,227,104710,1,2,2:2:0:0:
310,245,104869,1,2,3:2:0:0:
493,86,105667,5,2,2:2:0:0:
493,86,105747,1,0,0:0:0:0:
493,86,105827,1,2,2:2:0:0:
231,224,106146,1,2,2:2:0:0:
231,224,106226,1,2,2:2:0:0:
231,224,106306,1,2,2:2:0:0:
290,297,106465,1,2,2:2:0:0:
170,153,106784,101,2,3:2:0:0:
446,183,107103,1,2,2:2:0:0:
290,297,107423,1,2,2:2:0:0:
324,40,107742,1,2,2:2:0:0:
443,99,108380,5,2,2:2:0:0:
443,99,108540,1,2,2:2:0:0:
512,0,108699,1,2,3:2:0:0:
512,0,109018,1,2,0:0:0:0:
512,0,109657,101,10,2:1:0:0:
356,148,109976,1,2,2:2:0:0:
452,348,110295,1,2,3:2:0:0:
512,269,110614,5,2,3:2:0:0:
512,269,110933,1,2,2:2:0:0:
256,192,111093,12,14,113486,2:1:0:0:
24,251,113806,22,0,P|17:197|2:105,1,135.000005149842,10|2,2:1|2:2,0:0:0:0:
5,118,114444,102,0,P|98:46|190:79,1,215.999993408203,6|2,3:1|0:0,0:0:0:0:
354,0,114923,1,2,2:2:0:0:
265,154,115082,2,0,P|274:228|289:278,1,107.999996704102,8|2,2:1|2:2,0:0:0:0:
416,322,115401,6,0,P|301:297|167:290,2,215.999993408203,2|2|10,3:1|2:1|2:1,0:0:0:0:
512,269,116199,1,8,2:1:0:0:
301,194,116359,102,0,P|382:172|538:148,1,215.999993408203,2|2,3:1|0:0,0:0:0:0:
453,11,116837,1,2,2:2:0:0:
305,44,116997,1,8,2:1:0:0:
255,107,117157,1,2,2:2:0:0:
255,107,117236,1,2,2:2:0:0:
255,107,117316,5,2,3:1:0:0:
431,149,117635,1,2,2:2:0:0:
232,204,117954,1,8,2:1:0:0:
232,204,118114,1,8,2:1:0:0:
324,384,118274,102,0,P|273:316|141:291,1,215.999993408203,2|2,3:2|0:0,0:0:0:0:
0,307,118752,1,2,2:2:0:0:
121,202,118912,2,0,P|157:119|160:92,1,107.999996704102,8|2,2:1|2:2,0:0:0:0:
115,0,119231,6,0,P|142:48|309:75,2,215.999993408203,2|2|10,3:2|2:1|2:1,0:0:0:0:
0,107,120029,1,8,2:1:0:0:
203,200,120188,2,0,P|246:150|427:135,1,215.999993408203,2|2,3:2|0:0,0:0:0:0:
387,119,120667,1,2,2:2:0:0:
203,200,120827,101,10,2:1:0:0:
103,160,120986,1,8,2:1:0:0:
237,299,121146,5,6,3:1:0:0:
37,357,121305,1,2,2:2:0:0:
37,357,121385,1,2,2:2:0:0:
37,357,121465,1,2,2:2:0:0:
237,299,121625,1,2,2:2:0:0:
103,160,121784,101,8,2:1:0:0:
103,160,121944,1,8,2:1:0:0:
331,327,122103,6,0,P|417:335|516:241,1,215.999993408203,6|2,3:1|0:0,0:0:0:0:
459,75,122582,2,0,P|425:136|421:182,2,107.999996704102,2|8|2,2:2|2:1|2:2,0:0:0:0:
97,67,123061,101,2,3:1:0:0:
227,142,123220,1,2,0:0:0:0:
170,4,123380,1,2,2:1:0:0:
138,154,123540,1,2,2:2:0:0:
251,51,123699,1,10,2:1:0:0:
178,86,123859,5,10,2:1:0:0:
178,86,124018,2,0,P|191:175|210:323,1,215.999993408203,2|2,3:1|0:0,0:0:0:0:
385,359,124497,1,2,2:2:0:0:
490,196,124657,2,0,P|513:142|504:65,1,107.999996704102,8|2,2:1|2:2,0:0:0:0:
426,91,124896,101,2,2:2:0:0:
421,77,124976,2,0,P|325:3|226:26,1,215.999993408203,2|2,3:1|0:0,0:0:0:0:
128,196,125614,1,8,2:1:0:0:
128,196,125774,1,8,2:1:0:0:
136,2,125933,54,0,B|55:41|125:162|201:163|213:52|278:81|354:128|347:209,1,360,6|2,3:1|3:2,0:0:0:0:
341,166,126412,1,2,2:2:0:0:
226,18,126571,1,8,3:1:0:0:
0,262,126731,5,2,0:0:0:0:
8,250,126811,1,2,2:2:0:0:
20,242,126891,2,0,B|107:228|147:351|147:351|240:255|301:283,1,360,2|2,3:1|0:0,0:0:0:0:
512,173,127369,1,2,2:2:0:0:
512,173,127449,1,2,2:2:0:0:
512,173,127529,1,2,2:2:0:0:
380,343,127688,1,10,2:1:0:0:
226,18,127848,102,0,B|174:92|299:161|365:125|319:21|392:12|480:19|517:91,1,360,6|0,3:1|3:3,0:0:0:0:
486,55,128220,1,4,2:3:0:0:
486,55,128274,1,4,0:3:0:0:
486,55,128327,1,4,2:3:0:0:
348,211,128486,1,4,2:3:0:0:
0,207,128646,5,2,2:2:0:0:
10,197,128726,1,2,2:2:0:0:
22,189,128806,2,0,P|166:181|253:363,1,360,6|2,3:1|2:1,0:0:0:0:
493,84,129444,102,0,L|483:39,5,30,2|0|0|2|0|0,3:2|0:0|0:0|0:0|0:0|0:0,0:0:0:0:
416,14,129784,1,6,3:1:0:0:
256,192,129863,12,4,133613,2:1:0:0:
341,151,137443,22,0,P|278:159|193:191,2,135.000005149842,2|2|2,2:1|0:0|0:0,0:0:0:0:
496,329,138401,1,2,2:1:0:0:
457,182,138720,1,2,2:2:0:0:
420,36,139039,1,2,2:2:0:0:
191,96,139358,6,0,P|254:104|339:136,1,135.000005149842,2|2,2:2|0:0,0:0:0:0:
418,264,139997,1,2,2:2:0:0:
77,355,140316,2,0,P|111:332|282:290,1,202.500007724762,2|0,2:1|0:0,0:0:0:0:
364,349,140954,101,2,2:2:0:0:
364,349,141114,1,2,2:2:0:0:
364,349,141273,1,2,2:2:0:0:
452,213,141592,2,0,P|466:155|468:129,2,67.5000025749208,2|2|2,2:1|0:0|0:0,0:0:0:0:
197,145,142231,6,0,P|260:153|345:185,2,135.000005149842,2|2|2,2:2|0:0|0:0,0:0:0:0:
308,7,143188,2,0,P|241:12|179:38,1,135.000005149842,2|2,2:1|0:0,0:0:0:0:
72,210,143826,2,0,P|86:268|88:294,2,67.5000025749208,2|2|2,2:1|0:0|0:0,0:0:0:0:
313,151,144784,101,2,2:2:0:0:
313,151,144943,1,2,2:2:0:0:
464,273,145103,2,0,P|387:266|335:233,1,135.000005149842,2|2,2:2|0:0,0:0:0:0:
240,257,145741,2,0,P|247:302|246:333,1,67.5000025749208,2|2,2:2|0:0,0:0:0:0:
22,345,146060,2,0,P|81:312|148:308,1,135.000005149842,2|2,2:2|0:0,0:0:0:0:
211,160,146699,1,2,2:2:0:0:
505,226,147018,6,0,P|406:211|315:251,1,202.500007724762,2|0,2:2|0:0,0:0:0:0:
219,136,147656,2,0,P|231:70|246:42,2,67.5000025749208,2|2|2,2:1|0:0|0:0,0:0:0:0:
91,195,148295,2,0,P|81:153|75:137,2,33.7500012874604,2|2|2,2:1|2:2|2:2,0:0:0:0:
11,107,148613,1,2,2:2:0:0:
86,331,148933,102,0,P|153:331|213:362,2,135.000005149842,2|2|2,3:1|0:0|0:0,0:0:0:0:
410,198,149879,1,2,2:1:0:0:
410,198,150037,2,0,L|402:235,1,33.7500012874604,2|2,2:2|2:2,0:0:0:0:
417,318,150195,2,0,P|380:262|323:228,1,135.000005149842,2|2,2:2|0:0,0:0:0:0:
120,228,150826,5,2,3:1:0:0:
93,311,150984,2,0,P|62:314|53:316,2,33.7500012874604,2|2|2,2:2|2:2|2:2,0:0:0:0:
207,211,151300,1,2,2:2:0:0:
44,91,151458,2,0,P|62:144|71:183,1,67.5000025749208,2|0,2:2|0:0,0:0:0:0:
187,371,151774,102,0,P|367:264|429:248,1,270.000010299683,2|4,2:1|2:3,0:0:0:0:
423,248,152146,5,4,2:3:0:0:
423,248,152199,1,4,2:3:0:0:
423,248,152252,2,0,L|434:175,2,45.0000017166138,4|4|4,2:3|2:3|2:3,0:0:0:0:
512,181,152411,21,2,2:2:0:0:
397,342,152576,1,0,0:0:0:0:
244,204,152741,102,1,B|179:231|95:183|162:151|77:102|0:139,1,270.000010299683,6|2,3:1|0:0,0:0:0:0:
5,136,153219,1,10,2:1:0:0:
327,124,153538,5,2,2:2:0:0:
323,111,153618,1,2,2:2:0:0:
322,96,153698,2,0,P|368:28|505:3,1,215.999993408203,2|2,3:1|0:0,0:0:0:0:
481,188,154176,1,2,2:2:0:0:
449,210,154256,1,2,2:2:0:0:
411,193,154336,1,2,2:2:0:0:
336,254,154496,2,0,L|345:299,3,35.9999989013672,2|0|0|2,2:2|0:0|0:0|3:2,0:0:0:0:
338,74,154974,102,0,P|301:115|281:128,1,53.9999983520508,2|2,2:1|2:2,0:0:0:0:
248,198,155134,2,0,P|193:186|172:175,1,53.9999983520508,2|2,0:0|0:0,0:0:0:0:
93,206,155293,1,2,2:2:0:0:
245,329,155453,1,2,2:2:0:0:
251,316,155533,1,2,2:2:0:0:
261,309,155613,2,0,B|341:291|385:353|385:353|408:275|491:252,1,270.000010299683,2|8,3:1|0:1,0:0:0:0:
317,109,156251,6,0,L|257:96,5,45.0000017166138,10|0|0|2|0|0,2:1|0:0|0:0|2:2|0:0|0:0,0:0:0:0:
404,66,156570,2,0,L|109:94,1,270.000010299683,2|2,3:1|0:0,0:0:0:0:
84,230,157049,1,10,2:1:0:0:
84,230,157368,101,2,2:2:0:0:
87,241,157448,1,2,2:2:0:0:
91,251,157528,2,0,B|149:332|222:284|222:284|209:234|151:214,1,215.999993408203,2|2,3:1|0:0,0:0:0:0:
292,158,158006,1,2,2:2:0:0:
338,146,158086,1,2,2:2:0:0:
370,181,158166,1,2,2:2:0:0:
485,128,158325,2,0,L|488:167,3,35.9999989013672,2|2|2|2,2:2|2:2|2:2|3:2,0:0:0:0:
429,384,158804,6,0,P|402:363|353:347,1,53.9999983520508,2|0,2:2|0:0,0:0:0:0:
371,228,158964,2,0,P|340:240|301:275,1,53.9999983520508,2|2,2:2|2:2,0:0:0:0:
202,316,159124,2,0,P|171:303|132:268,1,53.9999983520508,2|0,2:2|0:0,0:0:0:0:
28,77,159283,101,2,2:2:0:0:
25,87,159363,1,2,2:2:0:0:
24,97,159443,2,0,B|25:179|101:194|101:194|174:107|264:144,1,270.000010299683,2|4,3:1|2:3,0:0:0:0:
228,110,159841,5,4,2:3:0:0:
214,94,159921,1,4,2:3:0:0:
222,72,160001,1,4,2:3:0:0:
208,57,160080,1,8,2:1:0:0:
400,185,160241,37,10,2:1:0:0:
400,185,160294,1,2,2:2:0:0:
400,185,160347,1,2,2:2:0:0:
400,185,160400,2,0,B|445:216|420:259|420:259|376:271|292:253|306:97,1,270.000010299683,6|2,2:1|0:0,0:0:0:0:
306,151,160879,1,2,2:2:0:0:
166,337,161198,5,2,2:2:0:0:
137,279,161278,1,2,2:2:0:0:
73,281,161358,2,0,B|27:249|40:201|40:201|97:145|171:190|171:190|268:248|325:110,1,396.000012084961,2|2,3:1|0:0,0:0:0:0:
379,57,161836,1,2,0:0:0:0:
417,15,161916,1,2,2:2:0:0:
471,25,161996,1,10,2:1:0:0:
184,161,162156,101,2,2:1:0:0:
184,161,162209,1,2,2:2:0:0:
184,161,162262,1,2,2:2:0:0:
184,161,162315,2,0,B|138:131|160:79|160:79|239:54|283:103|322:184,1,270.000010299683,2|2,3:1|0:0,0:0:0:0:
317,377,162793,1,10,2:1:0:0:
261,365,162873,1,2,2:2:0:0:
243,313,162953,1,2,2:2:0:0:
461,333,163113,5,2,2:2:0:0:
422,283,163193,1,2,2:2:0:0:
465,236,163272,2,0,B|480:198|525:193|525:193|493:82|345:60|286:177,1,360,2|10,3:1|0:1,0:0:0:0:
172,290,163911,102,0,L|121:299,5,45.0000017166138,10|2|2|10|2|2,2:1|2:2|2:2|2:1|2:2|2:2,0:0:0:0:
249,263,164229,2,0,B|232:287|197:282|197:282|162:203|237:119|327:157,1,270.000010299683,2|8,3:1|2:1,0:0:0:0:
367,254,164708,1,2,2:2:0:0:
187,384,164868,1,2,2:2:0:0:
33,214,165027,5,2,2:2:0:0:
3,156,165107,1,2,2:2:0:0:
40,100,165187,2,0,P|80:80|127:70,1,67.5000025749208,2|0,3:1|0:0,0:0:0:0:
250,26,165347,2,0,P|210:6|163:-4,1,67.5000025749208,2|2,2:1|2:2,0:0:0:0:
170,220,165506,1,10,2:1:0:0:
346,116,165665,1,2,2:2:0:0:
255,259,165825,101,2,3:1:0:0:
45,208,165985,1,10,2:1:0:0:
467,309,166144,1,6,3:1:0:0:
214,113,167102,6,0,B|176:110|153:135|153:135|125:66|195:-14|290:28,1,270.000010299683,10|2,2:1|3:2,0:0:0:0:
283,25,167501,1,2,2:2:0:0:
294,38,167581,1,2,2:2:0:0:
211,196,167740,1,2,3:2:0:0:
342,325,167900,1,0,3:3:0:0:
265,376,168059,101,14,2:1:0:0:
256,192,168139,12,0,171570,0:0:0:0:
256,192,171889,21,2,3:2:0:0:
193,293,175082,22,0,P|201:228|271:190,1,135.000005149842,2|2,0:0|0:0,0:0:0:0:
360,236,175720,6,0,P|304:298|187:288,1,202.500007724762,2|2,2:2|0:0,0:0:0:0:
176,119,176518,1,2,2:2:0:0:
205,198,176678,2,0,B|189:202|176:217|176:217|118:219|99:162,2,135.000005149842,2|2|2,2:2|2:2|2:2,0:0:0:0:
384,97,177635,102,0,P|322:122|286:178,1,135.000005149842,2|0,2:2|0:0,0:0:0:0:
407,234,178114,2,0,P|428:208|436:176,2,67.5000025749208,2|2|2,2:2|0:0|0:0,0:0:0:0:
325,322,178592,2,0,B|338:315|357:314|357:314|329:264|266:269,1,135.000005149842,2|2,2:2|0:0,0:0:0:0:
325,322,179231,53,0,3:3:0:0:
432,158,179390,5,0,3:3:0:0:
432,158,179470,1,0,0:0:0:0:
432,158,179549,2,0,P|299:114|139:110,1,251.999992309571,2|8,3:1|2:1,0:0:0:0:
65,339,180507,102,0,P|171:282|383:259,1,323.999990112305,14|8,2:1|2:1,0:0:0:0:
194,60,181305,5,8,2:1:0:0:
416,185,181465,1,4,3:1:0:0:
394,37,181784,101,8,2:1:0:0:
306,70,181943,1,8,2:1:0:0:
246,164,182103,1,0,3:3:0:0:
296,299,182263,1,0,3:3:0:0:
0,384,182422,6,0,B|3:251|147:193|218:251|218:251|165:267|159:349,1,396.000012084961,4|8,3:1|2:1,0:0:0:0:
165,311,183061,69,2,2:1:0:0:
187,241,183140,1,2,0:1:0:0:
260,244,183220,1,2,2:1:0:0:
393,352,183380,6,0,B|425:288|397:215|192:38|109:153|109:153|154:291|517:151|458:33|458:33|326:9|297:170|265:260|291:347|389:373,2,1350,6|2|2,3:1|3:1|3:1,0:0:0:0:
315,198,185614,101,2,2:2:0:0:
315,198,185773,1,2,2:2:0:0:
247,369,185933,1,8,2:1:0:0:
511,182,186092,5,2,2:2:0:0:
495,231,186172,1,2,2:2:0:0:
447,242,186252,2,0,B|298:195|340:65|396:28|396:28|473:80|422:168,2,396.000012084961,2|2|10,3:1|2:1|2:1,0:0:0:0:
263,313,187050,101,8,2:1:0:0:
38,384,187209,6,0,B|51:127|274:-18|274:-18|196:182|260:341|260:341|336:181|439:126|439:126|397:266|456:345,2,1350,2|2|2,3:1|3:1|3:1,0:0:0:0:
422,156,189443,101,2,2:2:0:0:
422,156,189603,1,2,2:2:0:0:
249,19,189763,1,8,2:1:0:0:
29,323,189922,5,2,2:2:0:0:
49,268,190002,1,2,2:2:0:0:
106,255,190081,2,0,B|179:245|246:351|246:351|250:215|328:178,1,360,2|4,3:1|2:3,0:0:0:0:
309,188,190453,1,4,2:3:0:0:
309,188,190507,1,4,2:3:0:0:
309,188,190560,1,4,2:3:0:0:
483,114,190720,5,8,2:1:0:0:
409,287,190880,1,8,2:1:0:0:
226,259,191039,2,0,B|84:177|170:-35|304:22|304:22|322:96|254:134,1,485.999985168458,6|2,3:1|2:2,0:0:0:0:
0,384,191837,5,2,2:2:0:0:
4,371,191917,1,2,2:2:0:0:
11,360,191997,2,0,P|138:290|324:314,1,323.999990112305,2|2,3:1|0:0,0:0:0:0:
485,215,192475,1,2,2:2:0:0:
508,160,192555,1,2,2:2:0:0:
469,117,192635,1,10,2:1:0:0:
286,143,192795,101,10,2:1:0:0:
286,143,192848,1,0,0:0:0:0:
286,143,192901,1,0,0:0:0:0:
286,143,192954,2,0,B|252:110|144:117|123:221|123:221|152:179|239:158,1,297.000002832413,2|2,3:1|0:0,0:0:0:0:
467,34,193433,5,2,2:2:0:0:
394,168,193592,1,10,2:1:0:0:
512,270,193752,1,2,2:2:0:0:
477,306,193832,1,2,2:2:0:0:
504,350,193912,1,2,3:1:0:0:
504,350,194231,102,0,P|473:335|409:323,1,74.2500007081032,2|2,2:1|0:0,0:0:0:0:
404,199,194390,2,0,P|369:201|308:223,1,74.2500007081032,2|0,0:0|0:0,0:0:0:0:
491,139,194550,1,8,2:1:0:0:
267,330,194709,5,10,2:1:0:0:
267,330,194763,1,0,0:0:0:0:
267,330,194816,1,0,0:0:0:0:
267,330,194869,2,0,B|236:345|131:315|150:215|150:215|198:202|238:253,1,270.000010299683,2|2,3:1|0:0,0:0:0:0:
391,193,195348,1,2,2:2:0:0:
449,27,195507,1,8,2:1:0:0:
270,75,195667,101,2,2:2:0:0:
210,71,195747,1,2,2:2:0:0:
180,121,195826,1,2,3:1:0:0:
180,121,196146,86,0,B|112:115|102:181|131:233|186:262|182:126|263:210|273:290|217:322|158:334|126:256,1,323.999990112305,2|10,2:1|2:1,0:0:0:0:
42,364,196624,37,10,2:1:0:0:
54,367,196704,1,2,2:2:0:0:
66,370,196783,1,2,3:1:0:0:
148,312,196943,1,0,3:0:0:0:
227,367,197103,1,0,3:3:0:0:
310,307,197262,1,0,3:0:0:0:
263,165,197421,101,8,3:1:0:0:
454,292,197581,1,8,3:1:0:0:
477,63,197741,6,0,P|376:101|319:131,1,135.000005149842,6|0,3:1|0:0,0:0:0:0:
40,143,198061,2,0,P|113:161|171:189,1,116.999994644165,10|0,2:1|0:0,0:0:0:0:
351,212,198380,2,0,P|306:267|281:304,1,99.0000030212403,2|2,2:1|0:0,0:0:0:0:
180,308,198698,2,0,P|213:348|233:382,1,80.9999975280763,6|0,3:1|0:0,0:0:0:0:
506,264,199017,37,2,0:0:0:0:
437,206,199178,1,2,2:2:0:0:
351,212,199497,1,2,2:2:0:0:
351,212,199576,1,2,2:2:0:0:
351,212,199656,1,2,2:2:0:0:
290,280,199975,1,2,0:0:0:0:
295,379,200134,1,2,2:2:0:0:
295,379,200215,1,2,2:2:0:0:
295,379,200295,1,2,2:2:0:0:
209,328,200453,2,0,L|175:322,3,26.9999991760254,2|0|0|2,2:2|0:0|0:0|3:2,0:0:0:0:
209,328,200933,5,2,2:2:0:0:
267,259,201093,1,2,2:2:0:0:
269,173,201412,1,2,2:2:0:0:
269,173,201491,1,2,2:2:0:0:
269,173,201570,1,2,2:2:0:0:
204,99,201890,1,2,2:2:0:0:
120,83,202209,2,0,L|126:49,6,26.9999991760254,2|0|0|0|0|0|2,2:2|0:0|0:0|0:0|0:0|0:0|3:2,0:0:0:0:
57,267,202848,102,0,P|111:270|130:275,1,67.5000025749208,2|2,0:0|0:0,0:0:0:0:
172,349,203166,1,2,0:0:0:0:
259,334,203326,1,2,2:2:0:0:
259,334,203406,1,2,2:2:0:0:
259,334,203486,1,2,3:2:0:0:
410,290,203805,5,2,2:2:0:0:
298,148,204124,2,0,L|303:109,6,22.5000008583069,2|2|2|2|2|2|2,2:2|2:2|2:2|2:2|2:2|2:2|3:2,0:0:0:0:
247,236,204763,1,2,0:0:0:0:
451,274,205081,85,2,0:1:0:0:
500,306,205187,1,2,2:2:0:0:
512,352,205294,1,2,2:2:0:0:
497,384,205400,1,2,2:2:0:0:
475,372,205507,1,2,2:2:0:0:
465,359,205613,1,2,2:2:0:0:
462,347,205719,1,2,2:2:0:0:
461,340,205826,1,2,2:2:0:0:
464,335,205932,1,2,2:2:0:0:
468,331,206038,102,0,P|405:355|338:366,1,135.000005149842,0|2,3:0|3:2,0:0:0:0:
256,192,206517,12,0,209230,0:0:0:0:
