osu file format v14

[General]
AudioFilename: audio.mp3
AudioLeadIn: 0
PreviewTime: 20061
Countdown: 0
SampleSet: Soft
StackLeniency: 0.7
Mode: 2
LetterboxInBreaks: 0
WidescreenStoryboard: 0

[Editor]
DistanceSpacing: 1
BeatDivisor: 4
GridSize: 16
TimelineZoom: 1.25001

[Metadata]
Title:AltMirrorBell
TitleUnicode:AltMirrorBell
Artist:Grand Thaw
ArtistUnicode:Grand Thaw
Creator:Deif
Version:Platter
Source:BMS Festival 09' Winter
Tags:Alt Mirror Bell Team Fantasia NOCTURNE careless 井上⊿ Inoue Delta こさぎ Kosagi Little Egret Årstid Arstid Piano Classical Instrumental
BeatmapID:2177807
BeatmapSetID:959843

[Difficulty]
HPDrainRate:5
CircleSize:3.5
OverallDifficulty:8
ApproachRate:8
SliderMultiplier:1.6
SliderTickRate:1

[Events]
//Background and Video events
0,0,"BG.jpg",0,0
Video,-120,"video.avi"
//Break Periods
//Storyboard Layer 0 (Background)
//Storyboard Layer 1 (Fail)
//Storyboard Layer 2 (Pass)
//Storyboard Layer 3 (Foreground)
//Storyboard Layer 4 (Overlay)
//Storyboard Sound Samples

[TimingPoints]
-15,600,3,3,0,40,1,0
2685,-100,3,1,0,50,0,0
3585,-100,3,3,0,40,0,0
4485,-100,3,1,0,50,0,0
5085,666.666666666667,3,3,0,40,1,0
5418,857.142857142857,3,3,0,40,1,0
5632,545.454545454546,3,2,0,50,1,0
5632,-102.040816326531,3,2,0,50,0,0
5768,571.428571428571,3,2,0,50,1,0
5910,461.538461538462,3,2,0,25,1,0
6025,521.739130434783,3,2,0,50,1,0
6155,472.44094488189,3,2,0,50,1,0
6273,-100,3,2,0,20,0,0
6391,533.333333333333,3,2,0,50,1,0
6524,444.444444444444,3,2,0,30,1,0
6635,-100,3,2,0,50,0,0
6746,510.63829787234,3,2,0,40,1,0
6873,-100,3,2,0,50,0,0
7001,585.365853658537,3,2,0,50,1,0
7293,500,3,2,0,30,1,0
7418,648.648648648649,3,2,0,50,1,0
7580,600,3,2,0,40,1,0
7730,705.882352941176,3,2,0,50,1,0
7906,648.648648648649,3,2,0,50,1,0
8068,685.714285714286,3,2,0,50,1,0
8239,727.272727272727,3,2,0,40,1,0
8420,774.193548387097,3,2,0,50,1,0
8613,750,3,2,0,30,1,0
8800,845.070422535211,3,2,0,40,1,0
9011,1170.73170731707,3,2,0,50,1,0
10767,434.782608695652,3,2,1,30,1,0
11201,483.870967741935,3,2,1,30,1,0
12168,394.736842105263,3,2,1,30,1,0
12168,-133.333333333333,3,2,1,30,0,0
12562,340.909090909091,3,2,1,30,1,0
12562,-133.333333333333,3,2,1,30,0,0
12902,340.909090909091,3,2,1,40,1,0
12902,-133.333333333333,3,2,1,40,0,0
12987,-133.333333333333,3,2,1,30,0,0
14947,-133.333333333333,3,2,1,40,0,0
15117,-133.333333333333,3,2,1,30,0,0
16992,-133.333333333333,3,2,1,40,0,0
17163,-133.333333333333,3,2,1,30,0,0
19038,-133.333333333333,3,2,1,40,0,0
19208,-133.333333333333,3,2,1,30,0,0
20061,-133.333333333333,3,2,1,40,0,0
27220,-133.333333333333,3,2,1,50,0,0
27561,-133.333333333333,3,2,1,25,0,0
27731,-133.333333333333,3,2,1,40,0,0
28242,-133.333333333333,3,2,1,40,0,0
35401,-133.333333333333,3,2,1,50,0,0
35742,-133.333333333333,3,2,1,25,0,0
35912,-133.333333333333,3,2,1,40,0,0
36424,-133.333333333333,3,3,1,40,0,0
43924,-133.333333333333,3,3,1,20,0,0
44009,-133.333333333333,3,3,1,40,0,0
52788,-133.333333333333,3,3,0,40,0,0
53811,394.736842105263,3,3,0,30,1,0
54205,372.670807453416,3,3,0,30,1,0
54578,300,3,3,0,30,1,0
54878,365.853658536585,3,3,0,40,1,0
55060,405.405405405405,3,2,0,40,1,0
55465,291.26213592233,3,2,0,40,1,0
55756,297.029702970297,3,2,0,40,1,0
56053,365.853658536585,3,2,0,50,1,0
56418,405.405405405405,3,2,0,50,1,0
56823,444.444444444444,3,3,0,50,1,0
57045,480,3,3,0,50,1,0
57285,566.037819548872,3,1,0,50,1,0
57568,-100,3,2,0,50,0,0
57851,508.474576271186,3,3,0,50,1,0
58359,483.870967741935,3,1,0,40,1,0
58842,377.358490566038,3,3,0,50,1,0
59030,392.156862745098,3,3,0,50,1,0
59226,545.454545454546,3,3,0,50,1,0
59499,566.037735849057,3,1,0,50,1,0
59782,-100,3,2,0,50,0,0
60065,500,3,3,0,60,1,0
60565,476.190476190476,3,1,0,60,1,0
61041,315.789473684211,3,3,0,60,1,0
61198,400,3,3,0,60,1,0
61398,571.428571428571,3,3,0,60,1,0
61683,652.173913043478,3,1,0,60,1,0
62335,410.96,3,3,0,50,1,0
62746,588.235294117647,3,3,0,50,1,0
63040,508.474576271186,3,1,0,60,1,0
63548,315.789473684211,3,3,0,60,1,0
63705,413.793103448276,3,3,0,60,1,0
63911,560.747663551402,3,3,0,60,1,0
64191,402.684563758389,3,1,0,50,1,0
64392,521.739130434783,3,2,0,50,1,0
64652,585.365853658537,3,2,0,50,1,0
64798,500,3,2,0,50,1,0
64923,480,3,2,0,50,1,0
65043,500,3,2,0,50,1,0
65168,421.052631578947,3,2,0,50,1,0
65274,358.208955223881,3,3,0,40,1,0
65364,428.571428571429,3,3,0,40,1,0
65471,461.538461538462,3,3,0,40,1,0
65586,352.941176470588,3,3,0,40,1,0
65674,347.826086956522,3,3,0,50,1,0
65760,375,3,3,0,50,1,0
65853,358.208955223881,3,3,0,50,1,0
66032,-100,3,1,0,40,0,0
66122,413.793103448276,3,1,0,42,1,0
66225,406.779661016949,3,1,0,44,1,0
66326,489.795918367347,3,1,0,46,1,0
66448,500,3,1,0,48,1,0
66573,480,3,1,0,50,1,0
66693,666.666666666667,3,1,0,50,1,0
66859,727.272727272727,3,1,0,50,1,0
67040,384.615384615385,3,1,1,34,1,0
67424,-100,3,1,2,34,0,0
67809,-100,3,1,1,34,0,0
68193,-100,3,1,1,36,0,0
68578,-100,3,1,2,36,0,0
68963,-100,3,1,1,36,0,0
69347,-100,3,1,1,38,0,0
69732,-100,3,1,2,38,0,0
70116,-100,3,1,1,38,0,0
70501,-100,3,1,1,40,0,0
70886,-100,3,1,2,40,0,0
71270,-100,3,1,1,40,0,0
71655,-100,3,1,1,42,0,0
72040,-100,3,1,2,42,0,0
72424,-100,3,1,1,42,0,0
72809,-100,3,1,1,44,0,0
73193,-100,3,1,2,44,0,0
73578,-100,3,1,1,44,0,0
73963,-100,3,1,1,46,0,0
74347,-100,3,1,2,46,0,0
74732,-100,3,1,1,46,0,0
75116,-100,3,1,1,48,0,0
75501,-100,3,1,2,48,0,0
75886,-100,3,1,1,48,0,0
76270,-100,3,1,1,50,0,0
76655,-100,3,1,2,50,0,0
77040,-100,3,1,1,50,0,0
77809,-100,3,1,2,50,0,0
78193,-100,3,1,1,50,0,0
78963,-100,3,1,2,50,0,0
79347,-100,3,1,1,50,0,0
80116,-100,3,1,2,50,0,0
80501,-100,3,1,1,50,0,0
81270,-100,3,1,2,50,0,0
81655,-100,3,1,1,50,0,0
82424,-100,3,1,2,50,0,0
82809,-100,3,1,1,50,0,0
83578,-100,3,1,2,50,0,0
83963,-100,3,1,1,50,0,0
84732,-100,3,1,2,50,0,0
85116,-100,3,1,1,50,0,0
85886,-100,3,1,3,50,0,0
86270,-100,3,1,1,50,0,0
86559,-100,3,1,1,35,0,0
86655,-100,3,1,1,50,0,0
87040,-100,3,1,3,50,0,0
87424,-100,3,1,1,50,0,0
87713,-100,3,1,1,35,0,0
87809,-100,3,1,1,50,0,0
88193,-100,3,1,3,50,0,0
88578,-100,3,1,1,50,0,0
88866,-100,3,1,1,35,0,0
88963,-100,3,1,1,50,0,0
89347,-100,3,1,3,50,0,0
89732,-100,3,1,1,50,0,0
90020,-100,3,1,1,35,0,0
90116,-100,3,1,1,50,0,0
90501,-100,3,1,3,50,0,0
90886,-100,3,1,1,50,0,0
91174,-100,3,1,1,35,0,0
91270,-100,3,1,1,50,0,0
91655,-100,3,1,3,50,0,0
92040,-100,3,1,1,50,0,0
92328,-100,3,1,1,35,0,0
92424,-100,3,1,1,50,0,0
92809,-100,3,1,3,50,0,0
93193,-100,3,1,1,50,0,0
93963,-100,3,1,3,50,0,0
94347,-100,3,1,1,50,0,0
95117,-100,3,1,3,50,0,0
95501,-100,3,1,1,50,0,0
95790,-100,3,1,1,35,0,0
95886,-100,3,1,1,50,0,0
96271,-100,3,1,3,50,0,0
96655,-100,3,1,1,50,0,0
96943,-100,3,1,1,35,0,0
97040,-100,3,1,1,50,0,0
97424,-100,3,1,3,50,0,0
97809,-100,3,1,1,50,0,0
98097,-100,3,1,1,35,0,0
98193,-100,3,1,1,50,0,0
98578,-100,3,1,3,50,0,0
98963,-100,3,1,1,50,0,0
99732,-100,3,1,3,50,0,0
100117,-100,3,1,1,50,0,0
100886,-100,3,1,3,50,0,0
101271,-100,3,1,1,50,0,0
102040,-100,3,1,3,50,0,0
102424,-100,3,1,1,50,0,0
103194,-100,3,1,3,50,0,0
103578,-100,3,1,1,50,0,0
103963,-133.333333333333,3,1,1,50,0,0
104732,-133.333333333333,3,1,3,50,0,0
105116,-133.333333333333,3,1,1,50,0,0
105886,-133.333333333333,3,1,3,50,0,0
106270,-133.333333333333,3,1,1,50,0,0
107040,-133.333333333333,3,1,3,50,0,0
107424,-133.333333333333,3,1,1,50,0,0
108193,-133.333333333333,3,1,3,50,0,0
108578,-133.333333333333,3,1,1,50,0,0
109347,-133.333333333333,3,1,3,50,0,0
109732,-133.333333333333,3,1,1,50,0,0
110501,-133.333333333333,3,1,3,50,0,0
111655,-133.333333333333,3,1,1,50,0,0
112040,-133.333333333333,3,1,3,50,0,0
112072,-133.333333333333,3,1,0,25,0,0
112809,-133.333333333333,3,2,0,30,0,0
112937,-133.333333333333,3,2,0,40,0,0
113065,-133.333333333333,3,2,0,50,0,0
113193,-100,3,1,1,50,0,0
113578,-100,3,1,3,50,0,0
113962,-100,3,1,1,50,0,0
114732,-100,3,1,3,50,0,0
115116,-100,3,1,1,50,0,0
115885,-100,3,1,3,50,0,0
116270,-100,3,1,1,50,0,0
117039,-100,3,1,3,50,0,0
117424,-100,3,1,1,50,0,0
118193,-100,3,1,3,50,0,0
118578,-100,3,1,1,50,0,0
119347,-100,3,1,3,50,0,0
119732,-100,3,1,1,50,0,0
120501,-100,3,1,3,50,0,0
120885,-100,3,1,1,50,0,0
121655,-100,3,1,3,50,0,0
122039,-100,3,1,1,50,0,0
122424,-100,3,1,1,50,0,1
122809,-100,3,1,2,50,0,1
123194,-100,3,1,1,50,0,1
123963,-100,3,1,2,50,0,1
124347,-100,3,1,1,50,0,1
125117,-100,3,1,2,50,0,1
125501,-100,3,1,1,50,0,1
126270,-100,3,1,2,50,0,1
126655,-100,3,1,1,50,0,1
127424,-100,3,1,2,50,0,1
127616,-100,3,1,1,50,0,1
128578,-100,3,1,2,50,0,1
128770,-100,3,1,1,50,0,1
129732,-100,3,1,2,50,0,1
129924,-100,3,1,1,50,0,1
130886,-100,3,1,2,50,0,1
131270,-100,3,1,1,50,0,1
131655,-100,3,1,1,50,0,1
132040,-100,3,1,2,50,0,1
132425,-100,3,1,1,50,0,1
133194,-100,3,1,2,50,0,1
133578,-100,3,1,1,50,0,1
134348,-100,3,1,2,50,0,1
134732,-100,3,1,1,50,0,1
135501,-100,3,1,2,50,0,1
135886,-100,3,1,1,50,0,1
136655,-100,3,1,2,50,0,1
136847,-100,3,1,1,50,0,1
137040,-100,3,1,1,50,0,1
137809,-100,3,1,2,50,0,1
138001,-100,3,1,1,50,0,1
138194,-100,3,1,1,50,0,1
138963,-100,3,1,2,50,0,1
139155,-100,3,1,1,50,0,1
139348,-100,3,1,1,50,0,1
140117,-100,3,1,2,50,0,1
140501,-100,3,1,1,50,0,1
140886,-200,3,1,1,50,0,0
141078,-200,3,2,0,50,0,0
142040,-200,3,2,0,45,0,0
143193,-200,3,2,0,40,0,0
144347,-200,3,2,0,35,0,0
145501,-200,3,3,0,38,0,0
145597,-200,3,2,0,48,0,0
146655,-200,3,2,0,46,0,0
147809,-200,3,3,0,34,0,0
147905,-200,3,2,0,44,0,0
148963,-200,3,2,0,42,0,0
150116,-200,3,2,0,40,0,0

[Colours]
Combo1 : 0,128,192
Combo2 : 122,255,255

[HitObjects]
64,240,1485,5,0,0:0:0:0:
48,192,1635,1,0,0:0:0:0:
64,144,1785,1,0,0:0:0:0:
336,192,2685,1,0,0:0:0:0:
176,192,3585,5,0,0:0:0:0:
464,192,4485,1,0,0:0:0:0:
304,240,5085,5,0,0:0:0:0:
288,192,5251,1,0,0:0:0:0:
304,144,5418,1,0,0:0:0:0:
432,192,5632,6,0,L|432:112,1,80,0|2,0:0|0:0,0:0:0:0:
288,96,6155,2,0,L|368:96,1,80,0|0,0:0|0:0,0:0:0:0:
432,192,6524,1,2,0:0:0:0:
368,288,6635,1,0,0:0:0:0:
304,288,6746,1,2,0:0:0:0:
368,288,6873,1,0,0:0:0:0:
224,192,7001,5,2,0:0:0:0:
144,192,7147,1,0,0:0:0:0:
224,192,7293,1,2,0:0:0:0:
272,192,7418,1,0,0:0:0:0:
304,128,7580,1,2,0:0:0:0:
272,64,7730,1,0,0:0:0:0:
176,64,7906,2,0,L|192:112,1,40,2|0,0:0|0:0,0:0:0:0:
288,112,8239,2,0,L|272:64,1,40,2|0,0:0|0:0,0:0:0:0:
176,64,8613,5,2,0:0:0:0:
288,112,8800,1,2,0:0:0:0:
64,144,9011,1,6,0:0:0:0:
208,192,10767,6,0,L|368:192,1,160,2|8,0:0|0:0,0:0:0:0:
176,192,11684,6,0,L|160:112,1,80,4|2,0:0|0:0,0:0:0:0:
288,192,12168,2,0,L|272:128,1,60.0000022888184,2|0,0:0|0:0,0:0:0:0:
400,192,12562,2,0,L|384:128,1,60.0000022888184,2|0,0:0|0:0,0:0:0:0:
208,80,12902,1,8,0:0:0:0:
157,110,13072,1,0,0:0:0:0:
127,161,13242,1,2,0:0:0:0:
127,221,13413,1,0,0:0:0:0:
156,272,13583,1,2,0:0:0:0:
207,303,13754,1,0,0:0:0:0:
384,192,13924,6,0,L|400:128,1,60.0000022888184,4|0,0:0|0:0,0:0:0:0:
288,192,14265,2,0,L|304:128,1,60.0000022888184,2|0,0:0|0:0,0:0:0:0:
192,192,14606,2,0,L|208:128,1,60.0000022888184,2|0,0:0|0:0,0:0:0:0:
384,80,14947,1,8,0:0:0:0:
435,110,15117,1,0,0:0:0:0:
465,161,15288,1,2,0:0:0:0:
465,221,15458,1,0,0:0:0:0:
436,272,15629,1,2,0:0:0:0:
385,303,15799,1,0,0:0:0:0:
208,192,15970,6,0,L|192:128,1,60.0000022888184,4|0,0:0|0:0,0:0:0:0:
304,192,16311,2,0,L|320:128,1,60.0000022888184,2|0,0:0|0:0,0:0:0:0:
208,192,16652,2,0,L|192:128,1,60.0000022888184,2|0,0:0|0:0,0:0:0:0:
368,80,16992,1,8,0:0:0:0:
419,110,17163,1,0,0:0:0:0:
449,161,17333,1,2,0:0:0:0:
449,221,17504,1,0,0:0:0:0:
400,224,17674,1,2,0:0:0:0:
449,221,17845,1,0,0:0:0:0:
272,192,18015,6,0,L|256:128,1,60.0000022888184,4|0,0:0|0:0,0:0:0:0:
368,192,18356,2,0,L|384:128,1,60.0000022888184,2|0,0:0|0:0,0:0:0:0:
272,192,18697,2,0,L|256:128,1,60.0000022888184,2|0,0:0|0:0,0:0:0:0:
432,192,19038,2,0,P|500:112|432:16,1,240.000009155274,8|2,0:0|0:0,0:0:0:0:
128,48,20061,6,0,P|112:80|128:160,1,120.000004577637,4|2,0:0|0:0,0:0:0:0:
176,192,20572,1,0,0:0:0:0:
224,192,20742,1,2,0:0:0:0:
176,192,20913,1,0,0:0:0:0:
352,192,21083,2,0,L|480:192,2,120.000004577637,4|2|2,0:0|0:0|0:0,0:0:0:0:
48,48,22106,6,0,L|176:48,1,120.000004577637,4|2,0:0|0:0,0:0:0:0:
208,96,22617,1,0,0:0:0:0:
144,96,22788,1,2,0:0:0:0:
208,96,22958,1,0,0:0:0:0:
384,192,23129,2,0,L|256:192,2,120.000004577637,4|2|2,0:0|0:0|0:0,0:0:0:0:
80,192,24152,6,0,P|32:144|32:96,1,120.000004577637,4|2,0:0|0:0,0:0:0:0:
144,48,24833,1,2,0:0:0:0:
447,95,25174,2,0,P|444:153|400:192,1,120.000004577637,4|2,0:0|0:0,0:0:0:0:
272,192,25856,1,2,0:0:0:0:
208,192,26027,1,0,0:0:0:0:
384,192,26197,6,0,P|428:153|432:95,1,120.000004577637,4|2,0:0|0:0,0:0:0:0:
305,96,26879,1,2,0:0:0:0:
369,96,27049,1,0,0:0:0:0:
129,192,27220,2,0,P|81:176|65:112,1,120.000004577637,12|2,0:0|0:0,0:0:0:0:
193,96,27902,1,8,0:0:0:0:
129,96,28072,1,0,0:0:0:0:
369,336,28242,6,0,P|385:304|369:224,1,120.000004577637,4|2,0:0|0:0,0:0:0:0:
321,192,28754,1,0,0:0:0:0:
273,192,28924,1,2,0:0:0:0:
321,192,29095,1,0,0:0:0:0:
144,192,29265,2,0,L|16:192,2,120.000004577637,4|2|2,0:0|0:0|0:0,0:0:0:0:
448,336,30288,6,0,L|320:336,1,120.000004577637,4|2,0:0|0:0,0:0:0:0:
288,288,30799,1,0,0:0:0:0:
352,288,30970,1,2,0:0:0:0:
288,288,31140,1,0,0:0:0:0:
112,192,31311,2,0,L|112:128,1,60.0000022888184,4|0,0:0|0:0,0:0:0:0:
192,96,31652,1,2,0:0:0:0:
352,96,31992,1,2,0:0:0:0:
48,192,32333,6,0,L|176:192,2,120.000004577637,4|2|2,0:0|0:0|0:0,0:0:0:0:
352,192,33356,2,0,P|352:144|320:80,1,120.000004577637,4|2,0:0|0:0,0:0:0:0:
160,80,34038,1,2,0:0:0:0:
464,192,34379,6,0,P|464:144|432:80,1,120.000004577637,4|2,0:0|0:0,0:0:0:0:
272,80,35061,2,0,L|216:104,1,60.0000022888184,2|0,0:0|0:0,0:0:0:0:
400,192,35402,2,0,P|432:144|432:80,1,120.000004577637,12|2,0:0|0:0,0:0:0:0:
304,80,36083,1,2,0:0:0:0:
368,80,36254,1,8,0:0:0:0:
128,192,36424,6,0,P|96:144|96:80,1,120.000004577637,4|2,3:1|0:0,0:0:0:0:
224,80,36992,1,0,0:0:0:0:
288,128,37106,1,2,0:0:0:0:
288,192,37220,1,0,0:0:0:0:
224,240,37333,1,0,0:0:0:0:
80,80,37447,6,0,L|208:80,2,120.000004577637,12|2|2,0:0|0:0|0:0,0:0:0:0:
384,80,38470,6,0,P|416:112|416:184,1,120.000004577637,12|2,0:0|0:0,0:0:0:0:
336,192,38981,1,0,0:0:0:0:
416,192,39152,2,0,P|432:160|432:112,1,80.0000030517579,2|0,0:0|0:0,0:0:0:0:
288,96,39492,6,0,P|240:96|208:160,1,120.000004577637,12|2,0:0|0:0,0:0:0:0:
272,192,39947,1,0,0:0:0:0:
272,240,40061,1,0,0:0:0:0:
208,272,40174,2,0,L|128:272,1,80.0000030517579,2|0,0:0|0:0,0:0:0:0:
272,192,40515,6,0,L|400:192,1,120.000004577637,12|2,0:0|0:0,0:0:0:0:
448,144,40970,1,0,0:0:0:0:
448,80,41083,1,0,0:0:0:0:
392,40,41197,1,2,0:0:0:0:
336,80,41311,1,0,0:0:0:0:
392,40,41424,1,0,0:0:0:0:
248,192,41538,6,0,L|120:192,1,120.000004577637,12|2,0:0|0:0,0:0:0:0:
72,240,41992,1,0,0:0:0:0:
72,304,42106,1,0,0:0:0:0:
128,344,42220,1,2,0:0:0:0:
72,304,42333,1,0,0:0:0:0:
128,344,42447,1,0,0:0:0:0:
272,336,42561,6,0,P|304:288|304:224,1,120.000004577637,12|2,0:0|0:0,0:0:0:0:
240,192,43015,1,0,0:0:0:0:
176,144,43129,1,0,0:0:0:0:
240,112,43242,1,2,0:0:0:0:
240,64,43356,1,0,0:0:0:0:
176,32,43470,1,0,0:0:0:0:
32,32,43583,6,0,L|160:32,2,120.000004577637,12|2|2,0:0|0:0|0:0,0:0:0:0:
448,192,44606,6,0,P|448:256|416:300,1,120.000004577637,4|2,3:1|0:0,0:0:0:0:
288,304,45174,1,0,0:0:0:0:
224,256,45288,1,2,0:0:0:0:
224,192,45402,1,0,0:0:0:0:
288,144,45515,1,0,0:0:0:0:
432,304,45629,6,0,L|304:304,2,120.000004577637,12|2|2,0:0|0:0|0:0,0:0:0:0:
128,304,46652,6,0,P|96:272|96:200,1,120.000004577637,12|2,0:0|0:0,0:0:0:0:
176,192,47163,1,0,0:0:0:0:
96,192,47333,2,0,P|80:224|80:272,1,80.0000030517579,2|0,0:0|0:0,0:0:0:0:
224,288,47674,6,0,P|272:288|304:224,1,120.000004577637,12|2,0:0|0:0,0:0:0:0:
240,192,48129,1,0,0:0:0:0:
240,144,48242,1,0,0:0:0:0:
304,112,48356,2,0,L|384:112,1,80.0000030517579,2|0,0:0|0:0,0:0:0:0:
240,192,48697,6,0,L|112:192,1,120.000004577637,4|2,3:1|0:0,0:0:0:0:
256,192,49379,1,2,0:0:0:0:
256,128,49492,1,0,0:0:0:0:
192,80,49606,1,0,0:0:0:0:
336,192,49720,6,0,L|464:192,1,120.000004577637,12|2,0:0|0:0,0:0:0:0:
320,192,50402,1,2,0:0:0:0:
320,256,50515,1,0,0:0:0:0:
384,304,50629,1,0,0:0:0:0:
240,304,50742,6,0,L|176:304,2,60.0000022888184,12|0|2,0:0|0:0|0:0,0:0:0:0:
352,192,51311,1,0,0:0:0:0:
416,144,51424,1,2,0:0:0:0:
416,80,51538,1,0,0:0:0:0:
352,32,51652,1,0,0:0:0:0:
208,32,51765,6,0,P|176:80|176:144,1,120.000004577637,12|2,0:0|0:0,0:0:0:0:
240,176,52220,1,0,0:0:0:0:
240,224,52333,1,0,0:0:0:0:
176,256,52447,1,2,0:0:0:0:
176,304,52561,1,0,0:0:0:0:
240,336,52674,1,0,0:0:0:0:
384,336,52788,6,0,L|256:336,2,120.000004577637,12|2|2,0:0|0:0|0:0,0:0:0:0:
464,192,53640,1,0,0:0:0:0:
288,192,53811,6,0,L|448:192,1,160,12|10,0:0|0:0,0:0:0:0:
176,256,54578,1,10,0:0:0:0:
112,176,54728,1,0,0:0:0:0:
112,96,54878,1,0,0:0:0:0:
368,96,55060,6,0,L|448:96,2,80,4|0|2,0:0|0:0|0:0,0:0:0:0:
240,96,55659,1,0,0:0:0:0:
176,96,55756,2,0,P|160:144|176:208,1,106.666666666667,2|0,0:0|0:0,0:0:0:0:
240,208,56053,6,0,L|304:208,2,53.3333333333333,2|0|0,0:0|0:0|0:0,0:0:0:0:
176,208,56418,2,0,L|112:208,2,53.3333333333333,2|0|2,0:0|0:0|0:0,0:0:0:0:
320,208,56823,2,0,P|331:176|315:128,1,80,8|8,0:0|0:0,0:0:0:0:
16,128,57285,5,12,0:0:0:0:
64,192,57568,1,2,0:0:0:0:
160,192,57851,2,0,L|224:192,2,53.3333333333333,2|0|2,0:0|0:0|0:0,0:0:0:0:
80,192,58359,6,0,L|144:192,2,53.3333333333333,0|0|0,0:0|0:0|0:0,0:0:0:0:
272,192,58842,2,0,P|272:144|256:112,1,80,8|4,0:0|0:0,0:0:0:0:
160,96,59226,1,8,0:0:0:0:
496,96,59499,5,12,0:0:0:0:
448,192,59782,1,2,0:0:0:0:
352,192,60065,2,0,L|288:192,2,53.3333333333333,2|0|2,0:0|0:0|0:0,0:0:0:0:
432,192,60565,6,0,L|368:192,2,53.3333333333333,0|0|0,0:0|0:0|0:0,0:0:0:0:
256,192,61041,2,0,P|256:144|272:112,1,80,8|4,0:0|0:0,0:0:0:0:
368,96,61398,1,8,0:0:0:0:
16,96,61683,5,12,0:0:0:0:
192,192,62335,2,0,L|272:192,2,80,2|0|2,0:0|0:0|0:0,0:0:0:0:
64,64,63040,6,0,L|128:64,2,53.3333333333333
232,112,63548,2,0,P|247:148|245:188,1,80,8|4,0:0|0:0,0:0:0:0:
144,96,63911,1,8,0:0:0:0:
496,96,64191,5,12,0:0:0:0:
256,192,64392,12,12,67040,0:0:0:0:
192,192,67424,5,2,0:0:0:0:
160,192,67520,2,0,L|80:192,1,80,0|0,0:0|0:0,0:0:0:0:
112,192,67809,2,0,L|192:192,1,80,2|0,0:0|0:0,0:0:0:0:
80,192,68193,5,8,0:0:0:0:
272,96,68578,1,2,0:0:0:0:
240,96,68674,2,0,L|160:96,1,80,0|0,0:0|0:0,0:0:0:0:
192,96,68963,2,0,L|272:96,1,80,2|0,0:0|0:0,0:0:0:0:
160,96,69347,5,8,0:0:0:0:
352,288,69732,1,2,0:0:0:0:
320,288,69828,2,0,L|240:288,1,80,0|0,0:0|0:0,0:0:0:0:
272,288,70116,2,0,L|352:288,1,80,2|0,0:0|0:0,0:0:0:0:
240,288,70501,5,8,0:0:0:0:
432,192,70886,1,2,0:0:0:0:
400,192,70982,2,0,L|320:192,1,80,0|0,0:0|0:0,0:0:0:0:
352,192,71270,2,0,L|432:192,1,80,2|0,0:0|0:0,0:0:0:0:
240,64,71655,5,8,0:0:0:0:
96,192,72040,1,2,0:0:0:0:
128,192,72136,2,0,L|208:192,1,80,0|0,0:0|0:0,0:0:0:0:
176,192,72424,2,0,L|96:192,1,80,2|0,0:0|0:0,0:0:0:0:
288,64,72809,5,8,0:0:0:0:
432,192,73193,1,2,0:0:0:0:
400,192,73290,2,0,L|320:192,1,80,0|0,0:0|0:0,0:0:0:0:
352,192,73578,2,0,L|432:192,1,80,2|0,0:0|0:0,0:0:0:0:
240,64,73963,6,0,L|160:64,1,80,8|0,0:0|0:0,0:0:0:0:
240,192,74347,1,2,0:0:0:0:
208,192,74443,2,0,L|128:192,1,80,0|0,0:0|0:0,0:0:0:0:
160,192,74732,2,0,L|240:192,1,80,2|0,0:0|0:0,0:0:0:0:
432,64,75116,6,0,L|480:64,2,40,8|0|0,0:0|0:0|0:0,0:0:0:0:
352,192,75501,1,2,0:0:0:0:
384,192,75597,2,0,L|464:192,1,80,0|0,0:0|0:0,0:0:0:0:
432,192,75886,2,0,L|352:192,1,80,2|0,0:0|0:0,0:0:0:0:
96,192,76270,6,0,P|80:128|144:64,1,160,12|2,0:0|0:0,0:0:0:0:
256,64,76847,1,0,0:0:0:0:
64,192,77040,2,0,L|48:112,1,80,2|0,0:0|0:0,0:0:0:0:
240,192,77424,6,0,P|256:256|192:320,1,160,8|2,0:0|0:0,0:0:0:0:
80,320,78001,1,0,0:0:0:0:
272,192,78193,2,0,L|288:272,1,80,2|0,0:0|0:0,0:0:0:0:
240,288,78482,1,0,0:0:0:0:
288,288,78578,6,0,L|368:288,1,80,8|0,0:0|0:0,0:0:0:0:
256,240,78963,2,0,L|304:176,1,80,2|0,0:0|0:0,0:0:0:0:
112,192,79347,2,0,L|96:112,1,80,2|0,0:0|0:0,0:0:0:0:
288,112,79732,6,0,P|304:176|240:240,1,160,8|2,0:0|0:0,0:0:0:0:
128,240,80309,1,0,0:0:0:0:
320,112,80501,2,0,L|336:192,1,80,2|0,0:0|0:0,0:0:0:0:
144,112,80886,6,0,L|64:112,1,80,8|0,0:0|0:0,0:0:0:0:
176,160,81270,2,0,L|128:224,1,80,2|0,0:0|0:0,0:0:0:0:
320,208,81655,2,0,L|336:288,1,80,2|0,0:0|0:0,0:0:0:0:
144,272,82040,6,0,L|64:272,1,80,8|0,0:0|0:0,0:0:0:0:
176,224,82424,2,0,L|128:160,1,80,2|0,0:0|0:0,0:0:0:0:
320,176,82809,2,0,L|336:96,1,80,2|0,0:0|0:0,0:0:0:0:
144,192,83193,6,0,L|96:192,2,40,8|0|0,0:0|0:0|0:0,0:0:0:0:
256,192,83578,1,2,0:0:0:0:
288,160,83674,1,0,0:0:0:0:
288,112,83770,1,0,0:0:0:0:
96,112,83963,2,0,L|48:112,2,40,2|0|0,0:0|0:0|0:0,0:0:0:0:
352,192,84347,6,0,L|400:192,2,40,8|0|0,0:0|0:0|0:0,0:0:0:0:
240,192,84732,1,2,0:0:0:0:
208,160,84828,1,0,0:0:0:0:
208,112,84924,1,0,0:0:0:0:
400,112,85116,2,0,L|448:112,2,40,2|0|0,0:0|0:0|0:0,0:0:0:0:
144,112,85501,5,12,0:0:0:0:
240,112,85886,1,2,0:0:0:0:
320,112,86078,1,0,0:0:0:0:
128,112,86270,2,0,L|144:192,1,80,2|0,0:0|0:0,0:0:0:0:
336,192,86655,6,0,L|176:192,1,160,8|2,0:0|0:0,0:0:0:0:
112,144,87168,1,0,0:0:0:0:
176,96,87296,1,0,0:0:0:0:
112,48,87424,1,2,0:0:0:0:
400,48,87809,6,0,P|448:96|400:160,1,160,8|2,0:0|0:0,0:0:0:0:
320,160,88386,1,0,0:0:0:0:
128,160,88578,2,0,L|112:240,1,80,2|0,0:0|0:0,0:0:0:0:
304,240,88963,5,8,0:0:0:0:
176,192,89347,1,2,0:0:0:0:
368,192,89732,1,2,0:0:0:0:
80,192,90116,6,0,L|80:112,1,80,8|0,0:0|0:0,0:0:0:0:
176,80,90501,1,2,0:0:0:0:
368,80,90886,1,2,0:0:0:0:
80,192,91270,6,0,L|240:192,1,160,8|2,0:0|0:0,0:0:0:0:
48,192,92040,1,2,0:0:0:0:
336,192,92424,6,0,L|336:112,1,80,8|0,0:0|0:0,0:0:0:0:
240,80,92809,1,2,0:0:0:0:
48,80,93193,2,0,L|128:80,1,80,2|0,0:0|0:0,0:0:0:0:
320,80,93578,6,0,L|336:160,1,80,8|0,0:0|0:0,0:0:0:0:
224,160,93963,2,0,L|240:240,1,80,2|0,0:0|0:0,0:0:0:0:
64,192,94347,2,0,L|48:112,1,80,2|0,0:0|0:0,0:0:0:0:
336,272,94732,5,12,0:0:0:0:
272,272,95116,1,2,0:0:0:0:
192,272,95309,1,0,0:0:0:0:
400,272,95501,2,0,L|384:192,1,80,2|0,0:0|0:0,0:0:0:0:
192,192,95886,6,0,L|352:192,1,160,8|2,0:0|0:0,0:0:0:0:
416,240,96398,1,0,0:0:0:0:
352,288,96527,1,0,0:0:0:0:
416,336,96655,1,2,0:0:0:0:
128,336,97040,6,0,P|80:288|128:224,1,160,8|2,0:0|0:0,0:0:0:0:
208,224,97616,1,0,0:0:0:0:
400,224,97809,2,0,L|416:144,1,80,2|0,0:0|0:0,0:0:0:0:
224,144,98193,5,8,0:0:0:0:
352,192,98578,1,2,0:0:0:0:
144,192,98963,1,2,0:0:0:0:
432,192,99347,6,0,L|432:272,1,80,8|0,0:0|0:0,0:0:0:0:
336,304,99732,2,0,L|336:224,1,80,2|0,0:0|0:0,0:0:0:0:
144,304,100116,2,0,L|144:224,1,80,2|0,0:0|0:0,0:0:0:0:
336,192,100501,6,0,L|336:112,1,80,8|0,0:0|0:0,0:0:0:0:
240,80,100886,2,0,L|240:160,1,80,2|0,0:0|0:0,0:0:0:0:
48,80,101270,2,0,L|128:80,1,80,2|0,0:0|0:0,0:0:0:0:
320,80,101655,6,0,L|336:160,1,80,8|0,0:0|0:0,0:0:0:0:
224,192,102040,2,0,L|176:192,2,40,2|0|0,0:0|0:0|0:0,0:0:0:0:
336,192,102424,2,0,L|384:192,2,40,2|0|0,0:0|0:0|0:0,0:0:0:0:
80,192,102809,6,0,L|32:192,2,40,8|0|0,0:0|0:0|0:0,0:0:0:0:
192,192,103193,2,0,L|240:192,2,40,2|0|0,0:0|0:0|0:0,0:0:0:0:
80,192,103578,2,0,P|48:128|80:96,1,120,2|0,0:0|0:0,0:0:0:0:
208,64,103963,5,12,0:0:0:0:
304,64,104540,1,0,0:0:0:0:
112,192,104732,2,0,L|96:256,1,60.0000022888184,2|0,0:0|0:0,0:0:0:0:
288,192,105116,5,10,0:0:0:0:
400,192,105886,2,0,L|416:128,1,60.0000022888184,2|0,0:0|0:0,0:0:0:0:
224,192,106270,5,10,0:0:0:0:
112,192,106847,2,0,L|48:192,2,60.0000022888184,0|2|0,0:0|0:0|0:0,0:0:0:0:
304,192,107424,6,0,L|432:192,2,120.000004577637,10|2|2,0:0|0:2|0:0,0:0:0:0:
192,192,108578,6,0,L|320:192,1,120.000004577637,10|0,0:0|0:0,0:0:0:0:
160,128,109347,1,2,0:0:0:0:
464,128,109732,5,10,0:0:0:0:
336,128,110116,2,0,L|304:144,2,30.0000011444092,0|2|0,0:0|0:2|0:0,0:0:0:0:
416,240,110501,1,2,0:0:0:0:
112,240,110886,5,10,0:0:0:0:
304,192,111463,2,0,L|368:192,2,60.0000022888184,0|2|0,0:0|0:0|0:0,0:0:0:0:
112,192,112040,5,10,0:0:0:0:
256,192,112424,12,12,113193,0:0:0:0:
272,192,113578,6,0,L|256:112,1,80,2|0,0:0|0:0,0:0:0:0:
64,64,113963,2,0,L|144:64,1,80,2|0,0:0|0:0,0:0:0:0:
400,64,114347,6,0,P|448:112|400:176,1,160,8|2,0:0|0:0,0:0:0:0:
272,176,115020,1,0,0:0:0:0:
224,176,115116,2,0,L|208:96,1,80,2|0,0:0|0:0,0:0:0:0:
400,96,115501,6,0,L|384:176,1,80,8|0,0:0|0:0,0:0:0:0:
288,192,115886,2,0,L|304:112,1,80,2|0,0:0|0:0,0:0:0:0:
496,64,116270,2,0,L|416:64,1,80,2|0,0:0|0:0,0:0:0:0:
160,64,116655,6,0,P|112:112|160:176,1,160,8|2,0:0|0:0,0:0:0:0:
288,176,117328,1,0,0:0:0:0:
336,176,117424,2,0,L|416:176,1,80,2|0,0:0|0:0,0:0:0:0:
160,288,117809,6,0,L|144:208,1,80,8|0,0:0|0:0,0:0:0:0:
176,160,118097,1,0,0:0:0:0:
256,128,118193,1,2,0:0:0:0:
304,128,118290,1,0,0:0:0:0:
256,128,118386,1,0,0:0:0:0:
64,128,118578,2,0,L|48:48,1,80,2|0,0:0|0:0,0:0:0:0:
304,48,118963,6,0,L|352:48,2,40,8|0|0,0:0|0:0|0:0,0:0:0:0:
192,48,119347,2,0,L|144:48,2,40,2|0|0,0:0|0:0|0:0,0:0:0:0:
384,192,119732,2,0,L|464:192,1,80,2|0,0:0|0:0,0:0:0:0:
208,320,120116,6,0,L|160:320,2,40,8|0|0,0:0|0:0|0:0,0:0:0:0:
320,320,120501,2,0,L|368:320,2,40,2|0|0,0:0|0:0|0:0,0:0:0:0:
128,176,120886,2,0,L|48:176,1,80,2|0,0:0|0:0,0:0:0:0:
304,64,121270,6,0,L|352:64,2,40,8|0|0,0:0|0:0|0:0,0:0:0:0:
192,64,121655,2,0,L|144:64,2,40,2|0|0,0:0|0:0|0:0,0:0:0:0:
448,208,122040,2,0,L|368:208,1,80,2|0,0:0|0:0,0:0:0:0:
112,208,122424,6,0,L|32:208,3,80,12|2|2|2,0:0|0:2|0:0|0:2,0:0:0:0:
288,208,123193,2,0,L|304:128,1,80,2|2,0:0|0:2,0:0:0:0:
128,128,123578,6,0,L|48:128,3,80,8|2|2|2,0:0|0:2|0:0|0:2,0:0:0:0:
304,128,124347,2,0,L|320:208,1,80,2|2,0:0|0:2,0:0:0:0:
144,208,124732,6,0,L|64:208,2,80,8|2|2,0:0|0:2|0:0,0:0:0:0:
256,208,125309,2,0,L|256:160,1,40,2|0,0:2|0:0,0:0:0:0:
144,128,125501,2,0,P|128:96|128:48,1,80,2|2,0:0|0:2,0:0:0:0:
128,16,125790,1,0,0:0:0:0:
240,16,125886,6,0,P|256:48|256:96,1,80,8|2,0:0|0:2,0:0:0:0:
256,128,126174,1,0,0:0:0:0:
144,192,126270,1,2,0:0:0:0:
128,144,126366,1,0,0:0:0:0:
160,112,126463,1,2,0:2:0:0:
352,192,126655,2,0,L|400:192,2,40,2|0|2,0:0|0:0|0:2,0:0:0:0:
96,192,127040,6,0,P|80:144|80:112,1,80,8|2,0:0|0:3,0:0:0:0:
96,64,127328,1,0,0:0:0:0:
144,32,127424,1,2,0:0:0:0:
400,32,127616,2,0,L|448:32,1,40,2|0,0:3|0:0,0:0:0:0:
384,32,127809,1,2,0:0:0:0:
128,192,128001,2,0,L|80:192,1,40,2|0,0:3|0:0,0:0:0:0:
144,192,128193,5,8,0:0:0:0:
400,352,128386,2,0,L|400:304,1,40,2|0,0:3|0:0,0:0:0:0:
288,192,128578,1,2,0:0:0:0:
240,192,128674,1,0,0:0:0:0:
240,144,128770,1,2,0:3:0:0:
432,192,128963,1,2,0:0:0:0:
432,144,129059,1,0,0:0:0:0:
384,144,129155,1,2,0:3:0:0:
192,144,129347,6,0,L|112:144,1,80,8|2,0:0|0:3,0:0:0:0:
368,144,129732,2,0,L|384:224,1,80,2|2,0:0|0:3,0:0:0:0:
128,240,130116,2,0,L|112:161,1,80,2|2,0:0|0:3,0:0:0:0:
304,240,130501,6,0,L|304:192,1,40,8|0,0:0|0:0,0:0:0:0:
240,192,130693,2,0,P|224:144|224:112,1,80,2|2,0:2|0:0,0:0:0:0:
256,80,130982,1,0,0:0:0:0:
304,80,131078,1,2,0:2:0:0:
48,192,131270,2,0,L|128:192,1,80,2|2,0:0|0:2,0:0:0:0:
400,176,131655,6,0,L|480:176,3,80,12|2|2|2,0:0|0:2|0:0|0:2,0:0:0:0:
224,176,132424,2,0,L|208:256,1,80,2|2,0:0|0:2,0:0:0:0:
384,256,132809,6,0,L|464:256,3,80,8|2|2|2,0:0|0:2|0:0|0:2,0:0:0:0:
208,256,133578,2,0,L|192:176,1,80,2|2,0:0|0:2,0:0:0:0:
368,176,133963,6,0,L|448:176,2,80,8|2|2,0:0|0:2|0:0,0:0:0:0:
256,176,134540,2,0,L|256:224,1,40,2|0,0:2|0:0,0:0:0:0:
368,256,134732,2,0,P|384:288|384:336,1,80,2|2,0:0|0:2,0:0:0:0:
384,368,135020,1,0,0:0:0:0:
272,368,135116,6,0,P|256:336|256:288,1,80,8|2,0:0|0:2,0:0:0:0:
256,256,135405,5,0,0:0:0:0:
368,192,135501,1,2,0:0:0:0:
384,240,135597,1,0,0:0:0:0:
352,272,135693,1,2,0:2:0:0:
160,192,135886,2,0,L|112:192,2,40,2|0|2,0:0|0:0|0:2,0:0:0:0:
416,192,136270,6,0,P|432:240|432:272,1,80,8|2,0:0|0:3,0:0:0:0:
416,320,136559,1,0,0:0:0:0:
368,352,136655,1,2,0:0:0:0:
112,352,136847,2,0,L|64:352,1,40,2|0,0:3|0:0,0:0:0:0:
128,352,137040,1,2,0:0:0:0:
384,192,137232,2,0,L|432:192,1,40,2|0,0:3|0:0,0:0:0:0:
368,192,137424,5,8,0:0:0:0:
112,32,137616,2,0,L|112:80,1,40,2|0,0:3|0:0,0:0:0:0:
224,192,137809,1,2,0:0:0:0:
272,192,137905,1,0,0:0:0:0:
272,240,138001,1,2,0:3:0:0:
80,192,138193,1,2,0:0:0:0:
80,240,138290,1,0,0:0:0:0:
128,240,138386,1,2,0:3:0:0:
384,192,138578,5,8,0:0:0:0:
384,144,138674,1,0,0:0:0:0:
336,144,138770,1,2,0:3:0:0:
80,192,138963,1,2,0:0:0:0:
80,240,139059,1,0,0:0:0:0:
128,240,139155,1,2,0:3:0:0:
384,144,139347,2,0,L|432:144,2,40,2|0|2,0:0|0:0|0:3,0:0:0:0:
128,144,139732,6,0,L|128:192,1,40,8|0,0:0|0:0,0:0:0:0:
192,192,139924,2,0,P|208:240|208:272,1,80,2|2,0:2|0:0,0:0:0:0:
176,304,140213,5,0,0:0:0:0:
128,304,140309,1,2,0:2:0:0:
384,192,140501,1,2,0:0:0:0:
400,144,140597,1,0,0:0:0:0:
352,112,140693,1,2,0:2:0:0:
96,112,140886,5,12,0:0:0:0:
256,192,141078,12,0,145116,0:0:0:0:
96,192,145501,6,0,L|96:144,1,40,8|0,0:0|0:0,0:0:0:0:
224,192,145886,1,2,0:0:0:0:
96,192,146270,1,2,0:0:0:0:
416,192,146655,6,0,L|416:144,1,40,8|0,0:0|0:0,0:0:0:0:
288,192,147040,1,2,0:0:0:0:
416,192,147424,1,2,0:0:0:0:
112,192,147809,6,0,L|112:144,1,40,8|0,0:0|0:0,0:0:0:0:
224,192,148193,1,2,0:0:0:0:
112,192,148578,1,2,0:0:0:0:
400,192,148963,6,0,L|400:144,1,40,8|0,0:0|0:0,0:0:0:0:
288,192,149347,1,2,0:0:0:0:
400,192,149732,1,2,0:0:0:0:
112,192,150116,5,4,0:0:0:0:
