osu file format v14

[General]
AudioFilename: Grambam36 - DJ Professor K Presents- 24-7 FUNKY FRESH BEATS FROM TOKYO-TO - 188 SEA-MAN DISCO.mp3
AudioLeadIn: 0
PreviewTime: 42
Countdown: 0
SampleSet: Normal
StackLeniency: 0.7
Mode: 1
LetterboxInBreaks: 0
WidescreenStoryboard: 0

[Editor]
DistanceSpacing: 0.7
BeatDivisor: 12
GridSize: 32
TimelineZoom: 3.599999

[Metadata]
Title:SEA-MAN DISCO
TitleUnicode:SEA-MAN DISCO
Artist:Grambam36
ArtistUnicode:Grambam36
Creator:Stefan
Version:2
Source:シーマン2 〜北京原人育成キット〜
Tags:intro seaman two pekin genjin ikusei kit ytp yo-kai yokai hell's entrance world mamorukun curse! まもるクンは呪われてしまった! siivagunner silvagunner dj professor k takeover djk video game japanese instrumental novelty thenutritiousguy tng
BeatmapID:2510543
BeatmapSetID:1205634

[Difficulty]
HPDrainRate:7
CircleSize:5
OverallDifficulty:6
ApproachRate:5
SliderMultiplier:1.4
SliderTickRate:1

[Events]
//Background and Video events
0,0,"l.jpg",0,6
//Break Periods
//Storyboard Layer 0 (Background)
//Storyboard Layer 1 (Fail)
//Storyboard Layer 2 (Pass)
//Storyboard Layer 3 (Foreground)
//Storyboard Layer 4 (Overlay)
//Storyboard Sound Samples

[TimingPoints]
6219,392.156862745098,4,1,0,77,1,0
18768,-100,4,1,0,77,0,1
31317,-100,4,1,0,77,0,0
31514,-100,4,1,0,66,0,0
32494,-100,4,1,0,55,0,0
33867,-100,4,1,0,44,0,0
34651,-100,4,1,0,33,0,0
35631,-100,4,1,0,22,0,0
37004,-100,4,1,0,11,0,0

[HitObjects]
256,192,6219,5,4,0:0:0:0:
256,192,6611,1,8,0:0:0:0:
256,192,6807,1,0,0:0:0:0:
256,192,7003,1,8,0:0:0:0:
256,192,7395,1,8,0:0:0:0:
256,192,7493,1,0,0:0:0:0:
256,192,7591,1,8,0:0:0:0:
256,192,7656,1,0,0:0:0:0:
256,192,7722,1,0,0:0:0:0:
256,192,7787,1,8,0:0:0:0:
256,192,7983,1,0,0:0:0:0:
256,192,8179,1,8,0:0:0:0:
256,192,8375,1,0,0:0:0:0:
256,192,8473,1,0,0:0:0:0:
256,192,8571,1,8,0:0:0:0:
256,192,8669,1,0,0:0:0:0:
256,192,8768,1,0,0:0:0:0:
256,192,8964,1,0,0:0:0:0:
256,192,9160,1,0,0:0:0:0:
256,192,9258,1,0,0:0:0:0:
256,192,9356,1,8,0:0:0:0:
256,192,9748,1,8,0:0:0:0:
256,192,9944,1,0,0:0:0:0:
256,192,10140,1,8,0:0:0:0:
256,192,10532,1,0,0:0:0:0:
256,192,10728,1,0,0:0:0:0:
256,192,10924,1,8,0:0:0:0:
256,192,11120,1,0,0:0:0:0:
256,192,11219,1,0,0:0:0:0:
256,192,11317,1,8,0:0:0:0:
256,192,11513,1,0,0:0:0:0:
256,192,11611,1,0,0:0:0:0:
256,192,11709,1,8,0:0:0:0:
256,192,11807,1,0,0:0:0:0:
256,192,11905,1,0,0:0:0:0:
256,192,12101,1,0,0:0:0:0:
256,192,12297,1,0,0:0:0:0:
256,192,12493,1,4,0:0:0:0:
256,192,12885,1,8,0:0:0:0:
256,192,13081,1,0,0:0:0:0:
256,192,13277,1,8,0:0:0:0:
256,192,13669,1,8,0:0:0:0:
256,192,13768,1,0,0:0:0:0:
256,192,13866,1,8,0:0:0:0:
256,192,13931,1,0,0:0:0:0:
256,192,13996,1,0,0:0:0:0:
256,192,14062,1,8,0:0:0:0:
256,192,14258,1,0,0:0:0:0:
256,192,14454,1,8,0:0:0:0:
256,192,14650,1,0,0:0:0:0:
256,192,14748,1,0,0:0:0:0:
256,192,14846,1,8,0:0:0:0:
256,192,14944,1,0,0:0:0:0:
256,192,15042,1,0,0:0:0:0:
256,192,15238,1,0,0:0:0:0:
256,192,15434,1,8,0:0:0:0:
256,192,15532,1,0,0:0:0:0:
256,192,15630,1,8,0:0:0:0:
256,192,16022,1,8,0:0:0:0:
256,192,16219,1,0,0:0:0:0:
256,192,16415,1,8,0:0:0:0:
256,192,16611,1,8,0:0:0:0:
256,192,16807,1,0,0:0:0:0:
256,192,17003,1,0,0:0:0:0:
256,192,17199,1,8,0:0:0:0:
256,192,17395,1,0,0:0:0:0:
256,192,17493,1,0,0:0:0:0:
256,192,17591,1,8,0:0:0:0:
256,192,17787,1,0,0:0:0:0:
256,192,17983,1,8,0:0:0:0:
256,192,18081,1,0,0:0:0:0:
256,192,18179,1,0,0:0:0:0:
256,192,18277,1,0,0:0:0:0:
256,192,18375,1,8,0:0:0:0:
256,192,18571,1,0,0:0:0:0:
256,192,18768,1,12,0:0:0:0:
256,192,18964,1,0,0:0:0:0:
256,192,19062,1,0,0:0:0:0:
256,192,19160,1,8,0:0:0:0:
256,192,19356,1,0,0:0:0:0:
256,192,19552,1,8,0:0:0:0:
256,192,19650,1,0,0:0:0:0:
256,192,19748,1,8,0:0:0:0:
256,192,19846,1,0,0:0:0:0:
256,192,19944,1,8,0:0:0:0:
256,192,20042,1,0,0:0:0:0:
256,192,20140,1,8,0:0:0:0:
256,192,20205,1,0,0:0:0:0:
256,192,20271,1,0,0:0:0:0:
256,192,20336,1,8,0:0:0:0:
256,192,20532,1,0,0:0:0:0:
256,192,20728,1,0,0:0:0:0:
256,192,20826,1,0,0:0:0:0:
256,192,20924,1,8,0:0:0:0:
256,192,21022,1,0,0:0:0:0:
256,192,21120,1,8,0:0:0:0:
256,192,21219,1,8,0:0:0:0:
256,192,21317,1,0,0:0:0:0:
256,192,21513,1,8,0:0:0:0:
256,192,21611,1,0,0:0:0:0:
256,192,21709,1,8,0:0:0:0:
256,192,21807,1,8,0:0:0:0:
256,192,21905,1,0,0:0:0:0:
256,192,22101,1,0,0:0:0:0:
256,192,22297,1,8,0:0:0:0:
256,192,22493,1,0,0:0:0:0:
256,192,22689,1,8,0:0:0:0:
256,192,22787,1,0,0:0:0:0:
256,192,22885,1,0,0:0:0:0:
256,192,22983,1,0,0:0:0:0:
256,192,23081,1,8,0:0:0:0:
256,192,23277,1,0,0:0:0:0:
256,192,23473,1,8,0:0:0:0:
256,192,23669,1,8,0:0:0:0:
256,192,23768,1,0,0:0:0:0:
256,192,23866,1,8,0:0:0:0:
256,192,24062,1,0,0:0:0:0:
256,192,24258,1,8,0:0:0:0:
256,192,24356,1,8,0:0:0:0:
256,192,24454,1,0,0:0:0:0:
256,192,24552,1,0,0:0:0:0:
256,192,24650,1,8,0:0:0:0:
256,192,24846,1,0,0:0:0:0:
256,192,25042,1,12,0:0:0:0:
256,192,25238,1,0,0:0:0:0:
256,192,25434,1,8,0:0:0:0:
256,192,25532,1,0,0:0:0:0:
256,192,25630,1,0,0:0:0:0:
256,192,25826,1,8,0:0:0:0:
256,192,25924,1,8,0:0:0:0:
256,192,26022,1,0,0:0:0:0:
256,192,26120,1,0,0:0:0:0:
256,192,26219,1,8,0:0:0:0:
256,192,26317,1,0,0:0:0:0:
256,192,26415,1,8,0:0:0:0:
256,192,26480,1,0,0:0:0:0:
256,192,26545,1,0,0:0:0:0:
256,192,26611,1,8,0:0:0:0:
256,192,26807,1,8,0:0:0:0:
256,192,26905,1,8,0:0:0:0:
256,192,27003,1,0,0:0:0:0:
256,192,27101,1,0,0:0:0:0:
256,192,27199,1,8,0:0:0:0:
256,192,27297,1,8,0:0:0:0:
256,192,27395,1,0,0:0:0:0:
256,192,27493,1,0,0:0:0:0:
256,192,27591,1,0,0:0:0:0:
256,192,27787,1,8,0:0:0:0:
256,192,27885,1,0,0:0:0:0:
256,192,27983,1,8,0:0:0:0:
256,192,28081,1,8,0:0:0:0:
256,192,28179,1,0,0:0:0:0:
256,192,28375,1,0,0:0:0:0:
256,192,28571,1,8,0:0:0:0:
256,192,28669,1,8,0:0:0:0:
256,192,28768,1,0,0:0:0:0:
256,192,28866,1,0,0:0:0:0:
256,192,28964,1,8,0:0:0:0:
256,192,29160,1,0,0:0:0:0:
256,192,29258,1,0,0:0:0:0:
256,192,29356,1,8,0:0:0:0:
256,192,29552,1,0,0:0:0:0:
256,192,29748,1,8,0:0:0:0:
256,192,29944,1,0,0:0:0:0:
256,192,30042,1,0,0:0:0:0:
256,192,30140,1,8,0:0:0:0:
256,192,30336,1,0,0:0:0:0:
256,192,30532,1,0,0:0:0:0:
256,192,30630,1,8,0:0:0:0:
256,192,30728,1,8,0:0:0:0:
256,192,30826,1,0,0:0:0:0:
256,192,30924,1,8,0:0:0:0:
256,192,31022,1,0,0:0:0:0:
256,192,31120,1,8,0:0:0:0:
256,192,31218,1,8,0:0:0:0:
256,192,31317,1,4,0:0:0:0:
256,192,31709,1,8,0:0:0:0:
256,192,31905,1,0,0:0:0:0:
256,192,32003,1,0,0:0:0:0:
256,192,32101,1,0,0:0:0:0:
256,192,32297,1,8,0:0:0:0:
256,192,32689,1,8,0:0:0:0:
256,192,32885,1,0,0:0:0:0:
256,192,33081,1,0,0:0:0:0:
256,192,33277,1,8,0:0:0:0:
256,192,33473,1,0,0:0:0:0:
256,192,33571,1,0,0:0:0:0:
256,192,33669,1,8,0:0:0:0:
256,192,33866,1,0,0:0:0:0:
256,192,34062,1,12,0:0:0:0:
256,192,34258,1,0,0:0:0:0:
256,192,34454,1,8,0:0:0:0:
256,192,34846,1,8,0:0:0:0:
256,192,35042,1,0,0:0:0:0:
256,192,35140,1,0,0:0:0:0:
256,192,35238,1,0,0:0:0:0:
256,192,35434,1,8,0:0:0:0:
256,192,35826,1,8,0:0:0:0:
256,192,36022,1,0,0:0:0:0:
256,192,36219,1,0,0:0:0:0:
256,192,36415,1,8,0:0:0:0:
256,192,36611,1,0,0:0:0:0:
256,192,36676,1,0,0:0:0:0:
256,192,36741,1,0,0:0:0:0:
256,192,36807,1,8,0:0:0:0:
256,192,37199,1,8,0:0:0:0:
