osu file format v14

[General]
AudioFilename: audio.mp3
AudioLeadIn: 0
PreviewTime: 278978
Countdown: 0
SampleSet: Normal
StackLeniency: 0.7
Mode: 1
LetterboxInBreaks: 0
WidescreenStoryboard: 1

[Editor]
Bookmarks: 739,19939,39139,58328,77528,96728,115939,135139,154339,175928,195128,214328,233528,252728,279128,298328,317528,339128,358328,377528,396728
DistanceSpacing: 1.3
BeatDivisor: 4
GridSize: 32
TimelineZoom: 2.6

[Metadata]
Title:Yggdrasil
TitleUnicode:Yggdrasil
Artist:Gram vs. Kobaryo
ArtistUnicode:Gram vs. Kobaryo
Creator:Nepuri
Version:Tree of Decay
Source:
Tags:DJ Genki The Requiem
BeatmapID:1610757
BeatmapSetID:766161

[Difficulty]
HPDrainRate:4.5
CircleSize:2
OverallDifficulty:8
ApproachRate:10
SliderMultiplier:1.4
SliderTickRate:1

[Events]
//Background and Video events
0,0,"Unbenannt.png",0,50
//Break Periods
//Storyboard Layer 0 (Background)
//Storyboard Layer 1 (Fail)
//Storyboard Layer 2 (Pass)
//Storyboard Layer 3 (Foreground)
//Storyboard Sound Samples

[TimingPoints]
728,300,4,1,0,60,1,0
728,-133.333333333333,4,1,0,60,0,0
5528,-133.333333333333,4,1,0,30,0,0
19928,-133.333333333333,4,1,0,60,0,0
37928,-128.205128205128,4,1,0,60,0,0
38078,-123.456790123457,4,1,0,60,0,0
38228,-119.047619047619,4,1,0,60,0,0
38378,-114.942528735632,4,1,0,60,0,0
38453,-113.636363636364,4,1,0,60,0,0
38528,-112.359550561798,4,1,0,60,0,0
38678,-109.89010989011,4,1,0,60,0,0
38828,-106.382978723404,4,1,0,60,0,0
39128,-100,4,1,0,80,0,0
115928,-100,4,1,0,80,0,0
125228,-99.009900990099,4,1,0,80,0,0
125303,-98.0392156862745,4,1,0,80,0,0
125378,-97.0873786407767,4,1,0,80,0,0
125428,-96.4692263168049,4,1,0,80,0,0
125478,-95.8469515877048,4,1,0,80,0,0
125528,-95.2380952380952,4,1,0,80,0,0
135128,-95.2380952380952,4,1,0,80,0,0
136328,-93.4579439252336,4,1,0,80,0,0
136478,-90.0900900900901,4,1,0,80,0,0
136553,-88.4955752212389,4,1,0,80,0,0
136628,-86.9565217391304,4,1,0,80,0,0
136703,-85.4700854700855,4,1,0,80,0,0
136778,-84.0336134453781,4,1,0,80,0,0
136928,-81.3008130081301,4,1,0,80,0,0
137078,-78.7401574803149,4,1,0,80,0,0
137153,-77.5193798449612,4,1,0,80,0,0
137228,-76.3358778625954,4,1,0,80,0,0
137303,-75.187969924812,4,1,0,80,0,0
137378,-74.0740740740741,4,1,0,80,0,0
137528,-74.0740740740741,4,1,0,80,0,0
137678,-76.3358778625954,4,1,0,80,0,0
137753,-77.5193798449612,4,1,0,80,0,0
137828,-78.7401574803149,4,1,0,80,0,0
137903,-80,4,1,0,80,0,0
137978,-81.3008130081301,4,1,0,80,0,0
138128,-84.0336134453781,4,1,0,80,0,0
138278,-86.9565217391304,4,1,0,80,0,0
138353,-88.4955752212389,4,1,0,80,0,0
138428,-90.0900900900901,4,1,0,80,0,0
138578,-93.4579439252336,4,1,0,80,0,0
138728,-93.4579439252336,4,1,0,80,0,0
138803,-91.743119266055,4,1,0,80,0,0
138878,-90.0900900900901,4,1,0,80,0,0
139028,-86.9565217391304,4,1,0,80,0,0
139103,-85.4700854700855,4,1,0,80,0,0
139178,-84.0336134453781,4,1,0,80,0,0
139253,-82.6446280991736,4,1,0,80,0,0
139328,-81.3008130081301,4,1,0,80,0,0
139478,-78.7401574803149,4,1,0,80,0,0
139628,-76.3358778625954,4,1,0,80,0,0
139778,-74.0740740740741,4,1,0,80,0,0
139928,-74.0740740740741,4,1,0,80,0,0
140078,-76.3358778625954,4,1,0,80,0,0
140153,-77.5193798449612,4,1,0,80,0,0
140228,-78.7401574803149,4,1,0,80,0,0
140378,-81.3008130081301,4,1,0,80,0,0
140528,-84.0336134453781,4,1,0,80,0,0
140678,-86.9565217391304,4,1,0,80,0,0
140753,-88.4955752212389,4,1,0,80,0,0
140828,-90.0900900900901,4,1,0,80,0,0
140978,-93.4579439252336,4,1,0,80,0,0
141128,-93.4579439252336,4,1,0,80,0,0
141278,-90.0900900900901,4,1,0,80,0,0
141353,-88.4955752212389,4,1,0,80,0,0
141428,-86.9565217391304,4,1,0,80,0,0
141503,-85.4700854700855,4,1,0,80,0,0
141578,-84.0336134453781,4,1,0,80,0,0
141728,-81.3008130081301,4,1,0,80,0,0
141878,-78.7401574803149,4,1,0,80,0,0
141953,-77.5193798449612,4,1,0,80,0,0
142028,-76.3358778625954,4,1,0,80,0,0
142103,-75.187969924812,4,1,0,80,0,0
142178,-74.0740740740741,4,1,0,80,0,0
142328,-74.0740740740741,4,1,0,80,0,0
142478,-76.3358778625954,4,1,0,80,0,0
142553,-77.5193798449612,4,1,0,80,0,0
142628,-78.7401574803149,4,1,0,80,0,0
142703,-80,4,1,0,80,0,0
142778,-81.3008130081301,4,1,0,80,0,0
142928,-84.0336134453781,4,1,0,80,0,0
143078,-86.9565217391304,4,1,0,80,0,0
143153,-88.4955752212389,4,1,0,80,0,0
143228,-90.0900900900901,4,1,0,80,0,0
143378,-93.4579439252336,4,1,0,80,0,0
143528,-93.4579439252336,4,1,0,80,0,0
143678,-90.0900900900901,4,1,0,80,0,0
143753,-88.4955752212389,4,1,0,80,0,0
143828,-86.9565217391304,4,1,0,80,0,0
143978,-84.0336134453781,4,1,0,80,0,0
144053,-82.6446280991736,4,1,0,80,0,0
144128,-81.3008130081301,4,1,0,80,0,0
144278,-78.7401574803149,4,1,0,80,0,0
144428,-76.3358778625954,4,1,0,80,0,0
144578,-74.0740740740741,4,1,0,80,0,0
144728,-74.0740740740741,4,1,0,80,0,0
144878,-76.3358778625954,4,1,0,80,0,0
144953,-77.5193798449612,4,1,0,80,0,0
145028,-78.7401574803149,4,1,0,80,0,0
145178,-81.3008130081301,4,1,0,80,0,0
145328,-84.0336134453781,4,1,0,80,0,0
145478,-86.9565217391304,4,1,0,80,0,0
145553,-88.4955752212389,4,1,0,80,0,0
145628,-90.0900900900901,4,1,0,80,0,0
145778,-93.4579439252336,4,1,0,80,0,0
145928,-93.4579439252336,4,1,0,80,0,0
146078,-90.0900900900901,4,1,0,80,0,0
146153,-88.4955752212389,4,1,0,80,0,0
146228,-86.9565217391304,4,1,0,80,0,0
146303,-85.4700854700855,4,1,0,80,0,0
146378,-84.0336134453781,4,1,0,80,0,0
146528,-81.3008130081301,4,1,0,80,0,0
146678,-78.7401574803149,4,1,0,80,0,0
146753,-77.5193798449612,4,1,0,80,0,0
146828,-76.3358778625954,4,1,0,80,0,0
146903,-75.187969924812,4,1,0,80,0,0
146978,-74.0740740740741,4,1,0,80,0,0
147128,-74.0740740740741,4,1,0,80,0,0
147278,-76.3358778625954,4,1,0,80,0,0
147353,-77.5193798449612,4,1,0,80,0,0
147428,-78.7401574803149,4,1,0,80,0,0
147503,-80,4,1,0,80,0,0
147578,-81.3008130081301,4,1,0,80,0,0
147728,-84.0336134453781,4,1,0,80,0,0
147878,-86.9565217391304,4,1,0,80,0,0
147953,-88.4955752212389,4,1,0,80,0,0
148028,-90.0900900900901,4,1,0,80,0,0
148178,-93.4579439252336,4,1,0,80,0,0
148328,-93.4579439252336,4,1,0,80,0,0
148403,-91.743119266055,4,1,0,80,0,0
148478,-90.0900900900901,4,1,0,80,0,0
148628,-86.9565217391304,4,1,0,80,0,0
148703,-85.4700854700855,4,1,0,80,0,0
148778,-84.0336134453781,4,1,0,80,0,0
148853,-82.6446280991736,4,1,0,80,0,0
148928,-81.3008130081301,4,1,0,80,0,0
149078,-78.7401574803149,4,1,0,80,0,0
149153,-77.5193798449612,4,1,0,80,0,0
149228,-76.3358778625954,4,1,0,80,0,0
149378,-74.0740740740741,4,1,0,80,0,0
149528,-74.0740740740741,4,1,0,80,0,0
149678,-76.3358778625954,4,1,0,80,0,0
149753,-77.5193798449612,4,1,0,80,0,0
149828,-78.7401574803149,4,1,0,80,0,0
149978,-81.3008130081301,4,1,0,80,0,0
150128,-84.0336134453781,4,1,0,80,0,0
150278,-86.9565217391304,4,1,0,80,0,0
150353,-88.4955752212389,4,1,0,80,0,0
150428,-90.0900900900901,4,1,0,80,0,0
150578,-93.4579439252336,4,1,0,80,0,0
150728,-93.4579439252336,4,1,0,80,0,0
150878,-90.0900900900901,4,1,0,80,0,0
150953,-88.4955752212389,4,1,0,80,0,0
151028,-86.9565217391304,4,1,0,80,0,0
151103,-85.4700854700855,4,1,0,80,0,0
151178,-84.0336134453781,4,1,0,80,0,0
151328,-81.3008130081301,4,1,0,80,0,0
151478,-78.7401574803149,4,1,0,80,0,0
151553,-77.5193798449612,4,1,0,80,0,0
151628,-76.3358778625954,4,1,0,80,0,0
151703,-75.187969924812,4,1,0,80,0,0
151778,-74.0740740740741,4,1,0,80,0,0
151928,-74.0740740740741,4,1,0,80,0,0
153128,-73.5294117647059,4,1,0,80,0,0
153203,-72.992700729927,4,1,0,80,0,0
153278,-72.463768115942,4,1,0,80,0,0
153353,-71.9424460431655,4,1,0,80,0,0
153428,-71.4285714285714,4,1,0,80,0,0
153478,-71.093416749609,4,1,0,80,0,0
153528,-70.7548838558581,4,1,0,80,0,0
153578,-70.4225352112676,4,1,0,80,0,0
153628,-70.0937854849789,4,1,0,80,0,0
153678,-69.7676041107072,4,1,0,80,0,0
153728,-69.4444444444444,4,1,0,80,0,0
154328,-83.3333333333333,4,1,0,80,0,1
173528,-83.3333333333333,4,1,0,80,0,0
174728,-100,4,1,0,80,0,0
174878,-98.0392156862745,4,1,0,80,0,0
175028,-96.1538461538461,4,1,0,80,0,0
175178,-94.3396226415094,4,1,0,80,0,0
175328,-92.5925925925926,4,1,0,80,0,0
175403,-91.743119266055,4,1,0,80,0,0
175478,-90.9090909090909,4,1,0,80,0,0
175553,-90.0900900900901,4,1,0,80,0,0
175628,-89.2857142857143,4,1,0,80,0,0
175928,-95.2380952380952,4,1,0,80,0,0
176828,-92.5925925925926,4,1,0,80,0,0
176978,-89.2857142857143,4,1,0,80,0,0
178178,-92.5925925925926,4,1,0,80,0,0
178328,-95.2380952380952,4,1,0,80,0,0
179228,-92.5925925925926,4,1,0,80,0,0
179378,-89.2857142857143,4,1,0,80,0,0
180578,-86.9565217391304,4,1,0,80,0,0
180728,-84.7457627118644,4,1,0,80,0,0
181628,-86.9565217391304,4,1,0,80,0,0
181778,-89.2857142857143,4,1,0,80,0,0
182078,-92.5925925925926,4,1,0,80,0,0
182378,-95.2380952380952,4,1,0,80,0,0
182678,-98.0392156862745,4,1,0,80,0,0
182978,-92.5925925925926,4,1,0,80,0,0
183128,-84.7457627118644,4,1,0,80,0,0
184028,-86.9565217391304,4,1,0,80,0,0
184178,-89.2857142857143,4,1,0,80,0,0
184478,-92.5925925925926,4,1,0,80,0,0
184778,-95.2380952380952,4,1,0,80,0,0
185078,-100,4,1,0,80,0,0
185528,-95.2380952380952,4,1,0,80,0,0
186428,-92.5925925925926,4,1,0,80,0,0
186578,-89.2857142857143,4,1,0,80,0,0
187778,-92.5925925925926,4,1,0,80,0,0
187928,-95.2380952380952,4,1,0,80,0,0
188828,-92.5925925925926,4,1,0,80,0,0
188978,-89.2857142857143,4,1,0,80,0,0
190178,-86.9565217391304,4,1,0,80,0,0
190328,-84.7457627118644,4,1,0,80,0,0
191228,-86.9565217391304,4,1,0,80,0,0
191378,-89.2857142857143,4,1,0,80,0,0
191678,-92.5925925925926,4,1,0,80,0,0
191978,-95.2380952380952,4,1,0,80,0,0
192278,-98.0392156862745,4,1,0,80,0,0
192578,-92.5925925925926,4,1,0,80,0,0
192728,-84.7457627118644,4,1,0,80,0,0
193628,-86.9565217391304,4,1,0,80,0,0
193778,-89.2857142857143,4,1,0,80,0,0
194078,-92.5925925925926,4,1,0,80,0,0
194378,-95.2380952380952,4,1,0,80,0,0
194978,-97.5609756097561,4,1,0,80,0,0
195128,-100,4,1,0,80,0,0
204428,-99.009900990099,4,1,0,80,0,0
204503,-98.0392156862745,4,1,0,80,0,0
204578,-97.0873786407767,4,1,0,80,0,0
204628,-96.4692263168049,4,1,0,80,0,0
204678,-95.8469515877048,4,1,0,80,0,0
204728,-95.2380952380952,4,1,0,80,0,0
214328,-95.2380952380952,4,1,0,80,0,0
214478,-96.1538461538461,4,1,0,80,0,0
214628,-97.0873786407767,4,1,0,80,0,0
214778,-98.0392156862745,4,1,0,80,0,0
215078,-100,4,1,0,80,0,0
215378,-101.010101010101,4,1,0,80,0,0
216728,-125,4,1,0,80,0,0
254528,-123.456790123457,4,1,0,80,0,0
254828,-120.481927710843,4,1,0,80,0,0
254978,-119.047619047619,4,1,0,80,0,0
255128,-117.647058823529,4,1,0,80,0,0
255428,-114.942528735632,4,1,0,80,0,0
255578,-113.636363636364,4,1,0,80,0,0
255728,-112.359550561798,4,1,0,80,0,0
255878,-111.111111111111,4,1,0,80,0,0
255953,-110.497237569061,4,1,0,80,0,0
256028,-109.89010989011,4,1,0,80,0,0
256178,-108.695652173913,4,1,0,80,0,0
256328,-107.52688172043,4,1,0,80,0,0
256478,-106.382978723404,4,1,0,80,0,0
256553,-105.820105820106,4,1,0,80,0,0
256628,-105.263157894737,4,1,0,80,0,0
256778,-104.166666666667,4,1,0,80,0,0
256928,-103.092783505155,4,1,0,80,0,0
257078,-102.040816326531,4,1,0,80,0,0
257153,-101.522842639594,4,1,0,80,0,0
257528,-95.2380952380952,4,1,0,80,0,0
264953,-99.009900990099,4,1,0,80,0,0
265178,-101.010101010101,4,1,0,80,0,0
265328,-103.092783505155,4,1,0,80,0,0
265553,-105.263157894737,4,1,0,80,0,0
265778,-107.52688172043,4,1,0,80,0,0
265928,-109.89010989011,4,1,0,80,0,0
266153,-112.359550561798,4,1,0,80,0,0
266378,-114.942528735632,4,1,0,80,0,0
266528,-117.647058823529,4,1,0,80,0,0
266753,-120.481927710843,4,1,0,80,0,0
266978,-123.456790123457,4,1,0,80,0,0
267128,-125,4,1,0,80,0,0
267428,-123.456790123457,4,1,0,80,0,0
267728,-121.951219512195,4,1,0,80,0,0
268028,-120.481927710843,4,1,0,80,0,0
268328,-119.047619047619,4,1,0,80,0,0
268478,-118.343195266272,4,1,0,80,0,0
268628,-117.647058823529,4,1,0,80,0,0
268778,-116.959064327485,4,1,0,80,0,0
268928,-116.279069767442,4,1,0,80,0,0
269078,-115.606936416185,4,1,0,80,0,0
269228,-114.942528735632,4,1,0,80,0,0
269378,-114.285714285714,4,1,0,80,0,0
269528,-113.636363636364,4,1,0,80,0,0
269753,-112.676056338028,4,1,0,80,0,0
269978,-111.731843575419,4,1,0,80,0,0
270128,-111.111111111111,4,1,0,80,0,0
270353,-110.192837465565,4,1,0,80,0,0
270578,-109.289617486339,4,1,0,80,0,0
270728,-108.695652173913,4,1,0,80,0,0
270878,-108.108108108108,4,1,0,80,0,0
270953,-107.816711590296,4,1,0,80,0,0
271028,-107.52688172043,4,1,0,80,0,0
271103,-107.238605898123,4,1,0,80,0,0
271178,-106.951871657754,4,1,0,80,0,0
271328,-106.382978723404,4,1,0,80,0,0
271403,-106.100795755968,4,1,0,80,0,0
271478,-105.820105820106,4,1,0,80,0,0
271628,-105.263157894737,4,1,0,80,0,0
271703,-104.98687664042,4,1,0,80,0,0
271778,-104.712041884817,4,1,0,80,0,0
271928,-104.166666666667,4,1,0,80,0,0
272078,-103.092783505155,4,1,0,80,0,0
272153,-102.564102564103,4,1,0,80,0,0
272303,-101.522842639594,4,1,0,80,0,0
272378,-101.010101010101,4,1,0,80,0,0
272528,-100,4,1,0,80,0,0
272678,-99.009900990099,4,1,0,80,0,0
272753,-98.5221674876847,4,1,0,80,0,0
272903,-97.5609756097561,4,1,0,80,0,0
272978,-97.0873786407767,4,1,0,80,0,0
273128,-96.1538461538461,4,1,0,80,0,0
273278,-95.2380952380952,4,1,0,80,0,0
273353,-94.7867298578199,4,1,0,80,0,0
273428,-94.3396226415094,4,1,0,80,0,0
273503,-93.8967136150235,4,1,0,80,0,0
273578,-93.4579439252336,4,1,0,80,0,0
273728,-92.5925925925926,4,1,0,80,0,0
273803,-92.1658986175115,4,1,0,80,0,0
273878,-91.743119266055,4,1,0,80,0,0
274028,-90.9090909090909,4,1,0,80,0,0
274103,-90.4977375565611,4,1,0,80,0,0
274178,-90.0900900900901,4,1,0,80,0,0
274328,-89.2857142857143,4,1,0,80,0,0
274403,-88.8888888888889,4,1,0,80,0,0
274478,-88.4955752212389,4,1,0,80,0,0
274553,-88.1057268722467,4,1,0,80,0,0
274628,-87.719298245614,4,1,0,80,0,0
274703,-87.3362445414847,4,1,0,80,0,0
274778,-86.9565217391304,4,1,0,80,0,0
274853,-86.5800865800866,4,1,0,80,0,0
274928,-86.2068965517241,4,1,0,80,0,0
275003,-85.8369098712446,4,1,0,80,0,0
275078,-85.4700854700855,4,1,0,80,0,0
275153,-85.1063829787234,4,1,0,80,0,0
275228,-84.7457627118644,4,1,0,80,0,0
275303,-84.3881856540084,4,1,0,80,0,0
275378,-84.0336134453781,4,1,0,80,0,0
275453,-83.6820083682008,4,1,0,80,0,0
275528,-83.3333333333333,4,1,0,80,0,0
275603,-82.9875518672199,4,1,0,80,0,0
275678,-82.6446280991736,4,1,0,80,0,0
275753,-82.3045267489712,4,1,0,80,0,0
275828,-81.9672131147541,4,1,0,80,0,0
275903,-81.6326530612245,4,1,0,80,0,0
275978,-81.3008130081301,4,1,0,80,0,0
276053,-80.9716599190283,4,1,0,80,0,0
276128,-80.6451612903226,4,1,0,80,0,0
276203,-80.3212851405623,4,1,0,80,0,0
276278,-80,4,1,0,80,0,0
276353,-79.6812749003984,4,1,0,80,0,0
276428,-79.3650793650794,4,1,0,80,0,0
276503,-79.0513833992095,4,1,0,80,0,0
276578,-78.7401574803149,4,1,0,80,0,0
276653,-78.4313725490196,4,1,0,80,0,0
276728,-78.125,4,1,0,80,0,0
277928,-90.9090909090909,4,1,0,80,0,0
279128,-83.3333333333333,4,1,0,80,0,1
296978,-85.1063829787234,4,1,0,80,0,1
297128,-86.9565217391304,4,1,0,80,0,0
297878,-85.1063829787234,4,1,0,80,0,0
297953,-83.3333333333333,4,1,0,80,0,0
298028,-82.6446280991736,4,1,0,80,0,0
298078,-81.9672131147541,4,1,0,80,0,0
298128,-81.3008130081301,4,1,0,80,0,0
298178,-80.6451612903226,4,1,0,80,0,0
298228,-80,4,1,0,80,0,0
298278,-79.3650793650794,4,1,0,80,0,0
298328,-78.7401574803149,4,1,0,80,0,1
317528,-78.7401574803149,4,1,0,80,0,0
317678,-82.6446280991736,4,1,0,80,0,0
317828,-86.9565217391304,4,1,0,80,0,0
317978,-90.9090909090909,4,1,0,80,0,0
318278,-100,4,1,0,80,0,0
318578,-111.111111111111,4,1,0,80,0,0
318728,-117.647058823529,4,1,0,80,0,0
319928,-125,4,1,0,80,0,0
337928,-111.111111111111,4,1,0,80,0,0
338228,-108.695652173913,4,1,0,80,0,0
338378,-107.52688172043,4,1,0,80,0,0
338453,-106.951871657754,4,1,0,80,0,0
338528,-106.382978723404,4,1,0,80,0,0
338678,-105.263157894737,4,1,0,80,0,0
338828,-104.166666666667,4,1,0,80,0,0
339128,-100,4,1,0,80,0,0

[HitObjects]
192,96,728,5,4,0:0:0:0:
320,192,5528,5,0,0:0:0:0:
256,192,9128,12,0,10478,0:0:0:0:
320,192,10628,5,0,0:0:0:0:
320,192,15428,1,0,0:0:0:0:
256,192,18728,12,0,19778,0:0:0:0:
256,192,19928,5,8,0:0:0:0:
256,192,20228,1,0,0:0:0:0:
256,192,20528,1,8,0:0:0:0:
256,192,20678,1,0,0:0:0:0:
256,192,20828,1,8,0:0:0:0:
288,160,21128,1,8,0:0:0:0:
352,160,21278,1,0,0:0:0:0:
512,192,21578,1,8,0:0:0:0:
288,160,21728,1,0,0:0:0:0:
288,160,22028,1,8,0:0:0:0:
256,160,22328,1,0,0:0:0:0:
256,160,22628,1,8,0:0:0:0:
256,160,22928,1,0,0:0:0:0:
256,160,23078,1,0,0:0:0:0:
224,160,23228,1,8,0:0:0:0:
224,160,23528,1,8,0:0:0:0:
160,128,23678,1,0,0:0:0:0:
160,128,23978,1,0,0:0:0:0:
96,128,24128,1,8,0:0:0:0:
96,128,24428,1,8,0:0:0:0:
96,128,24728,1,0,0:0:0:0:
224,96,25028,1,8,0:0:0:0:
224,96,25328,1,0,0:0:0:0:
224,96,25478,1,0,0:0:0:0:
224,128,25628,1,8,0:0:0:0:
224,128,25928,1,8,0:0:0:0:
224,128,26078,1,8,0:0:0:0:
224,128,26228,1,0,0:0:0:0:
160,96,26378,1,8,0:0:0:0:
224,128,26528,1,0,0:0:0:0:
224,128,26828,1,8,0:0:0:0:
160,96,27128,1,8,0:0:0:0:
160,96,27278,1,0,0:0:0:0:
160,96,27428,1,8,0:0:0:0:
160,96,27578,1,8,0:0:0:0:
160,96,27728,1,0,0:0:0:0:
288,192,28028,1,8,0:0:0:0:
160,96,28328,1,8,0:0:0:0:
224,128,28478,1,8,0:0:0:0:
224,128,28628,1,0,0:0:0:0:
160,96,28778,1,8,0:0:0:0:
160,96,28928,1,0,0:0:0:0:
320,128,29228,1,8,0:0:0:0:
256,192,29528,5,8,0:0:0:0:
256,192,29828,1,0,0:0:0:0:
256,192,30128,1,8,0:0:0:0:
256,192,30278,1,0,0:0:0:0:
256,192,30428,1,8,0:0:0:0:
288,160,30728,1,8,0:0:0:0:
352,160,30878,1,0,0:0:0:0:
512,192,31178,1,8,0:0:0:0:
288,160,31328,1,0,0:0:0:0:
288,160,31628,1,8,0:0:0:0:
256,160,31928,1,0,0:0:0:0:
256,160,32228,1,8,0:0:0:0:
256,160,32528,1,0,0:0:0:0:
256,160,32678,1,0,0:0:0:0:
224,160,32828,1,8,0:0:0:0:
224,160,33128,1,8,0:0:0:0:
160,128,33278,1,0,0:0:0:0:
160,128,33578,1,0,0:0:0:0:
96,128,33728,1,8,0:0:0:0:
96,128,34028,1,8,0:0:0:0:
96,128,34328,1,0,0:0:0:0:
224,96,34628,1,8,0:0:0:0:
224,96,34928,1,0,0:0:0:0:
224,96,35078,1,0,0:0:0:0:
224,128,35228,1,8,0:0:0:0:
224,128,35528,1,8,0:0:0:0:
224,128,35678,1,8,0:0:0:0:
224,128,35828,1,0,0:0:0:0:
160,96,35978,1,8,0:0:0:0:
224,128,36128,1,0,0:0:0:0:
224,128,36428,1,8,0:0:0:0:
160,96,36728,1,8,0:0:0:0:
160,96,36878,1,0,0:0:0:0:
160,96,37028,1,8,0:0:0:0:
160,96,37178,1,8,0:0:0:0:
160,96,37328,1,0,0:0:0:0:
288,192,37628,1,8,0:0:0:0:
160,96,37928,1,8,0:0:0:0:
224,128,38078,1,8,0:0:0:0:
224,128,38228,1,0,0:0:0:0:
160,96,38378,1,8,0:0:0:0:
128,160,38453,1,0,0:0:0:0:
160,96,38528,1,0,0:0:0:0:
96,32,38678,1,0,0:0:0:0:
320,128,38828,1,8,0:0:0:0:
96,32,39128,1,4,0:0:0:0:
256,224,39428,1,0,0:0:0:0:
160,160,39578,1,0,0:0:0:0:
96,64,39728,1,8,0:0:0:0:
256,224,40028,1,0,0:0:0:0:
96,64,40328,1,8,0:0:0:0:
160,160,40478,1,0,0:0:0:0:
160,160,40628,1,0,0:0:0:0:
160,160,40928,1,8,0:0:0:0:
96,160,41228,1,8,0:0:0:0:
96,160,41528,1,0,0:0:0:0:
224,64,41678,1,0,0:0:0:0:
96,160,41828,1,0,0:0:0:0:
96,160,42128,1,8,0:0:0:0:
96,160,42428,1,8,0:0:0:0:
96,160,42578,1,0,0:0:0:0:
96,160,42728,1,0,0:0:0:0:
96,160,42878,1,8,0:0:0:0:
192,128,43028,1,0,0:0:0:0:
96,160,43328,1,8,0:0:0:0:
288,256,43628,1,8,0:0:0:0:
64,160,43928,1,0,0:0:0:0:
256,96,44228,1,0,0:0:0:0:
256,96,44378,1,0,0:0:0:0:
480,64,44528,1,8,0:0:0:0:
256,96,44828,1,8,0:0:0:0:
256,96,45128,1,8,0:0:0:0:
256,96,45278,1,0,0:0:0:0:
256,96,45428,1,0,0:0:0:0:
256,96,45728,1,8,0:0:0:0:
256,96,46028,1,0,0:0:0:0:
256,96,46178,1,8,0:0:0:0:
256,96,46328,1,0,0:0:0:0:
128,256,46628,1,0,0:0:0:0:
192,160,46778,1,0,0:0:0:0:
192,160,46928,1,8,0:0:0:0:
192,160,47228,1,0,0:0:0:0:
192,96,47528,1,8,0:0:0:0:
192,96,47678,1,0,0:0:0:0:
256,160,47828,1,0,0:0:0:0:
192,64,47978,1,0,0:0:0:0:
192,96,48128,1,8,0:0:0:0:
192,96,48428,1,0,0:0:0:0:
96,32,48728,1,0,0:0:0:0:
256,224,49028,1,0,0:0:0:0:
160,160,49178,1,0,0:0:0:0:
96,64,49328,1,8,0:0:0:0:
256,224,49628,1,0,0:0:0:0:
96,64,49928,1,8,0:0:0:0:
160,160,50078,1,0,0:0:0:0:
160,160,50228,1,0,0:0:0:0:
160,160,50528,1,8,0:0:0:0:
96,160,50828,1,8,0:0:0:0:
96,160,51128,1,0,0:0:0:0:
224,64,51278,1,0,0:0:0:0:
96,160,51428,1,0,0:0:0:0:
96,160,51728,1,8,0:0:0:0:
96,160,52028,1,8,0:0:0:0:
96,160,52178,1,0,0:0:0:0:
96,160,52328,1,0,0:0:0:0:
96,160,52478,1,8,0:0:0:0:
192,128,52628,1,0,0:0:0:0:
96,160,52928,1,8,0:0:0:0:
288,256,53228,1,8,0:0:0:0:
64,160,53528,1,0,0:0:0:0:
256,96,53828,1,0,0:0:0:0:
256,96,53978,1,0,0:0:0:0:
480,64,54128,1,8,0:0:0:0:
256,96,54428,1,8,0:0:0:0:
256,96,54728,1,8,0:0:0:0:
256,96,54878,1,0,0:0:0:0:
256,96,55028,1,0,0:0:0:0:
256,96,55328,1,8,0:0:0:0:
256,96,55628,1,0,0:0:0:0:
256,96,55778,1,8,0:0:0:0:
256,96,55928,1,0,0:0:0:0:
128,256,56228,1,0,0:0:0:0:
192,160,56378,1,0,0:0:0:0:
192,160,56528,1,8,0:0:0:0:
192,160,56828,1,0,0:0:0:0:
192,96,57128,1,8,0:0:0:0:
192,96,57278,1,0,0:0:0:0:
256,160,57428,1,0,0:0:0:0:
192,64,57578,1,0,0:0:0:0:
192,96,57728,1,8,0:0:0:0:
192,96,58028,5,8,0:0:0:0:
32,224,58328,1,0,0:0:0:0:
224,128,58628,1,0,0:0:0:0:
224,128,58778,1,0,0:0:0:0:
224,128,58928,1,8,0:0:0:0:
224,128,59078,1,8,0:0:0:0:
224,128,59228,1,0,0:0:0:0:
64,288,59528,1,8,0:0:0:0:
128,224,59678,1,8,0:0:0:0:
192,160,59828,1,0,0:0:0:0:
256,96,59978,1,0,0:0:0:0:
192,96,60128,5,8,0:0:0:0:
192,192,60278,1,0,0:0:0:0:
192,192,60428,1,8,0:0:0:0:
192,192,60578,1,8,0:0:0:0:
192,192,60728,1,0,0:0:0:0:
384,128,61028,1,0,0:0:0:0:
288,160,61178,1,0,0:0:0:0:
384,128,61328,1,8,0:0:0:0:
288,160,61478,1,0,0:0:0:0:
384,128,61628,1,8,0:0:0:0:
288,160,61778,1,8,0:0:0:0:
384,128,61928,1,0,0:0:0:0:
192,192,62228,1,8,0:0:0:0:
288,160,62378,1,0,0:0:0:0:
384,128,62528,1,8,0:0:0:0:
288,160,62678,1,8,0:0:0:0:
416,128,62828,1,8,0:0:0:0:
288,160,62978,1,8,0:0:0:0:
384,128,63128,1,0,0:0:0:0:
160,128,63428,1,8,0:0:0:0:
160,128,63578,1,0,0:0:0:0:
160,128,63728,1,0,0:0:0:0:
160,128,63878,1,8,0:0:0:0:
160,128,64028,1,0,0:0:0:0:
256,352,64328,1,8,0:0:0:0:
224,256,64478,1,8,0:0:0:0:
160,160,64628,1,0,0:0:0:0:
224,224,64778,1,8,0:0:0:0:
160,160,64928,1,8,0:0:0:0:
288,320,65228,1,8,0:0:0:0:
224,256,65378,1,0,0:0:0:0:
192,192,65528,1,0,0:0:0:0:
224,128,65828,1,8,0:0:0:0:
224,128,65978,1,8,0:0:0:0:
224,128,66128,1,0,0:0:0:0:
224,128,66278,1,8,0:0:0:0:
224,128,66428,1,0,0:0:0:0:
224,96,66728,1,8,0:0:0:0:
224,96,66878,1,0,0:0:0:0:
224,96,67028,1,0,0:0:0:0:
224,96,67178,1,0,0:0:0:0:
224,96,67328,1,8,0:0:0:0:
320,288,67628,1,8,0:0:0:0:
224,96,67928,1,0,0:0:0:0:
384,256,68228,1,8,0:0:0:0:
320,192,68378,1,0,0:0:0:0:
224,128,68528,1,8,0:0:0:0:
320,192,68678,1,0,0:0:0:0:
224,128,68828,1,8,0:0:0:0:
320,192,68978,1,8,0:0:0:0:
224,128,69128,1,0,0:0:0:0:
320,192,69278,1,8,0:0:0:0:
224,128,69428,1,8,0:0:0:0:
320,192,69578,1,8,0:0:0:0:
256,128,69728,1,8,0:0:0:0:
320,192,69878,1,0,0:0:0:0:
256,128,70028,1,8,0:0:0:0:
320,192,70178,1,8,0:0:0:0:
256,128,70328,1,0,0:0:0:0:
320,224,70478,1,8,0:0:0:0:
256,128,70628,1,8,0:0:0:0:
320,192,70778,1,8,0:0:0:0:
224,128,70928,1,8,0:0:0:0:
320,192,71078,1,0,0:0:0:0:
224,128,71228,1,8,0:0:0:0:
320,192,71378,1,8,0:0:0:0:
224,128,71528,1,0,0:0:0:0:
224,128,71828,1,8,0:0:0:0:
320,192,71978,1,0,0:0:0:0:
224,128,72128,1,8,0:0:0:0:
224,128,72428,1,8,0:0:0:0:
320,192,72578,1,0,0:0:0:0:
224,128,72728,1,0,0:0:0:0:
320,288,73028,1,8,0:0:0:0:
288,224,73178,1,8,0:0:0:0:
224,160,73328,1,0,0:0:0:0:
224,160,73478,1,8,0:0:0:0:
224,160,73628,1,0,0:0:0:0:
224,160,73928,1,8,0:0:0:0:
224,160,74078,1,8,0:0:0:0:
224,160,74228,1,0,0:0:0:0:
224,160,74378,1,0,0:0:0:0:
224,160,74528,1,8,0:0:0:0:
224,160,74828,1,8,0:0:0:0:
224,160,74978,1,0,0:0:0:0:
224,160,75128,1,0,0:0:0:0:
224,160,75428,1,8,0:0:0:0:
224,160,75578,1,0,0:0:0:0:
224,160,75728,1,0,0:0:0:0:
224,160,75878,1,8,0:0:0:0:
224,160,76028,1,0,0:0:0:0:
448,192,76328,1,0,0:0:0:0:
224,192,76628,1,0,0:0:0:0:
352,224,76778,1,0,0:0:0:0:
224,192,76928,1,8,0:0:0:0:
352,224,77078,1,0,0:0:0:0:
256,192,77228,1,8,0:0:0:0:
256,192,77528,1,0,0:0:0:0:
256,192,77828,1,0,0:0:0:0:
256,192,78128,1,8,0:0:0:0:
256,192,78278,1,0,0:0:0:0:
256,192,78428,1,8,0:0:0:0:
288,160,78728,1,8,0:0:0:0:
352,160,78878,1,0,0:0:0:0:
512,192,79178,1,8,0:0:0:0:
288,160,79328,1,0,0:0:0:0:
288,160,79628,1,8,0:0:0:0:
256,160,79928,1,0,0:0:0:0:
256,160,80228,1,8,0:0:0:0:
256,160,80528,1,0,0:0:0:0:
256,160,80678,1,0,0:0:0:0:
224,160,80828,1,8,0:0:0:0:
224,160,81128,1,8,0:0:0:0:
160,128,81278,1,0,0:0:0:0:
160,128,81578,1,0,0:0:0:0:
96,128,81728,1,8,0:0:0:0:
96,128,82028,1,8,0:0:0:0:
96,128,82328,1,0,0:0:0:0:
224,96,82628,1,8,0:0:0:0:
224,96,82928,1,0,0:0:0:0:
224,96,83078,1,0,0:0:0:0:
224,128,83228,1,8,0:0:0:0:
224,128,83528,1,8,0:0:0:0:
224,128,83678,1,8,0:0:0:0:
224,128,83828,1,0,0:0:0:0:
160,96,83978,1,8,0:0:0:0:
224,128,84128,1,0,0:0:0:0:
224,128,84428,1,8,0:0:0:0:
160,96,84728,1,8,0:0:0:0:
160,96,84878,1,0,0:0:0:0:
160,96,85028,1,8,0:0:0:0:
160,96,85178,1,8,0:0:0:0:
160,96,85328,1,0,0:0:0:0:
288,192,85628,1,8,0:0:0:0:
160,96,85928,1,8,0:0:0:0:
224,128,86078,1,8,0:0:0:0:
224,128,86228,1,0,0:0:0:0:
160,96,86378,1,8,0:0:0:0:
160,96,86528,1,0,0:0:0:0:
320,128,86828,1,8,0:0:0:0:
256,192,87128,5,8,0:0:0:0:
256,192,87428,1,0,0:0:0:0:
256,192,87728,1,8,0:0:0:0:
256,192,87878,1,0,0:0:0:0:
256,192,88028,1,8,0:0:0:0:
288,160,88328,1,8,0:0:0:0:
352,160,88478,1,0,0:0:0:0:
512,192,88778,1,8,0:0:0:0:
288,160,88928,1,0,0:0:0:0:
288,160,89228,1,8,0:0:0:0:
256,160,89528,1,0,0:0:0:0:
256,160,89828,1,8,0:0:0:0:
256,160,90128,1,0,0:0:0:0:
256,160,90278,1,0,0:0:0:0:
224,160,90428,1,8,0:0:0:0:
224,160,90728,1,8,0:0:0:0:
160,128,90878,1,0,0:0:0:0:
160,128,91178,1,0,0:0:0:0:
96,128,91328,1,8,0:0:0:0:
96,128,91628,1,8,0:0:0:0:
96,128,91928,1,0,0:0:0:0:
224,96,92228,1,8,0:0:0:0:
224,96,92528,1,0,0:0:0:0:
224,96,92678,1,0,0:0:0:0:
224,128,92828,1,8,0:0:0:0:
224,128,93128,1,8,0:0:0:0:
224,128,93278,1,8,0:0:0:0:
224,128,93428,1,0,0:0:0:0:
160,96,93578,1,8,0:0:0:0:
224,128,93728,1,0,0:0:0:0:
224,128,94028,1,8,0:0:0:0:
160,96,94328,1,8,0:0:0:0:
160,96,94478,1,0,0:0:0:0:
160,96,94628,1,8,0:0:0:0:
160,96,94778,1,8,0:0:0:0:
160,96,94928,1,0,0:0:0:0:
256,64,95078,1,8,0:0:0:0:
352,96,95228,1,0,0:0:0:0:
128,96,95528,1,8,0:0:0:0:
352,96,95828,1,8,0:0:0:0:
256,96,95978,1,0,0:0:0:0:
352,96,96128,1,0,0:0:0:0:
256,96,96278,1,8,0:0:0:0:
352,96,96428,1,8,0:0:0:0:
256,128,96728,1,4,0:0:0:0:
320,128,97928,1,0,0:0:0:0:
320,128,99128,1,0,0:0:0:0:
320,128,100328,1,0,0:0:0:0:
320,128,101528,1,0,0:0:0:0:
256,160,102728,1,0,0:0:0:0:
256,160,103928,1,8,0:0:0:0:
256,160,104378,1,0,0:0:0:0:
256,160,104828,1,8,0:0:0:0:
256,160,105128,1,0,0:0:0:0:
256,160,105278,1,0,0:0:0:0:
256,160,105428,1,0,0:0:0:0:
256,160,105578,1,0,0:0:0:0:
256,160,105728,1,8,0:0:0:0:
256,160,106328,1,0,0:0:0:0:
448,224,106628,1,8,0:0:0:0:
352,192,106778,1,8,0:0:0:0:
352,192,106928,1,0,0:0:0:0:
352,192,107228,1,8,0:0:0:0:
352,192,107303,1,0,0:0:0:0:
352,192,107378,1,8,0:0:0:0:
352,192,107528,1,8,0:0:0:0:
352,192,107828,1,8,0:0:0:0:
352,192,107978,1,8,0:0:0:0:
352,192,108128,1,0,0:0:0:0:
352,192,108428,1,8,0:0:0:0:
352,192,108578,1,8,0:0:0:0:
352,192,108653,1,8,0:0:0:0:
352,192,108728,1,0,0:0:0:0:
352,192,109028,1,8,0:0:0:0:
352,192,109178,1,8,0:0:0:0:
352,192,109328,1,0,0:0:0:0:
352,192,109628,1,0,0:0:0:0:
352,192,109703,1,0,0:0:0:0:
352,192,109778,1,8,0:0:0:0:
352,192,109928,1,8,0:0:0:0:
352,192,110153,1,0,0:0:0:0:
352,192,110378,1,8,0:0:0:0:
352,192,110678,1,8,0:0:0:0:
352,192,110828,1,0,0:0:0:0:
352,192,110903,1,8,0:0:0:0:
352,192,110978,1,0,0:0:0:0:
352,192,111128,1,8,0:0:0:0:
352,192,111428,1,8,0:0:0:0:
352,192,111578,1,8,0:0:0:0:
352,192,111728,1,0,0:0:0:0:
352,192,112028,1,8,0:0:0:0:
352,192,112103,1,8,0:0:0:0:
352,192,112178,1,0,0:0:0:0:
352,192,112253,1,0,0:0:0:0:
352,192,112328,1,8,0:0:0:0:
352,192,112478,1,0,0:0:0:0:
352,192,112628,1,8,0:0:0:0:
352,192,112778,1,0,0:0:0:0:
352,192,112853,1,0,0:0:0:0:
352,192,112928,1,8,0:0:0:0:
352,192,113078,1,0,0:0:0:0:
352,192,113228,1,8,0:0:0:0:
352,192,113303,1,8,0:0:0:0:
352,192,113378,1,0,0:0:0:0:
352,192,113453,1,0,0:0:0:0:
352,192,113528,1,8,0:0:0:0:
352,192,113678,1,0,0:0:0:0:
352,192,113753,1,0,0:0:0:0:
352,192,113828,1,8,0:0:0:0:
352,192,113978,1,8,0:0:0:0:
352,192,114128,1,8,0:0:0:0:
352,192,114278,1,0,0:0:0:0:
352,192,114353,1,0,0:0:0:0:
352,192,114428,1,8,0:0:0:0:
352,192,114578,1,8,0:0:0:0:
352,192,114653,1,8,0:0:0:0:
352,192,114728,1,0,0:0:0:0:
256,192,114878,12,0,115778,0:0:0:0:
384,128,115928,5,0,0:0:0:0:
192,64,116078,1,0,0:0:0:0:
192,64,116153,1,0,0:0:0:0:
192,64,116228,1,8,0:0:0:0:
224,160,116378,1,8,0:0:0:0:
192,64,116528,5,0,0:0:0:0:
192,64,116678,1,0,0:0:0:0:
192,64,116753,1,0,0:0:0:0:
192,64,116828,1,8,0:0:0:0:
192,64,116978,1,8,0:0:0:0:
192,64,117053,1,8,0:0:0:0:
192,64,117128,1,0,0:0:0:0:
192,64,117428,1,8,0:0:0:0:
192,64,117578,1,8,0:0:0:0:
192,64,117653,1,0,0:0:0:0:
160,128,117728,1,8,0:0:0:0:
160,128,117878,1,0,0:0:0:0:
160,128,118028,1,8,0:0:0:0:
160,128,118103,1,8,0:0:0:0:
160,128,118178,1,0,0:0:0:0:
192,160,118253,1,0,0:0:0:0:
160,128,118328,1,8,0:0:0:0:
352,256,118628,1,8,0:0:0:0:
256,192,118778,1,8,0:0:0:0:
256,192,118853,1,8,0:0:0:0:
256,192,118928,1,0,0:0:0:0:
256,192,119078,1,0,0:0:0:0:
256,192,119228,1,8,0:0:0:0:
256,192,119303,1,0,0:0:0:0:
256,192,119378,1,8,0:0:0:0:
256,192,119453,1,0,0:0:0:0:
256,192,119528,1,8,0:0:0:0:
352,256,119678,1,0,0:0:0:0:
320,224,119753,1,8,0:0:0:0:
320,224,119828,1,0,0:0:0:0:
320,224,119978,1,8,0:0:0:0:
320,224,120128,1,0,0:0:0:0:
320,224,120203,1,0,0:0:0:0:
320,224,120278,1,8,0:0:0:0:
320,224,120428,1,0,0:0:0:0:
320,224,120503,1,8,0:0:0:0:
320,224,120578,1,0,0:0:0:0:
288,224,120653,1,0,0:0:0:0:
320,224,120728,1,8,0:0:0:0:
192,64,120878,1,0,0:0:0:0:
192,64,120953,1,0,0:0:0:0:
192,64,121028,1,8,0:0:0:0:
192,64,121178,1,8,0:0:0:0:
192,64,121328,1,8,0:0:0:0:
192,64,121478,1,0,0:0:0:0:
192,64,121553,1,0,0:0:0:0:
192,64,121628,1,8,0:0:0:0:
192,64,121778,1,8,0:0:0:0:
192,64,121853,1,8,0:0:0:0:
192,64,121928,1,0,0:0:0:0:
192,64,122228,1,8,0:0:0:0:
192,64,122378,1,8,0:0:0:0:
192,64,122453,1,0,0:0:0:0:
160,128,122528,1,8,0:0:0:0:
160,128,122678,1,0,0:0:0:0:
160,128,122828,1,8,0:0:0:0:
160,128,122903,1,8,0:0:0:0:
160,128,122978,1,0,0:0:0:0:
192,160,123053,1,0,0:0:0:0:
160,128,123128,1,8,0:0:0:0:
352,256,123428,1,8,0:0:0:0:
256,192,123578,1,8,0:0:0:0:
256,192,123653,1,8,0:0:0:0:
256,192,123728,1,0,0:0:0:0:
256,192,123878,1,0,0:0:0:0:
256,192,124028,1,8,0:0:0:0:
256,192,124103,1,0,0:0:0:0:
256,192,124178,1,8,0:0:0:0:
256,192,124253,1,0,0:0:0:0:
256,192,124328,1,8,0:0:0:0:
352,256,124478,1,0,0:0:0:0:
320,224,124553,1,8,0:0:0:0:
320,224,124628,1,0,0:0:0:0:
320,224,124778,1,8,0:0:0:0:
320,224,124928,1,0,0:0:0:0:
320,224,125003,1,0,0:0:0:0:
320,224,125078,1,8,0:0:0:0:
337,126,125228,1,0,0:0:0:0:
325,187,125303,1,0,0:0:0:0:
376,156,125378,1,8,0:0:0:0:
376,156,125428,1,8,0:0:0:0:
367,116,125478,1,8,0:0:0:0:
430,137,125528,1,0,0:0:0:0:
336,144,125678,1,8,0:0:0:0:
302,146,125753,1,0,0:0:0:0:
263,149,125828,1,8,0:0:0:0:
263,149,125978,1,8,0:0:0:0:
263,149,126128,1,8,0:0:0:0:
263,149,126278,1,0,0:0:0:0:
263,149,126353,1,0,0:0:0:0:
263,149,126428,1,8,0:0:0:0:
263,149,126578,1,8,0:0:0:0:
263,149,126653,1,8,0:0:0:0:
263,149,126728,1,0,0:0:0:0:
263,149,126878,1,0,0:0:0:0:
263,149,126953,1,0,0:0:0:0:
262,188,127028,1,8,0:0:0:0:
262,188,127178,1,8,0:0:0:0:
262,188,127328,1,8,0:0:0:0:
262,188,127478,1,0,0:0:0:0:
262,188,127553,1,0,0:0:0:0:
262,188,127628,1,8,0:0:0:0:
262,188,127703,1,0,0:0:0:0:
262,188,127778,1,8,0:0:0:0:
262,188,127928,1,8,0:0:0:0:
262,188,128078,1,0,0:0:0:0:
300,139,128153,5,0,0:0:0:0:
300,139,128228,1,8,0:0:0:0:
300,139,128378,1,8,0:0:0:0:
300,139,128528,1,8,0:0:0:0:
300,139,128678,1,0,0:0:0:0:
300,139,128828,1,8,0:0:0:0:
300,139,128903,1,0,0:0:0:0:
300,139,128978,1,8,0:0:0:0:
300,139,129053,1,0,0:0:0:0:
300,139,129128,1,8,0:0:0:0:
300,139,129278,1,0,0:0:0:0:
300,139,129353,1,8,0:0:0:0:
300,139,129428,1,0,0:0:0:0:
300,139,129503,1,0,0:0:0:0:
300,139,129578,1,8,0:0:0:0:
300,139,129728,1,0,0:0:0:0:
300,139,129803,1,8,0:0:0:0:
300,139,129878,1,0,0:0:0:0:
300,139,130028,1,8,0:0:0:0:
264,146,130103,1,0,0:0:0:0:
264,146,130178,1,8,0:0:0:0:
256,109,130253,1,8,0:0:0:0:
247,72,130328,1,0,0:0:0:0:
336,144,130478,1,8,0:0:0:0:
302,146,130553,1,0,0:0:0:0:
263,149,130628,1,8,0:0:0:0:
263,149,130778,1,8,0:0:0:0:
263,149,130928,1,8,0:0:0:0:
263,149,131078,1,0,0:0:0:0:
263,149,131153,1,0,0:0:0:0:
263,149,131228,1,8,0:0:0:0:
263,149,131378,1,8,0:0:0:0:
263,149,131453,1,8,0:0:0:0:
263,149,131528,1,0,0:0:0:0:
263,149,131678,1,0,0:0:0:0:
263,149,131753,1,0,0:0:0:0:
262,188,131828,1,8,0:0:0:0:
262,188,131978,1,8,0:0:0:0:
262,188,132128,1,8,0:0:0:0:
262,188,132278,1,0,0:0:0:0:
262,188,132353,1,0,0:0:0:0:
262,188,132428,1,8,0:0:0:0:
262,188,132503,1,0,0:0:0:0:
262,188,132578,1,8,0:0:0:0:
262,188,132728,1,8,0:0:0:0:
262,188,132878,1,0,0:0:0:0:
300,139,132953,5,0,0:0:0:0:
300,139,133028,1,8,0:0:0:0:
300,139,133178,1,8,0:0:0:0:
300,139,133328,1,8,0:0:0:0:
300,139,133478,1,0,0:0:0:0:
300,139,133628,1,8,0:0:0:0:
300,139,133703,1,0,0:0:0:0:
300,139,133778,1,8,0:0:0:0:
300,139,133928,1,0,0:0:0:0:
300,139,134078,1,0,0:0:0:0:
192,160,134228,1,8,0:0:0:0:
192,160,134378,1,8,0:0:0:0:
300,139,134528,1,0,0:0:0:0:
300,139,134678,1,0,0:0:0:0:
192,128,134828,1,8,0:0:0:0:
128,96,134903,1,8,0:0:0:0:
264,146,134978,1,8,0:0:0:0:
247,72,135128,1,4,0:0:0:0:
288,160,135278,1,0,0:0:0:0:
256,192,135353,1,0,0:0:0:0:
288,128,135428,1,8,0:0:0:0:
288,128,135578,1,8,0:0:0:0:
288,128,135728,1,8,0:0:0:0:
288,128,135878,1,8,0:0:0:0:
288,128,135953,1,8,0:0:0:0:
288,128,136028,1,0,0:0:0:0:
288,128,136178,1,0,0:0:0:0:
288,128,136328,1,8,0:0:0:0:
288,128,136478,1,0,0:0:0:0:
288,128,136553,1,0,0:0:0:0:
224,96,136628,1,8,0:0:0:0:
224,96,136703,1,0,0:0:0:0:
224,96,136778,1,8,0:0:0:0:
224,96,136928,1,0,0:0:0:0:
320,64,137078,1,8,0:0:0:0:
288,64,137153,1,0,0:0:0:0:
288,64,137228,1,8,0:0:0:0:
288,64,137303,1,8,0:0:0:0:
288,64,137378,1,0,0:0:0:0:
288,64,137528,1,0,0:0:0:0:
288,64,137678,1,0,0:0:0:0:
288,64,137753,1,0,0:0:0:0:
288,64,137828,1,8,0:0:0:0:
288,64,137903,1,8,0:0:0:0:
288,64,137978,1,8,0:0:0:0:
288,64,138128,1,8,0:0:0:0:
288,64,138278,1,0,0:0:0:0:
288,64,138353,1,0,0:0:0:0:
288,64,138428,1,8,0:0:0:0:
288,64,138578,1,8,0:0:0:0:
288,64,138728,1,8,0:0:0:0:
288,64,138803,1,8,0:0:0:0:
288,64,138878,1,0,0:0:0:0:
288,64,139028,1,0,0:0:0:0:
288,64,139103,1,0,0:0:0:0:
288,64,139178,1,0,0:0:0:0:
288,64,139253,1,0,0:0:0:0:
288,64,139328,1,8,0:0:0:0:
320,160,139478,1,0,0:0:0:0:
352,256,139628,1,0,0:0:0:0:
320,160,139778,1,8,0:0:0:0:
352,288,139928,1,4,0:0:0:0:
288,160,140078,1,0,0:0:0:0:
256,192,140153,1,0,0:0:0:0:
288,128,140228,1,8,0:0:0:0:
288,128,140378,1,0,0:0:0:0:
288,128,140528,1,8,0:0:0:0:
288,128,140678,1,8,0:0:0:0:
288,128,140753,1,8,0:0:0:0:
288,128,140828,1,0,0:0:0:0:
288,128,140978,1,0,0:0:0:0:
288,128,141128,1,8,0:0:0:0:
288,128,141278,1,0,0:0:0:0:
288,128,141353,1,0,0:0:0:0:
224,96,141428,1,8,0:0:0:0:
224,96,141503,1,0,0:0:0:0:
224,96,141578,1,8,0:0:0:0:
224,96,141728,1,0,0:0:0:0:
320,64,141878,1,8,0:0:0:0:
288,64,141953,1,0,0:0:0:0:
288,64,142028,1,8,0:0:0:0:
288,64,142103,1,8,0:0:0:0:
288,64,142178,1,0,0:0:0:0:
288,64,142328,1,0,0:0:0:0:
288,64,142478,1,0,0:0:0:0:
288,64,142553,1,0,0:0:0:0:
288,64,142628,1,8,0:0:0:0:
288,64,142703,1,8,0:0:0:0:
288,64,142778,1,8,0:0:0:0:
288,64,142928,1,8,0:0:0:0:
288,64,143078,1,0,0:0:0:0:
288,64,143153,1,0,0:0:0:0:
288,64,143228,1,8,0:0:0:0:
288,64,143378,1,8,0:0:0:0:
320,192,143528,1,0,0:0:0:0:
224,192,143678,1,8,0:0:0:0:
256,192,143753,1,8,0:0:0:0:
256,192,143828,1,0,0:0:0:0:
256,192,143978,1,8,0:0:0:0:
224,192,144053,1,8,0:0:0:0:
224,192,144128,1,0,0:0:0:0:
224,192,144278,1,0,0:0:0:0:
224,192,144428,1,0,0:0:0:0:
224,192,144578,1,0,0:0:0:0:
224,192,144728,1,4,0:0:0:0:
288,160,144878,1,0,0:0:0:0:
256,192,144953,1,0,0:0:0:0:
288,128,145028,1,8,0:0:0:0:
288,128,145178,1,8,0:0:0:0:
288,128,145328,1,8,0:0:0:0:
288,128,145478,1,8,0:0:0:0:
288,128,145553,1,8,0:0:0:0:
288,128,145628,1,0,0:0:0:0:
288,128,145778,1,0,0:0:0:0:
288,128,145928,1,8,0:0:0:0:
288,128,146078,1,0,0:0:0:0:
288,128,146153,1,0,0:0:0:0:
224,96,146228,1,8,0:0:0:0:
224,96,146303,1,0,0:0:0:0:
224,96,146378,1,8,0:0:0:0:
224,96,146528,1,0,0:0:0:0:
320,64,146678,1,8,0:0:0:0:
288,64,146753,1,0,0:0:0:0:
288,64,146828,1,8,0:0:0:0:
288,64,146903,1,8,0:0:0:0:
288,64,146978,1,0,0:0:0:0:
288,64,147128,1,0,0:0:0:0:
288,64,147278,1,0,0:0:0:0:
288,64,147353,1,0,0:0:0:0:
288,64,147428,1,8,0:0:0:0:
288,64,147503,1,8,0:0:0:0:
288,64,147578,1,8,0:0:0:0:
288,64,147728,1,8,0:0:0:0:
288,64,147878,1,0,0:0:0:0:
288,64,147953,1,0,0:0:0:0:
288,64,148028,1,8,0:0:0:0:
288,64,148178,1,8,0:0:0:0:
288,64,148328,1,8,0:0:0:0:
288,64,148403,1,8,0:0:0:0:
288,64,148478,1,0,0:0:0:0:
288,64,148628,1,0,0:0:0:0:
288,64,148703,1,0,0:0:0:0:
288,64,148778,1,0,0:0:0:0:
288,64,148853,1,0,0:0:0:0:
288,64,148928,1,8,0:0:0:0:
320,160,149078,1,0,0:0:0:0:
288,160,149153,1,0,0:0:0:0:
352,256,149228,1,0,0:0:0:0:
320,160,149378,1,8,0:0:0:0:
352,288,149528,1,4,0:0:0:0:
288,160,149678,1,0,0:0:0:0:
256,192,149753,1,0,0:0:0:0:
288,128,149828,1,8,0:0:0:0:
288,128,149978,1,8,0:0:0:0:
288,128,150128,1,8,0:0:0:0:
288,128,150278,1,8,0:0:0:0:
288,128,150353,1,8,0:0:0:0:
288,128,150428,1,0,0:0:0:0:
288,128,150578,1,0,0:0:0:0:
288,128,150728,1,8,0:0:0:0:
288,128,150878,1,0,0:0:0:0:
288,128,150953,1,0,0:0:0:0:
224,96,151028,1,8,0:0:0:0:
224,96,151103,1,0,0:0:0:0:
224,96,151178,1,8,0:0:0:0:
224,96,151328,1,0,0:0:0:0:
320,64,151478,1,8,0:0:0:0:
288,64,151553,1,0,0:0:0:0:
288,64,151628,1,8,0:0:0:0:
288,64,151703,1,8,0:0:0:0:
288,64,151778,1,0,0:0:0:0:
288,64,151928,1,0,0:0:0:0:
288,64,152078,1,0,0:0:0:0:
288,64,152153,1,0,0:0:0:0:
288,64,152228,1,8,0:0:0:0:
288,64,152303,1,8,0:0:0:0:
288,64,152378,1,8,0:0:0:0:
288,64,152528,1,8,0:0:0:0:
288,64,152678,1,0,0:0:0:0:
288,64,152753,1,0,0:0:0:0:
288,64,152828,1,8,0:0:0:0:
288,64,152978,1,8,0:0:0:0:
320,192,153128,1,0,0:0:0:0:
288,160,153203,1,0,0:0:0:0:
224,192,153278,1,8,0:0:0:0:
256,192,153353,1,8,0:0:0:0:
256,192,153428,1,0,0:0:0:0:
256,160,153478,1,0,0:0:0:0:
224,160,153528,1,0,0:0:0:0:
256,192,153578,1,8,0:0:0:0:
256,160,153628,1,8,0:0:0:0:
224,192,153678,1,8,0:0:0:0:
224,192,153728,1,0,0:0:0:0:
224,192,154328,5,4,0:0:0:0:
224,192,154478,1,0,0:0:0:0:
224,192,154553,1,0,0:0:0:0:
224,192,154628,1,8,0:0:0:0:
224,192,154778,1,8,0:0:0:0:
224,192,154853,1,8,0:0:0:0:
224,192,154928,1,0,0:0:0:0:
224,192,155078,1,0,0:0:0:0:
224,192,155153,1,0,0:0:0:0:
224,192,155228,1,8,0:0:0:0:
224,192,155303,1,8,0:0:0:0:
224,192,155378,1,0,0:0:0:0:
224,192,155453,1,8,0:0:0:0:
224,192,155528,1,0,0:0:0:0:
224,192,155678,1,0,0:0:0:0:
224,192,155753,1,0,0:0:0:0:
224,192,155828,1,8,0:0:0:0:
224,192,155978,1,8,0:0:0:0:
224,192,156053,1,0,0:0:0:0:
224,192,156128,1,8,0:0:0:0:
224,192,156278,1,0,0:0:0:0:
224,192,156353,1,0,0:0:0:0:
224,192,156428,1,8,0:0:0:0:
224,192,156503,1,0,0:0:0:0:
224,192,156578,1,8,0:0:0:0:
224,192,156653,1,8,0:0:0:0:
224,192,156728,1,0,0:0:0:0:
224,192,156878,1,8,0:0:0:0:
224,192,156953,1,0,0:0:0:0:
224,192,157028,1,8,0:0:0:0:
224,192,157178,1,8,0:0:0:0:
224,192,157253,1,8,0:0:0:0:
224,192,157328,1,0,0:0:0:0:
224,192,157478,1,0,0:0:0:0:
224,192,157553,1,0,0:0:0:0:
224,192,157628,1,8,0:0:0:0:
224,192,157703,1,8,0:0:0:0:
224,192,157778,1,8,0:0:0:0:
224,192,157853,1,8,0:0:0:0:
256,224,157928,1,0,0:0:0:0:
256,224,158078,1,0,0:0:0:0:
256,192,158153,1,0,0:0:0:0:
256,192,158228,1,8,0:0:0:0:
256,192,158378,1,8,0:0:0:0:
256,192,158453,1,0,0:0:0:0:
256,192,158528,1,8,0:0:0:0:
256,192,158678,1,0,0:0:0:0:
256,192,158753,1,8,0:0:0:0:
256,192,158828,1,0,0:0:0:0:
256,192,158903,1,0,0:0:0:0:
256,192,158978,1,0,0:0:0:0:
256,192,159053,1,0,0:0:0:0:
256,192,159128,1,8,0:0:0:0:
224,192,159278,1,0,0:0:0:0:
224,192,159353,1,0,0:0:0:0:
224,192,159428,1,8,0:0:0:0:
224,192,159578,1,8,0:0:0:0:
224,192,159653,1,8,0:0:0:0:
224,192,159728,1,0,0:0:0:0:
224,192,159878,1,8,0:0:0:0:
224,192,159953,1,0,0:0:0:0:
224,192,160028,1,8,0:0:0:0:
224,192,160103,1,8,0:0:0:0:
224,192,160178,1,0,0:0:0:0:
224,192,160253,1,8,0:0:0:0:
224,192,160328,1,0,0:0:0:0:
224,192,160478,1,0,0:0:0:0:
224,192,160553,1,0,0:0:0:0:
224,192,160628,1,8,0:0:0:0:
224,192,160778,1,8,0:0:0:0:
224,192,160853,1,0,0:0:0:0:
224,192,160928,1,8,0:0:0:0:
224,192,161078,1,8,0:0:0:0:
224,192,161153,1,0,0:0:0:0:
224,192,161228,1,8,0:0:0:0:
224,192,161303,1,8,0:0:0:0:
224,192,161378,1,8,0:0:0:0:
224,192,161453,1,8,0:0:0:0:
224,192,161528,1,0,0:0:0:0:
224,192,161678,1,8,0:0:0:0:
224,192,161753,1,0,0:0:0:0:
224,192,161828,1,8,0:0:0:0:
224,192,161978,1,8,0:0:0:0:
224,192,162053,1,8,0:0:0:0:
224,192,162128,1,0,0:0:0:0:
224,192,162278,1,0,0:0:0:0:
224,192,162353,1,0,0:0:0:0:
224,192,162428,1,8,0:0:0:0:
224,192,162503,1,8,0:0:0:0:
224,192,162578,1,0,0:0:0:0:
224,192,162653,1,8,0:0:0:0:
256,224,162728,1,0,0:0:0:0:
256,224,162878,1,0,0:0:0:0:
256,192,162953,1,0,0:0:0:0:
256,192,163028,1,8,0:0:0:0:
256,192,163178,1,8,0:0:0:0:
256,192,163253,1,0,0:0:0:0:
256,192,163328,1,8,0:0:0:0:
256,192,163478,1,0,0:0:0:0:
160,32,163528,1,0,0:0:0:0:
256,192,163578,1,0,0:0:0:0:
256,192,163628,1,8,0:0:0:0:
256,192,163703,1,0,0:0:0:0:
256,192,163778,1,0,0:0:0:0:
256,192,163853,1,0,0:0:0:0:
256,192,163928,1,8,0:0:0:0:
224,192,164078,1,0,0:0:0:0:
224,192,164153,1,0,0:0:0:0:
224,192,164228,1,8,0:0:0:0:
224,192,164378,1,8,0:0:0:0:
224,192,164453,1,8,0:0:0:0:
224,192,164528,1,0,0:0:0:0:
224,192,164678,1,0,0:0:0:0:
224,192,164753,1,0,0:0:0:0:
224,192,164828,1,8,0:0:0:0:
224,192,164903,1,8,0:0:0:0:
224,192,164978,1,0,0:0:0:0:
224,192,165053,1,8,0:0:0:0:
224,192,165128,1,0,0:0:0:0:
224,192,165278,1,0,0:0:0:0:
224,192,165353,1,0,0:0:0:0:
224,192,165428,1,8,0:0:0:0:
224,192,165578,1,8,0:0:0:0:
224,192,165653,1,0,0:0:0:0:
224,192,165728,1,8,0:0:0:0:
224,192,165878,1,0,0:0:0:0:
224,192,165953,1,0,0:0:0:0:
224,192,166028,1,8,0:0:0:0:
224,192,166103,1,0,0:0:0:0:
224,192,166178,1,8,0:0:0:0:
224,192,166253,1,8,0:0:0:0:
224,192,166328,1,0,0:0:0:0:
224,192,166478,1,8,0:0:0:0:
224,192,166553,1,0,0:0:0:0:
224,192,166628,1,8,0:0:0:0:
224,192,166778,1,8,0:0:0:0:
224,192,166853,1,8,0:0:0:0:
224,192,166928,1,0,0:0:0:0:
224,192,167078,1,0,0:0:0:0:
224,192,167153,1,0,0:0:0:0:
224,192,167228,1,8,0:0:0:0:
224,192,167303,1,8,0:0:0:0:
224,192,167378,1,8,0:0:0:0:
224,192,167453,1,8,0:0:0:0:
256,224,167528,1,8,0:0:0:0:
224,160,167578,1,8,0:0:0:0:
224,160,167628,1,8,0:0:0:0:
256,224,167678,1,0,0:0:0:0:
256,192,167753,1,0,0:0:0:0:
256,192,167828,1,8,0:0:0:0:
256,192,167978,1,8,0:0:0:0:
256,192,168053,1,0,0:0:0:0:
256,192,168128,1,8,0:0:0:0:
256,192,168278,1,0,0:0:0:0:
96,96,168328,1,0,0:0:0:0:
256,192,168378,1,0,0:0:0:0:
256,192,168428,1,8,0:0:0:0:
256,192,168503,1,0,0:0:0:0:
256,192,168578,1,0,0:0:0:0:
256,192,168653,1,0,0:0:0:0:
256,192,168728,1,8,0:0:0:0:
224,192,168878,1,0,0:0:0:0:
224,192,168953,1,0,0:0:0:0:
224,192,169028,1,8,0:0:0:0:
224,192,169178,1,8,0:0:0:0:
224,192,169253,1,8,0:0:0:0:
224,192,169328,1,0,0:0:0:0:
224,192,169478,1,0,0:0:0:0:
224,192,169553,1,0,0:0:0:0:
224,192,169628,1,8,0:0:0:0:
224,192,169703,1,8,0:0:0:0:
224,192,169778,1,0,0:0:0:0:
224,192,169853,1,8,0:0:0:0:
224,192,169928,1,0,0:0:0:0:
224,192,170078,1,0,0:0:0:0:
224,192,170153,1,0,0:0:0:0:
224,192,170228,1,8,0:0:0:0:
224,192,170378,1,8,0:0:0:0:
224,192,170453,1,0,0:0:0:0:
224,192,170528,1,8,0:0:0:0:
224,192,170678,1,0,0:0:0:0:
224,192,170753,1,0,0:0:0:0:
224,192,170828,1,8,0:0:0:0:
224,192,170903,1,0,0:0:0:0:
224,192,170978,1,8,0:0:0:0:
224,192,171053,1,8,0:0:0:0:
224,192,171128,1,0,0:0:0:0:
224,192,171278,1,8,0:0:0:0:
224,192,171353,1,0,0:0:0:0:
224,192,171428,1,8,0:0:0:0:
224,192,171578,1,8,0:0:0:0:
224,192,171653,1,8,0:0:0:0:
224,192,171728,1,0,0:0:0:0:
224,192,171878,1,0,0:0:0:0:
224,192,171953,1,0,0:0:0:0:
224,192,172028,1,8,0:0:0:0:
224,192,172103,1,8,0:0:0:0:
224,192,172178,1,8,0:0:0:0:
224,192,172253,1,8,0:0:0:0:
256,224,172328,1,8,0:0:0:0:
160,192,172378,1,8,0:0:0:0:
160,192,172428,1,8,0:0:0:0:
256,224,172478,1,0,0:0:0:0:
256,192,172628,1,8,0:0:0:0:
128,128,172703,1,0,0:0:0:0:
256,192,172778,1,8,0:0:0:0:
256,192,172853,1,0,0:0:0:0:
256,192,172928,1,8,0:0:0:0:
96,64,172978,1,8,0:0:0:0:
64,96,173028,1,8,0:0:0:0:
256,192,173078,1,0,0:0:0:0:
256,192,173228,1,8,0:0:0:0:
256,192,173303,1,8,0:0:0:0:
256,192,173378,1,0,0:0:0:0:
256,192,173453,1,0,0:0:0:0:
256,192,173528,1,8,0:0:0:0:
256,192,174728,1,0,0:0:0:0:
256,192,174878,1,0,0:0:0:0:
256,192,175028,1,0,0:0:0:0:
256,192,175178,1,0,0:0:0:0:
320,256,175328,1,0,0:0:0:0:
288,224,175403,1,0,0:0:0:0:
320,256,175478,1,0,0:0:0:0:
320,256,175553,1,0,0:0:0:0:
288,224,175628,1,8,0:0:0:0:
128,64,175928,1,12,0:0:0:0:
256,192,176078,1,0,0:0:0:0:
256,192,176228,1,8,0:0:0:0:
224,160,176303,1,0,0:0:0:0:
256,192,176378,1,0,0:0:0:0:
256,192,176528,1,8,0:0:0:0:
256,192,176603,1,0,0:0:0:0:
256,192,176678,1,0,0:0:0:0:
256,192,176828,1,0,0:0:0:0:
256,192,176978,1,8,0:0:0:0:
224,160,177053,1,8,0:0:0:0:
256,192,177128,1,0,0:0:0:0:
256,192,177278,1,8,0:0:0:0:
224,160,177353,1,8,0:0:0:0:
256,192,177428,1,0,0:0:0:0:
352,224,177578,1,8,0:0:0:0:
384,256,177653,1,8,0:0:0:0:
384,256,177728,1,0,0:0:0:0:
384,256,177878,1,8,0:0:0:0:
384,256,177953,1,8,0:0:0:0:
384,256,178028,1,0,0:0:0:0:
384,256,178178,1,8,0:0:0:0:
384,256,178328,1,8,0:0:0:0:
384,256,178403,1,0,0:0:0:0:
384,256,178478,1,0,0:0:0:0:
384,256,178628,1,8,0:0:0:0:
384,256,178703,1,0,0:0:0:0:
384,256,178778,1,0,0:0:0:0:
384,256,178928,1,8,0:0:0:0:
384,256,179003,1,0,0:0:0:0:
384,256,179078,1,0,0:0:0:0:
384,256,179228,1,0,0:0:0:0:
384,256,179378,1,8,0:0:0:0:
384,256,179453,1,8,0:0:0:0:
384,256,179528,1,0,0:0:0:0:
384,256,179678,1,8,0:0:0:0:
384,256,179753,1,8,0:0:0:0:
384,256,179828,1,0,0:0:0:0:
384,256,179978,1,8,0:0:0:0:
384,256,180053,1,8,0:0:0:0:
384,256,180128,1,0,0:0:0:0:
320,192,180278,1,8,0:0:0:0:
288,160,180353,1,8,0:0:0:0:
256,128,180428,1,0,0:0:0:0:
160,96,180578,1,8,0:0:0:0:
224,128,180728,1,8,0:0:0:0:
224,128,180803,1,8,0:0:0:0:
224,128,180878,1,8,0:0:0:0:
256,128,181028,1,8,0:0:0:0:
256,128,181103,1,8,0:0:0:0:
256,128,181178,1,8,0:0:0:0:
256,128,181328,1,8,0:0:0:0:
256,128,181403,1,8,0:0:0:0:
256,128,181478,1,8,0:0:0:0:
256,128,181628,1,8,0:0:0:0:
256,128,181778,1,8,0:0:0:0:
256,128,181853,1,8,0:0:0:0:
256,128,181928,1,0,0:0:0:0:
256,128,182078,1,8,0:0:0:0:
256,96,182153,1,8,0:0:0:0:
256,96,182228,1,0,0:0:0:0:
256,96,182378,1,8,0:0:0:0:
256,96,182453,1,0,0:0:0:0:
256,96,182528,1,0,0:0:0:0:
256,96,182678,1,8,0:0:0:0:
256,96,182753,1,0,0:0:0:0:
256,96,182828,1,0,0:0:0:0:
256,96,182978,1,8,0:0:0:0:
256,96,183128,1,8,0:0:0:0:
256,96,183203,1,8,0:0:0:0:
256,96,183278,1,8,0:0:0:0:
256,96,183428,1,8,0:0:0:0:
256,96,183503,1,8,0:0:0:0:
256,96,183578,1,8,0:0:0:0:
256,96,183728,1,8,0:0:0:0:
256,96,183803,1,8,0:0:0:0:
256,96,183878,1,8,0:0:0:0:
256,96,184028,1,8,0:0:0:0:
256,96,184178,1,8,0:0:0:0:
256,96,184253,1,8,0:0:0:0:
256,96,184328,1,0,0:0:0:0:
256,96,184478,1,8,0:0:0:0:
256,96,184553,1,8,0:0:0:0:
256,96,184628,1,0,0:0:0:0:
256,96,184778,1,8,0:0:0:0:
256,96,184853,1,0,0:0:0:0:
256,96,184928,1,0,0:0:0:0:
256,96,185078,1,8,0:0:0:0:
256,96,185153,1,0,0:0:0:0:
256,96,185228,1,0,0:0:0:0:
256,96,185378,1,8,0:0:0:0:
256,96,185528,1,8,0:0:0:0:
192,64,185603,1,0,0:0:0:0:
256,192,185678,1,0,0:0:0:0:
256,192,185828,1,8,0:0:0:0:
224,160,185903,1,0,0:0:0:0:
256,192,185978,1,0,0:0:0:0:
256,192,186128,1,8,0:0:0:0:
256,192,186203,1,0,0:0:0:0:
256,192,186278,1,0,0:0:0:0:
256,192,186428,1,0,0:0:0:0:
256,192,186578,1,8,0:0:0:0:
224,160,186653,1,8,0:0:0:0:
256,192,186728,1,0,0:0:0:0:
256,192,186878,1,8,0:0:0:0:
224,160,186953,1,8,0:0:0:0:
256,192,187028,1,0,0:0:0:0:
352,224,187178,1,8,0:0:0:0:
384,256,187253,1,8,0:0:0:0:
384,256,187328,1,0,0:0:0:0:
384,256,187478,1,8,0:0:0:0:
384,256,187553,1,8,0:0:0:0:
384,256,187628,1,0,0:0:0:0:
384,256,187778,1,8,0:0:0:0:
384,256,187928,1,8,0:0:0:0:
384,256,188003,1,0,0:0:0:0:
384,256,188078,1,0,0:0:0:0:
384,256,188228,1,8,0:0:0:0:
384,256,188303,1,0,0:0:0:0:
384,256,188378,1,0,0:0:0:0:
384,256,188528,1,8,0:0:0:0:
384,256,188603,1,0,0:0:0:0:
384,256,188678,1,0,0:0:0:0:
384,256,188828,1,0,0:0:0:0:
384,256,188978,1,8,0:0:0:0:
384,256,189053,1,8,0:0:0:0:
384,256,189128,1,0,0:0:0:0:
384,256,189278,1,8,0:0:0:0:
384,256,189353,1,8,0:0:0:0:
384,256,189428,1,0,0:0:0:0:
384,256,189578,1,8,0:0:0:0:
384,256,189653,1,8,0:0:0:0:
384,256,189728,1,0,0:0:0:0:
320,192,189878,1,8,0:0:0:0:
288,160,189953,1,8,0:0:0:0:
256,128,190028,1,0,0:0:0:0:
160,96,190178,1,8,0:0:0:0:
224,128,190328,1,8,0:0:0:0:
224,128,190403,1,8,0:0:0:0:
224,128,190478,1,8,0:0:0:0:
256,128,190628,1,8,0:0:0:0:
256,128,190703,1,8,0:0:0:0:
256,128,190778,1,8,0:0:0:0:
256,128,190928,1,8,0:0:0:0:
256,128,191003,1,8,0:0:0:0:
256,128,191078,1,8,0:0:0:0:
256,128,191228,1,8,0:0:0:0:
256,128,191378,1,8,0:0:0:0:
256,128,191453,1,8,0:0:0:0:
256,128,191528,1,0,0:0:0:0:
256,128,191678,1,8,0:0:0:0:
256,96,191753,1,8,0:0:0:0:
256,96,191828,1,0,0:0:0:0:
256,96,191978,1,8,0:0:0:0:
256,96,192053,1,0,0:0:0:0:
256,96,192128,1,0,0:0:0:0:
256,96,192278,1,8,0:0:0:0:
256,96,192353,1,0,0:0:0:0:
256,96,192428,1,0,0:0:0:0:
256,96,192578,1,8,0:0:0:0:
256,96,192728,1,8,0:0:0:0:
256,96,192803,1,8,0:0:0:0:
256,96,192878,1,8,0:0:0:0:
256,96,193028,1,8,0:0:0:0:
256,96,193103,1,8,0:0:0:0:
256,96,193178,1,8,0:0:0:0:
256,96,193328,1,8,0:0:0:0:
256,96,193403,1,8,0:0:0:0:
256,96,193478,1,8,0:0:0:0:
256,96,193628,1,8,0:0:0:0:
256,96,193778,1,8,0:0:0:0:
320,288,194078,1,8,0:0:0:0:
256,96,194378,1,0,0:0:0:0:
320,288,194678,1,0,0:0:0:0:
256,96,194978,1,8,0:0:0:0:
256,96,195128,1,4,0:0:0:0:
192,64,195278,1,0,0:0:0:0:
192,64,195353,1,0,0:0:0:0:
192,64,195428,1,8,0:0:0:0:
224,160,195578,1,8,0:0:0:0:
192,64,195728,5,0,0:0:0:0:
192,64,195878,1,0,0:0:0:0:
192,64,195953,1,0,0:0:0:0:
192,64,196028,1,8,0:0:0:0:
192,64,196178,1,8,0:0:0:0:
192,64,196253,1,8,0:0:0:0:
192,64,196328,1,0,0:0:0:0:
224,224,196553,1,0,0:0:0:0:
192,64,196628,1,8,0:0:0:0:
192,64,196778,1,8,0:0:0:0:
192,64,196853,1,0,0:0:0:0:
160,128,196928,1,8,0:0:0:0:
160,128,197078,1,0,0:0:0:0:
160,128,197228,1,8,0:0:0:0:
160,128,197303,1,8,0:0:0:0:
160,128,197378,1,0,0:0:0:0:
192,160,197453,1,0,0:0:0:0:
160,128,197528,1,8,0:0:0:0:
224,224,197753,1,0,0:0:0:0:
352,256,197828,1,8,0:0:0:0:
256,192,197978,1,8,0:0:0:0:
256,192,198053,1,8,0:0:0:0:
256,192,198128,1,0,0:0:0:0:
256,192,198278,1,0,0:0:0:0:
256,192,198428,1,8,0:0:0:0:
256,192,198503,1,0,0:0:0:0:
256,192,198578,1,8,0:0:0:0:
256,192,198653,1,0,0:0:0:0:
256,192,198728,1,8,0:0:0:0:
352,256,198878,1,0,0:0:0:0:
320,224,198953,1,8,0:0:0:0:
320,224,199028,1,0,0:0:0:0:
320,224,199178,1,8,0:0:0:0:
320,224,199328,1,0,0:0:0:0:
320,224,199403,1,0,0:0:0:0:
320,224,199478,1,8,0:0:0:0:
320,224,199628,1,0,0:0:0:0:
320,224,199703,1,8,0:0:0:0:
320,224,199778,1,0,0:0:0:0:
288,224,199853,1,0,0:0:0:0:
320,224,199928,1,8,0:0:0:0:
192,64,200078,1,0,0:0:0:0:
192,64,200153,1,0,0:0:0:0:
192,64,200228,1,8,0:0:0:0:
192,64,200378,1,8,0:0:0:0:
192,64,200528,1,8,0:0:0:0:
192,64,200678,1,0,0:0:0:0:
192,64,200753,1,0,0:0:0:0:
192,64,200828,1,8,0:0:0:0:
192,64,200978,1,8,0:0:0:0:
192,64,201053,1,8,0:0:0:0:
192,64,201128,1,0,0:0:0:0:
224,224,201353,1,0,0:0:0:0:
192,64,201428,1,8,0:0:0:0:
192,64,201578,1,8,0:0:0:0:
192,64,201653,1,0,0:0:0:0:
160,128,201728,1,8,0:0:0:0:
160,128,201878,1,0,0:0:0:0:
160,128,202028,1,8,0:0:0:0:
160,128,202103,1,8,0:0:0:0:
160,128,202178,1,0,0:0:0:0:
192,160,202253,1,0,0:0:0:0:
160,128,202328,1,8,0:0:0:0:
224,224,202553,1,0,0:0:0:0:
352,256,202628,1,8,0:0:0:0:
256,192,202778,1,8,0:0:0:0:
256,192,202853,1,8,0:0:0:0:
256,192,202928,1,0,0:0:0:0:
256,192,203078,1,0,0:0:0:0:
256,192,203228,1,8,0:0:0:0:
256,192,203303,1,0,0:0:0:0:
256,192,203378,1,8,0:0:0:0:
256,192,203453,1,0,0:0:0:0:
256,192,203528,1,8,0:0:0:0:
352,256,203678,1,0,0:0:0:0:
320,224,203753,1,8,0:0:0:0:
320,224,203828,1,0,0:0:0:0:
320,224,203978,1,8,0:0:0:0:
320,224,204128,1,0,0:0:0:0:
320,224,204203,1,0,0:0:0:0:
320,224,204278,1,8,0:0:0:0:
337,126,204428,1,0,0:0:0:0:
325,187,204503,1,0,0:0:0:0:
376,156,204578,1,8,0:0:0:0:
376,156,204628,1,8,0:0:0:0:
367,116,204678,1,8,0:0:0:0:
430,137,204728,1,0,0:0:0:0:
336,144,204878,1,8,0:0:0:0:
302,146,204953,1,0,0:0:0:0:
263,149,205028,1,8,0:0:0:0:
263,149,205178,1,8,0:0:0:0:
263,149,205328,1,8,0:0:0:0:
263,149,205478,1,0,0:0:0:0:
263,149,205553,1,0,0:0:0:0:
263,149,205628,1,8,0:0:0:0:
263,149,205778,1,8,0:0:0:0:
263,149,205853,1,8,0:0:0:0:
263,149,205928,1,0,0:0:0:0:
263,149,206078,1,0,0:0:0:0:
263,149,206153,1,0,0:0:0:0:
262,188,206228,1,8,0:0:0:0:
262,188,206378,1,8,0:0:0:0:
262,188,206528,1,8,0:0:0:0:
262,188,206678,1,0,0:0:0:0:
262,188,206753,1,0,0:0:0:0:
262,188,206828,1,8,0:0:0:0:
262,188,206903,1,0,0:0:0:0:
262,188,206978,1,8,0:0:0:0:
262,188,207128,1,8,0:0:0:0:
262,188,207278,1,0,0:0:0:0:
300,139,207353,5,0,0:0:0:0:
300,139,207428,1,8,0:0:0:0:
300,139,207578,1,8,0:0:0:0:
300,139,207728,1,8,0:0:0:0:
300,139,207878,1,0,0:0:0:0:
300,139,208028,1,8,0:0:0:0:
300,139,208103,1,0,0:0:0:0:
300,139,208178,1,8,0:0:0:0:
300,139,208253,1,0,0:0:0:0:
300,139,208328,1,8,0:0:0:0:
300,139,208478,1,0,0:0:0:0:
300,139,208553,1,8,0:0:0:0:
300,139,208628,1,0,0:0:0:0:
300,139,208703,1,0,0:0:0:0:
300,139,208778,1,8,0:0:0:0:
300,139,208928,1,0,0:0:0:0:
300,139,209003,1,8,0:0:0:0:
300,139,209078,1,0,0:0:0:0:
300,139,209228,1,8,0:0:0:0:
264,146,209303,1,0,0:0:0:0:
264,146,209378,1,8,0:0:0:0:
256,109,209453,1,8,0:0:0:0:
247,72,209528,1,0,0:0:0:0:
336,144,209678,1,8,0:0:0:0:
302,146,209753,1,0,0:0:0:0:
263,149,209828,1,8,0:0:0:0:
263,149,209978,1,8,0:0:0:0:
263,149,210128,1,8,0:0:0:0:
263,149,210278,1,0,0:0:0:0:
263,149,210353,1,0,0:0:0:0:
263,149,210428,1,8,0:0:0:0:
263,149,210578,1,8,0:0:0:0:
263,149,210653,1,8,0:0:0:0:
263,149,210728,1,0,0:0:0:0:
263,149,210878,1,0,0:0:0:0:
263,149,210953,1,0,0:0:0:0:
262,188,211028,1,8,0:0:0:0:
262,188,211178,1,8,0:0:0:0:
262,188,211328,1,8,0:0:0:0:
262,188,211478,1,0,0:0:0:0:
262,188,211553,1,0,0:0:0:0:
262,188,211628,1,8,0:0:0:0:
262,188,211703,1,0,0:0:0:0:
262,188,211778,1,8,0:0:0:0:
262,188,211928,1,8,0:0:0:0:
262,188,212078,1,0,0:0:0:0:
300,139,212153,5,0,0:0:0:0:
300,139,212228,1,8,0:0:0:0:
300,139,212378,1,8,0:0:0:0:
300,139,212528,1,8,0:0:0:0:
300,139,212678,1,0,0:0:0:0:
300,139,212828,1,8,0:0:0:0:
300,139,212903,1,0,0:0:0:0:
300,139,212978,1,8,0:0:0:0:
300,139,213128,1,0,0:0:0:0:
288,320,213353,1,8,0:0:0:0:
320,128,213578,1,8,0:0:0:0:
224,160,213728,1,0,0:0:0:0:
288,352,213878,1,0,0:0:0:0:
224,160,213953,1,0,0:0:0:0:
288,224,214028,1,8,0:0:0:0:
320,352,214178,1,8,0:0:0:0:
288,256,214328,1,4,0:0:0:0:
192,192,214478,1,0,0:0:0:0:
96,160,214628,1,0,0:0:0:0:
384,256,214778,1,8,0:0:0:0:
96,160,215078,1,0,0:0:0:0:
384,256,215378,1,8,0:0:0:0:
320,160,216728,1,8,0:0:0:0:
128,192,216878,1,0,0:0:0:0:
128,192,217028,1,0,0:0:0:0:
320,160,217178,1,8,0:0:0:0:
128,96,217478,1,0,0:0:0:0:
320,160,217778,1,8,0:0:0:0:
224,128,218528,1,8,0:0:0:0:
224,128,219128,1,8,0:0:0:0:
96,128,219278,1,8,0:0:0:0:
224,128,219428,1,0,0:0:0:0:
224,128,219578,1,8,0:0:0:0:
224,128,219878,1,8,0:0:0:0:
224,128,220178,1,0,0:0:0:0:
256,192,221528,1,8,0:0:0:0:
160,160,221678,1,8,0:0:0:0:
256,192,221828,1,0,0:0:0:0:
256,192,221978,1,8,0:0:0:0:
256,192,222278,1,8,0:0:0:0:
256,192,222578,1,0,0:0:0:0:
96,160,223328,1,0,0:0:0:0:
64,224,223928,1,8,0:0:0:0:
192,192,224078,1,0,0:0:0:0:
96,160,224228,1,0,0:0:0:0:
384,256,224378,1,8,0:0:0:0:
96,160,224678,1,0,0:0:0:0:
384,256,224978,1,8,0:0:0:0:
320,160,226328,1,8,0:0:0:0:
128,192,226478,1,0,0:0:0:0:
128,192,226628,1,0,0:0:0:0:
320,160,226778,1,8,0:0:0:0:
128,96,227078,1,0,0:0:0:0:
320,160,227378,1,8,0:0:0:0:
224,128,228128,1,8,0:0:0:0:
224,128,228728,1,8,0:0:0:0:
96,128,228878,1,0,0:0:0:0:
224,128,229028,1,0,0:0:0:0:
224,128,229178,1,8,0:0:0:0:
224,128,229478,1,0,0:0:0:0:
224,128,229778,1,8,0:0:0:0:
192,192,230528,1,8,0:0:0:0:
256,192,231128,1,0,0:0:0:0:
256,192,232028,1,8,0:0:0:0:
256,192,232178,1,8,0:0:0:0:
256,192,232328,1,0,0:0:0:0:
256,192,232928,12,0,233378,0:0:0:0:
96,32,233528,5,8,0:0:0:0:
192,192,233678,1,0,0:0:0:0:
96,160,233828,1,0,0:0:0:0:
384,256,233978,1,8,0:0:0:0:
96,160,234278,1,0,0:0:0:0:
384,256,234578,1,8,0:0:0:0:
288,192,234728,1,0,0:0:0:0:
320,160,235928,1,8,0:0:0:0:
128,192,236078,1,0,0:0:0:0:
128,192,236228,1,0,0:0:0:0:
320,160,236378,1,8,0:0:0:0:
128,96,236678,1,0,0:0:0:0:
320,160,236978,1,8,0:0:0:0:
320,64,237128,1,0,0:0:0:0:
224,128,237728,1,8,0:0:0:0:
224,128,238328,1,8,0:0:0:0:
96,128,238478,1,8,0:0:0:0:
224,128,238628,1,0,0:0:0:0:
224,128,238778,1,8,0:0:0:0:
224,128,239078,1,0,0:0:0:0:
224,128,239378,1,8,0:0:0:0:
288,64,239528,1,0,0:0:0:0:
288,64,239828,1,0,0:0:0:0:
192,96,239978,1,0,0:0:0:0:
288,64,240128,1,8,0:0:0:0:
256,192,240728,1,8,0:0:0:0:
160,160,240878,1,8,0:0:0:0:
256,192,241028,1,0,0:0:0:0:
256,192,241178,1,8,0:0:0:0:
256,192,241478,1,0,0:0:0:0:
256,192,241778,1,8,0:0:0:0:
224,128,241928,1,0,0:0:0:0:
224,96,242228,1,0,0:0:0:0:
224,96,242378,1,0,0:0:0:0:
96,160,242528,1,8,0:0:0:0:
288,64,242828,1,8,0:0:0:0:
64,224,243128,1,8,0:0:0:0:
192,192,243278,1,0,0:0:0:0:
96,160,243428,1,0,0:0:0:0:
384,256,243578,1,8,0:0:0:0:
96,160,243878,1,0,0:0:0:0:
384,256,244178,1,8,0:0:0:0:
320,192,244328,1,0,0:0:0:0:
320,160,245528,1,8,0:0:0:0:
128,192,245678,1,0,0:0:0:0:
128,192,245828,1,0,0:0:0:0:
320,160,245978,1,8,0:0:0:0:
128,96,246278,1,0,0:0:0:0:
320,160,246578,1,8,0:0:0:0:
256,224,246728,1,0,0:0:0:0:
224,128,247328,1,8,0:0:0:0:
224,128,247928,1,8,0:0:0:0:
96,128,248078,1,0,0:0:0:0:
224,128,248228,1,0,0:0:0:0:
224,128,248378,1,8,0:0:0:0:
224,128,248678,1,0,0:0:0:0:
224,128,248978,1,8,0:0:0:0:
320,256,249128,1,8,0:0:0:0:
128,96,249428,1,0,0:0:0:0:
32,32,249578,1,8,0:0:0:0:
192,192,249728,1,8,0:0:0:0:
192,128,250028,1,0,0:0:0:0:
192,128,250178,1,8,0:0:0:0:
256,192,250328,1,0,0:0:0:0:
128,160,250628,1,0,0:0:0:0:
128,160,250778,1,0,0:0:0:0:
128,160,250928,1,8,0:0:0:0:
256,192,251228,1,8,0:0:0:0:
256,192,251378,1,8,0:0:0:0:
256,192,251528,1,0,0:0:0:0:
96,64,251828,1,0,0:0:0:0:
192,128,251978,1,0,0:0:0:0:
192,128,252128,1,8,0:0:0:0:
192,128,252428,1,8,0:0:0:0:
160,128,252728,1,4,0:0:0:0:
128,256,253928,1,0,0:0:0:0:
128,256,254528,1,8,0:0:0:0:
256,64,254828,1,0,0:0:0:0:
192,160,254978,1,8,0:0:0:0:
256,64,255128,1,0,0:0:0:0:
160,256,255428,1,8,0:0:0:0:
224,224,255578,1,8,0:0:0:0:
256,64,255728,1,0,0:0:0:0:
224,224,255878,1,0,0:0:0:0:
224,224,255953,1,0,0:0:0:0:
160,256,256028,1,8,0:0:0:0:
224,160,256178,1,8,0:0:0:0:
256,64,256328,1,0,0:0:0:0:
224,224,256478,1,0,0:0:0:0:
224,224,256553,1,0,0:0:0:0:
32,32,256628,1,8,0:0:0:0:
143,26,256778,1,8,0:0:0:0:
239,58,256928,1,8,0:0:0:0:
224,224,257078,1,0,0:0:0:0:
224,224,257153,1,8,0:0:0:0:
189,150,257528,1,4,0:0:0:0:
190,32,257678,1,0,0:0:0:0:
29,210,257753,1,8,0:0:0:0:
183,149,257978,1,0,0:0:0:0:
305,173,258128,1,8,0:0:0:0:
305,173,258278,1,0,0:0:0:0:
305,173,258353,1,8,0:0:0:0:
305,173,258578,1,0,0:0:0:0:
305,173,258728,1,8,0:0:0:0:
305,173,258878,1,0,0:0:0:0:
305,173,258953,1,0,0:0:0:0:
305,173,259028,1,8,0:0:0:0:
305,173,259103,1,8,0:0:0:0:
305,173,259178,1,0,0:0:0:0:
305,173,259328,1,8,0:0:0:0:
280,140,259403,1,8,0:0:0:0:
257,109,259478,1,0,0:0:0:0:
192,17,259628,1,8,0:0:0:0:
128,96,259703,1,0,0:0:0:0:
247,95,259778,1,0,0:0:0:0:
247,95,259928,1,8,0:0:0:0:
257,109,260078,1,8,0:0:0:0:
247,95,260153,1,0,0:0:0:0:
247,95,260378,1,8,0:0:0:0:
247,95,260528,1,8,0:0:0:0:
331,173,260678,1,0,0:0:0:0:
247,95,260753,1,8,0:0:0:0:
247,95,260978,1,0,0:0:0:0:
247,95,261128,1,8,0:0:0:0:
247,95,261278,1,0,0:0:0:0:
247,95,261353,1,0,0:0:0:0:
247,95,261428,1,8,0:0:0:0:
247,95,261503,1,8,0:0:0:0:
247,95,261578,1,0,0:0:0:0:
247,95,261728,1,8,0:0:0:0:
247,95,261803,1,8,0:0:0:0:
247,95,261878,1,0,0:0:0:0:
247,95,262028,1,8,0:0:0:0:
160,160,262103,1,0,0:0:0:0:
247,95,262178,1,0,0:0:0:0:
247,95,262328,1,8,0:0:0:0:
288,194,262478,1,0,0:0:0:0:
247,95,262553,1,8,0:0:0:0:
247,95,262778,1,0,0:0:0:0:
247,95,262928,1,8,0:0:0:0:
139,46,263078,1,0,0:0:0:0:
247,95,263153,1,8,0:0:0:0:
247,95,263378,1,0,0:0:0:0:
247,95,263528,1,8,0:0:0:0:
374,87,263678,1,0,0:0:0:0:
323,90,263753,1,0,0:0:0:0:
276,93,263828,1,8,0:0:0:0:
276,93,263903,1,8,0:0:0:0:
276,93,263978,1,0,0:0:0:0:
276,93,264128,1,8,0:0:0:0:
276,93,264203,1,8,0:0:0:0:
276,93,264278,1,0,0:0:0:0:
276,93,264428,1,8,0:0:0:0:
96,128,264503,1,0,0:0:0:0:
276,93,264578,1,0,0:0:0:0:
276,93,264728,1,8,0:0:0:0:
276,93,264953,1,0,0:0:0:0:
276,93,265178,1,8,0:0:0:0:
276,93,265328,1,8,0:0:0:0:
276,93,265553,1,8,0:0:0:0:
276,93,265778,1,0,0:0:0:0:
276,93,265928,1,8,0:0:0:0:
276,93,266153,1,0,0:0:0:0:
276,93,266378,1,0,0:0:0:0:
276,93,266528,1,8,0:0:0:0:
276,93,266753,1,8,0:0:0:0:
276,93,266978,1,0,0:0:0:0:
276,93,267128,1,4,0:0:0:0:
186,239,267428,1,0,0:0:0:0:
100,383,267728,1,0,0:0:0:0:
184,242,268028,1,0,0:0:0:0:
100,383,268328,1,8,0:0:0:0:
140,314,268478,1,0,0:0:0:0:
179,251,268628,1,0,0:0:0:0:
179,251,268778,1,0,0:0:0:0:
179,251,268928,1,8,0:0:0:0:
200,207,269003,1,0,0:0:0:0:
233,225,269078,1,0,0:0:0:0:
233,225,269228,1,8,0:0:0:0:
231,174,269303,1,0,0:0:0:0:
233,225,269378,1,0,0:0:0:0:
233,225,269528,1,8,0:0:0:0:
294,97,269753,1,0,0:0:0:0:
312,64,269978,1,8,0:0:0:0:
312,64,270128,1,8,0:0:0:0:
312,64,270353,1,0,0:0:0:0:
312,64,270578,1,0,0:0:0:0:
312,64,270728,1,8,0:0:0:0:
312,64,270878,1,0,0:0:0:0:
312,64,270953,1,0,0:0:0:0:
312,64,271028,1,8,0:0:0:0:
312,64,271103,1,8,0:0:0:0:
312,64,271178,1,0,0:0:0:0:
312,64,271328,1,8,0:0:0:0:
312,64,271403,1,8,0:0:0:0:
312,64,271478,1,0,0:0:0:0:
312,64,271628,1,8,0:0:0:0:
312,64,271703,1,0,0:0:0:0:
312,64,271778,1,0,0:0:0:0:
312,64,271928,1,8,0:0:0:0:
348,158,272078,1,0,0:0:0:0:
348,158,272153,1,0,0:0:0:0:
348,158,272303,1,0,0:0:0:0:
348,158,272378,1,8,0:0:0:0:
348,158,272528,1,8,0:0:0:0:
348,158,272678,1,0,0:0:0:0:
348,158,272753,1,8,0:0:0:0:
348,158,272903,1,8,0:0:0:0:
348,158,272978,1,0,0:0:0:0:
348,158,273128,1,8,0:0:0:0:
348,158,273278,1,0,0:0:0:0:
348,158,273353,1,0,0:0:0:0:
348,158,273428,1,8,0:0:0:0:
348,158,273503,1,8,0:0:0:0:
348,158,273578,1,0,0:0:0:0:
278,83,273728,1,8,0:0:0:0:
278,83,273803,1,8,0:0:0:0:
278,83,273878,1,0,0:0:0:0:
278,83,274028,1,8,0:0:0:0:
278,83,274103,1,0,0:0:0:0:
278,83,274178,1,0,0:0:0:0:
278,83,274328,1,8,0:0:0:0:
278,83,274403,1,8,0:0:0:0:
278,83,274478,1,0,0:0:0:0:
278,83,274553,1,8,0:0:0:0:
278,83,274628,1,0,0:0:0:0:
278,83,274703,1,0,0:0:0:0:
278,83,274778,1,8,0:0:0:0:
278,83,274853,1,0,0:0:0:0:
278,83,274928,1,8,0:0:0:0:
278,83,275003,1,8,0:0:0:0:
278,83,275078,1,0,0:0:0:0:
278,83,275153,1,8,0:0:0:0:
278,83,275228,1,8,0:0:0:0:
278,83,275303,1,0,0:0:0:0:
278,83,275378,1,8,0:0:0:0:
278,83,275453,1,0,0:0:0:0:
278,83,275528,1,8,0:0:0:0:
278,83,275603,1,8,0:0:0:0:
278,83,275678,1,0,0:0:0:0:
278,83,275753,1,8,0:0:0:0:
278,83,275828,1,0,0:0:0:0:
278,83,275903,1,0,0:0:0:0:
278,83,275978,1,8,0:0:0:0:
278,83,276053,1,0,0:0:0:0:
278,83,276128,1,8,0:0:0:0:
278,83,276203,1,0,0:0:0:0:
278,83,276278,1,0,0:0:0:0:
278,83,276353,1,8,0:0:0:0:
278,83,276428,1,0,0:0:0:0:
278,83,276503,1,0,0:0:0:0:
278,83,276578,1,8,0:0:0:0:
278,83,276653,1,0,0:0:0:0:
278,83,276728,1,8,0:0:0:0:
256,192,276878,12,0,277778,0:0:0:0:
256,160,277928,5,0,0:0:0:0:
160,128,278078,1,0,0:0:0:0:
96,128,278153,1,0,0:0:0:0:
256,64,278228,1,8,0:0:0:0:
256,64,278378,1,8,0:0:0:0:
256,64,278528,1,8,0:0:0:0:
416,256,278678,5,0,0:0:0:0:
416,256,278753,1,8,0:0:0:0:
448,224,279128,1,12,0:0:0:0:
448,224,279278,1,0,0:0:0:0:
448,224,279353,1,8,0:0:0:0:
448,224,279428,1,0,0:0:0:0:
448,224,279578,1,8,0:0:0:0:
448,224,279728,1,8,0:0:0:0:
448,224,279803,1,8,0:0:0:0:
448,224,279878,1,0,0:0:0:0:
448,224,279953,1,8,0:0:0:0:
448,224,280028,1,8,0:0:0:0:
448,224,280178,1,8,0:0:0:0:
448,224,280328,1,8,0:0:0:0:
448,224,280478,1,8,0:0:0:0:
448,224,280553,1,8,0:0:0:0:
448,224,280628,1,8,0:0:0:0:
448,224,280703,1,0,0:0:0:0:
448,224,280778,1,8,0:0:0:0:
448,224,280853,1,0,0:0:0:0:
448,224,280928,1,8,0:0:0:0:
448,224,281003,1,8,0:0:0:0:
448,224,281078,1,0,0:0:0:0:
448,224,281153,1,0,0:0:0:0:
448,224,281228,1,8,0:0:0:0:
448,224,281303,1,8,0:0:0:0:
448,224,281378,1,0,0:0:0:0:
448,224,281528,1,8,0:0:0:0:
448,224,281603,1,8,0:0:0:0:
448,224,281678,1,0,0:0:0:0:
448,224,281753,1,8,0:0:0:0:
448,224,281828,1,0,0:0:0:0:
448,224,281978,1,8,0:0:0:0:
448,224,282128,1,8,0:0:0:0:
448,224,282203,1,8,0:0:0:0:
448,224,282278,1,0,0:0:0:0:
448,224,282353,1,8,0:0:0:0:
448,224,282428,1,8,0:0:0:0:
448,224,282578,1,8,0:0:0:0:
448,224,282728,1,8,0:0:0:0:
448,224,282803,1,0,0:0:0:0:
448,224,282878,1,8,0:0:0:0:
448,224,282953,1,8,0:0:0:0:
448,224,283028,1,8,0:0:0:0:
448,224,283103,1,0,0:0:0:0:
448,224,283178,1,8,0:0:0:0:
448,224,283328,1,8,0:0:0:0:
128,32,283378,1,0,0:0:0:0:
448,224,283428,1,0,0:0:0:0:
448,224,283478,1,8,0:0:0:0:
448,224,283628,1,0,0:0:0:0:
160,64,283678,1,0,0:0:0:0:
448,224,283728,1,0,0:0:0:0:
448,224,283778,1,8,0:0:0:0:
64,64,283828,1,8,0:0:0:0:
448,224,283878,1,8,0:0:0:0:
448,224,283928,1,0,0:0:0:0:
448,224,284078,1,0,0:0:0:0:
448,224,284153,1,8,0:0:0:0:
448,224,284228,1,0,0:0:0:0:
448,224,284303,1,0,0:0:0:0:
448,224,284378,1,8,0:0:0:0:
448,224,284528,1,8,0:0:0:0:
448,224,284603,1,8,0:0:0:0:
416,224,284678,1,0,0:0:0:0:
384,224,284753,1,8,0:0:0:0:
352,224,284828,1,8,0:0:0:0:
256,192,284978,1,8,0:0:0:0:
160,128,285128,1,8,0:0:0:0:
224,128,285203,1,0,0:0:0:0:
192,64,285278,1,8,0:0:0:0:
192,64,285353,1,8,0:0:0:0:
192,64,285428,1,0,0:0:0:0:
224,0,285503,1,0,0:0:0:0:
192,64,285578,1,8,0:0:0:0:
192,64,285653,1,0,0:0:0:0:
192,32,285728,1,8,0:0:0:0:
160,64,285803,1,8,0:0:0:0:
128,96,285878,1,8,0:0:0:0:
64,128,285953,1,0,0:0:0:0:
64,128,286028,1,8,0:0:0:0:
160,128,286103,1,0,0:0:0:0:
160,128,286178,1,8,0:0:0:0:
256,224,286328,1,8,0:0:0:0:
224,160,286403,1,0,0:0:0:0:
256,224,286478,1,0,0:0:0:0:
224,160,286553,1,8,0:0:0:0:
224,160,286628,1,0,0:0:0:0:
224,192,286778,1,8,0:0:0:0:
224,192,286853,1,0,0:0:0:0:
224,192,286928,1,8,0:0:0:0:
224,160,287003,1,8,0:0:0:0:
128,96,287078,1,0,0:0:0:0:
128,96,287153,1,8,0:0:0:0:
128,96,287228,1,0,0:0:0:0:
128,96,287378,1,8,0:0:0:0:
128,96,287453,1,0,0:0:0:0:
128,96,287528,1,8,0:0:0:0:
128,96,287753,1,8,0:0:0:0:
128,96,287978,1,8,0:0:0:0:
64,64,288028,1,8,0:0:0:0:
96,64,288078,1,8,0:0:0:0:
256,32,288128,1,0,0:0:0:0:
288,64,288203,1,0,0:0:0:0:
256,32,288278,1,0,0:0:0:0:
256,32,288353,1,0,0:0:0:0:
256,32,288428,1,0,0:0:0:0:
288,64,288478,1,0,0:0:0:0:
288,96,288528,1,0,0:0:0:0:
288,128,288578,1,8,0:0:0:0:
288,128,288628,1,8,0:0:0:0:
288,128,288678,1,8,0:0:0:0:
288,128,288728,1,0,0:0:0:0:
448,224,288878,1,0,0:0:0:0:
448,224,288953,1,8,0:0:0:0:
448,224,289028,1,0,0:0:0:0:
448,224,289103,1,0,0:0:0:0:
448,224,289178,1,8,0:0:0:0:
448,224,289328,1,8,0:0:0:0:
448,224,289403,1,8,0:0:0:0:
448,224,289478,1,0,0:0:0:0:
448,224,289553,1,8,0:0:0:0:
448,224,289628,1,8,0:0:0:0:
448,224,289703,1,0,0:0:0:0:
448,224,289778,1,8,0:0:0:0:
448,224,289928,1,8,0:0:0:0:
448,224,290078,1,8,0:0:0:0:
448,224,290153,1,8,0:0:0:0:
448,224,290228,1,8,0:0:0:0:
448,224,290303,1,0,0:0:0:0:
448,224,290378,1,8,0:0:0:0:
448,224,290453,1,0,0:0:0:0:
448,224,290528,1,8,0:0:0:0:
448,224,290603,1,8,0:0:0:0:
448,224,290678,1,0,0:0:0:0:
448,224,290753,1,0,0:0:0:0:
448,224,290828,1,8,0:0:0:0:
448,224,290903,1,8,0:0:0:0:
448,224,290978,1,0,0:0:0:0:
448,224,291128,1,8,0:0:0:0:
448,224,291203,1,8,0:0:0:0:
448,224,291278,1,0,0:0:0:0:
448,224,291353,1,8,0:0:0:0:
448,224,291428,1,0,0:0:0:0:
416,192,291503,1,0,0:0:0:0:
448,224,291578,1,8,0:0:0:0:
448,224,291728,1,8,0:0:0:0:
448,224,291803,1,8,0:0:0:0:
448,224,291878,1,0,0:0:0:0:
448,224,291953,1,8,0:0:0:0:
448,224,292028,1,8,0:0:0:0:
384,192,292103,1,0,0:0:0:0:
448,224,292178,1,8,0:0:0:0:
448,224,292328,1,8,0:0:0:0:
448,224,292403,1,0,0:0:0:0:
448,224,292478,1,8,0:0:0:0:
448,224,292553,1,8,0:0:0:0:
448,224,292628,1,8,0:0:0:0:
448,224,292703,1,0,0:0:0:0:
448,224,292778,1,8,0:0:0:0:
448,224,292928,1,8,0:0:0:0:
128,32,292978,1,0,0:0:0:0:
448,224,293028,1,0,0:0:0:0:
448,224,293078,1,8,0:0:0:0:
448,224,293228,1,0,0:0:0:0:
160,64,293278,1,0,0:0:0:0:
448,224,293328,1,0,0:0:0:0:
448,224,293378,1,8,0:0:0:0:
64,64,293428,1,8,0:0:0:0:
448,224,293478,1,8,0:0:0:0:
448,224,293528,1,0,0:0:0:0:
448,224,293678,1,0,0:0:0:0:
448,224,293753,1,8,0:0:0:0:
448,224,293828,1,0,0:0:0:0:
448,224,293903,1,0,0:0:0:0:
448,224,293978,1,8,0:0:0:0:
448,224,294128,1,8,0:0:0:0:
448,224,294203,1,8,0:0:0:0:
416,224,294278,1,0,0:0:0:0:
384,224,294353,1,8,0:0:0:0:
352,224,294428,1,8,0:0:0:0:
256,192,294503,1,0,0:0:0:0:
256,192,294578,1,8,0:0:0:0:
160,128,294728,1,8,0:0:0:0:
192,96,294803,1,0,0:0:0:0:
192,64,294878,1,8,0:0:0:0:
192,64,294953,1,8,0:0:0:0:
192,64,295028,1,8,0:0:0:0:
224,0,295103,1,0,0:0:0:0:
192,64,295178,1,8,0:0:0:0:
192,64,295253,1,0,0:0:0:0:
192,32,295328,1,8,0:0:0:0:
160,64,295403,1,8,0:0:0:0:
128,96,295478,1,0,0:0:0:0:
64,128,295553,1,0,0:0:0:0:
64,128,295628,1,8,0:0:0:0:
160,128,295703,1,0,0:0:0:0:
160,128,295778,1,8,0:0:0:0:
288,160,295928,1,8,0:0:0:0:
480,160,296153,1,0,0:0:0:0:
288,160,296378,1,0,0:0:0:0:
416,160,296528,1,8,0:0:0:0:
224,160,296753,1,0,0:0:0:0:
416,160,296978,1,8,0:0:0:0:
160,160,297128,5,8,0:0:0:0:
160,160,297278,1,0,0:0:0:0:
160,160,297353,1,8,0:0:0:0:
160,160,297503,1,0,0:0:0:0:
160,160,297578,1,8,0:0:0:0:
160,128,297653,1,0,0:0:0:0:
160,64,297728,1,8,0:0:0:0:
160,160,297878,1,0,0:0:0:0:
160,160,297953,1,8,0:0:0:0:
160,160,298028,1,0,0:0:0:0:
160,160,298078,1,0,0:0:0:0:
32,128,298128,1,0,0:0:0:0:
0,96,298178,1,0,0:0:0:0:
32,128,298228,1,0,0:0:0:0:
32,128,298278,1,0,0:0:0:0:
32,128,298328,1,8,0:0:0:0:
96,160,298403,1,8,0:0:0:0:
160,160,298478,1,0,0:0:0:0:
224,160,298553,1,8,0:0:0:0:
288,192,298628,1,0,0:0:0:0:
320,192,298703,1,0,0:0:0:0:
320,192,298778,1,8,0:0:0:0:
320,192,298853,1,0,0:0:0:0:
320,192,298928,1,8,0:0:0:0:
320,192,299003,1,8,0:0:0:0:
320,192,299078,1,0,0:0:0:0:
320,192,299153,1,8,0:0:0:0:
320,192,299228,1,8,0:0:0:0:
320,192,299303,1,0,0:0:0:0:
320,192,299378,1,8,0:0:0:0:
320,192,299453,1,0,0:0:0:0:
320,192,299528,1,8,0:0:0:0:
320,192,299603,1,0,0:0:0:0:
320,192,299678,1,8,0:0:0:0:
320,192,299753,1,8,0:0:0:0:
320,192,299828,1,8,0:0:0:0:
320,192,299903,1,0,0:0:0:0:
320,192,299978,1,8,0:0:0:0:
320,192,300053,1,0,0:0:0:0:
320,192,300128,1,8,0:0:0:0:
320,192,300203,1,8,0:0:0:0:
320,192,300278,1,0,0:0:0:0:
320,192,300353,1,0,0:0:0:0:
320,192,300428,1,8,0:0:0:0:
320,160,300503,1,0,0:0:0:0:
320,128,300578,1,8,0:0:0:0:
256,128,300628,1,8,0:0:0:0:
288,128,300678,1,8,0:0:0:0:
320,128,300728,1,8,0:0:0:0:
320,192,300878,1,0,0:0:0:0:
320,192,300953,1,8,0:0:0:0:
320,192,301028,1,0,0:0:0:0:
320,192,301103,1,0,0:0:0:0:
320,192,301178,1,8,0:0:0:0:
320,192,301253,1,0,0:0:0:0:
320,192,301328,1,8,0:0:0:0:
320,192,301403,1,8,0:0:0:0:
320,192,301478,1,0,0:0:0:0:
320,192,301553,1,8,0:0:0:0:
320,192,301628,1,8,0:0:0:0:
320,192,301703,1,0,0:0:0:0:
320,192,301778,1,8,0:0:0:0:
320,192,301853,1,0,0:0:0:0:
320,192,301928,1,8,0:0:0:0:
352,160,301978,1,8,0:0:0:0:
352,160,302028,1,8,0:0:0:0:
352,160,302078,1,0,0:0:0:0:
416,192,302153,1,0,0:0:0:0:
416,192,302228,1,8,0:0:0:0:
416,192,302303,1,0,0:0:0:0:
416,192,302378,1,8,0:0:0:0:
384,160,302428,1,0,0:0:0:0:
416,192,302478,1,0,0:0:0:0:
416,192,302528,1,8,0:0:0:0:
352,160,302603,1,0,0:0:0:0:
288,128,302678,1,8,0:0:0:0:
288,64,302728,1,8,0:0:0:0:
288,64,302778,1,8,0:0:0:0:
256,96,302828,1,0,0:0:0:0:
192,32,302903,1,0,0:0:0:0:
256,32,302978,1,8,0:0:0:0:
320,32,303028,1,8,0:0:0:0:
352,0,303078,1,8,0:0:0:0:
352,0,303128,1,8,0:0:0:0:
160,160,303278,1,0,0:0:0:0:
224,160,303353,1,8,0:0:0:0:
288,192,303428,1,0,0:0:0:0:
320,192,303503,1,0,0:0:0:0:
320,192,303578,1,8,0:0:0:0:
320,192,303653,1,0,0:0:0:0:
320,192,303728,1,8,0:0:0:0:
320,192,303803,1,8,0:0:0:0:
320,192,303878,1,0,0:0:0:0:
320,192,303953,1,8,0:0:0:0:
320,192,304028,1,8,0:0:0:0:
320,192,304103,1,0,0:0:0:0:
320,192,304178,1,8,0:0:0:0:
320,192,304253,1,0,0:0:0:0:
320,192,304328,1,8,0:0:0:0:
320,192,304403,1,0,0:0:0:0:
320,192,304478,1,8,0:0:0:0:
320,192,304553,1,8,0:0:0:0:
320,192,304628,1,8,0:0:0:0:
320,192,304703,1,0,0:0:0:0:
320,192,304778,1,8,0:0:0:0:
320,192,304853,1,0,0:0:0:0:
320,192,304928,1,8,0:0:0:0:
320,192,305003,1,8,0:0:0:0:
320,192,305078,1,0,0:0:0:0:
320,192,305153,1,0,0:0:0:0:
320,192,305228,1,8,0:0:0:0:
320,160,305303,1,0,0:0:0:0:
320,128,305378,1,8,0:0:0:0:
256,128,305428,1,8,0:0:0:0:
288,128,305478,1,8,0:0:0:0:
320,128,305528,1,8,0:0:0:0:
320,192,305678,1,0,0:0:0:0:
320,192,305753,1,8,0:0:0:0:
320,192,305828,1,0,0:0:0:0:
320,192,305903,1,0,0:0:0:0:
320,192,305978,1,8,0:0:0:0:
320,192,306053,1,0,0:0:0:0:
320,192,306128,1,8,0:0:0:0:
320,192,306203,1,8,0:0:0:0:
320,192,306278,1,0,0:0:0:0:
320,192,306353,1,8,0:0:0:0:
320,192,306428,1,8,0:0:0:0:
320,192,306503,1,0,0:0:0:0:
320,192,306578,1,8,0:0:0:0:
288,192,306628,1,8,0:0:0:0:
256,192,306678,1,8,0:0:0:0:
224,192,306728,1,0,0:0:0:0:
160,192,306803,1,0,0:0:0:0:
96,128,306878,1,0,0:0:0:0:
160,160,306953,1,8,0:0:0:0:
160,160,307028,1,0,0:0:0:0:
160,160,307103,1,0,0:0:0:0:
192,160,307178,1,8,0:0:0:0:
224,96,307228,1,8,0:0:0:0:
288,64,307278,1,8,0:0:0:0:
256,96,307328,1,0,0:0:0:0:
320,128,307403,1,0,0:0:0:0:
256,96,307478,1,0,0:0:0:0:
320,128,307553,1,8,0:0:0:0:
256,96,307628,1,8,0:0:0:0:
320,128,307703,1,0,0:0:0:0:
256,96,307778,1,8,0:0:0:0:
288,96,307828,1,8,0:0:0:0:
320,128,307878,1,8,0:0:0:0:
288,128,307928,1,0,0:0:0:0:
352,0,308078,1,0,0:0:0:0:
320,64,308153,1,8,0:0:0:0:
320,64,308228,1,8,0:0:0:0:
320,64,308303,1,0,0:0:0:0:
320,64,308378,1,8,0:0:0:0:
320,64,308453,1,0,0:0:0:0:
320,64,308528,1,8,0:0:0:0:
320,64,308603,1,8,0:0:0:0:
320,64,308678,1,0,0:0:0:0:
320,64,308753,1,8,0:0:0:0:
320,64,308828,1,8,0:0:0:0:
320,64,308903,1,0,0:0:0:0:
320,64,308978,1,8,0:0:0:0:
320,64,309053,1,0,0:0:0:0:
288,96,309128,1,8,0:0:0:0:
288,128,309178,1,8,0:0:0:0:
288,160,309228,1,8,0:0:0:0:
320,128,309278,1,0,0:0:0:0:
384,96,309353,1,0,0:0:0:0:
448,64,309428,1,8,0:0:0:0:
448,64,309503,1,8,0:0:0:0:
512,32,309578,1,8,0:0:0:0:
512,32,309628,1,0,0:0:0:0:
512,32,309678,1,0,0:0:0:0:
512,32,309728,1,8,0:0:0:0:
448,32,309803,1,8,0:0:0:0:
384,32,309878,1,0,0:0:0:0:
384,32,309953,1,0,0:0:0:0:
320,64,310028,1,8,0:0:0:0:
256,96,310103,1,0,0:0:0:0:
192,128,310178,1,8,0:0:0:0:
192,128,310253,1,0,0:0:0:0:
192,128,310328,1,8,0:0:0:0:
192,128,310478,1,0,0:0:0:0:
192,128,310553,1,8,0:0:0:0:
128,128,310628,1,0,0:0:0:0:
64,160,310703,1,0,0:0:0:0:
128,128,310778,1,8,0:0:0:0:
64,160,310853,1,0,0:0:0:0:
128,128,310928,1,8,0:0:0:0:
64,160,311003,1,8,0:0:0:0:
128,128,311078,1,0,0:0:0:0:
64,160,311153,1,8,0:0:0:0:
128,128,311228,1,8,0:0:0:0:
64,160,311303,1,0,0:0:0:0:
128,128,311378,1,8,0:0:0:0:
64,160,311453,1,0,0:0:0:0:
192,128,311528,1,8,0:0:0:0:
192,64,311578,1,8,0:0:0:0:
192,128,311628,1,8,0:0:0:0:
192,128,311678,1,0,0:0:0:0:
160,192,311753,1,0,0:0:0:0:
160,192,311828,1,8,0:0:0:0:
160,192,311903,1,0,0:0:0:0:
192,160,311978,1,8,0:0:0:0:
288,128,312028,1,0,0:0:0:0:
224,128,312078,1,0,0:0:0:0:
192,128,312128,1,8,0:0:0:0:
256,128,312203,1,8,0:0:0:0:
320,96,312278,1,0,0:0:0:0:
192,64,312353,1,0,0:0:0:0:
480,64,312428,1,8,0:0:0:0:
416,64,312478,1,0,0:0:0:0:
352,96,312528,1,0,0:0:0:0:
352,96,312578,1,8,0:0:0:0:
352,96,312628,1,8,0:0:0:0:
352,96,312678,1,8,0:0:0:0:
352,96,312728,1,4,0:0:0:0:
160,192,312953,1,8,0:0:0:0:
384,96,313178,1,8,0:0:0:0:
256,160,313328,1,4,0:0:0:0:
64,224,313553,1,8,0:0:0:0:
256,160,313778,1,8,0:0:0:0:
128,192,313928,1,4,0:0:0:0:
256,96,314078,5,8,0:0:0:0:
256,96,314153,1,8,0:0:0:0:
256,96,314228,1,8,0:0:0:0:
256,96,314378,1,8,0:0:0:0:
256,160,314528,1,4,0:0:0:0:
256,96,314678,1,8,0:0:0:0:
256,96,314753,1,8,0:0:0:0:
256,96,314828,1,8,0:0:0:0:
205,146,314903,1,8,0:0:0:0:
256,96,314978,1,8,0:0:0:0:
256,96,315128,1,4,0:0:0:0:
256,96,315428,1,4,0:0:0:0:
256,96,315578,1,8,0:0:0:0:
256,96,315728,1,4,0:0:0:0:
256,96,315953,1,8,0:0:0:0:
256,96,316028,1,0,0:0:0:0:
256,96,316178,1,8,0:0:0:0:
256,96,316328,1,8,0:0:0:0:
256,152,316403,1,8,0:0:0:0:
256,96,316478,1,0,0:0:0:0:
288,160,316553,1,8,0:0:0:0:
288,160,316628,1,0,0:0:0:0:
288,160,316703,1,0,0:0:0:0:
320,128,316778,1,8,0:0:0:0:
384,96,316853,1,0,0:0:0:0:
448,32,316928,1,8,0:0:0:0:
384,32,317003,1,0,0:0:0:0:
320,96,317078,1,0,0:0:0:0:
320,96,317153,1,8,0:0:0:0:
320,96,317228,1,0,0:0:0:0:
320,96,317278,1,0,0:0:0:0:
320,96,317328,1,0,0:0:0:0:
320,96,317378,1,8,0:0:0:0:
320,96,317428,1,8,0:0:0:0:
320,96,317478,1,8,0:0:0:0:
320,96,317528,1,4,0:0:0:0:
162,212,317678,1,0,0:0:0:0:
66,180,317828,1,0,0:0:0:0:
354,276,317978,1,8,0:0:0:0:
66,180,318278,1,0,0:0:0:0:
354,276,318578,1,8,0:0:0:0:
290,180,319928,1,8,0:0:0:0:
98,212,320078,1,0,0:0:0:0:
98,212,320228,1,0,0:0:0:0:
290,180,320378,1,8,0:0:0:0:
98,116,320678,1,0,0:0:0:0:
290,180,320978,1,8,0:0:0:0:
194,148,321728,1,8,0:0:0:0:
194,148,322328,1,8,0:0:0:0:
66,148,322478,1,8,0:0:0:0:
194,148,322628,1,0,0:0:0:0:
194,148,322778,1,8,0:0:0:0:
194,148,323078,1,0,0:0:0:0:
194,148,323378,1,8,0:0:0:0:
226,212,324728,1,8,0:0:0:0:
130,180,324878,1,8,0:0:0:0:
226,212,325028,1,0,0:0:0:0:
226,212,325178,1,8,0:0:0:0:
226,212,325478,1,0,0:0:0:0:
226,212,325778,1,8,0:0:0:0:
66,180,326528,1,0,0:0:0:0:
34,244,327128,1,8,0:0:0:0:
162,212,327278,1,0,0:0:0:0:
66,180,327428,1,0,0:0:0:0:
354,276,327578,1,8,0:0:0:0:
66,180,327878,1,0,0:0:0:0:
354,276,328178,1,8,0:0:0:0:
290,180,329528,1,8,0:0:0:0:
98,212,329678,1,0,0:0:0:0:
98,212,329828,1,0,0:0:0:0:
290,180,329978,1,8,0:0:0:0:
98,116,330278,1,0,0:0:0:0:
290,180,330578,1,8,0:0:0:0:
194,148,331328,1,8,0:0:0:0:
194,148,331928,1,8,0:0:0:0:
66,148,332078,1,0,0:0:0:0:
194,148,332228,1,0,0:0:0:0:
194,148,332378,1,8,0:0:0:0:
194,148,332678,1,0,0:0:0:0:
194,148,332978,1,8,0:0:0:0:
162,212,333728,1,8,0:0:0:0:
226,212,334328,1,0,0:0:0:0:
226,212,335228,1,8,0:0:0:0:
226,212,335378,1,8,0:0:0:0:
226,212,335528,1,0,0:0:0:0:
136,199,336728,1,0,0:0:0:0:
256,192,336878,12,0,337928,0:0:0:0:
251,256,338228,5,8,0:0:0:0:
251,256,338378,1,0,0:0:0:0:
251,256,338453,1,0,0:0:0:0:
251,256,338528,1,8,0:0:0:0:
251,256,338678,1,8,0:0:0:0:
251,256,338828,1,0,0:0:0:0:
77,114,339128,1,4,0:0:0:0:
255,223,339428,1,0,0:0:0:0:
159,159,339578,1,0,0:0:0:0:
95,63,339728,1,8,0:0:0:0:
255,223,340028,1,0,0:0:0:0:
95,63,340328,1,8,0:0:0:0:
159,159,340478,1,0,0:0:0:0:
159,159,340628,1,0,0:0:0:0:
159,159,340928,1,8,0:0:0:0:
95,159,341228,1,8,0:0:0:0:
95,159,341528,1,0,0:0:0:0:
223,63,341678,1,0,0:0:0:0:
95,159,341828,1,0,0:0:0:0:
95,159,342128,1,8,0:0:0:0:
95,159,342428,1,0,0:0:0:0:
95,159,342578,1,8,0:0:0:0:
95,159,342728,1,0,0:0:0:0:
191,127,343028,1,0,0:0:0:0:
95,159,343328,1,8,0:0:0:0:
287,255,343628,1,8,0:0:0:0:
63,159,343928,1,8,0:0:0:0:
118,61,344078,1,0,0:0:0:0:
255,95,344228,1,0,0:0:0:0:
255,95,344378,1,8,0:0:0:0:
255,95,344678,1,0,0:0:0:0:
255,95,344978,1,8,0:0:0:0:
270,199,345128,1,0,0:0:0:0:
265,164,345428,1,0,0:0:0:0:
255,95,345728,1,8,0:0:0:0:
255,95,346328,1,8,0:0:0:0:
174,175,346478,1,0,0:0:0:0:
127,255,346628,1,0,0:0:0:0:
191,159,346778,1,8,0:0:0:0:
414,147,347078,1,0,0:0:0:0:
191,159,347378,1,8,0:0:0:0:
75,138,347528,1,0,0:0:0:0:
255,159,347828,1,0,0:0:0:0:
191,95,348128,1,8,0:0:0:0:
95,31,348728,1,8,0:0:0:0:
255,223,349028,1,0,0:0:0:0:
159,159,349178,1,0,0:0:0:0:
95,63,349328,1,8,0:0:0:0:
255,223,349628,1,0,0:0:0:0:
95,63,349928,1,8,0:0:0:0:
159,159,350078,1,0,0:0:0:0:
159,159,350228,1,0,0:0:0:0:
159,159,350528,1,8,0:0:0:0:
95,159,350828,1,8,0:0:0:0:
95,159,351128,1,0,0:0:0:0:
223,63,351278,1,0,0:0:0:0:
95,159,351428,1,0,0:0:0:0:
95,159,351728,1,8,0:0:0:0:
95,159,352028,1,8,0:0:0:0:
95,159,352178,1,0,0:0:0:0:
95,159,352328,1,0,0:0:0:0:
191,127,352628,1,0,0:0:0:0:
95,159,352928,1,8,0:0:0:0:
287,255,353228,1,8,0:0:0:0:
63,159,353528,1,8,0:0:0:0:
149,72,353678,1,8,0:0:0:0:
255,95,353828,1,0,0:0:0:0:
255,95,353978,1,8,0:0:0:0:
161,44,354278,1,8,0:0:0:0:
255,95,354578,1,8,0:0:0:0:
255,95,354728,1,0,0:0:0:0:
255,95,355028,1,0,0:0:0:0:
255,95,355328,1,8,0:0:0:0:
255,95,355928,1,8,0:0:0:0:
153,47,356078,5,8,0:0:0:0:
127,255,356228,1,0,0:0:0:0:
191,159,356378,1,8,0:0:0:0:
191,159,356678,1,8,0:0:0:0:
191,95,356978,1,8,0:0:0:0:
191,95,357128,1,0,0:0:0:0:
191,63,357428,1,0,0:0:0:0:
191,95,357728,1,8,0:0:0:0:
31,223,358328,1,0,0:0:0:0:
223,127,358628,1,0,0:0:0:0:
223,127,358778,1,0,0:0:0:0:
223,127,358928,1,8,0:0:0:0:
223,127,359078,1,8,0:0:0:0:
223,127,359228,1,0,0:0:0:0:
63,287,359528,1,8,0:0:0:0:
127,223,359678,1,8,0:0:0:0:
191,159,359828,1,0,0:0:0:0:
255,95,359978,1,0,0:0:0:0:
191,95,360128,5,8,0:0:0:0:
191,191,360278,1,0,0:0:0:0:
191,191,360428,1,8,0:0:0:0:
191,191,360578,1,8,0:0:0:0:
191,191,360728,1,0,0:0:0:0:
383,127,361028,1,0,0:0:0:0:
287,159,361178,1,0,0:0:0:0:
383,127,361328,1,8,0:0:0:0:
287,159,361478,1,0,0:0:0:0:
383,127,361628,1,8,0:0:0:0:
287,159,361778,1,8,0:0:0:0:
383,127,361928,1,0,0:0:0:0:
191,191,362228,1,8,0:0:0:0:
287,159,362378,1,0,0:0:0:0:
383,127,362528,1,8,0:0:0:0:
287,159,362678,1,8,0:0:0:0:
415,127,362828,1,8,0:0:0:0:
287,159,362978,1,8,0:0:0:0:
383,127,363128,1,8,0:0:0:0:
274,127,363278,1,0,0:0:0:0:
159,127,363428,1,0,0:0:0:0:
159,127,363578,1,8,0:0:0:0:
159,127,363878,1,0,0:0:0:0:
159,127,364178,1,8,0:0:0:0:
255,351,364328,1,0,0:0:0:0:
159,159,364628,1,0,0:0:0:0:
159,159,364928,1,8,0:0:0:0:
191,191,365528,1,8,0:0:0:0:
173,87,365678,1,0,0:0:0:0:
223,127,365828,1,0,0:0:0:0:
223,127,365978,1,8,0:0:0:0:
223,127,366278,1,0,0:0:0:0:
223,127,366578,1,8,0:0:0:0:
223,95,366728,1,0,0:0:0:0:
223,95,367028,1,0,0:0:0:0:
223,95,367328,1,8,0:0:0:0:
223,95,367928,1,8,0:0:0:0:
383,255,368228,1,8,0:0:0:0:
319,191,368378,1,0,0:0:0:0:
223,127,368528,1,8,0:0:0:0:
319,191,368678,1,0,0:0:0:0:
223,127,368828,1,8,0:0:0:0:
319,191,368978,1,8,0:0:0:0:
223,127,369128,1,0,0:0:0:0:
319,191,369278,1,8,0:0:0:0:
223,127,369428,1,8,0:0:0:0:
319,191,369578,1,8,0:0:0:0:
255,127,369728,1,8,0:0:0:0:
319,191,369878,1,0,0:0:0:0:
255,127,370028,1,8,0:0:0:0:
319,191,370178,1,8,0:0:0:0:
255,127,370328,1,0,0:0:0:0:
319,223,370478,1,8,0:0:0:0:
255,127,370628,1,8,0:0:0:0:
319,191,370778,1,8,0:0:0:0:
223,127,370928,1,8,0:0:0:0:
319,191,371078,1,0,0:0:0:0:
223,127,371228,1,8,0:0:0:0:
319,191,371378,1,8,0:0:0:0:
223,127,371528,1,0,0:0:0:0:
223,127,371828,1,8,0:0:0:0:
319,191,371978,1,0,0:0:0:0:
223,127,372128,1,8,0:0:0:0:
223,127,372428,1,8,0:0:0:0:
223,127,372728,1,8,0:0:0:0:
152,49,372878,1,8,0:0:0:0:
319,287,373028,1,0,0:0:0:0:
287,223,373178,1,8,0:0:0:0:
223,159,373478,1,8,0:0:0:0:
223,159,373778,1,8,0:0:0:0:
223,159,373928,1,0,0:0:0:0:
223,159,374228,1,0,0:0:0:0:
223,159,374528,1,8,0:0:0:0:
223,159,375128,1,8,0:0:0:0:
102,123,375278,1,8,0:0:0:0:
223,159,375428,1,0,0:0:0:0:
223,159,375578,1,8,0:0:0:0:
223,159,375878,1,8,0:0:0:0:
223,159,376178,1,8,0:0:0:0:
447,191,376328,1,0,0:0:0:0:
223,191,376628,1,0,0:0:0:0:
351,223,376778,1,0,0:0:0:0:
223,191,376928,1,8,0:0:0:0:
255,191,377528,1,0,0:0:0:0:
255,191,377828,1,0,0:0:0:0:
255,191,378128,1,8,0:0:0:0:
255,191,378278,1,0,0:0:0:0:
255,191,378428,1,8,0:0:0:0:
287,159,378728,1,8,0:0:0:0:
351,159,378878,1,0,0:0:0:0:
511,191,379178,1,8,0:0:0:0:
287,159,379328,1,0,0:0:0:0:
287,159,379628,1,8,0:0:0:0:
255,159,379928,1,0,0:0:0:0:
255,159,380228,1,8,0:0:0:0:
255,159,380528,1,0,0:0:0:0:
255,159,380678,1,0,0:0:0:0:
223,159,380828,1,8,0:0:0:0:
223,159,381128,1,8,0:0:0:0:
159,127,381278,1,0,0:0:0:0:
159,127,381578,1,0,0:0:0:0:
95,127,381728,1,8,0:0:0:0:
95,127,382028,1,8,0:0:0:0:
95,127,382328,1,0,0:0:0:0:
223,95,382628,1,8,0:0:0:0:
223,95,382928,1,0,0:0:0:0:
223,95,383078,1,0,0:0:0:0:
223,127,383228,1,8,0:0:0:0:
223,127,383528,1,8,0:0:0:0:
223,127,383678,1,8,0:0:0:0:
223,127,383828,1,0,0:0:0:0:
159,95,383978,1,8,0:0:0:0:
223,127,384128,1,0,0:0:0:0:
223,127,384428,1,8,0:0:0:0:
159,95,384728,1,8,0:0:0:0:
159,95,384878,1,0,0:0:0:0:
159,95,385028,1,8,0:0:0:0:
159,95,385178,1,8,0:0:0:0:
159,95,385328,1,0,0:0:0:0:
287,191,385628,1,8,0:0:0:0:
159,95,385928,1,8,0:0:0:0:
223,127,386078,1,8,0:0:0:0:
223,127,386228,1,0,0:0:0:0:
159,95,386378,1,8,0:0:0:0:
159,95,386528,1,0,0:0:0:0:
319,127,386828,1,8,0:0:0:0:
255,191,387128,5,8,0:0:0:0:
255,191,387428,1,0,0:0:0:0:
255,191,387728,1,8,0:0:0:0:
255,191,387878,1,0,0:0:0:0:
255,191,388028,1,8,0:0:0:0:
287,159,388328,1,8,0:0:0:0:
351,159,388478,1,0,0:0:0:0:
511,191,388778,1,8,0:0:0:0:
287,159,388928,1,0,0:0:0:0:
287,159,389228,1,8,0:0:0:0:
255,159,389528,1,0,0:0:0:0:
255,159,389828,1,8,0:0:0:0:
255,159,390128,1,0,0:0:0:0:
255,159,390278,1,0,0:0:0:0:
223,159,390428,1,8,0:0:0:0:
223,159,390728,1,8,0:0:0:0:
159,127,390878,1,0,0:0:0:0:
159,127,391178,1,0,0:0:0:0:
95,127,391328,1,8,0:0:0:0:
95,127,391628,1,8,0:0:0:0:
95,127,391928,1,0,0:0:0:0:
223,95,392228,1,8,0:0:0:0:
223,95,392528,1,0,0:0:0:0:
223,95,392678,1,0,0:0:0:0:
223,127,392828,1,8,0:0:0:0:
223,127,393128,1,8,0:0:0:0:
223,127,393278,1,8,0:0:0:0:
223,127,393428,1,0,0:0:0:0:
159,95,393578,1,8,0:0:0:0:
223,127,393728,1,0,0:0:0:0:
223,127,394028,1,8,0:0:0:0:
159,95,394328,1,8,0:0:0:0:
15,224,394628,1,0,0:0:0:0:
71,173,394778,1,8,0:0:0:0:
131,120,394928,1,0,0:0:0:0:
20,266,395228,1,8,0:0:0:0:
143,104,395528,1,0,0:0:0:0:
256,192,395678,12,0,396578,0:0:0:0:
202,98,396728,5,0,0:0:0:0:
273,206,399128,1,0,0:0:0:0:
404,256,401528,1,0,0:0:0:0:
256,192,405728,12,0,406328,0:0:0:0:
