osu file format v14

[General]
AudioFilename: audio.mp3
AudioLeadIn: 0
PreviewTime: 49885
Countdown: 0
SampleSet: Soft
StackLeniency: 1
Mode: 3
LetterboxInBreaks: 0
SpecialStyle: 0
WidescreenStoryboard: 1

[Editor]
Bookmarks: 66327,74532,101199,103250,108378,109404,113506,116583,142224,150429,153506,158634,162737,170942,175045,195558,242737,259147,263250,267352,275814,291968,304275,304788
DistanceSpacing: 0.5
BeatDivisor: 6
GridSize: 16
TimelineZoom: 2.500001

[Metadata]
Title:Ragnarok
TitleUnicode:Ragnarok
Artist:Gram vs. Camellia
ArtistUnicode:Gram vs. かめりあ
Creator:Vapor-
Version:Twilight
Source:
Tags:DJ Genki sv svs difficult
BeatmapID:1785156
BeatmapSetID:854217

[Difficulty]
HPDrainRate:7
CircleSize:4
OverallDifficulty:0
ApproachRate:5
SliderMultiplier:1.8
SliderTickRate:1

[Events]
//Background and Video events
0,0,"Ragnarok.jpg",0,0
//Break Periods
2,195758,202563
//Storyboard Layer 0 (Background)
//Storyboard Layer 1 (Fail)
//Storyboard Layer 2 (Pass)
//Storyboard Layer 3 (Foreground)
//Storyboard Sound Samples

[TimingPoints]
1035,566.037735849057,4,2,0,5,1,0
1035,-53.1914893617021,4,2,0,5,0,0
4431,521.739130434783,4,2,0,5,1,0
4431,-57.8034682080925,4,2,0,5,0,0
6482,461.538461538462,4,2,0,5,1,0
6482,-65.359477124183,4,2,0,5,0,0
7405,434.782608695652,4,2,0,5,1,0
7405,-69.4444444444444,4,2,0,5,0,0
8291,416.666666666667,4,2,0,5,1,0
8291,-72.463768115942,4,2,0,5,0,0
9940,387.096774193548,4,2,0,5,1,0
9940,-78.125,4,2,0,5,0,0
10714,365.853658536585,4,2,0,5,1,0
10714,-82.6446280991736,4,2,0,5,0,0
11471,363.636363636364,4,2,0,5,1,0
11471,-82.6446280991736,4,2,0,5,0,0
12889,333.333333333333,4,2,0,5,1,0
12889,-90.0900900900901,4,2,0,5,0,0
13559,324.324324324324,4,2,0,5,1,0
13559,-90.9090909090909,4,2,0,5,0,0
14213,315.789473684211,4,2,0,5,1,0
14213,-96.1538461538461,4,2,0,5,0,0
15487,306.122448979592,4,2,0,5,1,0
15487,-98.0392156862745,4,2,0,5,0,0
16096,300,4,2,0,5,1,0
16096,-101.010101010101,4,2,0,5,0,0
31109,340.909090909091,4,2,0,5,1,0
31109,-87.719298245614,4,2,0,5,0,0
31769,357.142857142857,4,2,0,5,1,0
31769,-93.4579439252336,4,2,0,5,0,0
32483,400,4,2,0,5,1,0
32483,-93.4579439252336,4,2,0,5,0,0
33296,437.956204379562,4,2,0,5,1,0
33296,-98.0392156862745,4,2,0,5,0,0
34172,504.201680672269,4,2,0,5,1,0
36198,645.161290322581,4,2,0,5,1,0
36198,-78.125,4,2,0,5,0,0
38767,833.333333333335,4,2,0,5,1,0
38767,-40.983606557377,4,2,0,5,0,0
38967,681.818181818183,4,2,0,5,1,0
38967,-50.251256281407,4,2,0,5,0,0
39136,571.428571428572,4,2,0,5,1,0
39136,-59.8802395209581,4,2,0,5,0,0
39425,517.241379310345,4,2,0,5,1,0
39425,-66.2251655629139,4,2,0,5,0,0
40063,645.161290322581,4,2,0,5,1,0
40063,-60.9756097560976,4,2,0,5,0,0
40229,845.070422535212,4,2,0,5,1,0
40229,-46.7289719626168,4,2,0,5,0,0
40646,508.474576271186,4,2,0,5,1,0
40646,-77.5193798449612,4,2,0,5,0,0
41167,285.714285714286,4,2,0,5,1,0
44582,279.06976744186,4,2,0,5,1,0
45698,270.27027027027,4,2,0,5,1,0
46779,265.486725663717,4,2,0,5,1,0
47840,260.869565217391,4,2,0,5,1,0
48883,258.620689655172,4,2,0,5,1,0
49917,256.410256410256,4,2,0,5,1,0
49917,-133.333333333333,4,2,0,5,0,0
66327,-100,4,2,0,5,0,0
109147,-333.333333333333,4,2,0,5,0,0
109340,-66.6666666666667,4,2,0,5,0,0
109404,-100,4,2,0,5,0,0
117609,-33.3333333333333,4,2,0,5,0,0
117625,-133.333333333333,4,2,0,5,0,0
117849,-25,4,2,0,5,0,0
117865,-100,4,2,0,5,0,0
131968,-100,4,2,0,5,0,0
134019,-111.111111111111,4,2,0,5,0,0
142224,-100,4,2,0,5,0,0
195558,-1000,4,2,0,5,0,0
201711,-500,4,2,0,5,0,0
201968,-333.333333333333,4,2,0,5,0,0
202224,-250,4,2,0,5,0,0
202481,-200,4,2,0,5,0,0
202737,-166.666666666667,4,2,0,5,0,0
202993,-142.857142857143,4,2,0,5,0,0
203250,-125,4,2,0,5,0,0
203506,-100,4,2,0,5,0,0
220173,-100,4,2,0,5,0,0
242224,-66.6666666666667,4,2,0,5,0,0
242288,-133.333333333333,4,2,0,5,0,0
242416,-66.6666666666667,4,2,0,5,0,0
242481,-133.333333333333,4,2,0,5,0,0
242609,-100,4,2,0,5,0,0
242721,-20,4,2,0,5,0,0
242737,-100,4,2,0,5,0,0
259147,-100,4,2,0,5,0,0
283506,-333.333333333333,4,2,0,5,0,0
283699,-66.6666666666667,4,2,0,5,0,0
283763,-100,4,2,0,5,0,0
314019,-142.857142857143,4,2,0,5,0,0
319372,-285.714285714286,4,2,0,5,0,0
323763,-400,4,2,0,5,0,0
324788,-666.666666666667,4,2,0,5,0,0
324916,-142.857142857143,4,2,0,5,0,0
325045,-125,4,2,0,5,0,0
325173,-111.111111111111,4,2,0,5,0,0
325237,-100,4,2,0,5,0,0

[HitObjects]
192,192,3299,5,0,0:0:0:0:
448,192,3299,128,0,6387:0:0:0:0:
64,192,3369,1,0,0:0:0:0:
192,192,3440,1,0,0:0:0:0:
320,192,3511,1,0,0:0:0:0:
192,192,4431,128,0,7289:0:0:0:0:
64,192,4431,128,0,7289:0:0:0:0:
448,192,6482,128,0,7289:0:0:0:0:
192,192,7405,1,0,0:0:0:0:
448,192,7405,128,0,9853:0:0:0:0:
64,192,7459,1,0,0:0:0:0:
192,192,7513,1,0,0:0:0:0:
320,192,7568,1,0,0:0:0:0:
192,192,8291,128,0,10617:0:0:0:0:
64,192,8291,128,0,10617:0:0:0:0:
448,192,9940,128,0,10617:0:0:0:0:
192,192,10714,1,0,0:0:0:0:
448,192,10714,128,0,12789:0:0:0:0:
64,192,10759,1,0,0:0:0:0:
192,192,10805,1,0,0:0:0:0:
320,192,10851,1,0,0:0:0:0:
192,192,11471,128,0,13472:0:0:0:0:
64,192,11471,128,0,13472:0:0:0:0:
448,192,12880,128,0,13472:0:0:0:0:
192,192,13555,1,0,0:0:0:0:
448,192,13555,128,0,16022:0:0:0:0:
64,192,13599,1,0,0:0:0:0:
192,192,13640,1,0,0:0:0:0:
320,192,13680,1,0,0:0:0:0:
192,192,14207,128,0,15397:0:0:0:0:
64,192,14207,128,0,15397:0:0:0:0:
64,192,15476,128,0,16022:0:0:0:0:
192,192,15476,128,0,16022:0:0:0:0:
64,192,16096,1,0,0:0:0:0:
192,192,16096,1,0,0:0:0:0:
320,192,16096,1,0,0:0:0:0:
448,192,16096,1,0,0:0:0:0:
448,192,16546,1,0,0:0:0:0:
64,192,16546,1,0,0:0:0:0:
192,192,16546,1,0,0:0:0:0:
64,192,16696,1,0,0:0:0:0:
448,192,16696,1,0,0:0:0:0:
192,192,16696,1,0,0:0:0:0:
64,192,17596,1,0,0:0:0:0:
192,192,17596,1,0,0:0:0:0:
192,192,17746,1,0,0:0:0:0:
320,192,17746,1,0,0:0:0:0:
64,192,17896,1,0,0:0:0:0:
320,192,17896,1,0,0:0:0:0:
448,192,17896,1,0,0:0:0:0:
448,192,18196,1,0,0:0:0:0:
192,192,18196,1,0,0:0:0:0:
64,192,18496,1,0,0:0:0:0:
192,192,18496,1,0,0:0:0:0:
320,192,18496,1,0,0:0:0:0:
448,192,18496,1,0,0:0:0:0:
320,192,18946,1,0,0:0:0:0:
448,192,18946,1,0,0:0:0:0:
192,192,18946,1,0,0:0:0:0:
192,192,19096,1,0,0:0:0:0:
320,192,19096,1,0,0:0:0:0:
448,192,19096,1,0,0:0:0:0:
64,192,19996,1,0,0:0:0:0:
192,192,19996,1,0,0:0:0:0:
192,192,20146,1,0,0:0:0:0:
448,192,20146,1,0,0:0:0:0:
192,192,20296,1,0,0:0:0:0:
64,192,20296,1,0,0:0:0:0:
320,192,20296,1,0,0:0:0:0:
448,192,20596,1,0,0:0:0:0:
320,192,20596,1,0,0:0:0:0:
64,192,20896,1,0,0:0:0:0:
448,192,20896,1,0,0:0:0:0:
192,192,20933,1,0,0:0:0:0:
320,192,20971,1,0,0:0:0:0:
448,192,21008,1,0,0:0:0:0:
64,192,21346,1,0,0:0:0:0:
192,192,21346,1,0,0:0:0:0:
320,192,21346,1,0,0:0:0:0:
320,192,21496,1,0,0:0:0:0:
192,192,21496,1,0,0:0:0:0:
64,192,21496,1,0,0:0:0:0:
64,192,22396,1,0,0:0:0:0:
320,192,22396,1,0,0:0:0:0:
192,192,22546,1,0,0:0:0:0:
320,192,22546,1,0,0:0:0:0:
320,192,22696,1,0,0:0:0:0:
448,192,22696,1,0,0:0:0:0:
192,192,22696,1,0,0:0:0:0:
64,192,22996,1,0,0:0:0:0:
448,192,22996,1,0,0:0:0:0:
448,192,23296,1,0,0:0:0:0:
64,192,23296,1,0,0:0:0:0:
192,192,23333,1,0,0:0:0:0:
320,192,23371,1,0,0:0:0:0:
448,192,23408,1,0,0:0:0:0:
64,192,23746,1,0,0:0:0:0:
448,192,23746,1,0,0:0:0:0:
320,192,23746,1,0,0:0:0:0:
448,192,23896,1,0,0:0:0:0:
320,192,23896,1,0,0:0:0:0:
64,192,23896,1,0,0:0:0:0:
192,192,24346,1,0,0:0:0:0:
320,192,24346,1,0,0:0:0:0:
448,192,24346,1,0,0:0:0:0:
448,192,24496,1,0,0:0:0:0:
320,192,24496,1,0,0:0:0:0:
192,192,24496,1,0,0:0:0:0:
64,192,25096,1,0,0:0:0:0:
192,192,25096,1,0,0:0:0:0:
448,192,25096,1,0,0:0:0:0:
64,192,25396,1,0,0:0:0:0:
192,192,25396,1,0,0:0:0:0:
448,192,25546,1,0,0:0:0:0:
192,192,25546,1,0,0:0:0:0:
64,192,25696,1,0,0:0:0:0:
320,192,25696,1,0,0:0:0:0:
448,192,25733,1,0,0:0:0:0:
320,192,25771,1,0,0:0:0:0:
192,192,25808,1,0,0:0:0:0:
64,192,25846,1,0,0:0:0:0:
448,192,26146,1,0,0:0:0:0:
64,192,26146,1,0,0:0:0:0:
192,192,26146,1,0,0:0:0:0:
64,192,26296,1,0,0:0:0:0:
192,192,26296,1,0,0:0:0:0:
448,192,26296,1,0,0:0:0:0:
192,192,27196,1,0,0:0:0:0:
320,192,27196,1,0,0:0:0:0:
320,192,27346,1,0,0:0:0:0:
448,192,27346,1,0,0:0:0:0:
320,192,27496,1,0,0:0:0:0:
192,192,27496,1,0,0:0:0:0:
64,192,27796,1,0,0:0:0:0:
320,192,27796,1,0,0:0:0:0:
448,192,28096,1,0,0:0:0:0:
192,192,28096,1,0,0:0:0:0:
320,192,28133,1,0,0:0:0:0:
192,192,28171,1,0,0:0:0:0:
64,192,28208,1,0,0:0:0:0:
192,192,28246,1,0,0:0:0:0:
448,192,28546,1,0,0:0:0:0:
64,192,28546,1,0,0:0:0:0:
448,192,28696,1,0,0:0:0:0:
64,192,28696,1,0,0:0:0:0:
64,192,29596,1,0,0:0:0:0:
192,192,29746,1,0,0:0:0:0:
320,192,29896,1,0,0:0:0:0:
192,192,29896,1,0,0:0:0:0:
64,192,30196,1,0,0:0:0:0:
320,192,30196,1,0,0:0:0:0:
64,192,30496,1,0,0:0:0:0:
192,192,30496,1,0,0:0:0:0:
320,192,30533,1,0,0:0:0:0:
448,192,30571,1,0,0:0:0:0:
320,192,30608,1,0,0:0:0:0:
192,192,30646,1,0,0:0:0:0:
192,192,30946,1,0,0:0:0:0:
320,192,30946,1,0,0:0:0:0:
448,192,30946,1,0,0:0:0:0:
448,192,31096,1,0,0:0:0:0:
192,192,31096,1,0,0:0:0:0:
320,192,31096,1,0,0:0:0:0:
64,192,31769,1,0,0:0:0:0:
320,192,31813,1,0,0:0:0:0:
64,192,31858,1,0,0:0:0:0:
192,192,31880,1,0,0:0:0:0:
320,192,31902,1,0,0:0:0:0:
448,192,31925,1,0,0:0:0:0:
192,192,32126,1,0,0:0:0:0:
320,192,32126,1,0,0:0:0:0:
192,192,32304,1,0,0:0:0:0:
448,192,32304,1,0,0:0:0:0:
448,192,32483,1,0,0:0:0:0:
320,192,32483,1,0,0:0:0:0:
64,192,32483,1,0,0:0:0:0:
448,192,32883,1,0,0:0:0:0:
320,192,32883,1,0,0:0:0:0:
192,192,32883,1,0,0:0:0:0:
64,192,32883,1,0,0:0:0:0:
320,192,33296,1,0,0:0:0:0:
192,192,33296,1,0,0:0:0:0:
64,192,33350,1,0,0:0:0:0:
192,192,33405,1,0,0:0:0:0:
320,192,33432,1,0,0:0:0:0:
448,192,33460,1,0,0:0:0:0:
320,192,33952,1,0,0:0:0:0:
64,192,33952,1,0,0:0:0:0:
192,192,33952,1,0,0:0:0:0:
320,192,34171,1,0,0:0:0:0:
64,192,34171,1,0,0:0:0:0:
448,192,34171,1,0,0:0:0:0:
192,192,34172,1,0,0:0:0:0:
64,192,36198,128,0,38767:0:0:0:0:
320,192,36238,128,0,38767:0:0:0:0:
192,192,36278,128,0,38767:0:0:0:0:
448,192,36318,128,0,38698:0:0:0:0:
448,192,38767,1,0,0:0:0:0:
320,192,38967,1,0,0:0:0:0:
192,192,39136,1,0,0:0:0:0:
320,192,39278,1,0,0:0:0:0:
192,192,39425,1,0,0:0:0:0:
64,192,39554,1,0,0:0:0:0:
448,192,39683,1,0,0:0:0:0:
320,192,39812,1,0,0:0:0:0:
192,192,39942,1,0,0:0:0:0:
320,192,40063,1,0,0:0:0:0:
192,192,40063,1,0,0:0:0:0:
64,192,40229,1,0,0:0:0:0:
192,192,40229,1,0,0:0:0:0:
320,192,40229,1,0,0:0:0:0:
448,192,40646,1,0,0:0:0:0:
64,192,40646,1,0,0:0:0:0:
192,192,40646,1,0,0:0:0:0:
64,192,41167,1,0,0:0:0:0:
448,192,41167,1,0,0:0:0:0:
192,192,41214,1,0,0:0:0:0:
320,192,41262,1,0,0:0:0:0:
192,192,41357,1,0,0:0:0:0:
64,192,41452,1,0,0:0:0:0:
192,192,41547,1,0,0:0:0:0:
320,192,41643,1,0,0:0:0:0:
448,192,41738,1,0,0:0:0:0:
192,192,41738,1,0,0:0:0:0:
320,192,41833,1,0,0:0:0:0:
192,192,41928,1,0,0:0:0:0:
64,192,42024,1,0,0:0:0:0:
192,192,42119,1,0,0:0:0:0:
320,192,42214,1,0,0:0:0:0:
448,192,42309,1,0,0:0:0:0:
64,192,42309,1,0,0:0:0:0:
320,192,42405,1,0,0:0:0:0:
192,192,42500,1,0,0:0:0:0:
64,192,42595,1,0,0:0:0:0:
192,192,42690,1,0,0:0:0:0:
320,192,42786,1,0,0:0:0:0:
448,192,42881,1,0,0:0:0:0:
192,192,42881,1,0,0:0:0:0:
320,192,42976,1,0,0:0:0:0:
192,192,43071,1,0,0:0:0:0:
64,192,43167,1,0,0:0:0:0:
192,192,43262,1,0,0:0:0:0:
320,192,43357,1,0,0:0:0:0:
64,192,43452,1,0,0:0:0:0:
448,192,43452,1,0,0:0:0:0:
192,192,43547,1,0,0:0:0:0:
320,192,43643,1,0,0:0:0:0:
448,192,43738,1,0,0:0:0:0:
320,192,43833,1,0,0:0:0:0:
192,192,43928,1,0,0:0:0:0:
64,192,44024,1,0,0:0:0:0:
320,192,44024,1,0,0:0:0:0:
192,192,44119,1,0,0:0:0:0:
320,192,44214,1,0,0:0:0:0:
448,192,44309,1,0,0:0:0:0:
320,192,44405,1,0,0:0:0:0:
192,192,44500,1,0,0:0:0:0:
64,192,44582,1,0,0:0:0:0:
448,192,44582,1,0,0:0:0:0:
192,192,44675,1,0,0:0:0:0:
320,192,44768,1,0,0:0:0:0:
448,192,44861,1,0,0:0:0:0:
320,192,44954,1,0,0:0:0:0:
192,192,45047,1,0,0:0:0:0:
64,192,45140,1,0,0:0:0:0:
320,192,45140,1,0,0:0:0:0:
192,192,45233,1,0,0:0:0:0:
320,192,45326,1,0,0:0:0:0:
448,192,45419,1,0,0:0:0:0:
320,192,45512,1,0,0:0:0:0:
192,192,45605,1,0,0:0:0:0:
64,192,45698,1,0,0:0:0:0:
448,192,45698,1,0,0:0:0:0:
192,192,45743,1,0,0:0:0:0:
320,192,45788,1,0,0:0:0:0:
192,192,45878,1,0,0:0:0:0:
64,192,45968,1,0,0:0:0:0:
192,192,46058,1,0,0:0:0:0:
320,192,46148,1,0,0:0:0:0:
448,192,46238,1,0,0:0:0:0:
192,192,46238,1,0,0:0:0:0:
320,192,46328,1,0,0:0:0:0:
192,192,46418,1,0,0:0:0:0:
64,192,46508,1,0,0:0:0:0:
192,192,46598,1,0,0:0:0:0:
320,192,46688,1,0,0:0:0:0:
64,192,46779,1,0,0:0:0:0:
448,192,46779,1,0,0:0:0:0:
320,192,46867,1,0,0:0:0:0:
192,192,46955,1,0,0:0:0:0:
64,192,47044,1,0,0:0:0:0:
192,192,47132,1,0,0:0:0:0:
320,192,47221,1,0,0:0:0:0:
448,192,47309,1,0,0:0:0:0:
192,192,47309,1,0,0:0:0:0:
320,192,47398,1,0,0:0:0:0:
192,192,47486,1,0,0:0:0:0:
64,192,47575,1,0,0:0:0:0:
192,192,47663,1,0,0:0:0:0:
320,192,47752,1,0,0:0:0:0:
64,192,47840,1,0,0:0:0:0:
448,192,47840,1,0,0:0:0:0:
192,192,47926,1,0,0:0:0:0:
320,192,48013,1,0,0:0:0:0:
448,192,48100,1,0,0:0:0:0:
320,192,48187,1,0,0:0:0:0:
192,192,48274,1,0,0:0:0:0:
320,192,48361,1,0,0:0:0:0:
64,192,48361,1,0,0:0:0:0:
192,192,48448,1,0,0:0:0:0:
320,192,48535,1,0,0:0:0:0:
448,192,48622,1,0,0:0:0:0:
320,192,48709,1,0,0:0:0:0:
192,192,48796,1,0,0:0:0:0:
64,192,48883,1,0,0:0:0:0:
448,192,48883,1,0,0:0:0:0:
192,192,48969,1,0,0:0:0:0:
320,192,49055,1,0,0:0:0:0:
448,192,49141,1,0,0:0:0:0:
320,192,49227,1,0,0:0:0:0:
192,192,49314,1,0,0:0:0:0:
320,192,49400,1,0,0:0:0:0:
64,192,49400,1,0,0:0:0:0:
192,192,49486,1,0,0:0:0:0:
320,192,49572,1,0,0:0:0:0:
448,192,49658,1,0,0:0:0:0:
320,192,49745,1,0,0:0:0:0:
192,192,49831,1,0,0:0:0:0:
64,192,49917,128,0,50045:0:0:0:0:
192,192,49917,128,0,50045:0:0:0:0:
320,192,49917,128,0,50045:0:0:0:0:
448,192,49917,128,0,50045:0:0:0:0:
64,192,50173,1,0,0:0:0:0:
192,192,50301,1,0,0:0:0:0:
64,192,50942,128,0,51070:0:0:0:0:
320,192,50942,128,0,51070:0:0:0:0:
448,192,50942,128,0,51070:0:0:0:0:
192,192,51199,1,0,0:0:0:0:
320,192,51327,1,0,0:0:0:0:
192,192,51455,1,0,0:0:0:0:
192,192,51711,128,0,51775:0:0:0:0:
320,192,51711,128,0,51775:0:0:0:0:
320,192,51840,128,0,51904:0:0:0:0:
448,192,51840,128,0,51904:0:0:0:0:
64,192,51968,128,0,52096:0:0:0:0:
448,192,51968,128,0,52096:0:0:0:0:
192,192,52096,1,0,0:0:0:0:
320,192,52224,1,0,0:0:0:0:
448,192,52352,1,0,0:0:0:0:
64,192,52481,128,0,52609:0:0:0:0:
320,192,52481,128,0,52609:0:0:0:0:
192,192,52609,1,0,0:0:0:0:
320,192,52737,1,0,0:0:0:0:
192,192,52865,1,0,0:0:0:0:
192,192,52993,128,0,53122:0:0:0:0:
448,192,52993,128,0,53122:0:0:0:0:
320,192,52993,128,0,53122:0:0:0:0:
64,192,53122,1,0,0:0:0:0:
320,192,53250,1,0,0:0:0:0:
192,192,53378,1,0,0:0:0:0:
192,192,53506,128,0,53634:0:0:0:0:
320,192,53506,128,0,53634:0:0:0:0:
448,192,53506,128,0,53634:0:0:0:0:
64,192,53634,1,0,0:0:0:0:
320,192,53763,1,0,0:0:0:0:
192,192,53891,1,0,0:0:0:0:
320,192,54019,128,0,54147:0:0:0:0:
192,192,54019,128,0,54147:0:0:0:0:
64,192,54147,1,0,0:0:0:0:
448,192,54275,1,0,0:0:0:0:
64,192,54404,1,0,0:0:0:0:
192,192,54532,128,0,54660:0:0:0:0:
320,192,54532,128,0,54660:0:0:0:0:
448,192,54660,1,0,0:0:0:0:
320,192,54788,1,0,0:0:0:0:
64,192,55045,128,0,55173:0:0:0:0:
192,192,55045,128,0,55173:0:0:0:0:
448,192,55045,128,0,55173:0:0:0:0:
320,192,55173,1,0,0:0:0:0:
192,192,55301,1,0,0:0:0:0:
320,192,55429,1,0,0:0:0:0:
448,192,55558,1,0,0:0:0:0:
320,192,55686,1,0,0:0:0:0:
64,192,55814,128,0,55878:0:0:0:0:
192,192,55814,128,0,55878:0:0:0:0:
192,192,55942,128,0,56006:0:0:0:0:
320,192,55942,128,0,56006:0:0:0:0:
320,192,56070,128,0,56134:0:0:0:0:
448,192,56070,128,0,56134:0:0:0:0:
64,192,56199,1,0,0:0:0:0:
192,192,56327,1,0,0:0:0:0:
448,192,56455,1,0,0:0:0:0:
64,192,56583,128,0,56711:0:0:0:0:
320,192,56583,128,0,56711:0:0:0:0:
448,192,56711,1,0,0:0:0:0:
192,192,56840,1,0,0:0:0:0:
64,192,56840,1,0,0:0:0:0:
448,192,56840,1,0,0:0:0:0:
192,192,56968,1,0,0:0:0:0:
320,192,56968,1,0,0:0:0:0:
448,192,56968,1,0,0:0:0:0:
320,192,57096,128,0,57160:0:0:0:0:
192,192,57096,128,0,57160:0:0:0:0:
64,192,57096,128,0,57160:0:0:0:0:
448,192,57224,1,0,0:0:0:0:
320,192,57352,1,0,0:0:0:0:
192,192,57481,1,0,0:0:0:0:
320,192,57609,128,0,57737:0:0:0:0:
64,192,57609,128,0,57737:0:0:0:0:
448,192,57609,128,0,57737:0:0:0:0:
64,192,58122,128,0,58250:0:0:0:0:
448,192,58122,128,0,58250:0:0:0:0:
192,192,58250,1,0,0:0:0:0:
192,192,58378,1,0,0:0:0:0:
320,192,58506,1,0,0:0:0:0:
320,192,58634,1,0,0:0:0:0:
64,192,58763,1,0,0:0:0:0:
64,192,58891,1,0,0:0:0:0:
192,192,59147,128,0,59275:0:0:0:0:
320,192,59147,128,0,59275:0:0:0:0:
448,192,59147,128,0,59275:0:0:0:0:
64,192,59275,1,0,0:0:0:0:
64,192,59404,1,0,0:0:0:0:
320,192,59532,1,0,0:0:0:0:
320,192,59660,1,0,0:0:0:0:
448,192,59788,1,0,0:0:0:0:
192,192,59916,128,0,60045:0:0:0:0:
320,192,59916,128,0,60045:0:0:0:0:
64,192,60045,1,0,0:0:0:0:
192,192,60173,128,0,60301:0:0:0:0:
320,192,60173,128,0,60301:0:0:0:0:
448,192,60301,1,0,0:0:0:0:
192,192,60429,1,0,0:0:0:0:
192,192,60558,1,0,0:0:0:0:
320,192,60686,128,0,60814:0:0:0:0:
64,192,60686,128,0,60814:0:0:0:0:
448,192,60814,1,0,0:0:0:0:
448,192,60942,1,0,0:0:0:0:
320,192,61070,1,0,0:0:0:0:
64,192,61199,128,0,61327:0:0:0:0:
192,192,61199,128,0,61327:0:0:0:0:
448,192,61199,128,0,61327:0:0:0:0:
320,192,61327,1,0,0:0:0:0:
320,192,61455,1,0,0:0:0:0:
192,192,61583,1,0,0:0:0:0:
448,192,61711,128,0,61840:0:0:0:0:
192,192,61711,128,0,61840:0:0:0:0:
64,192,61711,128,0,61840:0:0:0:0:
320,192,61840,1,0,0:0:0:0:
320,192,61968,1,0,0:0:0:0:
192,192,62096,1,0,0:0:0:0:
320,192,62224,128,0,62352:0:0:0:0:
448,192,62224,128,0,62352:0:0:0:0:
64,192,62352,1,0,0:0:0:0:
64,192,62481,1,0,0:0:0:0:
192,192,62609,1,0,0:0:0:0:
320,192,62737,128,0,62865:0:0:0:0:
448,192,62737,128,0,62865:0:0:0:0:
192,192,62993,1,0,0:0:0:0:
320,192,63250,128,0,63378:0:0:0:0:
448,192,63250,128,0,63378:0:0:0:0:
64,192,63250,128,0,63378:0:0:0:0:
192,192,63506,1,0,0:0:0:0:
192,192,63634,1,0,0:0:0:0:
320,192,63763,1,0,0:0:0:0:
448,192,63891,1,0,0:0:0:0:
320,192,63955,1,0,0:0:0:0:
192,192,64019,128,0,64147:0:0:0:0:
448,192,64019,128,0,64147:0:0:0:0:
64,192,64147,1,0,0:0:0:0:
320,192,64275,128,0,64404:0:0:0:0:
192,192,64275,128,0,64404:0:0:0:0:
448,192,64404,1,0,0:0:0:0:
64,192,64532,1,0,0:0:0:0:
64,192,64660,1,0,0:0:0:0:
320,192,64788,128,0,64916:0:0:0:0:
448,192,64788,128,0,64916:0:0:0:0:
192,192,64916,1,0,0:0:0:0:
320,192,65045,128,0,65173:0:0:0:0:
192,192,65045,128,0,65173:0:0:0:0:
448,192,65173,1,0,0:0:0:0:
320,192,65301,128,0,65429:0:0:0:0:
192,192,65301,128,0,65429:0:0:0:0:
64,192,65301,128,0,65429:0:0:0:0:
448,192,65429,1,0,0:0:0:0:
448,192,65558,1,0,0:0:0:0:
320,192,65686,1,0,0:0:0:0:
320,192,65814,1,0,0:0:0:0:
192,192,65942,1,0,0:0:0:0:
192,192,66070,1,0,0:0:0:0:
64,192,66199,1,0,0:0:0:0:
64,192,66327,1,0,0:0:0:0:
192,192,66327,1,0,0:0:0:0:
320,192,66327,1,0,0:0:0:0:
448,192,66455,1,0,0:0:0:0:
192,192,66455,1,0,0:0:0:0:
64,192,66455,1,0,0:0:0:0:
64,192,66711,1,0,0:0:0:0:
192,192,66711,1,0,0:0:0:0:
320,192,66711,1,0,0:0:0:0:
448,192,66840,1,0,0:0:0:0:
64,192,66840,1,0,0:0:0:0:
192,192,66840,1,0,0:0:0:0:
192,192,67096,1,0,0:0:0:0:
64,192,67096,1,0,0:0:0:0:
320,192,67096,1,0,0:0:0:0:
192,192,67224,1,0,0:0:0:0:
64,192,67224,1,0,0:0:0:0:
448,192,67224,1,0,0:0:0:0:
64,192,67352,1,0,0:0:0:0:
192,192,67352,1,0,0:0:0:0:
448,192,67352,1,0,0:0:0:0:
320,192,67352,1,0,0:0:0:0:
320,192,67438,1,0,0:0:0:0:
192,192,67523,1,0,0:0:0:0:
320,192,67609,1,0,0:0:0:0:
448,192,67694,1,0,0:0:0:0:
64,192,67694,1,0,0:0:0:0:
192,192,67780,1,0,0:0:0:0:
320,192,67865,1,0,0:0:0:0:
192,192,67951,1,0,0:0:0:0:
64,192,68036,1,0,0:0:0:0:
448,192,68036,1,0,0:0:0:0:
320,192,68122,1,0,0:0:0:0:
192,192,68207,1,0,0:0:0:0:
64,192,68293,1,0,0:0:0:0:
192,192,68378,1,0,0:0:0:0:
320,192,68378,1,0,0:0:0:0:
448,192,68378,1,0,0:0:0:0:
448,192,68506,1,0,0:0:0:0:
320,192,68506,1,0,0:0:0:0:
64,192,68506,1,0,0:0:0:0:
192,192,68763,1,0,0:0:0:0:
320,192,68763,1,0,0:0:0:0:
448,192,68763,1,0,0:0:0:0:
320,192,68891,1,0,0:0:0:0:
448,192,68891,1,0,0:0:0:0:
64,192,68891,1,0,0:0:0:0:
192,192,69147,1,0,0:0:0:0:
448,192,69147,1,0,0:0:0:0:
320,192,69147,1,0,0:0:0:0:
64,192,69275,1,0,0:0:0:0:
448,192,69275,1,0,0:0:0:0:
320,192,69275,1,0,0:0:0:0:
64,192,69404,1,0,0:0:0:0:
192,192,69404,1,0,0:0:0:0:
448,192,69404,1,0,0:0:0:0:
320,192,69404,1,0,0:0:0:0:
192,192,69489,1,0,0:0:0:0:
320,192,69575,1,0,0:0:0:0:
192,192,69660,1,0,0:0:0:0:
64,192,69746,1,0,0:0:0:0:
448,192,69746,1,0,0:0:0:0:
320,192,69831,1,0,0:0:0:0:
192,192,69916,1,0,0:0:0:0:
320,192,70002,1,0,0:0:0:0:
448,192,70087,1,0,0:0:0:0:
64,192,70087,1,0,0:0:0:0:
192,192,70173,1,0,0:0:0:0:
320,192,70237,1,0,0:0:0:0:
192,192,70301,1,0,0:0:0:0:
320,192,70365,1,0,0:0:0:0:
448,192,70429,1,0,0:0:0:0:
192,192,70429,1,0,0:0:0:0:
64,192,70429,1,0,0:0:0:0:
192,192,70558,1,0,0:0:0:0:
320,192,70558,1,0,0:0:0:0:
448,192,70558,1,0,0:0:0:0:
448,192,70814,1,0,0:0:0:0:
192,192,70814,1,0,0:0:0:0:
64,192,70814,1,0,0:0:0:0:
192,192,70942,1,0,0:0:0:0:
320,192,70942,1,0,0:0:0:0:
448,192,70942,1,0,0:0:0:0:
448,192,71199,1,0,0:0:0:0:
192,192,71199,1,0,0:0:0:0:
64,192,71199,1,0,0:0:0:0:
192,192,71327,1,0,0:0:0:0:
448,192,71327,1,0,0:0:0:0:
320,192,71327,1,0,0:0:0:0:
448,192,71455,1,0,0:0:0:0:
320,192,71455,1,0,0:0:0:0:
64,192,71455,1,0,0:0:0:0:
192,192,71455,1,0,0:0:0:0:
448,192,71540,1,0,0:0:0:0:
192,192,71626,1,0,0:0:0:0:
64,192,71711,1,0,0:0:0:0:
192,192,71797,1,0,0:0:0:0:
320,192,71797,1,0,0:0:0:0:
448,192,71882,1,0,0:0:0:0:
64,192,71968,1,0,0:0:0:0:
448,192,72053,1,0,0:0:0:0:
192,192,72139,1,0,0:0:0:0:
320,192,72139,1,0,0:0:0:0:
64,192,72224,1,0,0:0:0:0:
192,192,72310,1,0,0:0:0:0:
448,192,72395,1,0,0:0:0:0:
64,192,72481,1,0,0:0:0:0:
320,192,72481,1,0,0:0:0:0:
448,192,72481,1,0,0:0:0:0:
320,192,72609,1,0,0:0:0:0:
192,192,72609,1,0,0:0:0:0:
64,192,72609,1,0,0:0:0:0:
64,192,72865,1,0,0:0:0:0:
320,192,72865,1,0,0:0:0:0:
448,192,72865,1,0,0:0:0:0:
320,192,72993,1,0,0:0:0:0:
192,192,72993,1,0,0:0:0:0:
64,192,72993,1,0,0:0:0:0:
64,192,73250,1,0,0:0:0:0:
448,192,73250,1,0,0:0:0:0:
320,192,73250,1,0,0:0:0:0:
192,192,73378,1,0,0:0:0:0:
64,192,73378,1,0,0:0:0:0:
448,192,73378,1,0,0:0:0:0:
64,192,73634,1,0,0:0:0:0:
320,192,73634,1,0,0:0:0:0:
448,192,73634,1,0,0:0:0:0:
448,192,73763,1,0,0:0:0:0:
192,192,73763,1,0,0:0:0:0:
64,192,73763,1,0,0:0:0:0:
64,192,74019,1,0,0:0:0:0:
448,192,74019,1,0,0:0:0:0:
320,192,74019,1,0,0:0:0:0:
192,192,74147,1,0,0:0:0:0:
320,192,74147,1,0,0:0:0:0:
448,192,74147,1,0,0:0:0:0:
320,192,74211,1,0,0:0:0:0:
448,192,74211,1,0,0:0:0:0:
64,192,74340,1,0,0:0:0:0:
448,192,74340,1,0,0:0:0:0:
192,192,74404,1,0,0:0:0:0:
64,192,74404,1,0,0:0:0:0:
64,192,74532,1,0,0:0:0:0:
448,192,74532,1,0,0:0:0:0:
320,192,74532,1,0,0:0:0:0:
192,192,74532,1,0,0:0:0:0:
192,192,74660,1,0,0:0:0:0:
448,192,74660,1,0,0:0:0:0:
64,192,74788,1,0,0:0:0:0:
448,192,74788,1,0,0:0:0:0:
320,192,74788,1,0,0:0:0:0:
192,192,74916,1,0,0:0:0:0:
320,192,74916,1,0,0:0:0:0:
64,192,75045,1,0,0:0:0:0:
192,192,75045,1,0,0:0:0:0:
448,192,75045,1,0,0:0:0:0:
448,192,75173,1,0,0:0:0:0:
320,192,75173,1,0,0:0:0:0:
320,192,75301,1,0,0:0:0:0:
192,192,75301,1,0,0:0:0:0:
64,192,75301,1,0,0:0:0:0:
448,192,75429,1,0,0:0:0:0:
64,192,75429,1,0,0:0:0:0:
192,192,75558,1,0,0:0:0:0:
320,192,75558,1,0,0:0:0:0:
448,192,75558,1,0,0:0:0:0:
320,192,75686,1,0,0:0:0:0:
64,192,75686,1,0,0:0:0:0:
448,192,75814,1,0,0:0:0:0:
192,192,75814,1,0,0:0:0:0:
64,192,75814,1,0,0:0:0:0:
192,192,75942,1,0,0:0:0:0:
320,192,75942,1,0,0:0:0:0:
64,192,76070,1,0,0:0:0:0:
320,192,76070,1,0,0:0:0:0:
448,192,76070,1,0,0:0:0:0:
192,192,76134,1,0,0:0:0:0:
448,192,76199,1,0,0:0:0:0:
64,192,76199,1,0,0:0:0:0:
320,192,76327,1,0,0:0:0:0:
64,192,76327,1,0,0:0:0:0:
192,192,76327,1,0,0:0:0:0:
320,192,76455,1,0,0:0:0:0:
448,192,76455,1,0,0:0:0:0:
448,192,76583,1,0,0:0:0:0:
64,192,76583,1,0,0:0:0:0:
192,192,76583,1,0,0:0:0:0:
320,192,76711,1,0,0:0:0:0:
192,192,76711,1,0,0:0:0:0:
64,192,76775,1,0,0:0:0:0:
192,192,76840,1,0,0:0:0:0:
448,192,76840,1,0,0:0:0:0:
320,192,76840,1,0,0:0:0:0:
64,192,76904,1,0,0:0:0:0:
192,192,76968,1,0,0:0:0:0:
448,192,76968,1,0,0:0:0:0:
448,192,77096,1,0,0:0:0:0:
320,192,77096,1,0,0:0:0:0:
64,192,77096,1,0,0:0:0:0:
320,192,77224,1,0,0:0:0:0:
192,192,77224,1,0,0:0:0:0:
448,192,77288,1,0,0:0:0:0:
64,192,77352,1,0,0:0:0:0:
192,192,77352,1,0,0:0:0:0:
320,192,77352,1,0,0:0:0:0:
448,192,77416,1,0,0:0:0:0:
320,192,77481,1,0,0:0:0:0:
64,192,77481,1,0,0:0:0:0:
448,192,77609,1,0,0:0:0:0:
192,192,77609,1,0,0:0:0:0:
64,192,77609,1,0,0:0:0:0:
64,192,77737,1,0,0:0:0:0:
448,192,77737,1,0,0:0:0:0:
320,192,77865,1,0,0:0:0:0:
192,192,77865,1,0,0:0:0:0:
448,192,77865,1,0,0:0:0:0:
192,192,77993,1,0,0:0:0:0:
320,192,77993,1,0,0:0:0:0:
448,192,78122,1,0,0:0:0:0:
320,192,78122,1,0,0:0:0:0:
64,192,78122,1,0,0:0:0:0:
192,192,78186,1,0,0:0:0:0:
320,192,78250,1,0,0:0:0:0:
64,192,78250,1,0,0:0:0:0:
448,192,78314,1,0,0:0:0:0:
64,192,78378,1,0,0:0:0:0:
192,192,78378,1,0,0:0:0:0:
320,192,78378,1,0,0:0:0:0:
448,192,78442,1,0,0:0:0:0:
192,192,78506,1,0,0:0:0:0:
320,192,78506,1,0,0:0:0:0:
64,192,78570,1,0,0:0:0:0:
320,192,78634,1,0,0:0:0:0:
448,192,78634,1,0,0:0:0:0:
192,192,78699,1,0,0:0:0:0:
64,192,78699,1,0,0:0:0:0:
320,192,78763,1,0,0:0:0:0:
448,192,78763,1,0,0:0:0:0:
192,192,78827,1,0,0:0:0:0:
64,192,78827,1,0,0:0:0:0:
320,192,78891,1,0,0:0:0:0:
448,192,78891,1,0,0:0:0:0:
64,192,78955,1,0,0:0:0:0:
192,192,78955,1,0,0:0:0:0:
320,192,79019,1,0,0:0:0:0:
448,192,79019,1,0,0:0:0:0:
192,192,79083,1,0,0:0:0:0:
64,192,79083,1,0,0:0:0:0:
320,192,79147,1,0,0:0:0:0:
448,192,79147,1,0,0:0:0:0:
192,192,79211,1,0,0:0:0:0:
64,192,79211,1,0,0:0:0:0:
320,192,79275,1,0,0:0:0:0:
448,192,79275,1,0,0:0:0:0:
192,192,79340,1,0,0:0:0:0:
64,192,79340,1,0,0:0:0:0:
448,192,79404,1,0,0:0:0:0:
320,192,79404,1,0,0:0:0:0:
192,192,79532,1,0,0:0:0:0:
64,192,79660,1,0,0:0:0:0:
448,192,79660,1,0,0:0:0:0:
192,192,79724,1,0,0:0:0:0:
320,192,79724,1,0,0:0:0:0:
64,192,79788,1,0,0:0:0:0:
448,192,79788,1,0,0:0:0:0:
320,192,79852,1,0,0:0:0:0:
192,192,79852,1,0,0:0:0:0:
64,192,79916,1,0,0:0:0:0:
448,192,79916,1,0,0:0:0:0:
320,192,79981,1,0,0:0:0:0:
192,192,79981,1,0,0:0:0:0:
64,192,80045,1,0,0:0:0:0:
448,192,80045,1,0,0:0:0:0:
320,192,80109,1,0,0:0:0:0:
192,192,80109,1,0,0:0:0:0:
64,192,80173,1,0,0:0:0:0:
448,192,80173,1,0,0:0:0:0:
320,192,80237,1,0,0:0:0:0:
192,192,80237,1,0,0:0:0:0:
64,192,80301,1,0,0:0:0:0:
448,192,80301,128,0,80317:0:0:0:0:
320,192,80365,1,0,0:0:0:0:
192,192,80365,1,0,0:0:0:0:
448,192,80429,1,0,0:0:0:0:
64,192,80429,128,0,80445:0:0:0:0:
320,192,80525,128,0,80541:0:0:0:0:
192,192,80622,128,0,80638:0:0:0:0:
320,192,80686,1,0,0:0:0:0:
448,192,80686,1,0,0:0:0:0:
192,192,80750,1,0,0:0:0:0:
64,192,80750,1,0,0:0:0:0:
320,192,80814,1,0,0:0:0:0:
448,192,80814,1,0,0:0:0:0:
192,192,80878,1,0,0:0:0:0:
64,192,80878,1,0,0:0:0:0:
320,192,80942,1,0,0:0:0:0:
448,192,80942,1,0,0:0:0:0:
320,192,81199,1,0,0:0:0:0:
64,192,81199,1,0,0:0:0:0:
192,192,81263,1,0,0:0:0:0:
448,192,81263,1,0,0:0:0:0:
320,192,81327,1,0,0:0:0:0:
64,192,81327,1,0,0:0:0:0:
192,192,81391,1,0,0:0:0:0:
448,192,81391,1,0,0:0:0:0:
320,192,81455,1,0,0:0:0:0:
64,192,81455,1,0,0:0:0:0:
192,192,81711,1,0,0:0:0:0:
320,192,81711,1,0,0:0:0:0:
448,192,81711,1,0,0:0:0:0:
64,192,81840,1,0,0:0:0:0:
320,192,81840,1,0,0:0:0:0:
448,192,81904,1,0,0:0:0:0:
192,192,81904,1,0,0:0:0:0:
320,192,82032,1,0,0:0:0:0:
448,192,82032,1,0,0:0:0:0:
192,192,82096,1,0,0:0:0:0:
64,192,82096,1,0,0:0:0:0:
320,192,82224,1,0,0:0:0:0:
448,192,82224,1,0,0:0:0:0:
64,192,82224,1,0,0:0:0:0:
320,192,82352,1,0,0:0:0:0:
192,192,82352,1,0,0:0:0:0:
448,192,82416,1,0,0:0:0:0:
64,192,82416,1,0,0:0:0:0:
192,192,82545,1,0,0:0:0:0:
448,192,82545,1,0,0:0:0:0:
320,192,82609,1,0,0:0:0:0:
64,192,82609,1,0,0:0:0:0:
64,192,82737,1,0,0:0:0:0:
192,192,82737,1,0,0:0:0:0:
320,192,82737,1,0,0:0:0:0:
448,192,82737,1,0,0:0:0:0:
448,192,82822,1,0,0:0:0:0:
320,192,82908,1,0,0:0:0:0:
64,192,82993,1,0,0:0:0:0:
192,192,83079,1,0,0:0:0:0:
320,192,83164,1,0,0:0:0:0:
320,192,83250,1,0,0:0:0:0:
192,192,83335,1,0,0:0:0:0:
64,192,83421,1,0,0:0:0:0:
192,192,83506,1,0,0:0:0:0:
320,192,83592,1,0,0:0:0:0:
448,192,83677,1,0,0:0:0:0:
448,192,83763,1,0,0:0:0:0:
192,192,83848,1,0,0:0:0:0:
320,192,83934,1,0,0:0:0:0:
64,192,84019,1,0,0:0:0:0:
192,192,84105,1,0,0:0:0:0:
320,192,84190,1,0,0:0:0:0:
448,192,84275,1,0,0:0:0:0:
64,192,84275,128,0,84788:0:0:0:0:
320,192,84361,1,0,0:0:0:0:
192,192,84446,1,0,0:0:0:0:
320,192,84532,1,0,0:0:0:0:
448,192,84617,1,0,0:0:0:0:
320,192,84703,1,0,0:0:0:0:
192,192,84788,1,0,0:0:0:0:
320,192,84788,1,0,0:0:0:0:
448,192,84788,1,0,0:0:0:0:
64,192,84852,1,0,0:0:0:0:
448,192,84916,1,0,0:0:0:0:
192,192,84949,1,0,0:0:0:0:
320,192,84981,1,0,0:0:0:0:
64,192,85013,1,0,0:0:0:0:
448,192,85045,1,0,0:0:0:0:
192,192,85045,1,0,0:0:0:0:
320,192,85109,1,0,0:0:0:0:
448,192,85173,1,0,0:0:0:0:
64,192,85173,1,0,0:0:0:0:
192,192,85237,1,0,0:0:0:0:
64,192,85301,1,0,0:0:0:0:
320,192,85301,1,0,0:0:0:0:
192,192,85365,1,0,0:0:0:0:
320,192,85429,1,0,0:0:0:0:
448,192,85429,1,0,0:0:0:0:
64,192,85493,1,0,0:0:0:0:
192,192,85558,1,0,0:0:0:0:
320,192,85558,1,0,0:0:0:0:
448,192,85622,1,0,0:0:0:0:
320,192,85686,1,0,0:0:0:0:
64,192,85686,1,0,0:0:0:0:
192,192,85750,1,0,0:0:0:0:
64,192,85814,1,0,0:0:0:0:
448,192,85814,1,0,0:0:0:0:
320,192,85878,1,0,0:0:0:0:
192,192,85942,1,0,0:0:0:0:
64,192,85942,1,0,0:0:0:0:
320,192,86006,1,0,0:0:0:0:
448,192,86070,1,0,0:0:0:0:
192,192,86070,1,0,0:0:0:0:
64,192,86134,1,0,0:0:0:0:
320,192,86199,1,0,0:0:0:0:
448,192,86199,1,0,0:0:0:0:
192,192,86263,1,0,0:0:0:0:
448,192,86327,1,0,0:0:0:0:
64,192,86327,1,0,0:0:0:0:
320,192,86391,1,0,0:0:0:0:
192,192,86455,1,0,0:0:0:0:
448,192,86455,1,0,0:0:0:0:
64,192,86519,1,0,0:0:0:0:
320,192,86583,1,0,0:0:0:0:
192,192,86583,1,0,0:0:0:0:
448,192,86647,1,0,0:0:0:0:
64,192,86647,1,0,0:0:0:0:
320,192,86711,1,0,0:0:0:0:
192,192,86711,1,0,0:0:0:0:
64,192,86775,1,0,0:0:0:0:
448,192,86775,1,0,0:0:0:0:
192,192,86840,1,0,0:0:0:0:
320,192,86840,1,0,0:0:0:0:
448,192,86904,1,0,0:0:0:0:
320,192,86968,1,0,0:0:0:0:
64,192,86968,1,0,0:0:0:0:
192,192,87032,1,0,0:0:0:0:
64,192,87096,1,0,0:0:0:0:
448,192,87096,1,0,0:0:0:0:
320,192,87160,1,0,0:0:0:0:
192,192,87224,1,0,0:0:0:0:
448,192,87224,1,0,0:0:0:0:
320,192,87288,1,0,0:0:0:0:
192,192,87352,1,0,0:0:0:0:
64,192,87352,1,0,0:0:0:0:
448,192,87416,1,0,0:0:0:0:
320,192,87481,1,0,0:0:0:0:
192,192,87481,1,0,0:0:0:0:
448,192,87545,1,0,0:0:0:0:
192,192,87609,1,0,0:0:0:0:
64,192,87609,1,0,0:0:0:0:
320,192,87673,1,0,0:0:0:0:
64,192,87737,1,0,0:0:0:0:
192,192,87737,1,0,0:0:0:0:
320,192,87801,1,0,0:0:0:0:
448,192,87801,1,0,0:0:0:0:
64,192,87865,1,0,0:0:0:0:
448,192,87897,1,0,0:0:0:0:
192,192,87929,1,0,0:0:0:0:
320,192,87961,1,0,0:0:0:0:
448,192,87993,1,0,0:0:0:0:
64,192,87993,1,0,0:0:0:0:
192,192,88058,1,0,0:0:0:0:
320,192,88058,1,0,0:0:0:0:
448,192,88122,1,0,0:0:0:0:
64,192,88122,1,0,0:0:0:0:
192,192,88186,1,0,0:0:0:0:
320,192,88186,1,0,0:0:0:0:
448,192,88250,1,0,0:0:0:0:
64,192,88250,1,0,0:0:0:0:
320,192,88314,1,0,0:0:0:0:
192,192,88314,1,0,0:0:0:0:
448,192,88378,1,0,0:0:0:0:
64,192,88378,1,0,0:0:0:0:
192,192,88442,1,0,0:0:0:0:
320,192,88506,1,0,0:0:0:0:
448,192,88506,1,0,0:0:0:0:
192,192,88570,1,0,0:0:0:0:
64,192,88570,1,0,0:0:0:0:
320,192,88634,1,0,0:0:0:0:
448,192,88699,1,0,0:0:0:0:
64,192,88699,1,0,0:0:0:0:
192,192,88763,1,0,0:0:0:0:
320,192,88763,1,0,0:0:0:0:
448,192,88827,1,0,0:0:0:0:
64,192,88891,1,0,0:0:0:0:
192,192,88891,1,0,0:0:0:0:
320,192,88955,1,0,0:0:0:0:
448,192,89019,1,0,0:0:0:0:
192,192,89019,1,0,0:0:0:0:
64,192,89083,1,0,0:0:0:0:
192,192,89147,1,0,0:0:0:0:
320,192,89147,1,0,0:0:0:0:
448,192,89211,1,0,0:0:0:0:
320,192,89275,1,0,0:0:0:0:
192,192,89275,1,0,0:0:0:0:
64,192,89340,1,0,0:0:0:0:
320,192,89404,1,0,0:0:0:0:
448,192,89404,1,0,0:0:0:0:
192,192,89468,1,0,0:0:0:0:
320,192,89532,1,0,0:0:0:0:
64,192,89532,1,0,0:0:0:0:
448,192,89596,1,0,0:0:0:0:
320,192,89660,1,0,0:0:0:0:
192,192,89660,1,0,0:0:0:0:
64,192,89724,1,0,0:0:0:0:
192,192,89788,1,0,0:0:0:0:
320,192,89788,1,0,0:0:0:0:
64,192,89852,1,0,0:0:0:0:
448,192,89852,1,0,0:0:0:0:
192,192,89916,1,0,0:0:0:0:
320,192,89916,1,0,0:0:0:0:
448,192,89981,1,0,0:0:0:0:
64,192,89981,1,0,0:0:0:0:
192,192,90045,1,0,0:0:0:0:
320,192,90045,1,0,0:0:0:0:
448,192,90109,1,0,0:0:0:0:
64,192,90109,1,0,0:0:0:0:
320,192,90173,1,0,0:0:0:0:
192,192,90173,1,0,0:0:0:0:
448,192,90237,1,0,0:0:0:0:
320,192,90301,1,0,0:0:0:0:
64,192,90301,1,0,0:0:0:0:
192,192,90365,1,0,0:0:0:0:
64,192,90429,1,0,0:0:0:0:
448,192,90429,1,0,0:0:0:0:
192,192,90493,1,0,0:0:0:0:
320,192,90558,1,0,0:0:0:0:
448,192,90558,1,0,0:0:0:0:
64,192,90622,1,0,0:0:0:0:
192,192,90686,1,0,0:0:0:0:
64,192,90750,1,0,0:0:0:0:
320,192,90814,1,0,0:0:0:0:
192,192,90814,1,0,0:0:0:0:
448,192,90878,1,0,0:0:0:0:
320,192,90942,1,0,0:0:0:0:
64,192,90942,1,0,0:0:0:0:
192,192,91006,1,0,0:0:0:0:
64,192,91070,1,0,0:0:0:0:
448,192,91070,1,0,0:0:0:0:
192,192,91134,1,0,0:0:0:0:
320,192,91134,1,0,0:0:0:0:
448,192,91199,1,0,0:0:0:0:
64,192,91263,1,0,0:0:0:0:
192,192,91263,1,0,0:0:0:0:
320,192,91327,1,0,0:0:0:0:
448,192,91327,1,0,0:0:0:0:
192,192,91391,1,0,0:0:0:0:
64,192,91455,1,0,0:0:0:0:
320,192,91455,1,0,0:0:0:0:
192,192,91519,1,0,0:0:0:0:
448,192,91583,1,0,0:0:0:0:
320,192,91583,1,0,0:0:0:0:
64,192,91647,1,0,0:0:0:0:
192,192,91647,1,0,0:0:0:0:
448,192,91711,1,0,0:0:0:0:
320,192,91775,1,0,0:0:0:0:
192,192,91775,1,0,0:0:0:0:
64,192,91840,1,0,0:0:0:0:
448,192,91840,1,0,0:0:0:0:
192,192,91904,1,0,0:0:0:0:
320,192,91968,1,0,0:0:0:0:
448,192,91968,1,0,0:0:0:0:
192,192,92032,1,0,0:0:0:0:
64,192,92032,1,0,0:0:0:0:
320,192,92096,1,0,0:0:0:0:
448,192,92096,1,0,0:0:0:0:
192,192,92160,1,0,0:0:0:0:
64,192,92160,1,0,0:0:0:0:
320,192,92224,1,0,0:0:0:0:
448,192,92224,1,0,0:0:0:0:
320,192,92352,1,0,0:0:0:0:
448,192,92352,1,0,0:0:0:0:
192,192,92384,1,0,0:0:0:0:
64,192,92416,1,0,0:0:0:0:
320,192,92449,1,0,0:0:0:0:
192,192,92481,1,0,0:0:0:0:
64,192,92481,1,0,0:0:0:0:
192,192,92609,1,0,0:0:0:0:
320,192,92609,1,0,0:0:0:0:
448,192,92641,1,0,0:0:0:0:
64,192,92673,1,0,0:0:0:0:
192,192,92705,1,0,0:0:0:0:
320,192,92737,1,0,0:0:0:0:
448,192,92737,128,0,92993:0:0:0:0:
64,192,92801,1,0,0:0:0:0:
192,192,92865,1,0,0:0:0:0:
320,192,92929,1,0,0:0:0:0:
192,192,92993,1,0,0:0:0:0:
64,192,92993,1,0,0:0:0:0:
320,192,93058,1,0,0:0:0:0:
448,192,93122,1,0,0:0:0:0:
192,192,93122,1,0,0:0:0:0:
320,192,93186,1,0,0:0:0:0:
448,192,93250,1,0,0:0:0:0:
64,192,93250,1,0,0:0:0:0:
320,192,93314,1,0,0:0:0:0:
64,192,93378,1,0,0:0:0:0:
192,192,93378,1,0,0:0:0:0:
448,192,93442,1,0,0:0:0:0:
320,192,93506,1,0,0:0:0:0:
192,192,93506,1,0,0:0:0:0:
64,192,93570,1,0,0:0:0:0:
448,192,93634,1,0,0:0:0:0:
320,192,93634,1,0,0:0:0:0:
192,192,93699,1,0,0:0:0:0:
64,192,93731,1,0,0:0:0:0:
320,192,93763,1,0,0:0:0:0:
192,192,93795,1,0,0:0:0:0:
448,192,93827,1,0,0:0:0:0:
320,192,93859,1,0,0:0:0:0:
192,192,93891,1,0,0:0:0:0:
64,192,93923,1,0,0:0:0:0:
320,192,93955,1,0,0:0:0:0:
448,192,93955,1,0,0:0:0:0:
192,192,94019,1,0,0:0:0:0:
64,192,94019,1,0,0:0:0:0:
320,192,94083,1,0,0:0:0:0:
448,192,94147,1,0,0:0:0:0:
64,192,94147,1,0,0:0:0:0:
192,192,94211,1,0,0:0:0:0:
320,192,94275,1,0,0:0:0:0:
64,192,94275,1,0,0:0:0:0:
448,192,94340,1,0,0:0:0:0:
320,192,94404,1,0,0:0:0:0:
192,192,94404,1,0,0:0:0:0:
448,192,94468,1,0,0:0:0:0:
192,192,94532,1,0,0:0:0:0:
64,192,94532,1,0,0:0:0:0:
320,192,94596,1,0,0:0:0:0:
448,192,94660,1,0,0:0:0:0:
192,192,94660,1,0,0:0:0:0:
320,192,94724,1,0,0:0:0:0:
448,192,94788,1,0,0:0:0:0:
64,192,94788,1,0,0:0:0:0:
192,192,94852,1,0,0:0:0:0:
320,192,94916,1,0,0:0:0:0:
448,192,94916,1,0,0:0:0:0:
64,192,94981,1,0,0:0:0:0:
448,192,95045,1,0,0:0:0:0:
320,192,95077,1,0,0:0:0:0:
64,192,95109,1,0,0:0:0:0:
192,192,95141,1,0,0:0:0:0:
320,192,95173,1,0,0:0:0:0:
448,192,95173,1,0,0:0:0:0:
192,192,95237,1,0,0:0:0:0:
64,192,95301,1,0,0:0:0:0:
448,192,95301,1,0,0:0:0:0:
320,192,95365,1,0,0:0:0:0:
448,192,95429,1,0,0:0:0:0:
192,192,95429,1,0,0:0:0:0:
64,192,95493,1,0,0:0:0:0:
192,192,95558,1,0,0:0:0:0:
320,192,95558,1,0,0:0:0:0:
448,192,95622,1,0,0:0:0:0:
320,192,95686,1,0,0:0:0:0:
64,192,95686,1,0,0:0:0:0:
192,192,95750,1,0,0:0:0:0:
64,192,95814,1,0,0:0:0:0:
448,192,95814,1,0,0:0:0:0:
192,192,95878,1,0,0:0:0:0:
320,192,95942,1,0,0:0:0:0:
448,192,95942,1,0,0:0:0:0:
64,192,96006,1,0,0:0:0:0:
192,192,96070,1,0,0:0:0:0:
320,192,96070,1,0,0:0:0:0:
448,192,96134,1,0,0:0:0:0:
64,192,96199,1,0,0:0:0:0:
320,192,96231,1,0,0:0:0:0:
192,192,96263,1,0,0:0:0:0:
448,192,96295,1,0,0:0:0:0:
320,192,96327,1,0,0:0:0:0:
64,192,96327,1,0,0:0:0:0:
192,192,96391,1,0,0:0:0:0:
448,192,96455,1,0,0:0:0:0:
64,192,96455,1,0,0:0:0:0:
320,192,96519,1,0,0:0:0:0:
448,192,96583,1,0,0:0:0:0:
192,192,96583,1,0,0:0:0:0:
64,192,96647,1,0,0:0:0:0:
192,192,96711,1,0,0:0:0:0:
320,192,96711,1,0,0:0:0:0:
448,192,96775,1,0,0:0:0:0:
64,192,96840,1,0,0:0:0:0:
320,192,96840,1,0,0:0:0:0:
192,192,96904,1,0,0:0:0:0:
64,192,96968,1,0,0:0:0:0:
448,192,96968,1,0,0:0:0:0:
192,192,97032,1,0,0:0:0:0:
320,192,97096,1,0,0:0:0:0:
448,192,97096,1,0,0:0:0:0:
192,192,97160,1,0,0:0:0:0:
64,192,97160,1,0,0:0:0:0:
320,192,97224,1,0,0:0:0:0:
448,192,97224,1,0,0:0:0:0:
192,192,97288,1,0,0:0:0:0:
64,192,97288,1,0,0:0:0:0:
320,192,97352,1,0,0:0:0:0:
448,192,97352,1,0,0:0:0:0:
192,192,97416,1,0,0:0:0:0:
320,192,97481,1,0,0:0:0:0:
448,192,97481,1,0,0:0:0:0:
64,192,97545,1,0,0:0:0:0:
320,192,97609,1,0,0:0:0:0:
448,192,97609,1,0,0:0:0:0:
192,192,97673,1,0,0:0:0:0:
64,192,97673,1,0,0:0:0:0:
320,192,97737,1,0,0:0:0:0:
448,192,97737,1,0,0:0:0:0:
192,192,97801,1,0,0:0:0:0:
64,192,97801,1,0,0:0:0:0:
320,192,97865,1,0,0:0:0:0:
448,192,97865,1,0,0:0:0:0:
64,192,97865,1,0,0:0:0:0:
192,192,97993,1,0,0:0:0:0:
64,192,98122,1,0,0:0:0:0:
448,192,98122,1,0,0:0:0:0:
192,192,98186,1,0,0:0:0:0:
320,192,98186,1,0,0:0:0:0:
448,192,98250,1,0,0:0:0:0:
64,192,98250,1,0,0:0:0:0:
192,192,98314,1,0,0:0:0:0:
320,192,98314,1,0,0:0:0:0:
448,192,98378,1,0,0:0:0:0:
64,192,98378,1,0,0:0:0:0:
320,192,98442,1,0,0:0:0:0:
448,192,98506,1,0,0:0:0:0:
64,192,98506,1,0,0:0:0:0:
192,192,98570,1,0,0:0:0:0:
64,192,98634,1,0,0:0:0:0:
448,192,98634,1,0,0:0:0:0:
320,192,98699,1,0,0:0:0:0:
192,192,98699,1,0,0:0:0:0:
64,192,98763,1,0,0:0:0:0:
448,192,98763,1,0,0:0:0:0:
320,192,98827,1,0,0:0:0:0:
192,192,98827,1,0,0:0:0:0:
64,192,98891,1,0,0:0:0:0:
192,192,98891,1,0,0:0:0:0:
448,192,98891,1,0,0:0:0:0:
192,192,99019,1,0,0:0:0:0:
64,192,99019,1,0,0:0:0:0:
448,192,99019,1,0,0:0:0:0:
448,192,99147,1,0,0:0:0:0:
320,192,99147,1,0,0:0:0:0:
320,192,99275,1,0,0:0:0:0:
448,192,99275,1,0,0:0:0:0:
320,192,99340,1,0,0:0:0:0:
192,192,99340,1,0,0:0:0:0:
320,192,99468,1,0,0:0:0:0:
192,192,99468,1,0,0:0:0:0:
192,192,99532,1,0,0:0:0:0:
64,192,99532,1,0,0:0:0:0:
192,192,99660,1,0,0:0:0:0:
448,192,99660,1,0,0:0:0:0:
320,192,99660,1,0,0:0:0:0:
192,192,99788,1,0,0:0:0:0:
64,192,99788,1,0,0:0:0:0:
192,192,99852,1,0,0:0:0:0:
320,192,99852,1,0,0:0:0:0:
192,192,99981,1,0,0:0:0:0:
320,192,99981,1,0,0:0:0:0:
448,192,100045,1,0,0:0:0:0:
320,192,100045,1,0,0:0:0:0:
64,192,100173,128,0,100301:0:0:0:0:
448,192,100301,1,0,0:0:0:0:
320,192,100365,1,0,0:0:0:0:
192,192,100429,1,0,0:0:0:0:
448,192,100461,1,0,0:0:0:0:
64,192,100493,1,0,0:0:0:0:
320,192,100525,1,0,0:0:0:0:
192,192,100558,1,0,0:0:0:0:
64,192,100590,1,0,0:0:0:0:
320,192,100622,128,0,100686:0:0:0:0:
448,192,100686,128,0,100750:0:0:0:0:
64,192,100814,128,0,100942:0:0:0:0:
192,192,100942,128,0,101070:0:0:0:0:
64,192,101199,1,0,0:0:0:0:
320,192,101199,1,0,0:0:0:0:
448,192,101199,1,0,0:0:0:0:
192,192,101263,1,0,0:0:0:0:
448,192,101327,1,0,0:0:0:0:
64,192,101327,1,0,0:0:0:0:
320,192,101391,1,0,0:0:0:0:
448,192,101455,1,0,0:0:0:0:
192,192,101455,1,0,0:0:0:0:
64,192,101455,1,0,0:0:0:0:
320,192,101519,1,0,0:0:0:0:
192,192,101583,1,0,0:0:0:0:
448,192,101583,1,0,0:0:0:0:
64,192,101647,1,0,0:0:0:0:
192,192,101711,1,0,0:0:0:0:
320,192,101711,1,0,0:0:0:0:
448,192,101711,1,0,0:0:0:0:
64,192,101775,1,0,0:0:0:0:
320,192,101840,1,0,0:0:0:0:
448,192,101840,1,0,0:0:0:0:
192,192,101904,1,0,0:0:0:0:
448,192,101968,1,0,0:0:0:0:
320,192,101968,1,0,0:0:0:0:
64,192,101968,1,0,0:0:0:0:
192,192,102032,1,0,0:0:0:0:
320,192,102096,1,0,0:0:0:0:
64,192,102096,1,0,0:0:0:0:
448,192,102160,1,0,0:0:0:0:
64,192,102224,1,0,0:0:0:0:
320,192,102224,1,0,0:0:0:0:
192,192,102224,1,0,0:0:0:0:
448,192,102288,1,0,0:0:0:0:
192,192,102352,1,0,0:0:0:0:
320,192,102352,1,0,0:0:0:0:
64,192,102416,1,0,0:0:0:0:
192,192,102481,1,0,0:0:0:0:
448,192,102481,1,0,0:0:0:0:
320,192,102481,1,0,0:0:0:0:
64,192,102545,1,0,0:0:0:0:
320,192,102609,1,0,0:0:0:0:
448,192,102609,1,0,0:0:0:0:
192,192,102673,1,0,0:0:0:0:
448,192,102737,1,0,0:0:0:0:
320,192,102737,1,0,0:0:0:0:
64,192,102737,128,0,102769:0:0:0:0:
192,192,102801,128,0,102833:0:0:0:0:
64,192,102865,1,0,0:0:0:0:
448,192,102865,128,0,102897:0:0:0:0:
320,192,102929,128,0,102961:0:0:0:0:
192,192,102993,1,0,0:0:0:0:
64,192,102993,1,0,0:0:0:0:
448,192,102993,1,0,0:0:0:0:
320,192,103058,1,0,0:0:0:0:
192,192,103122,1,0,0:0:0:0:
64,192,103122,1,0,0:0:0:0:
448,192,103186,1,0,0:0:0:0:
320,192,103250,1,0,0:0:0:0:
192,192,103250,1,0,0:0:0:0:
64,192,103250,1,0,0:0:0:0:
448,192,103314,1,0,0:0:0:0:
192,192,103378,1,0,0:0:0:0:
320,192,103378,1,0,0:0:0:0:
64,192,103442,1,0,0:0:0:0:
192,192,103506,1,0,0:0:0:0:
320,192,103506,1,0,0:0:0:0:
448,192,103506,1,0,0:0:0:0:
64,192,103570,1,0,0:0:0:0:
192,192,103634,1,0,0:0:0:0:
448,192,103634,1,0,0:0:0:0:
320,192,103699,1,0,0:0:0:0:
448,192,103763,1,0,0:0:0:0:
192,192,103763,1,0,0:0:0:0:
64,192,103763,1,0,0:0:0:0:
320,192,103827,1,0,0:0:0:0:
448,192,103891,1,0,0:0:0:0:
64,192,103891,1,0,0:0:0:0:
192,192,103955,1,0,0:0:0:0:
64,192,104019,1,0,0:0:0:0:
320,192,104019,1,0,0:0:0:0:
448,192,104019,1,0,0:0:0:0:
192,192,104083,1,0,0:0:0:0:
320,192,104147,1,0,0:0:0:0:
64,192,104147,1,0,0:0:0:0:
448,192,104211,1,0,0:0:0:0:
320,192,104275,1,0,0:0:0:0:
192,192,104275,1,0,0:0:0:0:
64,192,104275,1,0,0:0:0:0:
448,192,104340,1,0,0:0:0:0:
192,192,104404,1,0,0:0:0:0:
320,192,104404,1,0,0:0:0:0:
64,192,104468,1,0,0:0:0:0:
192,192,104532,1,0,0:0:0:0:
448,192,104532,1,0,0:0:0:0:
320,192,104532,1,0,0:0:0:0:
64,192,104596,1,0,0:0:0:0:
448,192,104660,1,0,0:0:0:0:
320,192,104660,1,0,0:0:0:0:
192,192,104724,1,0,0:0:0:0:
64,192,104788,1,0,0:0:0:0:
320,192,104788,1,0,0:0:0:0:
448,192,104788,128,0,104820:0:0:0:0:
192,192,104852,128,0,104884:0:0:0:0:
448,192,104916,1,0,0:0:0:0:
64,192,104916,128,0,104949:0:0:0:0:
320,192,104981,128,0,105013:0:0:0:0:
448,192,105045,1,0,0:0:0:0:
192,192,105045,1,0,0:0:0:0:
64,192,105045,1,0,0:0:0:0:
320,192,105109,1,0,0:0:0:0:
192,192,105173,1,0,0:0:0:0:
448,192,105173,1,0,0:0:0:0:
64,192,105237,1,0,0:0:0:0:
320,192,105301,1,0,0:0:0:0:
448,192,105301,1,0,0:0:0:0:
192,192,105301,1,0,0:0:0:0:
64,192,105365,1,0,0:0:0:0:
320,192,105429,1,0,0:0:0:0:
448,192,105429,1,0,0:0:0:0:
192,192,105493,1,0,0:0:0:0:
64,192,105558,1,0,0:0:0:0:
320,192,105558,1,0,0:0:0:0:
448,192,105558,1,0,0:0:0:0:
192,192,105622,1,0,0:0:0:0:
320,192,105686,1,0,0:0:0:0:
64,192,105686,1,0,0:0:0:0:
448,192,105750,1,0,0:0:0:0:
64,192,105814,1,0,0:0:0:0:
192,192,105814,1,0,0:0:0:0:
320,192,105814,1,0,0:0:0:0:
448,192,105878,1,0,0:0:0:0:
192,192,105942,1,0,0:0:0:0:
320,192,105942,1,0,0:0:0:0:
64,192,106006,1,0,0:0:0:0:
192,192,106070,1,0,0:0:0:0:
320,192,106070,1,0,0:0:0:0:
448,192,106070,1,0,0:0:0:0:
64,192,106134,1,0,0:0:0:0:
448,192,106199,1,0,0:0:0:0:
192,192,106199,1,0,0:0:0:0:
320,192,106263,1,0,0:0:0:0:
448,192,106327,1,0,0:0:0:0:
64,192,106327,1,0,0:0:0:0:
192,192,106327,1,0,0:0:0:0:
320,192,106391,1,0,0:0:0:0:
448,192,106455,1,0,0:0:0:0:
64,192,106455,1,0,0:0:0:0:
192,192,106519,1,0,0:0:0:0:
64,192,106583,1,0,0:0:0:0:
320,192,106583,1,0,0:0:0:0:
448,192,106583,1,0,0:0:0:0:
192,192,106647,1,0,0:0:0:0:
320,192,106711,1,0,0:0:0:0:
64,192,106711,1,0,0:0:0:0:
448,192,106775,1,0,0:0:0:0:
192,192,106840,1,0,0:0:0:0:
320,192,106840,1,0,0:0:0:0:
64,192,106840,128,0,106872:0:0:0:0:
448,192,106904,128,0,106936:0:0:0:0:
64,192,106968,1,0,0:0:0:0:
192,192,106968,128,0,107000:0:0:0:0:
320,192,107032,128,0,107064:0:0:0:0:
448,192,107096,1,0,0:0:0:0:
192,192,107096,1,0,0:0:0:0:
64,192,107096,1,0,0:0:0:0:
320,192,107160,1,0,0:0:0:0:
448,192,107224,1,0,0:0:0:0:
192,192,107224,1,0,0:0:0:0:
64,192,107288,1,0,0:0:0:0:
192,192,107352,1,0,0:0:0:0:
448,192,107352,1,0,0:0:0:0:
320,192,107352,1,0,0:0:0:0:
64,192,107416,1,0,0:0:0:0:
320,192,107481,1,0,0:0:0:0:
448,192,107481,1,0,0:0:0:0:
192,192,107545,1,0,0:0:0:0:
448,192,107609,1,0,0:0:0:0:
320,192,107609,1,0,0:0:0:0:
64,192,107609,1,0,0:0:0:0:
192,192,107673,1,0,0:0:0:0:
448,192,107737,1,0,0:0:0:0:
64,192,107737,1,0,0:0:0:0:
320,192,107801,1,0,0:0:0:0:
64,192,107865,1,0,0:0:0:0:
192,192,107865,1,0,0:0:0:0:
448,192,107865,1,0,0:0:0:0:
320,192,107929,1,0,0:0:0:0:
192,192,107993,1,0,0:0:0:0:
64,192,107993,1,0,0:0:0:0:
448,192,108058,1,0,0:0:0:0:
320,192,108122,1,0,0:0:0:0:
192,192,108122,1,0,0:0:0:0:
64,192,108122,1,0,0:0:0:0:
448,192,108186,1,0,0:0:0:0:
320,192,108250,1,0,0:0:0:0:
64,192,108250,1,0,0:0:0:0:
192,192,108314,1,0,0:0:0:0:
320,192,108378,1,0,0:0:0:0:
448,192,108378,1,0,0:0:0:0:
64,192,108378,1,0,0:0:0:0:
192,192,108442,1,0,0:0:0:0:
64,192,108506,1,0,0:0:0:0:
320,192,108506,1,0,0:0:0:0:
448,192,108506,1,0,0:0:0:0:
192,192,108570,1,0,0:0:0:0:
320,192,108634,1,0,0:0:0:0:
64,192,108634,1,0,0:0:0:0:
448,192,108699,1,0,0:0:0:0:
192,192,108763,1,0,0:0:0:0:
64,192,108763,1,0,0:0:0:0:
320,192,108763,1,0,0:0:0:0:
448,192,108827,1,0,0:0:0:0:
192,192,108891,1,0,0:0:0:0:
64,192,108891,1,0,0:0:0:0:
192,192,108955,1,0,0:0:0:0:
64,192,108955,1,0,0:0:0:0:
320,192,109019,1,0,0:0:0:0:
448,192,109019,1,0,0:0:0:0:
320,192,109083,1,0,0:0:0:0:
448,192,109083,1,0,0:0:0:0:
448,192,109147,1,0,0:0:0:0:
64,192,109147,1,0,0:0:0:0:
192,192,109147,1,0,0:0:0:0:
320,192,109147,1,0,0:0:0:0:
64,192,109404,128,0,110301:0:0:0:0:
320,192,109404,1,0,0:0:0:0:
448,192,109404,1,0,0:0:0:0:
192,192,109468,1,0,0:0:0:0:
448,192,109532,1,0,0:0:0:0:
320,192,109596,1,0,0:0:0:0:
448,192,109660,1,0,0:0:0:0:
192,192,109660,1,0,0:0:0:0:
320,192,109724,1,0,0:0:0:0:
192,192,109788,1,0,0:0:0:0:
448,192,109852,1,0,0:0:0:0:
320,192,109916,1,0,0:0:0:0:
192,192,109916,1,0,0:0:0:0:
448,192,109981,1,0,0:0:0:0:
192,192,110045,1,0,0:0:0:0:
320,192,110109,1,0,0:0:0:0:
192,192,110173,1,0,0:0:0:0:
448,192,110173,1,0,0:0:0:0:
320,192,110237,1,0,0:0:0:0:
448,192,110301,1,0,0:0:0:0:
64,192,110365,1,0,0:0:0:0:
448,192,110429,128,0,110942:0:0:0:0:
320,192,110429,1,0,0:0:0:0:
192,192,110429,1,0,0:0:0:0:
64,192,110493,1,0,0:0:0:0:
192,192,110558,1,0,0:0:0:0:
320,192,110622,1,0,0:0:0:0:
192,192,110686,1,0,0:0:0:0:
64,192,110686,1,0,0:0:0:0:
320,192,110750,1,0,0:0:0:0:
64,192,110814,1,0,0:0:0:0:
192,192,110878,1,0,0:0:0:0:
320,192,110942,128,0,111455:0:0:0:0:
64,192,110942,128,0,110974:0:0:0:0:
192,192,111006,128,0,111038:0:0:0:0:
448,192,111070,128,0,111102:0:0:0:0:
192,192,111134,128,0,111166:0:0:0:0:
448,192,111199,1,0,0:0:0:0:
64,192,111199,1,0,0:0:0:0:
192,192,111263,128,0,111295:0:0:0:0:
448,192,111327,128,0,111359:0:0:0:0:
64,192,111391,128,0,111423:0:0:0:0:
192,192,111455,128,0,112993:0:0:0:0:
448,192,111455,1,0,0:0:0:0:
64,192,111519,1,0,0:0:0:0:
320,192,111583,1,0,0:0:0:0:
448,192,111647,1,0,0:0:0:0:
320,192,111711,1,0,0:0:0:0:
64,192,111711,1,0,0:0:0:0:
448,192,111775,1,0,0:0:0:0:
320,192,111840,1,0,0:0:0:0:
64,192,111904,1,0,0:0:0:0:
320,192,111968,1,0,0:0:0:0:
448,192,111968,1,0,0:0:0:0:
64,192,112032,1,0,0:0:0:0:
448,192,112096,1,0,0:0:0:0:
320,192,112160,1,0,0:0:0:0:
448,192,112224,1,0,0:0:0:0:
64,192,112224,1,0,0:0:0:0:
320,192,112288,1,0,0:0:0:0:
64,192,112352,1,0,0:0:0:0:
448,192,112416,1,0,0:0:0:0:
64,192,112481,1,0,0:0:0:0:
320,192,112481,1,0,0:0:0:0:
448,192,112545,1,0,0:0:0:0:
320,192,112609,1,0,0:0:0:0:
64,192,112673,1,0,0:0:0:0:
320,192,112737,1,0,0:0:0:0:
448,192,112737,1,0,0:0:0:0:
64,192,112801,1,0,0:0:0:0:
448,192,112865,1,0,0:0:0:0:
320,192,112929,1,0,0:0:0:0:
64,192,112993,128,0,113506:0:0:0:0:
448,192,112993,128,0,113025:0:0:0:0:
320,192,113058,128,0,113090:0:0:0:0:
192,192,113122,128,0,113154:0:0:0:0:
448,192,113186,128,0,113218:0:0:0:0:
192,192,113250,1,0,0:0:0:0:
320,192,113250,1,0,0:0:0:0:
448,192,113314,128,0,113346:0:0:0:0:
192,192,113378,128,0,113410:0:0:0:0:
320,192,113442,128,0,113474:0:0:0:0:
192,192,113506,1,0,0:0:0:0:
448,192,113506,1,0,0:0:0:0:
320,192,113506,1,0,0:0:0:0:
192,192,113634,1,0,0:0:0:0:
64,192,113634,1,0,0:0:0:0:
448,192,113634,1,0,0:0:0:0:
64,192,113763,1,0,0:0:0:0:
320,192,113763,1,0,0:0:0:0:
192,192,113763,1,0,0:0:0:0:
64,192,113891,1,0,0:0:0:0:
320,192,113891,1,0,0:0:0:0:
448,192,113891,1,0,0:0:0:0:
448,192,114019,1,0,0:0:0:0:
320,192,114019,1,0,0:0:0:0:
192,192,114019,1,0,0:0:0:0:
192,192,114147,1,0,0:0:0:0:
320,192,114147,1,0,0:0:0:0:
64,192,114147,1,0,0:0:0:0:
448,192,114275,128,0,114308:0:0:0:0:
64,192,114340,128,0,114372:0:0:0:0:
448,192,114404,128,0,114436:0:0:0:0:
64,192,114468,128,0,114500:0:0:0:0:
64,192,114532,1,0,0:0:0:0:
320,192,114532,1,0,0:0:0:0:
448,192,114532,1,0,0:0:0:0:
64,192,114660,1,0,0:0:0:0:
192,192,114660,1,0,0:0:0:0:
320,192,114660,1,0,0:0:0:0:
192,192,114788,1,0,0:0:0:0:
320,192,114788,1,0,0:0:0:0:
448,192,114788,1,0,0:0:0:0:
448,192,114916,1,0,0:0:0:0:
192,192,114916,1,0,0:0:0:0:
64,192,114916,1,0,0:0:0:0:
64,192,115045,1,0,0:0:0:0:
320,192,115045,1,0,0:0:0:0:
192,192,115045,1,0,0:0:0:0:
64,192,115173,1,0,0:0:0:0:
320,192,115173,1,0,0:0:0:0:
448,192,115173,1,0,0:0:0:0:
64,192,115301,1,0,0:0:0:0:
192,192,115301,128,0,115333:0:0:0:0:
320,192,115365,128,0,115397:0:0:0:0:
192,192,115429,128,0,115461:0:0:0:0:
320,192,115493,128,0,115525:0:0:0:0:
64,192,115558,1,0,0:0:0:0:
448,192,115558,1,0,0:0:0:0:
192,192,115622,1,0,0:0:0:0:
320,192,115622,1,0,0:0:0:0:
64,192,115686,1,0,0:0:0:0:
448,192,115686,1,0,0:0:0:0:
192,192,115750,1,0,0:0:0:0:
320,192,115750,1,0,0:0:0:0:
64,192,115814,1,0,0:0:0:0:
192,192,115814,1,0,0:0:0:0:
320,192,115814,1,0,0:0:0:0:
448,192,115814,1,0,0:0:0:0:
448,192,115878,1,0,0:0:0:0:
320,192,115942,1,0,0:0:0:0:
192,192,116006,1,0,0:0:0:0:
320,192,116070,1,0,0:0:0:0:
448,192,116070,1,0,0:0:0:0:
192,192,116134,1,0,0:0:0:0:
64,192,116134,1,0,0:0:0:0:
320,192,116199,1,0,0:0:0:0:
448,192,116199,1,0,0:0:0:0:
192,192,116263,1,0,0:0:0:0:
64,192,116263,1,0,0:0:0:0:
64,192,116327,1,0,0:0:0:0:
192,192,116327,1,0,0:0:0:0:
320,192,116327,1,0,0:0:0:0:
448,192,116327,1,0,0:0:0:0:
320,192,116391,1,0,0:0:0:0:
192,192,116455,1,0,0:0:0:0:
64,192,116519,1,0,0:0:0:0:
320,192,116583,128,0,116797:0:0:0:0:
448,192,116605,128,0,116754:0:0:0:0:
192,192,116626,128,0,116840:0:0:0:0:
448,192,116840,128,0,117096:0:0:0:0:
320,192,116925,128,0,117203:0:0:0:0:
192,192,117011,128,0,117331:0:0:0:0:
64,192,117096,128,0,117459:0:0:0:0:
448,192,117181,128,0,117523:0:0:0:0:
320,192,117288,128,0,117523:0:0:0:0:
192,192,117416,128,0,117523:0:0:0:0:
64,192,117523,1,0,0:0:0:0:
64,192,117609,1,0,0:0:0:0:
192,192,117609,1,0,0:0:0:0:
448,192,117609,1,0,0:0:0:0:
320,192,117609,1,0,0:0:0:0:
64,192,117865,1,0,0:0:0:0:
320,192,117865,1,0,0:0:0:0:
448,192,117865,1,0,0:0:0:0:
192,192,117929,1,0,0:0:0:0:
64,192,117993,1,0,0:0:0:0:
448,192,117993,1,0,0:0:0:0:
320,192,118058,1,0,0:0:0:0:
448,192,118122,1,0,0:0:0:0:
64,192,118122,1,0,0:0:0:0:
192,192,118122,1,0,0:0:0:0:
320,192,118186,1,0,0:0:0:0:
192,192,118250,1,0,0:0:0:0:
448,192,118250,1,0,0:0:0:0:
64,192,118314,1,0,0:0:0:0:
192,192,118378,1,0,0:0:0:0:
320,192,118378,1,0,0:0:0:0:
448,192,118378,1,0,0:0:0:0:
64,192,118442,1,0,0:0:0:0:
192,192,118506,1,0,0:0:0:0:
448,192,118506,1,0,0:0:0:0:
320,192,118570,1,0,0:0:0:0:
448,192,118634,1,0,0:0:0:0:
192,192,118634,1,0,0:0:0:0:
64,192,118634,1,0,0:0:0:0:
320,192,118699,1,0,0:0:0:0:
192,192,118763,1,0,0:0:0:0:
64,192,118763,1,0,0:0:0:0:
448,192,118827,1,0,0:0:0:0:
64,192,118891,1,0,0:0:0:0:
192,192,118891,1,0,0:0:0:0:
320,192,118891,1,0,0:0:0:0:
448,192,118955,1,0,0:0:0:0:
64,192,119019,1,0,0:0:0:0:
320,192,119019,1,0,0:0:0:0:
192,192,119083,1,0,0:0:0:0:
64,192,119147,1,0,0:0:0:0:
320,192,119147,1,0,0:0:0:0:
448,192,119147,1,0,0:0:0:0:
192,192,119211,1,0,0:0:0:0:
320,192,119275,1,0,0:0:0:0:
448,192,119275,1,0,0:0:0:0:
64,192,119340,1,0,0:0:0:0:
448,192,119404,1,0,0:0:0:0:
320,192,119404,1,0,0:0:0:0:
192,192,119404,1,0,0:0:0:0:
64,192,119468,1,0,0:0:0:0:
448,192,119532,1,0,0:0:0:0:
192,192,119532,1,0,0:0:0:0:
320,192,119596,1,0,0:0:0:0:
192,192,119660,1,0,0:0:0:0:
64,192,119660,1,0,0:0:0:0:
448,192,119660,1,0,0:0:0:0:
320,192,119724,1,0,0:0:0:0:
64,192,119788,1,0,0:0:0:0:
448,192,119788,1,0,0:0:0:0:
192,192,119852,1,0,0:0:0:0:
320,192,119916,1,0,0:0:0:0:
448,192,119916,1,0,0:0:0:0:
64,192,119916,1,0,0:0:0:0:
192,192,119981,1,0,0:0:0:0:
320,192,120045,1,0,0:0:0:0:
448,192,120045,1,0,0:0:0:0:
64,192,120109,1,0,0:0:0:0:
320,192,120173,1,0,0:0:0:0:
192,192,120173,1,0,0:0:0:0:
448,192,120173,1,0,0:0:0:0:
64,192,120237,1,0,0:0:0:0:
320,192,120301,1,0,0:0:0:0:
192,192,120301,1,0,0:0:0:0:
448,192,120365,1,0,0:0:0:0:
320,192,120429,1,0,0:0:0:0:
192,192,120429,1,0,0:0:0:0:
64,192,120429,1,0,0:0:0:0:
448,192,120493,1,0,0:0:0:0:
320,192,120558,1,0,0:0:0:0:
64,192,120558,1,0,0:0:0:0:
192,192,120622,1,0,0:0:0:0:
64,192,120686,1,0,0:0:0:0:
320,192,120686,1,0,0:0:0:0:
448,192,120686,1,0,0:0:0:0:
192,192,120750,1,0,0:0:0:0:
448,192,120814,1,0,0:0:0:0:
64,192,120814,1,0,0:0:0:0:
320,192,120878,1,0,0:0:0:0:
448,192,120942,1,0,0:0:0:0:
64,192,120942,1,0,0:0:0:0:
192,192,120942,1,0,0:0:0:0:
320,192,121006,1,0,0:0:0:0:
192,192,121070,1,0,0:0:0:0:
448,192,121070,1,0,0:0:0:0:
64,192,121134,1,0,0:0:0:0:
192,192,121199,1,0,0:0:0:0:
320,192,121199,1,0,0:0:0:0:
448,192,121199,1,0,0:0:0:0:
64,192,121263,1,0,0:0:0:0:
320,192,121327,1,0,0:0:0:0:
448,192,121327,1,0,0:0:0:0:
192,192,121391,1,0,0:0:0:0:
448,192,121455,1,0,0:0:0:0:
320,192,121455,1,0,0:0:0:0:
64,192,121455,1,0,0:0:0:0:
192,192,121519,1,0,0:0:0:0:
320,192,121583,1,0,0:0:0:0:
64,192,121583,1,0,0:0:0:0:
448,192,121647,1,0,0:0:0:0:
64,192,121711,1,0,0:0:0:0:
192,192,121711,1,0,0:0:0:0:
320,192,121711,1,0,0:0:0:0:
448,192,121775,1,0,0:0:0:0:
192,192,121840,1,0,0:0:0:0:
64,192,121840,1,0,0:0:0:0:
320,192,121904,1,0,0:0:0:0:
448,192,121968,1,0,0:0:0:0:
192,192,121968,1,0,0:0:0:0:
64,192,121968,1,0,0:0:0:0:
320,192,122032,1,0,0:0:0:0:
448,192,122096,1,0,0:0:0:0:
192,192,122096,1,0,0:0:0:0:
64,192,122160,1,0,0:0:0:0:
192,192,122224,1,0,0:0:0:0:
448,192,122224,1,0,0:0:0:0:
320,192,122224,1,0,0:0:0:0:
64,192,122288,1,0,0:0:0:0:
320,192,122352,1,0,0:0:0:0:
448,192,122352,1,0,0:0:0:0:
192,192,122416,1,0,0:0:0:0:
448,192,122481,1,0,0:0:0:0:
320,192,122481,1,0,0:0:0:0:
64,192,122481,1,0,0:0:0:0:
192,192,122545,1,0,0:0:0:0:
448,192,122609,1,0,0:0:0:0:
64,192,122609,1,0,0:0:0:0:
320,192,122673,1,0,0:0:0:0:
192,192,122737,1,0,0:0:0:0:
64,192,122737,1,0,0:0:0:0:
448,192,122737,1,0,0:0:0:0:
320,192,122801,1,0,0:0:0:0:
192,192,122865,1,0,0:0:0:0:
448,192,122865,1,0,0:0:0:0:
64,192,122929,1,0,0:0:0:0:
448,192,122993,1,0,0:0:0:0:
320,192,122993,1,0,0:0:0:0:
192,192,122993,1,0,0:0:0:0:
64,192,123058,1,0,0:0:0:0:
320,192,123122,1,0,0:0:0:0:
192,192,123122,1,0,0:0:0:0:
448,192,123186,1,0,0:0:0:0:
320,192,123250,1,0,0:0:0:0:
192,192,123250,1,0,0:0:0:0:
64,192,123250,1,0,0:0:0:0:
448,192,123314,1,0,0:0:0:0:
320,192,123378,1,0,0:0:0:0:
64,192,123378,1,0,0:0:0:0:
192,192,123442,1,0,0:0:0:0:
64,192,123506,1,0,0:0:0:0:
320,192,123506,1,0,0:0:0:0:
448,192,123506,1,0,0:0:0:0:
192,192,123570,1,0,0:0:0:0:
64,192,123634,1,0,0:0:0:0:
448,192,123634,1,0,0:0:0:0:
320,192,123699,1,0,0:0:0:0:
448,192,123763,1,0,0:0:0:0:
192,192,123763,1,0,0:0:0:0:
64,192,123763,1,0,0:0:0:0:
320,192,123827,1,0,0:0:0:0:
192,192,123891,1,0,0:0:0:0:
448,192,123891,1,0,0:0:0:0:
64,192,123955,1,0,0:0:0:0:
192,192,124019,1,0,0:0:0:0:
320,192,124019,1,0,0:0:0:0:
448,192,124019,1,0,0:0:0:0:
64,192,124083,1,0,0:0:0:0:
320,192,124147,1,0,0:0:0:0:
192,192,124147,1,0,0:0:0:0:
448,192,124211,1,0,0:0:0:0:
320,192,124275,1,0,0:0:0:0:
192,192,124275,1,0,0:0:0:0:
64,192,124275,1,0,0:0:0:0:
192,192,124404,1,0,0:0:0:0:
64,192,124404,1,0,0:0:0:0:
448,192,124404,1,0,0:0:0:0:
64,192,124532,1,0,0:0:0:0:
320,192,124532,1,0,0:0:0:0:
448,192,124532,1,0,0:0:0:0:
192,192,124596,1,0,0:0:0:0:
320,192,124660,1,0,0:0:0:0:
448,192,124660,1,0,0:0:0:0:
64,192,124724,1,0,0:0:0:0:
192,192,124724,1,0,0:0:0:0:
448,192,124788,1,0,0:0:0:0:
320,192,124788,1,0,0:0:0:0:
192,192,124788,1,0,0:0:0:0:
64,192,124852,1,0,0:0:0:0:
320,192,124916,1,0,0:0:0:0:
448,192,124916,1,0,0:0:0:0:
192,192,124981,1,0,0:0:0:0:
64,192,125045,1,0,0:0:0:0:
320,192,125045,1,0,0:0:0:0:
448,192,125045,1,0,0:0:0:0:
192,192,125109,1,0,0:0:0:0:
320,192,125173,1,0,0:0:0:0:
448,192,125173,1,0,0:0:0:0:
64,192,125173,1,0,0:0:0:0:
320,192,125365,1,0,0:0:0:0:
64,192,125429,1,0,0:0:0:0:
192,192,125429,1,0,0:0:0:0:
448,192,125429,1,0,0:0:0:0:
320,192,125493,1,0,0:0:0:0:
192,192,125622,1,0,0:0:0:0:
320,192,125686,1,0,0:0:0:0:
448,192,125686,1,0,0:0:0:0:
192,192,125750,1,0,0:0:0:0:
64,192,125750,1,0,0:0:0:0:
64,192,125814,1,0,0:0:0:0:
320,192,125814,1,0,0:0:0:0:
448,192,125814,1,0,0:0:0:0:
192,192,125878,1,0,0:0:0:0:
320,192,125942,1,0,0:0:0:0:
448,192,125942,1,0,0:0:0:0:
64,192,126006,1,0,0:0:0:0:
320,192,126070,1,0,0:0:0:0:
448,192,126070,1,0,0:0:0:0:
192,192,126070,1,0,0:0:0:0:
64,192,126134,1,0,0:0:0:0:
320,192,126199,1,0,0:0:0:0:
192,192,126199,1,0,0:0:0:0:
448,192,126263,1,0,0:0:0:0:
320,192,126327,1,0,0:0:0:0:
64,192,126327,1,0,0:0:0:0:
192,192,126327,1,0,0:0:0:0:
448,192,126391,1,0,0:0:0:0:
64,192,126455,1,0,0:0:0:0:
192,192,126455,1,0,0:0:0:0:
320,192,126519,1,0,0:0:0:0:
64,192,126583,1,0,0:0:0:0:
192,192,126583,1,0,0:0:0:0:
448,192,126583,1,0,0:0:0:0:
320,192,126647,1,0,0:0:0:0:
448,192,126711,1,0,0:0:0:0:
192,192,126711,1,0,0:0:0:0:
64,192,126775,1,0,0:0:0:0:
448,192,126840,1,0,0:0:0:0:
192,192,126840,1,0,0:0:0:0:
320,192,126840,1,0,0:0:0:0:
64,192,126904,1,0,0:0:0:0:
320,192,126968,1,0,0:0:0:0:
192,192,126968,1,0,0:0:0:0:
448,192,127032,1,0,0:0:0:0:
192,192,127096,1,0,0:0:0:0:
64,192,127096,1,0,0:0:0:0:
320,192,127096,1,0,0:0:0:0:
448,192,127160,1,0,0:0:0:0:
320,192,127224,1,0,0:0:0:0:
64,192,127224,1,0,0:0:0:0:
192,192,127288,1,0,0:0:0:0:
64,192,127352,1,0,0:0:0:0:
448,192,127352,1,0,0:0:0:0:
320,192,127352,1,0,0:0:0:0:
192,192,127416,1,0,0:0:0:0:
320,192,127481,1,0,0:0:0:0:
448,192,127481,1,0,0:0:0:0:
64,192,127545,1,0,0:0:0:0:
192,192,127609,1,0,0:0:0:0:
448,192,127609,1,0,0:0:0:0:
320,192,127609,1,0,0:0:0:0:
64,192,127673,1,0,0:0:0:0:
320,192,127737,1,0,0:0:0:0:
192,192,127737,1,0,0:0:0:0:
448,192,127801,1,0,0:0:0:0:
320,192,127865,1,0,0:0:0:0:
192,192,127865,1,0,0:0:0:0:
64,192,127865,1,0,0:0:0:0:
448,192,127929,1,0,0:0:0:0:
192,192,127993,1,0,0:0:0:0:
64,192,127993,1,0,0:0:0:0:
320,192,128058,1,0,0:0:0:0:
192,192,128122,1,0,0:0:0:0:
64,192,128122,1,0,0:0:0:0:
448,192,128122,1,0,0:0:0:0:
320,192,128186,1,0,0:0:0:0:
192,192,128250,1,0,0:0:0:0:
448,192,128250,1,0,0:0:0:0:
64,192,128314,1,0,0:0:0:0:
192,192,128378,1,0,0:0:0:0:
320,192,128378,1,0,0:0:0:0:
448,192,128378,1,0,0:0:0:0:
64,192,128442,1,0,0:0:0:0:
320,192,128506,1,0,0:0:0:0:
448,192,128506,1,0,0:0:0:0:
192,192,128570,1,0,0:0:0:0:
448,192,128634,1,0,0:0:0:0:
320,192,128634,1,0,0:0:0:0:
64,192,128634,1,0,0:0:0:0:
192,192,128699,1,0,0:0:0:0:
448,192,128763,1,0,0:0:0:0:
64,192,128763,1,0,0:0:0:0:
320,192,128827,1,0,0:0:0:0:
192,192,128891,1,0,0:0:0:0:
64,192,128891,1,0,0:0:0:0:
448,192,128891,1,0,0:0:0:0:
320,192,128955,1,0,0:0:0:0:
192,192,129019,1,0,0:0:0:0:
64,192,129019,1,0,0:0:0:0:
448,192,129083,1,0,0:0:0:0:
320,192,129147,1,0,0:0:0:0:
192,192,129147,1,0,0:0:0:0:
64,192,129147,1,0,0:0:0:0:
448,192,129211,1,0,0:0:0:0:
192,192,129275,1,0,0:0:0:0:
320,192,129275,1,0,0:0:0:0:
64,192,129340,1,0,0:0:0:0:
192,192,129404,1,0,0:0:0:0:
320,192,129404,1,0,0:0:0:0:
448,192,129404,1,0,0:0:0:0:
64,192,129468,1,0,0:0:0:0:
192,192,129532,1,0,0:0:0:0:
448,192,129532,1,0,0:0:0:0:
320,192,129596,1,0,0:0:0:0:
448,192,129660,1,0,0:0:0:0:
64,192,129660,1,0,0:0:0:0:
192,192,129660,1,0,0:0:0:0:
320,192,129724,1,0,0:0:0:0:
192,192,129788,1,0,0:0:0:0:
64,192,129788,1,0,0:0:0:0:
320,192,129852,1,0,0:0:0:0:
192,192,129916,1,0,0:0:0:0:
448,192,129916,1,0,0:0:0:0:
64,192,129916,1,0,0:0:0:0:
320,192,129981,1,0,0:0:0:0:
64,192,130045,1,0,0:0:0:0:
448,192,130045,1,0,0:0:0:0:
192,192,130109,1,0,0:0:0:0:
320,192,130173,1,0,0:0:0:0:
64,192,130173,1,0,0:0:0:0:
192,192,130237,1,0,0:0:0:0:
448,192,130301,1,0,0:0:0:0:
320,192,130301,1,0,0:0:0:0:
64,192,130301,1,0,0:0:0:0:
192,192,130365,1,0,0:0:0:0:
64,192,130429,1,0,0:0:0:0:
320,192,130429,1,0,0:0:0:0:
448,192,130493,1,0,0:0:0:0:
320,192,130558,1,0,0:0:0:0:
192,192,130558,1,0,0:0:0:0:
64,192,130622,1,0,0:0:0:0:
448,192,130686,1,0,0:0:0:0:
192,192,130686,1,0,0:0:0:0:
320,192,130686,1,0,0:0:0:0:
64,192,130750,1,0,0:0:0:0:
192,192,130814,1,0,0:0:0:0:
448,192,130814,1,0,0:0:0:0:
320,192,130878,1,0,0:0:0:0:
64,192,130942,1,0,0:0:0:0:
192,192,130942,1,0,0:0:0:0:
448,192,131006,1,0,0:0:0:0:
192,192,131070,1,0,0:0:0:0:
320,192,131070,1,0,0:0:0:0:
64,192,131070,1,0,0:0:0:0:
448,192,131134,1,0,0:0:0:0:
320,192,131199,1,0,0:0:0:0:
192,192,131199,1,0,0:0:0:0:
64,192,131263,1,0,0:0:0:0:
320,192,131327,1,0,0:0:0:0:
448,192,131327,1,0,0:0:0:0:
192,192,131391,1,0,0:0:0:0:
448,192,131455,1,0,0:0:0:0:
320,192,131455,1,0,0:0:0:0:
64,192,131455,1,0,0:0:0:0:
192,192,131519,1,0,0:0:0:0:
320,192,131583,1,0,0:0:0:0:
64,192,131583,1,0,0:0:0:0:
192,192,131647,1,0,0:0:0:0:
448,192,131711,1,0,0:0:0:0:
320,192,131743,1,0,0:0:0:0:
192,192,131775,1,0,0:0:0:0:
64,192,131808,1,0,0:0:0:0:
448,192,131840,1,0,0:0:0:0:
320,192,131872,1,0,0:0:0:0:
192,192,131904,1,0,0:0:0:0:
64,192,131936,1,0,0:0:0:0:
320,192,131968,1,0,0:0:0:0:
448,192,131968,1,0,0:0:0:0:
192,192,132032,1,0,0:0:0:0:
64,192,132032,1,0,0:0:0:0:
320,192,132096,1,0,0:0:0:0:
448,192,132096,1,0,0:0:0:0:
192,192,132160,1,0,0:0:0:0:
64,192,132160,1,0,0:0:0:0:
320,192,132224,1,0,0:0:0:0:
448,192,132224,1,0,0:0:0:0:
448,192,132352,1,0,0:0:0:0:
64,192,132352,1,0,0:0:0:0:
192,192,132416,1,0,0:0:0:0:
320,192,132416,1,0,0:0:0:0:
448,192,132481,1,0,0:0:0:0:
64,192,132481,1,0,0:0:0:0:
192,192,132545,1,0,0:0:0:0:
320,192,132545,1,0,0:0:0:0:
448,192,132609,1,0,0:0:0:0:
64,192,132609,1,0,0:0:0:0:
192,192,132737,1,0,0:0:0:0:
448,192,132737,1,0,0:0:0:0:
320,192,132801,1,0,0:0:0:0:
64,192,132801,1,0,0:0:0:0:
192,192,132865,1,0,0:0:0:0:
448,192,132865,1,0,0:0:0:0:
320,192,132929,1,0,0:0:0:0:
64,192,132929,1,0,0:0:0:0:
192,192,132993,1,0,0:0:0:0:
448,192,132993,1,0,0:0:0:0:
320,192,133058,1,0,0:0:0:0:
192,192,133122,1,0,0:0:0:0:
64,192,133122,1,0,0:0:0:0:
320,192,133186,1,0,0:0:0:0:
448,192,133186,1,0,0:0:0:0:
192,192,133250,1,0,0:0:0:0:
64,192,133250,1,0,0:0:0:0:
320,192,133314,1,0,0:0:0:0:
448,192,133314,1,0,0:0:0:0:
64,192,133378,1,0,0:0:0:0:
192,192,133378,1,0,0:0:0:0:
320,192,133442,1,0,0:0:0:0:
448,192,133442,1,0,0:0:0:0:
192,192,133506,1,0,0:0:0:0:
64,192,133506,128,0,134019:0:0:0:0:
320,192,133699,128,0,134019:0:0:0:0:
448,192,134019,1,0,0:0:0:0:
192,192,134019,128,0,136070:0:0:0:0:
320,192,134083,1,0,0:0:0:0:
64,192,134147,1,0,0:0:0:0:
320,192,134211,1,0,0:0:0:0:
448,192,134275,1,0,0:0:0:0:
64,192,134340,1,0,0:0:0:0:
320,192,134404,1,0,0:0:0:0:
448,192,134468,1,0,0:0:0:0:
320,192,134532,1,0,0:0:0:0:
64,192,134596,1,0,0:0:0:0:
448,192,134660,1,0,0:0:0:0:
64,192,134724,1,0,0:0:0:0:
320,192,134788,1,0,0:0:0:0:
64,192,134852,1,0,0:0:0:0:
448,192,134916,1,0,0:0:0:0:
320,192,134981,1,0,0:0:0:0:
64,192,135045,1,0,0:0:0:0:
448,192,135045,1,0,0:0:0:0:
320,192,135109,1,0,0:0:0:0:
448,192,135173,1,0,0:0:0:0:
64,192,135237,1,0,0:0:0:0:
320,192,135301,1,0,0:0:0:0:
448,192,135365,1,0,0:0:0:0:
64,192,135429,1,0,0:0:0:0:
320,192,135493,1,0,0:0:0:0:
448,192,135558,1,0,0:0:0:0:
64,192,135622,1,0,0:0:0:0:
320,192,135686,1,0,0:0:0:0:
448,192,135750,1,0,0:0:0:0:
320,192,135814,1,0,0:0:0:0:
64,192,135814,1,0,0:0:0:0:
448,192,135878,1,0,0:0:0:0:
320,192,135942,1,0,0:0:0:0:
64,192,136006,1,0,0:0:0:0:
448,192,136070,128,0,138122:0:0:0:0:
320,192,136070,1,0,0:0:0:0:
192,192,136134,1,0,0:0:0:0:
320,192,136199,1,0,0:0:0:0:
64,192,136263,1,0,0:0:0:0:
320,192,136327,1,0,0:0:0:0:
192,192,136391,1,0,0:0:0:0:
64,192,136455,1,0,0:0:0:0:
192,192,136519,1,0,0:0:0:0:
320,192,136583,1,0,0:0:0:0:
64,192,136583,1,0,0:0:0:0:
192,192,136647,1,0,0:0:0:0:
320,192,136711,1,0,0:0:0:0:
64,192,136775,1,0,0:0:0:0:
192,192,136840,1,0,0:0:0:0:
320,192,136904,1,0,0:0:0:0:
64,192,136968,1,0,0:0:0:0:
320,192,137032,1,0,0:0:0:0:
64,192,137096,1,0,0:0:0:0:
192,192,137096,1,0,0:0:0:0:
320,192,137160,1,0,0:0:0:0:
64,192,137224,1,0,0:0:0:0:
192,192,137288,1,0,0:0:0:0:
320,192,137352,1,0,0:0:0:0:
64,192,137416,1,0,0:0:0:0:
320,192,137481,1,0,0:0:0:0:
192,192,137545,1,0,0:0:0:0:
320,192,137609,1,0,0:0:0:0:
64,192,137673,1,0,0:0:0:0:
192,192,137737,1,0,0:0:0:0:
64,192,137801,1,0,0:0:0:0:
192,192,137865,1,0,0:0:0:0:
320,192,137929,1,0,0:0:0:0:
64,192,137993,1,0,0:0:0:0:
192,192,138058,1,0,0:0:0:0:
64,192,138122,128,0,140173:0:0:0:0:
320,192,138122,1,0,0:0:0:0:
192,192,138186,1,0,0:0:0:0:
320,192,138250,1,0,0:0:0:0:
448,192,138314,1,0,0:0:0:0:
192,192,138378,1,0,0:0:0:0:
320,192,138442,1,0,0:0:0:0:
448,192,138506,1,0,0:0:0:0:
320,192,138570,1,0,0:0:0:0:
192,192,138634,1,0,0:0:0:0:
448,192,138634,1,0,0:0:0:0:
320,192,138699,1,0,0:0:0:0:
192,192,138763,1,0,0:0:0:0:
448,192,138827,1,0,0:0:0:0:
320,192,138891,1,0,0:0:0:0:
192,192,138955,1,0,0:0:0:0:
320,192,139019,1,0,0:0:0:0:
448,192,139083,1,0,0:0:0:0:
192,192,139147,1,0,0:0:0:0:
320,192,139147,1,0,0:0:0:0:
448,192,139211,1,0,0:0:0:0:
320,192,139275,1,0,0:0:0:0:
192,192,139340,1,0,0:0:0:0:
448,192,139404,1,0,0:0:0:0:
192,192,139468,1,0,0:0:0:0:
320,192,139532,1,0,0:0:0:0:
448,192,139596,1,0,0:0:0:0:
320,192,139660,1,0,0:0:0:0:
192,192,139724,1,0,0:0:0:0:
448,192,139788,1,0,0:0:0:0:
192,192,139852,1,0,0:0:0:0:
320,192,139916,1,0,0:0:0:0:
448,192,139916,1,0,0:0:0:0:
192,192,139981,1,0,0:0:0:0:
448,192,140045,1,0,0:0:0:0:
192,192,140109,1,0,0:0:0:0:
320,192,140173,128,0,141199:0:0:0:0:
448,192,140173,1,0,0:0:0:0:
192,192,140237,1,0,0:0:0:0:
448,192,140301,1,0,0:0:0:0:
192,192,140365,1,0,0:0:0:0:
64,192,140429,1,0,0:0:0:0:
192,192,140493,1,0,0:0:0:0:
64,192,140558,1,0,0:0:0:0:
448,192,140558,1,0,0:0:0:0:
192,192,140622,1,0,0:0:0:0:
448,192,140686,1,0,0:0:0:0:
64,192,140686,1,0,0:0:0:0:
192,192,140750,1,0,0:0:0:0:
64,192,140814,1,0,0:0:0:0:
448,192,140878,1,0,0:0:0:0:
192,192,140942,1,0,0:0:0:0:
448,192,141006,1,0,0:0:0:0:
192,192,141070,1,0,0:0:0:0:
64,192,141070,1,0,0:0:0:0:
448,192,141134,1,0,0:0:0:0:
192,192,141199,128,0,142224:0:0:0:0:
64,192,141199,1,0,0:0:0:0:
448,192,141263,1,0,0:0:0:0:
320,192,141327,1,0,0:0:0:0:
64,192,141391,1,0,0:0:0:0:
320,192,141455,1,0,0:0:0:0:
64,192,141519,1,0,0:0:0:0:
448,192,141583,1,0,0:0:0:0:
320,192,141583,1,0,0:0:0:0:
64,192,141647,1,0,0:0:0:0:
448,192,141711,1,0,0:0:0:0:
320,192,141711,1,0,0:0:0:0:
64,192,141775,1,0,0:0:0:0:
448,192,141840,1,0,0:0:0:0:
320,192,141904,1,0,0:0:0:0:
64,192,141968,1,0,0:0:0:0:
448,192,142032,1,0,0:0:0:0:
320,192,142096,1,0,0:0:0:0:
64,192,142160,1,0,0:0:0:0:
448,192,142224,128,0,144275:0:0:0:0:
320,192,142224,1,0,0:0:0:0:
64,192,142288,1,0,0:0:0:0:
320,192,142352,1,0,0:0:0:0:
192,192,142416,1,0,0:0:0:0:
320,192,142481,1,0,0:0:0:0:
64,192,142481,1,0,0:0:0:0:
192,192,142545,1,0,0:0:0:0:
64,192,142609,1,0,0:0:0:0:
320,192,142673,1,0,0:0:0:0:
192,192,142737,1,0,0:0:0:0:
64,192,142737,1,0,0:0:0:0:
320,192,142801,1,0,0:0:0:0:
192,192,142865,1,0,0:0:0:0:
64,192,142929,1,0,0:0:0:0:
192,192,142993,1,0,0:0:0:0:
320,192,142993,1,0,0:0:0:0:
64,192,143058,1,0,0:0:0:0:
320,192,143122,1,0,0:0:0:0:
192,192,143186,1,0,0:0:0:0:
320,192,143250,1,0,0:0:0:0:
64,192,143250,1,0,0:0:0:0:
192,192,143314,1,0,0:0:0:0:
64,192,143378,1,0,0:0:0:0:
320,192,143442,1,0,0:0:0:0:
192,192,143506,1,0,0:0:0:0:
64,192,143506,1,0,0:0:0:0:
320,192,143570,1,0,0:0:0:0:
192,192,143634,1,0,0:0:0:0:
64,192,143699,1,0,0:0:0:0:
192,192,143763,1,0,0:0:0:0:
320,192,143763,128,0,143827:0:0:0:0:
64,192,143827,128,0,143891:0:0:0:0:
320,192,143891,128,0,143955:0:0:0:0:
192,192,143955,128,0,144019:0:0:0:0:
320,192,144019,1,0,0:0:0:0:
64,192,144019,128,0,144083:0:0:0:0:
192,192,144083,128,0,144147:0:0:0:0:
320,192,144147,128,0,144211:0:0:0:0:
64,192,144211,128,0,144275:0:0:0:0:
320,192,144275,128,0,146327:0:0:0:0:
192,192,144275,1,0,0:0:0:0:
64,192,144340,1,0,0:0:0:0:
192,192,144404,1,0,0:0:0:0:
448,192,144468,1,0,0:0:0:0:
64,192,144532,1,0,0:0:0:0:
192,192,144532,1,0,0:0:0:0:
448,192,144596,1,0,0:0:0:0:
64,192,144660,1,0,0:0:0:0:
192,192,144724,1,0,0:0:0:0:
448,192,144788,1,0,0:0:0:0:
64,192,144788,1,0,0:0:0:0:
192,192,144852,1,0,0:0:0:0:
448,192,144916,1,0,0:0:0:0:
64,192,144981,1,0,0:0:0:0:
192,192,145045,1,0,0:0:0:0:
448,192,145045,1,0,0:0:0:0:
64,192,145109,1,0,0:0:0:0:
192,192,145173,1,0,0:0:0:0:
448,192,145237,1,0,0:0:0:0:
192,192,145301,1,0,0:0:0:0:
64,192,145301,1,0,0:0:0:0:
448,192,145365,1,0,0:0:0:0:
64,192,145429,1,0,0:0:0:0:
192,192,145493,1,0,0:0:0:0:
64,192,145558,1,0,0:0:0:0:
448,192,145558,1,0,0:0:0:0:
192,192,145622,1,0,0:0:0:0:
64,192,145686,1,0,0:0:0:0:
448,192,145750,1,0,0:0:0:0:
192,192,145814,1,0,0:0:0:0:
64,192,145814,128,0,145878:0:0:0:0:
448,192,145878,128,0,145942:0:0:0:0:
192,192,145942,128,0,146006:0:0:0:0:
64,192,146006,128,0,146070:0:0:0:0:
192,192,146070,1,0,0:0:0:0:
448,192,146070,128,0,146134:0:0:0:0:
64,192,146134,128,0,146199:0:0:0:0:
448,192,146199,128,0,146263:0:0:0:0:
64,192,146263,128,0,146327:0:0:0:0:
192,192,146327,128,0,148378:0:0:0:0:
448,192,146327,1,0,0:0:0:0:
64,192,146391,1,0,0:0:0:0:
320,192,146455,1,0,0:0:0:0:
448,192,146519,1,0,0:0:0:0:
64,192,146583,1,0,0:0:0:0:
320,192,146583,1,0,0:0:0:0:
448,192,146647,1,0,0:0:0:0:
320,192,146711,1,0,0:0:0:0:
64,192,146775,1,0,0:0:0:0:
320,192,146840,1,0,0:0:0:0:
448,192,146840,1,0,0:0:0:0:
64,192,146904,1,0,0:0:0:0:
448,192,146968,1,0,0:0:0:0:
320,192,147032,1,0,0:0:0:0:
448,192,147096,1,0,0:0:0:0:
64,192,147096,1,0,0:0:0:0:
320,192,147160,1,0,0:0:0:0:
448,192,147224,1,0,0:0:0:0:
64,192,147288,1,0,0:0:0:0:
320,192,147352,1,0,0:0:0:0:
448,192,147352,1,0,0:0:0:0:
64,192,147416,1,0,0:0:0:0:
320,192,147481,1,0,0:0:0:0:
448,192,147545,1,0,0:0:0:0:
320,192,147609,1,0,0:0:0:0:
64,192,147609,1,0,0:0:0:0:
448,192,147673,1,0,0:0:0:0:
64,192,147737,1,0,0:0:0:0:
320,192,147801,1,0,0:0:0:0:
448,192,147865,1,0,0:0:0:0:
64,192,147865,128,0,147929:0:0:0:0:
320,192,147929,128,0,147993:0:0:0:0:
448,192,147993,128,0,148058:0:0:0:0:
64,192,148058,128,0,148122:0:0:0:0:
448,192,148122,1,0,0:0:0:0:
320,192,148122,128,0,148186:0:0:0:0:
64,192,148186,128,0,148250:0:0:0:0:
448,192,148250,128,0,148314:0:0:0:0:
320,192,148314,128,0,148378:0:0:0:0:
64,192,148378,128,0,150429:0:0:0:0:
448,192,148378,1,0,0:0:0:0:
320,192,148442,1,0,0:0:0:0:
192,192,148506,1,0,0:0:0:0:
448,192,148570,1,0,0:0:0:0:
192,192,148634,1,0,0:0:0:0:
320,192,148634,1,0,0:0:0:0:
448,192,148699,1,0,0:0:0:0:
320,192,148763,1,0,0:0:0:0:
192,192,148827,1,0,0:0:0:0:
448,192,148891,1,0,0:0:0:0:
320,192,148891,1,0,0:0:0:0:
192,192,148955,1,0,0:0:0:0:
448,192,149019,1,0,0:0:0:0:
320,192,149083,1,0,0:0:0:0:
448,192,149147,1,0,0:0:0:0:
192,192,149147,1,0,0:0:0:0:
320,192,149211,1,0,0:0:0:0:
192,192,149275,1,0,0:0:0:0:
448,192,149340,1,0,0:0:0:0:
192,192,149404,1,0,0:0:0:0:
320,192,149404,1,0,0:0:0:0:
448,192,149468,1,0,0:0:0:0:
320,192,149532,1,0,0:0:0:0:
192,192,149596,1,0,0:0:0:0:
448,192,149660,1,0,0:0:0:0:
320,192,149660,1,0,0:0:0:0:
192,192,149724,1,0,0:0:0:0:
448,192,149788,1,0,0:0:0:0:
320,192,149852,1,0,0:0:0:0:
192,192,149916,1,0,0:0:0:0:
448,192,149916,128,0,149981:0:0:0:0:
320,192,149981,128,0,150045:0:0:0:0:
192,192,150045,128,0,150109:0:0:0:0:
448,192,150109,128,0,150173:0:0:0:0:
192,192,150173,1,0,0:0:0:0:
320,192,150173,128,0,150237:0:0:0:0:
448,192,150237,128,0,150301:0:0:0:0:
192,192,150301,128,0,150365:0:0:0:0:
320,192,150365,128,0,150429:0:0:0:0:
448,192,150429,1,0,0:0:0:0:
192,192,150429,1,0,0:0:0:0:
192,192,150558,1,0,0:0:0:0:
320,192,150558,1,0,0:0:0:0:
64,192,150686,1,0,0:0:0:0:
320,192,150686,1,0,0:0:0:0:
448,192,150686,1,0,0:0:0:0:
64,192,150814,1,0,0:0:0:0:
448,192,150814,1,0,0:0:0:0:
192,192,150942,1,0,0:0:0:0:
320,192,150942,1,0,0:0:0:0:
448,192,150942,1,0,0:0:0:0:
320,192,151070,1,0,0:0:0:0:
448,192,151070,1,0,0:0:0:0:
320,192,151199,1,0,0:0:0:0:
192,192,151199,1,0,0:0:0:0:
64,192,151199,1,0,0:0:0:0:
64,192,151327,1,0,0:0:0:0:
192,192,151327,1,0,0:0:0:0:
320,192,151327,1,0,0:0:0:0:
320,192,151455,1,0,0:0:0:0:
192,192,151455,1,0,0:0:0:0:
64,192,151455,1,0,0:0:0:0:
448,192,151583,1,0,0:0:0:0:
64,192,151583,1,0,0:0:0:0:
192,192,151711,1,0,0:0:0:0:
320,192,151711,1,0,0:0:0:0:
448,192,151711,1,0,0:0:0:0:
64,192,151840,1,0,0:0:0:0:
320,192,151840,1,0,0:0:0:0:
192,192,151968,1,0,0:0:0:0:
64,192,151968,1,0,0:0:0:0:
448,192,151968,1,0,0:0:0:0:
320,192,152096,1,0,0:0:0:0:
448,192,152096,1,0,0:0:0:0:
64,192,152224,1,0,0:0:0:0:
320,192,152224,1,0,0:0:0:0:
448,192,152224,1,0,0:0:0:0:
64,192,152352,1,0,0:0:0:0:
192,192,152352,1,0,0:0:0:0:
320,192,152416,1,0,0:0:0:0:
448,192,152416,1,0,0:0:0:0:
320,192,152481,1,0,0:0:0:0:
64,192,152481,1,0,0:0:0:0:
192,192,152481,1,0,0:0:0:0:
448,192,152609,1,0,0:0:0:0:
64,192,152609,1,0,0:0:0:0:
192,192,152737,1,0,0:0:0:0:
320,192,152737,1,0,0:0:0:0:
448,192,152737,1,0,0:0:0:0:
64,192,152865,1,0,0:0:0:0:
320,192,152865,1,0,0:0:0:0:
448,192,152993,1,0,0:0:0:0:
64,192,152993,1,0,0:0:0:0:
192,192,152993,1,0,0:0:0:0:
320,192,153122,1,0,0:0:0:0:
192,192,153122,1,0,0:0:0:0:
448,192,153250,1,0,0:0:0:0:
320,192,153250,1,0,0:0:0:0:
192,192,153250,1,0,0:0:0:0:
192,192,153378,1,0,0:0:0:0:
320,192,153378,1,0,0:0:0:0:
448,192,153378,1,0,0:0:0:0:
448,192,153506,1,0,0:0:0:0:
320,192,153506,1,0,0:0:0:0:
192,192,153506,1,0,0:0:0:0:
64,192,153634,1,0,0:0:0:0:
192,192,153634,1,0,0:0:0:0:
320,192,153699,1,0,0:0:0:0:
448,192,153699,1,0,0:0:0:0:
448,192,153763,1,0,0:0:0:0:
192,192,153763,1,0,0:0:0:0:
64,192,153763,1,0,0:0:0:0:
320,192,153891,1,0,0:0:0:0:
448,192,153891,1,0,0:0:0:0:
192,192,153955,1,0,0:0:0:0:
64,192,153955,1,0,0:0:0:0:
448,192,154019,1,0,0:0:0:0:
320,192,154051,1,0,0:0:0:0:
192,192,154083,1,0,0:0:0:0:
64,192,154115,1,0,0:0:0:0:
320,192,154147,1,0,0:0:0:0:
448,192,154147,1,0,0:0:0:0:
192,192,154211,1,0,0:0:0:0:
448,192,154275,1,0,0:0:0:0:
64,192,154275,1,0,0:0:0:0:
320,192,154340,1,0,0:0:0:0:
448,192,154404,1,0,0:0:0:0:
192,192,154404,1,0,0:0:0:0:
64,192,154468,1,0,0:0:0:0:
320,192,154532,1,0,0:0:0:0:
448,192,154532,1,0,0:0:0:0:
192,192,154596,1,0,0:0:0:0:
64,192,154596,1,0,0:0:0:0:
320,192,154660,1,0,0:0:0:0:
448,192,154660,1,0,0:0:0:0:
192,192,154724,1,0,0:0:0:0:
320,192,154788,1,0,0:0:0:0:
448,192,154788,1,0,0:0:0:0:
192,192,154852,1,0,0:0:0:0:
64,192,154852,1,0,0:0:0:0:
320,192,154916,1,0,0:0:0:0:
448,192,154916,1,0,0:0:0:0:
64,192,154981,1,0,0:0:0:0:
320,192,155045,1,0,0:0:0:0:
448,192,155045,1,0,0:0:0:0:
192,192,155109,1,0,0:0:0:0:
320,192,155173,1,0,0:0:0:0:
448,192,155173,1,0,0:0:0:0:
64,192,155237,1,0,0:0:0:0:
192,192,155237,1,0,0:0:0:0:
320,192,155301,1,0,0:0:0:0:
448,192,155301,1,0,0:0:0:0:
64,192,155558,1,0,0:0:0:0:
192,192,155558,1,0,0:0:0:0:
320,192,155622,1,0,0:0:0:0:
448,192,155622,1,0,0:0:0:0:
192,192,155686,1,0,0:0:0:0:
64,192,155686,1,0,0:0:0:0:
448,192,155750,1,0,0:0:0:0:
64,192,155814,1,0,0:0:0:0:
192,192,155814,1,0,0:0:0:0:
320,192,155878,1,0,0:0:0:0:
448,192,155878,1,0,0:0:0:0:
64,192,155942,1,0,0:0:0:0:
192,192,155942,1,0,0:0:0:0:
320,192,156006,1,0,0:0:0:0:
64,192,156070,1,0,0:0:0:0:
192,192,156070,1,0,0:0:0:0:
448,192,156134,1,0,0:0:0:0:
64,192,156199,1,0,0:0:0:0:
192,192,156199,1,0,0:0:0:0:
320,192,156263,1,0,0:0:0:0:
448,192,156263,1,0,0:0:0:0:
192,192,156327,1,0,0:0:0:0:
64,192,156327,1,0,0:0:0:0:
320,192,156583,1,0,0:0:0:0:
448,192,156583,1,0,0:0:0:0:
64,192,156647,1,0,0:0:0:0:
192,192,156647,1,0,0:0:0:0:
320,192,156711,1,0,0:0:0:0:
448,192,156711,1,0,0:0:0:0:
64,192,156775,1,0,0:0:0:0:
192,192,156775,1,0,0:0:0:0:
320,192,156840,1,0,0:0:0:0:
448,192,156840,1,0,0:0:0:0:
64,192,157096,1,0,0:0:0:0:
448,192,157096,1,0,0:0:0:0:
192,192,157160,1,0,0:0:0:0:
320,192,157160,1,0,0:0:0:0:
64,192,157224,1,0,0:0:0:0:
448,192,157224,1,0,0:0:0:0:
320,192,157288,1,0,0:0:0:0:
192,192,157288,1,0,0:0:0:0:
64,192,157352,1,0,0:0:0:0:
448,192,157352,1,0,0:0:0:0:
64,192,157609,1,0,0:0:0:0:
320,192,157609,1,0,0:0:0:0:
448,192,157609,1,0,0:0:0:0:
64,192,157737,1,0,0:0:0:0:
320,192,157737,1,0,0:0:0:0:
448,192,157801,1,0,0:0:0:0:
192,192,157801,1,0,0:0:0:0:
448,192,157929,1,0,0:0:0:0:
64,192,157929,1,0,0:0:0:0:
320,192,157993,1,0,0:0:0:0:
192,192,157993,1,0,0:0:0:0:
192,192,158122,1,0,0:0:0:0:
320,192,158122,1,0,0:0:0:0:
64,192,158122,1,0,0:0:0:0:
320,192,158250,1,0,0:0:0:0:
192,192,158250,1,0,0:0:0:0:
448,192,158314,1,0,0:0:0:0:
64,192,158314,1,0,0:0:0:0:
192,192,158442,1,0,0:0:0:0:
64,192,158442,1,0,0:0:0:0:
320,192,158506,1,0,0:0:0:0:
448,192,158506,1,0,0:0:0:0:
448,192,158634,1,0,0:0:0:0:
320,192,158699,1,0,0:0:0:0:
192,192,158763,1,0,0:0:0:0:
64,192,158827,1,0,0:0:0:0:
192,192,158891,1,0,0:0:0:0:
320,192,158955,1,0,0:0:0:0:
448,192,159019,1,0,0:0:0:0:
320,192,159083,1,0,0:0:0:0:
192,192,159147,1,0,0:0:0:0:
64,192,159211,1,0,0:0:0:0:
192,192,159275,1,0,0:0:0:0:
320,192,159340,1,0,0:0:0:0:
448,192,159404,1,0,0:0:0:0:
320,192,159468,1,0,0:0:0:0:
192,192,159532,1,0,0:0:0:0:
64,192,159596,1,0,0:0:0:0:
192,192,159660,1,0,0:0:0:0:
448,192,159660,1,0,0:0:0:0:
320,192,159724,1,0,0:0:0:0:
448,192,159788,1,0,0:0:0:0:
320,192,159852,1,0,0:0:0:0:
192,192,159916,1,0,0:0:0:0:
64,192,159916,1,0,0:0:0:0:
448,192,159981,1,0,0:0:0:0:
192,192,160045,1,0,0:0:0:0:
320,192,160045,1,0,0:0:0:0:
64,192,160109,1,0,0:0:0:0:
320,192,160173,1,0,0:0:0:0:
448,192,160173,1,0,0:0:0:0:
64,192,160237,1,0,0:0:0:0:
192,192,160301,1,0,0:0:0:0:
320,192,160301,1,0,0:0:0:0:
448,192,160365,1,0,0:0:0:0:
192,192,160429,1,0,0:0:0:0:
64,192,160429,1,0,0:0:0:0:
448,192,160493,1,0,0:0:0:0:
320,192,160493,1,0,0:0:0:0:
192,192,160558,1,0,0:0:0:0:
64,192,160558,1,0,0:0:0:0:
320,192,160622,1,0,0:0:0:0:
448,192,160622,1,0,0:0:0:0:
192,192,160686,1,0,0:0:0:0:
64,192,160686,1,0,0:0:0:0:
320,192,160750,1,0,0:0:0:0:
192,192,160814,1,0,0:0:0:0:
64,192,160814,1,0,0:0:0:0:
320,192,160878,1,0,0:0:0:0:
448,192,160878,1,0,0:0:0:0:
192,192,160942,1,0,0:0:0:0:
64,192,160942,1,0,0:0:0:0:
448,192,161006,1,0,0:0:0:0:
192,192,161070,1,0,0:0:0:0:
64,192,161070,1,0,0:0:0:0:
320,192,161134,1,0,0:0:0:0:
448,192,161134,1,0,0:0:0:0:
192,192,161199,1,0,0:0:0:0:
64,192,161199,1,0,0:0:0:0:
448,192,161263,1,0,0:0:0:0:
192,192,161327,1,0,0:0:0:0:
64,192,161327,1,0,0:0:0:0:
320,192,161391,1,0,0:0:0:0:
64,192,161455,1,0,0:0:0:0:
448,192,161455,1,0,0:0:0:0:
192,192,161519,1,0,0:0:0:0:
320,192,161583,1,0,0:0:0:0:
448,192,161583,1,0,0:0:0:0:
64,192,161647,1,0,0:0:0:0:
320,192,161711,1,0,0:0:0:0:
448,192,161711,1,0,0:0:0:0:
192,192,161775,1,0,0:0:0:0:
64,192,161775,1,0,0:0:0:0:
320,192,161840,1,0,0:0:0:0:
448,192,161840,1,0,0:0:0:0:
64,192,161904,1,0,0:0:0:0:
192,192,161904,1,0,0:0:0:0:
320,192,161968,1,0,0:0:0:0:
448,192,161968,1,0,0:0:0:0:
192,192,162032,1,0,0:0:0:0:
64,192,162032,1,0,0:0:0:0:
448,192,162096,1,0,0:0:0:0:
320,192,162096,1,0,0:0:0:0:
192,192,162160,1,0,0:0:0:0:
64,192,162160,1,0,0:0:0:0:
320,192,162224,1,0,0:0:0:0:
448,192,162224,1,0,0:0:0:0:
448,192,162416,1,0,0:0:0:0:
192,192,162416,1,0,0:0:0:0:
64,192,162416,1,0,0:0:0:0:
64,192,162609,1,0,0:0:0:0:
320,192,162609,1,0,0:0:0:0:
448,192,162609,1,0,0:0:0:0:
448,192,162737,1,0,0:0:0:0:
192,192,162737,1,0,0:0:0:0:
320,192,162737,1,0,0:0:0:0:
64,192,162801,1,0,0:0:0:0:
192,192,162865,1,0,0:0:0:0:
448,192,162865,1,0,0:0:0:0:
320,192,162929,1,0,0:0:0:0:
64,192,162993,1,0,0:0:0:0:
192,192,162993,1,0,0:0:0:0:
448,192,162993,1,0,0:0:0:0:
320,192,163058,1,0,0:0:0:0:
448,192,163122,1,0,0:0:0:0:
192,192,163122,1,0,0:0:0:0:
64,192,163186,1,0,0:0:0:0:
448,192,163250,1,0,0:0:0:0:
320,192,163250,1,0,0:0:0:0:
192,192,163250,1,0,0:0:0:0:
64,192,163314,1,0,0:0:0:0:
320,192,163378,1,0,0:0:0:0:
192,192,163378,1,0,0:0:0:0:
448,192,163442,1,0,0:0:0:0:
64,192,163506,1,0,0:0:0:0:
192,192,163506,1,0,0:0:0:0:
320,192,163506,1,0,0:0:0:0:
448,192,163570,1,0,0:0:0:0:
320,192,163634,1,0,0:0:0:0:
64,192,163634,1,0,0:0:0:0:
192,192,163699,1,0,0:0:0:0:
64,192,163763,1,0,0:0:0:0:
320,192,163763,1,0,0:0:0:0:
448,192,163763,1,0,0:0:0:0:
192,192,163827,1,0,0:0:0:0:
64,192,163891,1,0,0:0:0:0:
448,192,163891,1,0,0:0:0:0:
320,192,163955,1,0,0:0:0:0:
448,192,164019,1,0,0:0:0:0:
192,192,164019,1,0,0:0:0:0:
64,192,164019,1,0,0:0:0:0:
320,192,164083,1,0,0:0:0:0:
192,192,164147,1,0,0:0:0:0:
448,192,164147,1,0,0:0:0:0:
64,192,164211,1,0,0:0:0:0:
448,192,164275,1,0,0:0:0:0:
320,192,164275,1,0,0:0:0:0:
192,192,164275,1,0,0:0:0:0:
64,192,164340,1,0,0:0:0:0:
320,192,164404,1,0,0:0:0:0:
448,192,164404,1,0,0:0:0:0:
192,192,164468,1,0,0:0:0:0:
448,192,164532,1,0,0:0:0:0:
320,192,164532,1,0,0:0:0:0:
64,192,164532,1,0,0:0:0:0:
192,192,164596,1,0,0:0:0:0:
320,192,164660,1,0,0:0:0:0:
64,192,164660,1,0,0:0:0:0:
448,192,164724,1,0,0:0:0:0:
64,192,164788,1,0,0:0:0:0:
320,192,164788,1,0,0:0:0:0:
192,192,164788,1,0,0:0:0:0:
448,192,164852,1,0,0:0:0:0:
192,192,164916,1,0,0:0:0:0:
320,192,164916,1,0,0:0:0:0:
64,192,164981,1,0,0:0:0:0:
448,192,165045,1,0,0:0:0:0:
320,192,165045,1,0,0:0:0:0:
192,192,165045,1,0,0:0:0:0:
64,192,165109,1,0,0:0:0:0:
320,192,165173,1,0,0:0:0:0:
448,192,165173,1,0,0:0:0:0:
192,192,165237,1,0,0:0:0:0:
64,192,165301,1,0,0:0:0:0:
320,192,165301,1,0,0:0:0:0:
448,192,165301,1,0,0:0:0:0:
192,192,165365,1,0,0:0:0:0:
448,192,165429,1,0,0:0:0:0:
64,192,165429,1,0,0:0:0:0:
320,192,165493,1,0,0:0:0:0:
448,192,165558,1,0,0:0:0:0:
192,192,165558,1,0,0:0:0:0:
64,192,165558,1,0,0:0:0:0:
320,192,165622,1,0,0:0:0:0:
192,192,165686,1,0,0:0:0:0:
448,192,165686,1,0,0:0:0:0:
64,192,165750,1,0,0:0:0:0:
192,192,165814,1,0,0:0:0:0:
448,192,165814,1,0,0:0:0:0:
320,192,165814,1,0,0:0:0:0:
64,192,165878,1,0,0:0:0:0:
192,192,165942,1,0,0:0:0:0:
320,192,165942,1,0,0:0:0:0:
448,192,166006,1,0,0:0:0:0:
320,192,166070,1,0,0:0:0:0:
192,192,166070,1,0,0:0:0:0:
64,192,166070,1,0,0:0:0:0:
448,192,166134,1,0,0:0:0:0:
320,192,166199,1,0,0:0:0:0:
64,192,166199,1,0,0:0:0:0:
192,192,166263,1,0,0:0:0:0:
64,192,166327,1,0,0:0:0:0:
320,192,166327,1,0,0:0:0:0:
448,192,166327,1,0,0:0:0:0:
192,192,166391,1,0,0:0:0:0:
64,192,166455,1,0,0:0:0:0:
448,192,166455,1,0,0:0:0:0:
320,192,166519,1,0,0:0:0:0:
448,192,166583,1,0,0:0:0:0:
192,192,166583,1,0,0:0:0:0:
64,192,166583,1,0,0:0:0:0:
320,192,166647,1,0,0:0:0:0:
192,192,166711,1,0,0:0:0:0:
448,192,166711,1,0,0:0:0:0:
64,192,166775,1,0,0:0:0:0:
192,192,166840,1,0,0:0:0:0:
320,192,166840,1,0,0:0:0:0:
448,192,166840,128,0,166872:0:0:0:0:
64,192,166904,128,0,166936:0:0:0:0:
320,192,166968,1,0,0:0:0:0:
192,192,166968,128,0,167000:0:0:0:0:
448,192,167032,128,0,167064:0:0:0:0:
192,192,167096,1,0,0:0:0:0:
64,192,167096,1,0,0:0:0:0:
320,192,167096,128,0,167128:0:0:0:0:
448,192,167160,128,0,167192:0:0:0:0:
320,192,167224,1,0,0:0:0:0:
64,192,167224,128,0,167256:0:0:0:0:
192,192,167288,128,0,167320:0:0:0:0:
64,192,167352,1,0,0:0:0:0:
448,192,167352,1,0,0:0:0:0:
320,192,167352,128,0,167384:0:0:0:0:
192,192,167416,128,0,167449:0:0:0:0:
320,192,167481,1,0,0:0:0:0:
448,192,167481,128,0,167513:0:0:0:0:
64,192,167545,1,0,0:0:0:0:
448,192,167609,1,0,0:0:0:0:
192,192,167609,1,0,0:0:0:0:
320,192,167609,128,0,167641:0:0:0:0:
64,192,167673,128,0,167705:0:0:0:0:
448,192,167737,1,0,0:0:0:0:
192,192,167737,128,0,167769:0:0:0:0:
320,192,167801,128,0,167833:0:0:0:0:
64,192,167865,1,0,0:0:0:0:
192,192,167865,1,0,0:0:0:0:
448,192,167865,128,0,167897:0:0:0:0:
320,192,167929,128,0,167961:0:0:0:0:
64,192,167993,1,0,0:0:0:0:
192,192,167993,128,0,168025:0:0:0:0:
448,192,168058,128,0,168090:0:0:0:0:
192,192,168122,1,0,0:0:0:0:
320,192,168122,1,0,0:0:0:0:
64,192,168122,128,0,168154:0:0:0:0:
448,192,168186,128,0,168218:0:0:0:0:
192,192,168250,1,0,0:0:0:0:
320,192,168250,128,0,168282:0:0:0:0:
64,192,168314,128,0,168346:0:0:0:0:
448,192,168378,1,0,0:0:0:0:
320,192,168378,1,0,0:0:0:0:
192,192,168378,128,0,168410:0:0:0:0:
64,192,168442,128,0,168474:0:0:0:0:
448,192,168506,1,0,0:0:0:0:
320,192,168506,128,0,168538:0:0:0:0:
192,192,168570,128,0,168602:0:0:0:0:
320,192,168634,1,0,0:0:0:0:
64,192,168634,1,0,0:0:0:0:
448,192,168634,128,0,168666:0:0:0:0:
192,192,168699,128,0,168731:0:0:0:0:
64,192,168763,1,0,0:0:0:0:
320,192,168763,128,0,168795:0:0:0:0:
448,192,168827,128,0,168859:0:0:0:0:
192,192,168891,1,0,0:0:0:0:
64,192,168891,1,0,0:0:0:0:
192,192,168976,1,0,0:0:0:0:
64,192,168976,1,0,0:0:0:0:
64,192,169062,1,0,0:0:0:0:
192,192,169062,1,0,0:0:0:0:
192,192,169147,1,0,0:0:0:0:
64,192,169147,1,0,0:0:0:0:
320,192,169318,1,0,0:0:0:0:
448,192,169318,1,0,0:0:0:0:
448,192,169404,1,0,0:0:0:0:
320,192,169404,1,0,0:0:0:0:
448,192,169489,1,0,0:0:0:0:
320,192,169489,1,0,0:0:0:0:
320,192,169575,1,0,0:0:0:0:
448,192,169575,1,0,0:0:0:0:
64,192,169660,1,0,0:0:0:0:
192,192,169660,1,0,0:0:0:0:
192,192,169831,1,0,0:0:0:0:
320,192,169831,1,0,0:0:0:0:
320,192,169916,1,0,0:0:0:0:
192,192,169916,1,0,0:0:0:0:
448,192,169981,1,0,0:0:0:0:
320,192,170045,1,0,0:0:0:0:
64,192,170109,1,0,0:0:0:0:
192,192,170109,1,0,0:0:0:0:
448,192,170173,1,0,0:0:0:0:
192,192,170237,1,0,0:0:0:0:
320,192,170237,1,0,0:0:0:0:
64,192,170301,1,0,0:0:0:0:
448,192,170365,1,0,0:0:0:0:
320,192,170429,1,0,0:0:0:0:
64,192,170429,1,0,0:0:0:0:
192,192,170493,1,0,0:0:0:0:
448,192,170558,1,0,0:0:0:0:
192,192,170622,1,0,0:0:0:0:
64,192,170622,1,0,0:0:0:0:
320,192,170686,1,0,0:0:0:0:
64,192,170750,1,0,0:0:0:0:
320,192,170814,1,0,0:0:0:0:
448,192,170878,1,0,0:0:0:0:
320,192,170942,1,0,0:0:0:0:
64,192,170942,1,0,0:0:0:0:
192,192,170942,1,0,0:0:0:0:
448,192,171006,1,0,0:0:0:0:
192,192,171070,1,0,0:0:0:0:
64,192,171070,1,0,0:0:0:0:
320,192,171134,1,0,0:0:0:0:
64,192,171199,1,0,0:0:0:0:
192,192,171199,1,0,0:0:0:0:
448,192,171199,1,0,0:0:0:0:
320,192,171263,1,0,0:0:0:0:
64,192,171327,1,0,0:0:0:0:
448,192,171327,1,0,0:0:0:0:
192,192,171391,1,0,0:0:0:0:
64,192,171455,1,0,0:0:0:0:
320,192,171455,1,0,0:0:0:0:
448,192,171455,1,0,0:0:0:0:
192,192,171519,1,0,0:0:0:0:
320,192,171583,1,0,0:0:0:0:
64,192,171583,1,0,0:0:0:0:
448,192,171647,1,0,0:0:0:0:
64,192,171711,1,0,0:0:0:0:
192,192,171711,1,0,0:0:0:0:
320,192,171711,1,0,0:0:0:0:
448,192,171775,1,0,0:0:0:0:
192,192,171840,1,0,0:0:0:0:
320,192,171840,1,0,0:0:0:0:
64,192,171904,1,0,0:0:0:0:
192,192,171968,1,0,0:0:0:0:
320,192,171968,1,0,0:0:0:0:
448,192,171968,1,0,0:0:0:0:
64,192,172032,1,0,0:0:0:0:
320,192,172096,1,0,0:0:0:0:
448,192,172096,1,0,0:0:0:0:
192,192,172160,1,0,0:0:0:0:
448,192,172224,1,0,0:0:0:0:
320,192,172224,1,0,0:0:0:0:
64,192,172224,1,0,0:0:0:0:
192,192,172288,1,0,0:0:0:0:
448,192,172352,1,0,0:0:0:0:
64,192,172352,1,0,0:0:0:0:
320,192,172416,1,0,0:0:0:0:
192,192,172481,1,0,0:0:0:0:
64,192,172481,1,0,0:0:0:0:
448,192,172481,1,0,0:0:0:0:
320,192,172545,1,0,0:0:0:0:
192,192,172609,1,0,0:0:0:0:
448,192,172609,1,0,0:0:0:0:
64,192,172673,1,0,0:0:0:0:
320,192,172737,1,0,0:0:0:0:
448,192,172737,1,0,0:0:0:0:
192,192,172737,1,0,0:0:0:0:
64,192,172801,1,0,0:0:0:0:
320,192,172865,1,0,0:0:0:0:
192,192,172865,1,0,0:0:0:0:
448,192,172929,1,0,0:0:0:0:
64,192,172993,1,0,0:0:0:0:
320,192,172993,1,0,0:0:0:0:
192,192,172993,1,0,0:0:0:0:
448,192,173058,1,0,0:0:0:0:
320,192,173122,1,0,0:0:0:0:
64,192,173122,1,0,0:0:0:0:
192,192,173186,1,0,0:0:0:0:
64,192,173250,1,0,0:0:0:0:
448,192,173250,1,0,0:0:0:0:
320,192,173250,1,0,0:0:0:0:
192,192,173314,1,0,0:0:0:0:
448,192,173378,1,0,0:0:0:0:
64,192,173378,1,0,0:0:0:0:
320,192,173442,1,0,0:0:0:0:
448,192,173506,1,0,0:0:0:0:
192,192,173506,1,0,0:0:0:0:
64,192,173506,1,0,0:0:0:0:
320,192,173570,1,0,0:0:0:0:
448,192,173634,1,0,0:0:0:0:
192,192,173634,1,0,0:0:0:0:
64,192,173699,1,0,0:0:0:0:
192,192,173763,1,0,0:0:0:0:
448,192,173763,1,0,0:0:0:0:
320,192,173763,1,0,0:0:0:0:
64,192,173827,1,0,0:0:0:0:
320,192,173891,1,0,0:0:0:0:
448,192,173891,1,0,0:0:0:0:
192,192,173955,1,0,0:0:0:0:
448,192,174019,1,0,0:0:0:0:
320,192,174019,1,0,0:0:0:0:
64,192,174019,1,0,0:0:0:0:
192,192,174083,1,0,0:0:0:0:
320,192,174147,1,0,0:0:0:0:
64,192,174147,1,0,0:0:0:0:
448,192,174211,1,0,0:0:0:0:
64,192,174275,1,0,0:0:0:0:
192,192,174275,1,0,0:0:0:0:
320,192,174275,1,0,0:0:0:0:
448,192,174340,1,0,0:0:0:0:
192,192,174404,1,0,0:0:0:0:
64,192,174404,1,0,0:0:0:0:
320,192,174468,1,0,0:0:0:0:
192,192,174532,1,0,0:0:0:0:
64,192,174532,1,0,0:0:0:0:
448,192,174532,1,0,0:0:0:0:
320,192,174596,1,0,0:0:0:0:
64,192,174660,1,0,0:0:0:0:
448,192,174660,1,0,0:0:0:0:
192,192,174724,1,0,0:0:0:0:
448,192,174788,1,0,0:0:0:0:
320,192,174788,1,0,0:0:0:0:
64,192,174788,1,0,0:0:0:0:
192,192,174852,1,0,0:0:0:0:
448,192,174916,1,0,0:0:0:0:
320,192,174916,1,0,0:0:0:0:
64,192,174981,1,0,0:0:0:0:
192,192,175045,1,0,0:0:0:0:
320,192,175045,1,0,0:0:0:0:
448,192,175045,128,0,175077:0:0:0:0:
64,192,175109,128,0,175141:0:0:0:0:
320,192,175173,1,0,0:0:0:0:
192,192,175173,128,0,175205:0:0:0:0:
448,192,175237,128,0,175269:0:0:0:0:
64,192,175301,1,0,0:0:0:0:
192,192,175301,1,0,0:0:0:0:
320,192,175301,128,0,175333:0:0:0:0:
448,192,175365,128,0,175397:0:0:0:0:
320,192,175429,1,0,0:0:0:0:
64,192,175429,128,0,175461:0:0:0:0:
192,192,175493,128,0,175525:0:0:0:0:
64,192,175558,1,0,0:0:0:0:
448,192,175558,1,0,0:0:0:0:
320,192,175558,128,0,175590:0:0:0:0:
192,192,175622,128,0,175654:0:0:0:0:
64,192,175686,1,0,0:0:0:0:
448,192,175686,128,0,175718:0:0:0:0:
320,192,175750,128,0,175782:0:0:0:0:
192,192,175814,1,0,0:0:0:0:
448,192,175814,1,0,0:0:0:0:
64,192,175814,128,0,175846:0:0:0:0:
320,192,175878,128,0,175910:0:0:0:0:
448,192,175942,1,0,0:0:0:0:
192,192,175942,128,0,175974:0:0:0:0:
64,192,176006,128,0,176038:0:0:0:0:
448,192,176070,1,0,0:0:0:0:
192,192,176070,1,0,0:0:0:0:
320,192,176070,128,0,176102:0:0:0:0:
64,192,176134,128,0,176166:0:0:0:0:
320,192,176199,1,0,0:0:0:0:
192,192,176199,128,0,176231:0:0:0:0:
448,192,176263,128,0,176295:0:0:0:0:
192,192,176327,1,0,0:0:0:0:
320,192,176327,1,0,0:0:0:0:
64,192,176327,128,0,176359:0:0:0:0:
448,192,176391,128,0,176423:0:0:0:0:
64,192,176455,1,0,0:0:0:0:
320,192,176455,128,0,176487:0:0:0:0:
192,192,176519,128,0,176551:0:0:0:0:
64,192,176583,1,0,0:0:0:0:
320,192,176583,1,0,0:0:0:0:
448,192,176583,1,0,0:0:0:0:
192,192,176754,1,0,0:0:0:0:
320,192,176754,1,0,0:0:0:0:
448,192,176754,1,0,0:0:0:0:
448,192,176925,1,0,0:0:0:0:
192,192,176925,1,0,0:0:0:0:
64,192,176925,1,0,0:0:0:0:
64,192,177096,1,0,0:0:0:0:
192,192,177096,128,0,177160:0:0:0:0:
320,192,177139,128,0,177203:0:0:0:0:
448,192,177181,128,0,177246:0:0:0:0:
64,192,177224,128,0,177288:0:0:0:0:
192,192,177267,128,0,177331:0:0:0:0:
320,192,177310,128,0,177374:0:0:0:0:
448,192,177352,1,0,0:0:0:0:
192,192,177395,128,0,177459:0:0:0:0:
64,192,177438,128,0,177502:0:0:0:0:
320,192,177481,128,0,177545:0:0:0:0:
448,192,177523,128,0,177587:0:0:0:0:
192,192,177566,128,0,177630:0:0:0:0:
64,192,177609,128,0,177673:0:0:0:0:
448,192,177652,128,0,177716:0:0:0:0:
320,192,177694,128,0,177758:0:0:0:0:
192,192,177737,128,0,177801:0:0:0:0:
64,192,177780,1,0,0:0:0:0:
320,192,177822,128,0,177887:0:0:0:0:
192,192,177865,128,0,177929:0:0:0:0:
64,192,177908,128,0,177972:0:0:0:0:
448,192,177951,1,0,0:0:0:0:
320,192,177993,1,0,0:0:0:0:
192,192,178036,1,0,0:0:0:0:
64,192,178079,1,0,0:0:0:0:
448,192,178122,5,0,0:0:0:0:
320,192,178122,1,0,0:0:0:0:
192,192,178122,128,0,178186:0:0:0:0:
64,192,178164,128,0,178228:0:0:0:0:
320,192,178207,128,0,178271:0:0:0:0:
448,192,178250,128,0,178314:0:0:0:0:
192,192,178293,128,0,178357:0:0:0:0:
64,192,178335,128,0,178399:0:0:0:0:
320,192,178378,128,0,178442:0:0:0:0:
448,192,178421,128,0,178485:0:0:0:0:
192,192,178464,128,0,178528:0:0:0:0:
64,192,178506,128,0,178570:0:0:0:0:
320,192,178549,128,0,178613:0:0:0:0:
448,192,178592,128,0,178656:0:0:0:0:
64,192,178634,1,0,0:0:0:0:
64,192,178720,1,0,0:0:0:0:
64,192,178805,1,0,0:0:0:0:
320,192,178891,1,0,0:0:0:0:
320,192,178976,1,0,0:0:0:0:
320,192,179062,1,0,0:0:0:0:
64,192,179147,1,0,0:0:0:0:
192,192,179147,1,0,0:0:0:0:
448,192,179147,1,0,0:0:0:0:
192,192,179275,1,0,0:0:0:0:
320,192,179275,1,0,0:0:0:0:
64,192,179404,1,0,0:0:0:0:
448,192,179404,1,0,0:0:0:0:
320,192,179404,1,0,0:0:0:0:
448,192,179532,1,0,0:0:0:0:
192,192,179532,1,0,0:0:0:0:
448,192,179660,1,0,0:0:0:0:
320,192,179660,1,0,0:0:0:0:
192,192,179660,1,0,0:0:0:0:
64,192,179660,1,0,0:0:0:0:
320,192,179788,1,0,0:0:0:0:
64,192,179788,1,0,0:0:0:0:
64,192,179916,1,0,0:0:0:0:
192,192,179916,1,0,0:0:0:0:
320,192,179916,1,0,0:0:0:0:
320,192,180045,1,0,0:0:0:0:
448,192,180045,1,0,0:0:0:0:
448,192,180173,1,0,0:0:0:0:
192,192,180173,1,0,0:0:0:0:
64,192,180173,1,0,0:0:0:0:
64,192,180301,1,0,0:0:0:0:
320,192,180301,1,0,0:0:0:0:
192,192,180429,1,0,0:0:0:0:
320,192,180429,1,0,0:0:0:0:
448,192,180429,1,0,0:0:0:0:
192,192,180558,1,0,0:0:0:0:
64,192,180558,1,0,0:0:0:0:
64,192,180686,1,0,0:0:0:0:
192,192,180686,1,0,0:0:0:0:
320,192,180686,1,0,0:0:0:0:
448,192,180686,1,0,0:0:0:0:
320,192,180814,1,0,0:0:0:0:
192,192,180814,1,0,0:0:0:0:
448,192,180942,1,0,0:0:0:0:
320,192,180942,1,0,0:0:0:0:
64,192,180942,1,0,0:0:0:0:
448,192,181070,1,0,0:0:0:0:
64,192,181070,1,0,0:0:0:0:
64,192,181199,1,0,0:0:0:0:
192,192,181199,1,0,0:0:0:0:
320,192,181199,1,0,0:0:0:0:
64,192,181327,1,0,0:0:0:0:
448,192,181327,1,0,0:0:0:0:
192,192,181455,1,0,0:0:0:0:
448,192,181455,1,0,0:0:0:0:
320,192,181455,1,0,0:0:0:0:
192,192,181583,1,0,0:0:0:0:
64,192,181583,1,0,0:0:0:0:
448,192,181711,1,0,0:0:0:0:
320,192,181711,1,0,0:0:0:0:
64,192,181711,1,0,0:0:0:0:
192,192,181711,1,0,0:0:0:0:
320,192,181840,1,0,0:0:0:0:
448,192,181840,1,0,0:0:0:0:
448,192,181968,1,0,0:0:0:0:
192,192,181968,1,0,0:0:0:0:
64,192,181968,1,0,0:0:0:0:
448,192,182096,1,0,0:0:0:0:
64,192,182096,1,0,0:0:0:0:
64,192,182224,1,0,0:0:0:0:
320,192,182224,1,0,0:0:0:0:
192,192,182224,1,0,0:0:0:0:
192,192,182352,1,0,0:0:0:0:
448,192,182352,1,0,0:0:0:0:
64,192,182481,1,0,0:0:0:0:
320,192,182481,1,0,0:0:0:0:
448,192,182481,1,0,0:0:0:0:
64,192,182609,1,0,0:0:0:0:
192,192,182609,1,0,0:0:0:0:
64,192,182737,1,0,0:0:0:0:
448,192,182737,1,0,0:0:0:0:
320,192,182737,1,0,0:0:0:0:
192,192,182737,1,0,0:0:0:0:
320,192,182865,1,0,0:0:0:0:
448,192,182865,1,0,0:0:0:0:
448,192,182993,1,0,0:0:0:0:
320,192,182993,1,0,0:0:0:0:
192,192,182993,1,0,0:0:0:0:
64,192,183122,1,0,0:0:0:0:
320,192,183122,1,0,0:0:0:0:
64,192,183250,1,0,0:0:0:0:
320,192,183250,1,0,0:0:0:0:
192,192,183250,128,0,183282:0:0:0:0:
448,192,183314,128,0,183346:0:0:0:0:
64,192,183378,1,0,0:0:0:0:
320,192,183378,128,0,183410:0:0:0:0:
192,192,183442,128,0,183474:0:0:0:0:
320,192,183506,1,0,0:0:0:0:
448,192,183506,1,0,0:0:0:0:
64,192,183506,128,0,183538:0:0:0:0:
192,192,183570,128,0,183602:0:0:0:0:
64,192,183634,1,0,0:0:0:0:
448,192,183634,128,0,183666:0:0:0:0:
320,192,183699,128,0,183731:0:0:0:0:
192,192,183763,1,0,0:0:0:0:
448,192,183763,1,0,0:0:0:0:
64,192,183763,128,0,183795:0:0:0:0:
320,192,183827,128,0,183859:0:0:0:0:
64,192,183891,1,0,0:0:0:0:
192,192,183891,128,0,183923:0:0:0:0:
448,192,183955,128,0,183987:0:0:0:0:
192,192,184019,1,0,0:0:0:0:
64,192,184019,1,0,0:0:0:0:
320,192,184019,128,0,184051:0:0:0:0:
448,192,184083,128,0,184115:0:0:0:0:
320,192,184147,1,0,0:0:0:0:
192,192,184147,128,0,184179:0:0:0:0:
64,192,184211,128,0,184243:0:0:0:0:
192,192,184275,1,0,0:0:0:0:
448,192,184275,1,0,0:0:0:0:
320,192,184275,128,0,184308:0:0:0:0:
64,192,184340,128,0,184372:0:0:0:0:
448,192,184404,1,0,0:0:0:0:
192,192,184404,128,0,184436:0:0:0:0:
320,192,184468,128,0,184500:0:0:0:0:
192,192,184532,1,0,0:0:0:0:
64,192,184532,1,0,0:0:0:0:
448,192,184532,128,0,184564:0:0:0:0:
320,192,184596,128,0,184628:0:0:0:0:
448,192,184660,1,0,0:0:0:0:
64,192,184660,128,0,184692:0:0:0:0:
192,192,184724,128,0,184756:0:0:0:0:
64,192,184788,1,0,0:0:0:0:
448,192,184788,1,0,0:0:0:0:
320,192,184788,128,0,184820:0:0:0:0:
192,192,184852,128,0,184884:0:0:0:0:
320,192,184916,1,0,0:0:0:0:
64,192,184916,128,0,184949:0:0:0:0:
448,192,184981,128,0,185013:0:0:0:0:
192,192,185045,1,0,0:0:0:0:
64,192,185045,1,0,0:0:0:0:
320,192,185045,128,0,185077:0:0:0:0:
448,192,185109,128,0,185141:0:0:0:0:
320,192,185173,1,0,0:0:0:0:
192,192,185173,128,0,185205:0:0:0:0:
64,192,185237,128,0,185269:0:0:0:0:
448,192,185301,1,0,0:0:0:0:
192,192,185301,1,0,0:0:0:0:
320,192,185301,128,0,185333:0:0:0:0:
64,192,185365,128,0,185397:0:0:0:0:
320,192,185429,1,0,0:0:0:0:
448,192,185429,128,0,185461:0:0:0:0:
192,192,185493,128,0,185525:0:0:0:0:
64,192,185558,1,0,0:0:0:0:
448,192,185558,1,0,0:0:0:0:
320,192,185558,128,0,185590:0:0:0:0:
192,192,185622,128,0,185654:0:0:0:0:
448,192,185686,1,0,0:0:0:0:
64,192,185686,128,0,185718:0:0:0:0:
320,192,185750,128,0,185782:0:0:0:0:
192,192,185814,1,0,0:0:0:0:
64,192,185814,1,0,0:0:0:0:
448,192,185814,128,0,185846:0:0:0:0:
320,192,185878,128,0,185910:0:0:0:0:
64,192,185942,1,0,0:0:0:0:
192,192,185942,128,0,185974:0:0:0:0:
448,192,186006,128,0,186038:0:0:0:0:
192,192,186070,1,0,0:0:0:0:
320,192,186070,1,0,0:0:0:0:
64,192,186070,128,0,186102:0:0:0:0:
448,192,186134,128,0,186166:0:0:0:0:
64,192,186199,1,0,0:0:0:0:
320,192,186199,128,0,186231:0:0:0:0:
192,192,186263,128,0,186295:0:0:0:0:
64,192,186327,1,0,0:0:0:0:
320,192,186327,1,0,0:0:0:0:
448,192,186327,1,0,0:0:0:0:
448,192,186455,1,0,0:0:0:0:
320,192,186455,1,0,0:0:0:0:
192,192,186519,1,0,0:0:0:0:
64,192,186519,1,0,0:0:0:0:
320,192,186583,1,0,0:0:0:0:
448,192,186583,1,0,0:0:0:0:
192,192,186647,1,0,0:0:0:0:
64,192,186647,1,0,0:0:0:0:
448,192,186711,1,0,0:0:0:0:
320,192,186711,1,0,0:0:0:0:
448,192,186840,1,0,0:0:0:0:
64,192,186840,1,0,0:0:0:0:
192,192,186904,1,0,0:0:0:0:
320,192,186904,1,0,0:0:0:0:
64,192,186968,1,0,0:0:0:0:
448,192,186968,1,0,0:0:0:0:
192,192,187032,1,0,0:0:0:0:
320,192,187032,1,0,0:0:0:0:
448,192,187096,1,0,0:0:0:0:
64,192,187096,1,0,0:0:0:0:
192,192,187224,1,0,0:0:0:0:
320,192,187224,1,0,0:0:0:0:
448,192,187224,1,0,0:0:0:0:
448,192,187352,1,0,0:0:0:0:
320,192,187352,1,0,0:0:0:0:
192,192,187416,1,0,0:0:0:0:
320,192,187481,1,0,0:0:0:0:
448,192,187481,1,0,0:0:0:0:
64,192,187545,1,0,0:0:0:0:
448,192,187609,1,0,0:0:0:0:
320,192,187609,1,0,0:0:0:0:
192,192,187673,1,0,0:0:0:0:
64,192,187737,1,0,0:0:0:0:
448,192,187737,1,0,0:0:0:0:
320,192,187801,1,0,0:0:0:0:
64,192,187865,1,0,0:0:0:0:
192,192,187865,1,0,0:0:0:0:
448,192,187929,1,0,0:0:0:0:
64,192,187993,1,0,0:0:0:0:
192,192,187993,1,0,0:0:0:0:
320,192,188058,1,0,0:0:0:0:
64,192,188122,1,0,0:0:0:0:
192,192,188122,1,0,0:0:0:0:
448,192,188186,1,0,0:0:0:0:
320,192,188250,1,0,0:0:0:0:
64,192,188250,1,0,0:0:0:0:
192,192,188314,1,0,0:0:0:0:
320,192,188378,1,0,0:0:0:0:
448,192,188378,1,0,0:0:0:0:
64,192,188378,128,0,188634:0:0:0:0:
448,192,188634,128,0,188891:0:0:0:0:
64,192,188891,1,0,0:0:0:0:
192,192,188907,1,0,0:0:0:0:
320,192,188923,128,0,189404:0:0:0:0:
448,192,189404,1,0,0:0:0:0:
192,192,189404,1,0,0:0:0:0:
64,192,189404,1,0,0:0:0:0:
192,192,189532,1,0,0:0:0:0:
320,192,189532,1,0,0:0:0:0:
448,192,189532,1,0,0:0:0:0:
64,192,189660,1,0,0:0:0:0:
320,192,189660,1,0,0:0:0:0:
448,192,189660,1,0,0:0:0:0:
320,192,189788,1,0,0:0:0:0:
192,192,189788,1,0,0:0:0:0:
64,192,189788,1,0,0:0:0:0:
192,192,189916,1,0,0:0:0:0:
320,192,189916,1,0,0:0:0:0:
448,192,189916,1,0,0:0:0:0:
448,192,190045,1,0,0:0:0:0:
192,192,190045,1,0,0:0:0:0:
64,192,190045,1,0,0:0:0:0:
64,192,190173,1,0,0:0:0:0:
192,192,190173,1,0,0:0:0:0:
320,192,190173,1,0,0:0:0:0:
64,192,190301,1,0,0:0:0:0:
320,192,190301,1,0,0:0:0:0:
448,192,190301,1,0,0:0:0:0:
64,192,190429,1,0,0:0:0:0:
192,192,190472,1,0,0:0:0:0:
320,192,190515,1,0,0:0:0:0:
448,192,190558,1,0,0:0:0:0:
64,192,190600,1,0,0:0:0:0:
192,192,190643,1,0,0:0:0:0:
320,192,190686,1,0,0:0:0:0:
448,192,190728,1,0,0:0:0:0:
64,192,190771,1,0,0:0:0:0:
448,192,190814,1,0,0:0:0:0:
320,192,190857,1,0,0:0:0:0:
192,192,190899,1,0,0:0:0:0:
64,192,190942,1,0,0:0:0:0:
448,192,190985,1,0,0:0:0:0:
320,192,191028,1,0,0:0:0:0:
192,192,191070,1,0,0:0:0:0:
64,192,191113,1,0,0:0:0:0:
448,192,191156,1,0,0:0:0:0:
320,192,191199,1,0,0:0:0:0:
192,192,191241,1,0,0:0:0:0:
448,192,191284,1,0,0:0:0:0:
64,192,191284,1,0,0:0:0:0:
320,192,191327,1,0,0:0:0:0:
192,192,191369,1,0,0:0:0:0:
64,192,191412,1,0,0:0:0:0:
320,192,191455,1,0,0:0:0:0:
448,192,191455,1,0,0:0:0:0:
192,192,191519,1,0,0:0:0:0:
320,192,191583,1,0,0:0:0:0:
64,192,191583,1,0,0:0:0:0:
192,192,191647,1,0,0:0:0:0:
64,192,191711,1,0,0:0:0:0:
448,192,191711,1,0,0:0:0:0:
320,192,191775,1,0,0:0:0:0:
192,192,191840,1,0,0:0:0:0:
448,192,191840,1,0,0:0:0:0:
64,192,191904,1,0,0:0:0:0:
320,192,191968,1,0,0:0:0:0:
448,192,191968,1,0,0:0:0:0:
192,192,192032,1,0,0:0:0:0:
320,192,192096,1,0,0:0:0:0:
64,192,192096,1,0,0:0:0:0:
448,192,192160,1,0,0:0:0:0:
192,192,192224,1,0,0:0:0:0:
64,192,192224,1,0,0:0:0:0:
320,192,192288,1,0,0:0:0:0:
448,192,192352,1,0,0:0:0:0:
192,192,192352,1,0,0:0:0:0:
64,192,192416,1,0,0:0:0:0:
320,192,192481,1,0,0:0:0:0:
448,192,192481,1,0,0:0:0:0:
192,192,192545,1,0,0:0:0:0:
448,192,192609,1,0,0:0:0:0:
64,192,192609,1,0,0:0:0:0:
192,192,192673,1,0,0:0:0:0:
320,192,192737,1,0,0:0:0:0:
64,192,192737,1,0,0:0:0:0:
448,192,192801,1,0,0:0:0:0:
192,192,192865,1,0,0:0:0:0:
64,192,192865,1,0,0:0:0:0:
320,192,192929,1,0,0:0:0:0:
448,192,192993,1,0,0:0:0:0:
64,192,192993,1,0,0:0:0:0:
192,192,193058,1,0,0:0:0:0:
320,192,193122,1,0,0:0:0:0:
448,192,193122,1,0,0:0:0:0:
64,192,193186,1,0,0:0:0:0:
192,192,193250,1,0,0:0:0:0:
320,192,193250,1,0,0:0:0:0:
448,192,193314,1,0,0:0:0:0:
320,192,193378,1,0,0:0:0:0:
64,192,193378,1,0,0:0:0:0:
192,192,193442,1,0,0:0:0:0:
320,192,193506,1,0,0:0:0:0:
448,192,193506,1,0,0:0:0:0:
64,192,193506,1,0,0:0:0:0:
448,192,193699,1,0,0:0:0:0:
192,192,193699,1,0,0:0:0:0:
64,192,193699,1,0,0:0:0:0:
64,192,193891,1,0,0:0:0:0:
320,192,193891,1,0,0:0:0:0:
448,192,193891,1,0,0:0:0:0:
448,192,194019,1,0,0:0:0:0:
320,192,194019,1,0,0:0:0:0:
192,192,194019,1,0,0:0:0:0:
320,192,194211,1,0,0:0:0:0:
192,192,194211,1,0,0:0:0:0:
64,192,194211,1,0,0:0:0:0:
192,192,194404,1,0,0:0:0:0:
320,192,194404,1,0,0:0:0:0:
448,192,194404,1,0,0:0:0:0:
320,192,194532,1,0,0:0:0:0:
192,192,194532,1,0,0:0:0:0:
64,192,194532,1,0,0:0:0:0:
64,192,194660,1,0,0:0:0:0:
320,192,194660,1,0,0:0:0:0:
448,192,194660,1,0,0:0:0:0:
64,192,194852,1,0,0:0:0:0:
192,192,194852,1,0,0:0:0:0:
320,192,194916,1,0,0:0:0:0:
448,192,194916,1,0,0:0:0:0:
448,192,195045,1,0,0:0:0:0:
320,192,195045,1,0,0:0:0:0:
192,192,195045,1,0,0:0:0:0:
64,192,195045,128,0,195130:0:0:0:0:
192,192,195087,128,0,195173:0:0:0:0:
320,192,195130,128,0,195216:0:0:0:0:
448,192,195173,128,0,195258:0:0:0:0:
64,192,195216,128,0,195301:0:0:0:0:
192,192,195258,128,0,195344:0:0:0:0:
320,192,195301,128,0,195387:0:0:0:0:
448,192,195344,128,0,195429:0:0:0:0:
64,192,195387,128,0,195515:0:0:0:0:
192,192,195429,128,0,195515:0:0:0:0:
320,192,195472,128,0,195515:0:0:0:0:
448,192,195515,128,0,195558:0:0:0:0:
320,192,195558,1,0,0:0:0:0:
192,192,195558,1,0,0:0:0:0:
64,192,195558,1,0,0:0:0:0:
64,192,203763,132,0,205814:0:0:0:0:
320,192,203763,1,0,0:0:0:0:
448,192,203763,1,0,0:0:0:0:
192,192,203827,1,0,0:0:0:0:
320,192,203891,1,0,0:0:0:0:
448,192,203955,1,0,0:0:0:0:
192,192,204019,1,0,0:0:0:0:
448,192,204083,1,0,0:0:0:0:
320,192,204147,1,0,0:0:0:0:
448,192,204211,1,0,0:0:0:0:
192,192,204275,1,0,0:0:0:0:
320,192,204340,1,0,0:0:0:0:
192,192,204404,1,0,0:0:0:0:
448,192,204468,1,0,0:0:0:0:
320,192,204532,1,0,0:0:0:0:
192,192,204596,1,0,0:0:0:0:
448,192,204660,1,0,0:0:0:0:
320,192,204724,1,0,0:0:0:0:
448,192,204788,1,0,0:0:0:0:
192,192,204788,1,0,0:0:0:0:
320,192,204852,1,0,0:0:0:0:
192,192,204916,1,0,0:0:0:0:
448,192,204981,1,0,0:0:0:0:
320,192,205045,1,0,0:0:0:0:
448,192,205109,1,0,0:0:0:0:
192,192,205173,1,0,0:0:0:0:
320,192,205237,1,0,0:0:0:0:
448,192,205301,1,0,0:0:0:0:
192,192,205365,1,0,0:0:0:0:
320,192,205429,1,0,0:0:0:0:
320,192,205558,1,0,0:0:0:0:
448,192,205558,1,0,0:0:0:0:
192,192,205558,1,0,0:0:0:0:
192,192,205686,1,0,0:0:0:0:
320,192,205686,1,0,0:0:0:0:
448,192,205686,1,0,0:0:0:0:
448,192,205814,128,0,207865:0:0:0:0:
320,192,205814,1,0,0:0:0:0:
192,192,205878,1,0,0:0:0:0:
320,192,205942,1,0,0:0:0:0:
64,192,206006,1,0,0:0:0:0:
192,192,206070,1,0,0:0:0:0:
320,192,206134,1,0,0:0:0:0:
64,192,206199,1,0,0:0:0:0:
320,192,206263,1,0,0:0:0:0:
192,192,206327,1,0,0:0:0:0:
64,192,206327,1,0,0:0:0:0:
320,192,206391,1,0,0:0:0:0:
192,192,206455,1,0,0:0:0:0:
64,192,206519,1,0,0:0:0:0:
320,192,206583,1,0,0:0:0:0:
192,192,206647,1,0,0:0:0:0:
64,192,206711,1,0,0:0:0:0:
192,192,206775,1,0,0:0:0:0:
64,192,206840,1,0,0:0:0:0:
320,192,206840,1,0,0:0:0:0:
192,192,206904,1,0,0:0:0:0:
320,192,206968,1,0,0:0:0:0:
64,192,207032,1,0,0:0:0:0:
192,192,207096,1,0,0:0:0:0:
320,192,207160,1,0,0:0:0:0:
192,192,207224,1,0,0:0:0:0:
64,192,207288,1,0,0:0:0:0:
192,192,207352,1,0,0:0:0:0:
320,192,207352,1,0,0:0:0:0:
64,192,207416,1,0,0:0:0:0:
320,192,207481,1,0,0:0:0:0:
192,192,207545,1,0,0:0:0:0:
320,192,207609,1,0,0:0:0:0:
64,192,207673,1,0,0:0:0:0:
320,192,207737,1,0,0:0:0:0:
192,192,207801,1,0,0:0:0:0:
320,192,207865,128,0,209916:0:0:0:0:
64,192,207865,1,0,0:0:0:0:
192,192,207929,1,0,0:0:0:0:
448,192,207993,1,0,0:0:0:0:
64,192,208058,1,0,0:0:0:0:
448,192,208122,1,0,0:0:0:0:
192,192,208186,1,0,0:0:0:0:
448,192,208250,1,0,0:0:0:0:
64,192,208314,1,0,0:0:0:0:
192,192,208378,1,0,0:0:0:0:
448,192,208378,1,0,0:0:0:0:
64,192,208442,1,0,0:0:0:0:
192,192,208506,1,0,0:0:0:0:
448,192,208570,1,0,0:0:0:0:
64,192,208634,1,0,0:0:0:0:
448,192,208699,1,0,0:0:0:0:
64,192,208763,1,0,0:0:0:0:
192,192,208827,1,0,0:0:0:0:
448,192,208891,1,0,0:0:0:0:
64,192,208891,1,0,0:0:0:0:
192,192,208955,1,0,0:0:0:0:
448,192,209019,1,0,0:0:0:0:
192,192,209083,1,0,0:0:0:0:
64,192,209147,1,0,0:0:0:0:
448,192,209211,1,0,0:0:0:0:
64,192,209275,1,0,0:0:0:0:
192,192,209340,1,0,0:0:0:0:
448,192,209404,1,0,0:0:0:0:
64,192,209468,1,0,0:0:0:0:
192,192,209532,1,0,0:0:0:0:
64,192,209660,1,0,0:0:0:0:
448,192,209660,1,0,0:0:0:0:
192,192,209660,1,0,0:0:0:0:
192,192,209788,1,0,0:0:0:0:
64,192,209788,1,0,0:0:0:0:
448,192,209788,1,0,0:0:0:0:
192,192,209916,128,0,211455:0:0:0:0:
448,192,209916,1,0,0:0:0:0:
64,192,209981,1,0,0:0:0:0:
320,192,210045,1,0,0:0:0:0:
64,192,210109,1,0,0:0:0:0:
448,192,210173,1,0,0:0:0:0:
64,192,210237,1,0,0:0:0:0:
320,192,210301,1,0,0:0:0:0:
64,192,210365,1,0,0:0:0:0:
320,192,210429,1,0,0:0:0:0:
448,192,210429,1,0,0:0:0:0:
64,192,210493,1,0,0:0:0:0:
320,192,210558,1,0,0:0:0:0:
448,192,210622,1,0,0:0:0:0:
320,192,210686,1,0,0:0:0:0:
64,192,210686,1,0,0:0:0:0:
448,192,210750,1,0,0:0:0:0:
64,192,210814,1,0,0:0:0:0:
320,192,210878,1,0,0:0:0:0:
64,192,210942,1,0,0:0:0:0:
448,192,210942,1,0,0:0:0:0:
320,192,211006,1,0,0:0:0:0:
448,192,211070,1,0,0:0:0:0:
64,192,211134,1,0,0:0:0:0:
320,192,211199,1,0,0:0:0:0:
448,192,211263,1,0,0:0:0:0:
64,192,211327,1,0,0:0:0:0:
320,192,211391,1,0,0:0:0:0:
448,192,211455,128,0,211711:0:0:0:0:
64,192,211519,1,0,0:0:0:0:
320,192,211583,1,0,0:0:0:0:
192,192,211647,1,0,0:0:0:0:
320,192,211711,128,0,211968:0:0:0:0:
64,192,211775,1,0,0:0:0:0:
192,192,211840,1,0,0:0:0:0:
64,192,211968,128,0,214019:0:0:0:0:
192,192,211968,1,0,0:0:0:0:
448,192,211968,1,0,0:0:0:0:
320,192,212096,1,0,0:0:0:0:
448,192,212096,1,0,0:0:0:0:
192,192,212096,1,0,0:0:0:0:
320,192,212224,1,0,0:0:0:0:
448,192,212224,1,0,0:0:0:0:
192,192,212288,1,0,0:0:0:0:
320,192,212352,1,0,0:0:0:0:
448,192,212416,1,0,0:0:0:0:
192,192,212481,1,0,0:0:0:0:
320,192,212545,1,0,0:0:0:0:
192,192,212609,1,0,0:0:0:0:
448,192,212673,1,0,0:0:0:0:
320,192,212737,1,0,0:0:0:0:
192,192,212801,1,0,0:0:0:0:
320,192,212865,1,0,0:0:0:0:
448,192,212929,1,0,0:0:0:0:
192,192,212993,1,0,0:0:0:0:
320,192,212993,1,0,0:0:0:0:
448,192,213058,1,0,0:0:0:0:
192,192,213122,1,0,0:0:0:0:
320,192,213186,1,0,0:0:0:0:
192,192,213250,1,0,0:0:0:0:
448,192,213314,1,0,0:0:0:0:
320,192,213378,1,0,0:0:0:0:
448,192,213442,1,0,0:0:0:0:
192,192,213506,1,0,0:0:0:0:
320,192,213538,1,0,0:0:0:0:
448,192,213570,1,0,0:0:0:0:
320,192,213634,1,0,0:0:0:0:
192,192,213763,1,0,0:0:0:0:
320,192,213763,1,0,0:0:0:0:
448,192,213763,1,0,0:0:0:0:
192,192,213891,1,0,0:0:0:0:
320,192,213891,1,0,0:0:0:0:
448,192,213891,1,0,0:0:0:0:
320,192,214019,128,0,216070:0:0:0:0:
192,192,214019,1,0,0:0:0:0:
448,192,214083,1,0,0:0:0:0:
192,192,214147,1,0,0:0:0:0:
64,192,214211,1,0,0:0:0:0:
448,192,214275,1,0,0:0:0:0:
192,192,214340,1,0,0:0:0:0:
64,192,214404,1,0,0:0:0:0:
192,192,214468,1,0,0:0:0:0:
448,192,214532,1,0,0:0:0:0:
64,192,214532,1,0,0:0:0:0:
192,192,214596,1,0,0:0:0:0:
448,192,214660,1,0,0:0:0:0:
64,192,214724,1,0,0:0:0:0:
192,192,214788,1,0,0:0:0:0:
448,192,214852,1,0,0:0:0:0:
192,192,214916,1,0,0:0:0:0:
64,192,214981,1,0,0:0:0:0:
192,192,215045,1,0,0:0:0:0:
448,192,215045,1,0,0:0:0:0:
64,192,215109,1,0,0:0:0:0:
448,192,215173,1,0,0:0:0:0:
192,192,215237,1,0,0:0:0:0:
64,192,215301,1,0,0:0:0:0:
448,192,215365,1,0,0:0:0:0:
192,192,215429,1,0,0:0:0:0:
448,192,215493,1,0,0:0:0:0:
192,192,215558,1,0,0:0:0:0:
64,192,215558,1,0,0:0:0:0:
448,192,215622,1,0,0:0:0:0:
64,192,215686,1,0,0:0:0:0:
192,192,215718,1,0,0:0:0:0:
448,192,215750,1,0,0:0:0:0:
64,192,215782,1,0,0:0:0:0:
192,192,215814,1,0,0:0:0:0:
448,192,215846,1,0,0:0:0:0:
64,192,215878,1,0,0:0:0:0:
192,192,215942,1,0,0:0:0:0:
448,192,216006,1,0,0:0:0:0:
192,192,216070,128,0,218122:0:0:0:0:
64,192,216070,1,0,0:0:0:0:
448,192,216134,1,0,0:0:0:0:
320,192,216199,1,0,0:0:0:0:
64,192,216263,1,0,0:0:0:0:
448,192,216327,1,0,0:0:0:0:
320,192,216391,1,0,0:0:0:0:
448,192,216455,1,0,0:0:0:0:
64,192,216519,1,0,0:0:0:0:
448,192,216583,1,0,0:0:0:0:
320,192,216583,1,0,0:0:0:0:
64,192,216647,1,0,0:0:0:0:
320,192,216711,1,0,0:0:0:0:
448,192,216775,1,0,0:0:0:0:
64,192,216840,1,0,0:0:0:0:
448,192,216904,1,0,0:0:0:0:
64,192,216968,1,0,0:0:0:0:
320,192,217032,1,0,0:0:0:0:
448,192,217096,1,0,0:0:0:0:
64,192,217096,1,0,0:0:0:0:
320,192,217160,1,0,0:0:0:0:
448,192,217224,1,0,0:0:0:0:
64,192,217288,1,0,0:0:0:0:
320,192,217352,1,0,0:0:0:0:
64,192,217416,1,0,0:0:0:0:
448,192,217481,1,0,0:0:0:0:
320,192,217545,1,0,0:0:0:0:
448,192,217609,1,0,0:0:0:0:
64,192,217673,1,0,0:0:0:0:
320,192,217705,1,0,0:0:0:0:
448,192,217737,1,0,0:0:0:0:
320,192,217865,1,0,0:0:0:0:
64,192,217865,1,0,0:0:0:0:
448,192,217865,1,0,0:0:0:0:
320,192,217993,1,0,0:0:0:0:
448,192,217993,1,0,0:0:0:0:
64,192,217993,1,0,0:0:0:0:
448,192,218122,128,0,220109:0:0:0:0:
64,192,218122,1,0,0:0:0:0:
320,192,218186,1,0,0:0:0:0:
192,192,218250,1,0,0:0:0:0:
64,192,218314,1,0,0:0:0:0:
320,192,218378,1,0,0:0:0:0:
64,192,218442,1,0,0:0:0:0:
192,192,218506,1,0,0:0:0:0:
320,192,218570,1,0,0:0:0:0:
64,192,218634,1,0,0:0:0:0:
192,192,218634,1,0,0:0:0:0:
320,192,218699,1,0,0:0:0:0:
192,192,218763,1,0,0:0:0:0:
64,192,218827,1,0,0:0:0:0:
192,192,218891,1,0,0:0:0:0:
320,192,218891,1,0,0:0:0:0:
64,192,218955,1,0,0:0:0:0:
320,192,219019,1,0,0:0:0:0:
192,192,219083,1,0,0:0:0:0:
320,192,219147,1,0,0:0:0:0:
64,192,219147,1,0,0:0:0:0:
192,192,219211,1,0,0:0:0:0:
320,192,219275,1,0,0:0:0:0:
64,192,219340,1,0,0:0:0:0:
320,192,219404,128,0,220109:0:0:0:0:
192,192,219404,1,0,0:0:0:0:
192,192,219660,128,0,220109:0:0:0:0:
64,192,219660,1,0,0:0:0:0:
64,192,219916,128,0,220109:0:0:0:0:
448,192,220173,1,0,0:0:0:0:
192,192,220173,1,0,0:0:0:0:
64,192,220173,1,0,0:0:0:0:
192,192,220301,1,0,0:0:0:0:
320,192,220301,1,0,0:0:0:0:
448,192,220301,1,0,0:0:0:0:
448,192,220558,1,0,0:0:0:0:
192,192,220558,1,0,0:0:0:0:
64,192,220558,1,0,0:0:0:0:
192,192,220686,1,0,0:0:0:0:
320,192,220686,1,0,0:0:0:0:
448,192,220686,1,0,0:0:0:0:
448,192,220942,1,0,0:0:0:0:
64,192,220942,1,0,0:0:0:0:
192,192,220942,1,0,0:0:0:0:
448,192,221070,1,0,0:0:0:0:
320,192,221070,1,0,0:0:0:0:
192,192,221070,1,0,0:0:0:0:
64,192,221199,1,0,0:0:0:0:
192,192,221199,1,0,0:0:0:0:
448,192,221199,1,0,0:0:0:0:
320,192,221199,1,0,0:0:0:0:
192,192,221284,1,0,0:0:0:0:
320,192,221369,1,0,0:0:0:0:
192,192,221455,1,0,0:0:0:0:
448,192,221540,1,0,0:0:0:0:
64,192,221540,1,0,0:0:0:0:
320,192,221626,1,0,0:0:0:0:
192,192,221711,1,0,0:0:0:0:
320,192,221797,1,0,0:0:0:0:
64,192,221882,1,0,0:0:0:0:
448,192,221882,1,0,0:0:0:0:
192,192,221968,1,0,0:0:0:0:
320,192,222053,1,0,0:0:0:0:
448,192,222139,1,0,0:0:0:0:
64,192,222224,1,0,0:0:0:0:
320,192,222224,1,0,0:0:0:0:
192,192,222224,1,0,0:0:0:0:
192,192,222352,1,0,0:0:0:0:
320,192,222352,1,0,0:0:0:0:
448,192,222352,1,0,0:0:0:0:
64,192,222609,1,0,0:0:0:0:
320,192,222609,1,0,0:0:0:0:
192,192,222609,1,0,0:0:0:0:
192,192,222737,1,0,0:0:0:0:
448,192,222737,1,0,0:0:0:0:
320,192,222737,1,0,0:0:0:0:
320,192,222993,1,0,0:0:0:0:
64,192,222993,1,0,0:0:0:0:
192,192,222993,1,0,0:0:0:0:
320,192,223122,1,0,0:0:0:0:
448,192,223122,1,0,0:0:0:0:
192,192,223122,1,0,0:0:0:0:
64,192,223250,1,0,0:0:0:0:
192,192,223250,1,0,0:0:0:0:
448,192,223250,1,0,0:0:0:0:
320,192,223250,1,0,0:0:0:0:
320,192,223335,1,0,0:0:0:0:
192,192,223421,1,0,0:0:0:0:
320,192,223506,1,0,0:0:0:0:
64,192,223592,1,0,0:0:0:0:
448,192,223592,1,0,0:0:0:0:
192,192,223677,1,0,0:0:0:0:
320,192,223763,1,0,0:0:0:0:
192,192,223848,1,0,0:0:0:0:
448,192,223934,1,0,0:0:0:0:
64,192,223934,1,0,0:0:0:0:
320,192,224019,1,0,0:0:0:0:
192,192,224083,1,0,0:0:0:0:
320,192,224147,1,0,0:0:0:0:
192,192,224211,1,0,0:0:0:0:
64,192,224275,1,0,0:0:0:0:
320,192,224275,1,0,0:0:0:0:
448,192,224275,1,0,0:0:0:0:
448,192,224404,1,0,0:0:0:0:
64,192,224404,1,0,0:0:0:0:
192,192,224404,1,0,0:0:0:0:
64,192,224660,1,0,0:0:0:0:
320,192,224660,1,0,0:0:0:0:
448,192,224660,1,0,0:0:0:0:
448,192,224788,1,0,0:0:0:0:
64,192,224788,1,0,0:0:0:0:
192,192,224788,1,0,0:0:0:0:
64,192,225045,1,0,0:0:0:0:
320,192,225045,1,0,0:0:0:0:
448,192,225045,1,0,0:0:0:0:
64,192,225173,1,0,0:0:0:0:
448,192,225173,1,0,0:0:0:0:
192,192,225173,1,0,0:0:0:0:
448,192,225301,1,0,0:0:0:0:
320,192,225301,1,0,0:0:0:0:
64,192,225301,1,0,0:0:0:0:
192,192,225301,1,0,0:0:0:0:
64,192,225387,1,0,0:0:0:0:
320,192,225472,1,0,0:0:0:0:
448,192,225558,1,0,0:0:0:0:
192,192,225643,1,0,0:0:0:0:
320,192,225643,1,0,0:0:0:0:
64,192,225728,1,0,0:0:0:0:
448,192,225814,1,0,0:0:0:0:
64,192,225899,1,0,0:0:0:0:
192,192,225985,1,0,0:0:0:0:
320,192,225985,1,0,0:0:0:0:
448,192,226070,1,0,0:0:0:0:
320,192,226156,1,0,0:0:0:0:
64,192,226241,1,0,0:0:0:0:
448,192,226327,1,0,0:0:0:0:
320,192,226327,1,0,0:0:0:0:
192,192,226327,1,0,0:0:0:0:
64,192,226455,1,0,0:0:0:0:
192,192,226455,1,0,0:0:0:0:
448,192,226455,1,0,0:0:0:0:
448,192,226711,1,0,0:0:0:0:
320,192,226711,1,0,0:0:0:0:
192,192,226711,1,0,0:0:0:0:
64,192,226840,1,0,0:0:0:0:
192,192,226840,1,0,0:0:0:0:
448,192,226840,1,0,0:0:0:0:
320,192,227096,1,0,0:0:0:0:
448,192,227096,1,0,0:0:0:0:
192,192,227096,1,0,0:0:0:0:
448,192,227224,1,0,0:0:0:0:
64,192,227224,1,0,0:0:0:0:
192,192,227224,1,0,0:0:0:0:
448,192,227481,1,0,0:0:0:0:
320,192,227481,1,0,0:0:0:0:
64,192,227481,1,0,0:0:0:0:
64,192,227609,1,0,0:0:0:0:
192,192,227609,1,0,0:0:0:0:
448,192,227609,1,0,0:0:0:0:
320,192,227865,1,0,0:0:0:0:
448,192,227865,1,0,0:0:0:0:
64,192,227865,1,0,0:0:0:0:
448,192,227993,1,0,0:0:0:0:
320,192,227993,1,0,0:0:0:0:
192,192,227993,1,0,0:0:0:0:
448,192,228058,1,0,0:0:0:0:
320,192,228058,1,0,0:0:0:0:
448,192,228186,1,0,0:0:0:0:
64,192,228186,1,0,0:0:0:0:
320,192,228250,1,0,0:0:0:0:
192,192,228250,1,0,0:0:0:0:
320,192,228378,1,0,0:0:0:0:
192,192,228378,1,0,0:0:0:0:
64,192,228378,1,0,0:0:0:0:
448,192,228378,1,0,0:0:0:0:
320,192,228506,1,0,0:0:0:0:
448,192,228506,1,0,0:0:0:0:
448,192,228634,1,0,0:0:0:0:
64,192,228634,1,0,0:0:0:0:
192,192,228634,1,0,0:0:0:0:
192,192,228763,1,0,0:0:0:0:
320,192,228763,1,0,0:0:0:0:
64,192,228891,1,0,0:0:0:0:
320,192,228891,1,0,0:0:0:0:
448,192,228891,1,0,0:0:0:0:
64,192,229019,1,0,0:0:0:0:
192,192,229019,1,0,0:0:0:0:
448,192,229147,1,0,0:0:0:0:
320,192,229147,1,0,0:0:0:0:
192,192,229147,1,0,0:0:0:0:
320,192,229275,1,0,0:0:0:0:
64,192,229275,1,0,0:0:0:0:
448,192,229404,1,0,0:0:0:0:
192,192,229404,1,0,0:0:0:0:
64,192,229404,1,0,0:0:0:0:
448,192,229532,1,0,0:0:0:0:
320,192,229532,1,0,0:0:0:0:
64,192,229660,1,0,0:0:0:0:
320,192,229660,1,0,0:0:0:0:
192,192,229660,1,0,0:0:0:0:
192,192,229788,1,0,0:0:0:0:
448,192,229788,1,0,0:0:0:0:
64,192,229916,1,0,0:0:0:0:
320,192,229916,1,0,0:0:0:0:
448,192,229916,1,0,0:0:0:0:
192,192,229981,1,0,0:0:0:0:
64,192,230045,1,0,0:0:0:0:
448,192,230045,1,0,0:0:0:0:
320,192,230109,1,0,0:0:0:0:
448,192,230173,1,0,0:0:0:0:
192,192,230173,1,0,0:0:0:0:
64,192,230173,1,0,0:0:0:0:
64,192,230301,1,0,0:0:0:0:
448,192,230301,1,0,0:0:0:0:
192,192,230429,1,0,0:0:0:0:
320,192,230429,1,0,0:0:0:0:
448,192,230429,1,0,0:0:0:0:
64,192,230493,1,0,0:0:0:0:
320,192,230558,1,0,0:0:0:0:
192,192,230558,1,0,0:0:0:0:
448,192,230622,1,0,0:0:0:0:
320,192,230686,1,0,0:0:0:0:
192,192,230686,1,0,0:0:0:0:
64,192,230686,1,0,0:0:0:0:
448,192,230750,1,0,0:0:0:0:
320,192,230814,1,0,0:0:0:0:
64,192,230814,1,0,0:0:0:0:
192,192,230878,1,0,0:0:0:0:
64,192,230942,1,0,0:0:0:0:
320,192,230942,1,0,0:0:0:0:
448,192,230942,1,0,0:0:0:0:
192,192,231006,1,0,0:0:0:0:
64,192,231070,1,0,0:0:0:0:
448,192,231070,1,0,0:0:0:0:
320,192,231134,1,0,0:0:0:0:
448,192,231199,1,0,0:0:0:0:
64,192,231199,1,0,0:0:0:0:
192,192,231199,1,0,0:0:0:0:
320,192,231263,1,0,0:0:0:0:
448,192,231327,1,0,0:0:0:0:
192,192,231327,1,0,0:0:0:0:
64,192,231391,1,0,0:0:0:0:
192,192,231455,1,0,0:0:0:0:
448,192,231455,1,0,0:0:0:0:
320,192,231455,1,0,0:0:0:0:
64,192,231519,1,0,0:0:0:0:
192,192,231583,1,0,0:0:0:0:
448,192,231583,1,0,0:0:0:0:
320,192,231647,1,0,0:0:0:0:
448,192,231711,1,0,0:0:0:0:
192,192,231711,1,0,0:0:0:0:
64,192,231711,1,0,0:0:0:0:
320,192,231775,1,0,0:0:0:0:
192,192,231840,1,0,0:0:0:0:
448,192,231840,1,0,0:0:0:0:
64,192,231968,1,0,0:0:0:0:
320,192,231968,1,0,0:0:0:0:
448,192,231968,1,0,0:0:0:0:
192,192,232032,1,0,0:0:0:0:
64,192,232096,1,0,0:0:0:0:
320,192,232096,1,0,0:0:0:0:
448,192,232160,1,0,0:0:0:0:
320,192,232224,1,0,0:0:0:0:
192,192,232224,1,0,0:0:0:0:
64,192,232224,1,0,0:0:0:0:
448,192,232288,1,0,0:0:0:0:
192,192,232352,1,0,0:0:0:0:
64,192,232352,1,0,0:0:0:0:
320,192,232416,1,0,0:0:0:0:
192,192,232481,1,0,0:0:0:0:
64,192,232481,1,0,0:0:0:0:
448,192,232545,1,0,0:0:0:0:
320,192,232545,1,0,0:0:0:0:
192,192,232609,1,0,0:0:0:0:
64,192,232609,1,0,0:0:0:0:
320,192,232673,1,0,0:0:0:0:
192,192,232737,1,0,0:0:0:0:
64,192,232737,1,0,0:0:0:0:
448,192,232801,1,0,0:0:0:0:
192,192,232865,1,0,0:0:0:0:
64,192,232865,1,0,0:0:0:0:
320,192,232929,1,0,0:0:0:0:
192,192,232993,1,0,0:0:0:0:
64,192,232993,1,0,0:0:0:0:
320,192,233058,1,0,0:0:0:0:
448,192,233058,1,0,0:0:0:0:
192,192,233122,1,0,0:0:0:0:
64,192,233122,1,0,0:0:0:0:
448,192,233186,1,0,0:0:0:0:
320,192,233250,1,0,0:0:0:0:
192,192,233250,1,0,0:0:0:0:
64,192,233250,1,0,0:0:0:0:
320,192,233506,1,0,0:0:0:0:
192,192,233506,1,0,0:0:0:0:
64,192,233570,1,0,0:0:0:0:
448,192,233570,1,0,0:0:0:0:
320,192,233634,1,0,0:0:0:0:
192,192,233634,1,0,0:0:0:0:
64,192,233699,1,0,0:0:0:0:
448,192,233699,1,0,0:0:0:0:
320,192,233763,1,0,0:0:0:0:
192,192,233763,1,0,0:0:0:0:
64,192,233827,1,0,0:0:0:0:
448,192,233827,1,0,0:0:0:0:
320,192,233891,1,0,0:0:0:0:
192,192,233891,1,0,0:0:0:0:
64,192,233955,1,0,0:0:0:0:
448,192,233955,1,0,0:0:0:0:
320,192,234019,1,0,0:0:0:0:
192,192,234019,1,0,0:0:0:0:
64,192,234083,1,0,0:0:0:0:
448,192,234083,1,0,0:0:0:0:
320,192,234147,1,0,0:0:0:0:
192,192,234147,1,0,0:0:0:0:
64,192,234211,1,0,0:0:0:0:
448,192,234211,1,0,0:0:0:0:
192,192,234275,1,0,0:0:0:0:
320,192,234275,1,0,0:0:0:0:
320,192,234532,1,0,0:0:0:0:
448,192,234532,1,0,0:0:0:0:
192,192,234596,1,0,0:0:0:0:
64,192,234596,1,0,0:0:0:0:
320,192,234660,1,0,0:0:0:0:
448,192,234660,1,0,0:0:0:0:
64,192,234724,1,0,0:0:0:0:
192,192,234724,1,0,0:0:0:0:
320,192,234788,1,0,0:0:0:0:
448,192,234788,1,0,0:0:0:0:
64,192,235045,1,0,0:0:0:0:
320,192,235045,1,0,0:0:0:0:
448,192,235109,1,0,0:0:0:0:
192,192,235109,1,0,0:0:0:0:
320,192,235173,1,0,0:0:0:0:
64,192,235173,1,0,0:0:0:0:
192,192,235237,1,0,0:0:0:0:
448,192,235237,1,0,0:0:0:0:
320,192,235301,1,0,0:0:0:0:
64,192,235301,1,0,0:0:0:0:
320,192,235558,1,0,0:0:0:0:
192,192,235558,1,0,0:0:0:0:
64,192,235558,1,0,0:0:0:0:
192,192,235686,1,0,0:0:0:0:
64,192,235686,1,0,0:0:0:0:
448,192,235750,1,0,0:0:0:0:
320,192,235750,1,0,0:0:0:0:
320,192,235878,1,0,0:0:0:0:
192,192,235878,1,0,0:0:0:0:
448,192,235942,1,0,0:0:0:0:
64,192,235942,1,0,0:0:0:0:
192,192,236070,1,0,0:0:0:0:
448,192,236070,1,0,0:0:0:0:
320,192,236070,1,0,0:0:0:0:
192,192,236199,1,0,0:0:0:0:
448,192,236199,1,0,0:0:0:0:
320,192,236263,1,0,0:0:0:0:
64,192,236263,1,0,0:0:0:0:
448,192,236391,1,0,0:0:0:0:
64,192,236391,1,0,0:0:0:0:
192,192,236455,1,0,0:0:0:0:
320,192,236455,1,0,0:0:0:0:
320,192,236583,1,0,0:0:0:0:
448,192,236583,128,0,238549:0:0:0:0:
320,192,236669,1,0,0:0:0:0:
192,192,236754,1,0,0:0:0:0:
64,192,236840,1,0,0:0:0:0:
192,192,236925,1,0,0:0:0:0:
320,192,237011,1,0,0:0:0:0:
320,192,237096,1,0,0:0:0:0:
192,192,237181,1,0,0:0:0:0:
64,192,237267,1,0,0:0:0:0:
320,192,237352,1,0,0:0:0:0:
64,192,237438,1,0,0:0:0:0:
192,192,237523,1,0,0:0:0:0:
320,192,237609,128,0,238549:0:0:0:0:
192,192,237865,128,0,238549:0:0:0:0:
64,192,238122,128,0,238549:0:0:0:0:
64,192,238634,1,0,0:0:0:0:
192,192,238634,1,0,0:0:0:0:
320,192,238634,1,0,0:0:0:0:
448,192,238634,1,0,0:0:0:0:
64,192,239147,1,0,0:0:0:0:
192,192,239211,1,0,0:0:0:0:
320,192,239275,1,0,0:0:0:0:
448,192,239340,1,0,0:0:0:0:
192,192,239404,1,0,0:0:0:0:
320,192,239468,1,0,0:0:0:0:
192,192,239532,1,0,0:0:0:0:
448,192,239596,1,0,0:0:0:0:
192,192,239660,1,0,0:0:0:0:
320,192,239724,1,0,0:0:0:0:
64,192,239788,1,0,0:0:0:0:
192,192,239852,1,0,0:0:0:0:
320,192,239916,1,0,0:0:0:0:
448,192,239916,1,0,0:0:0:0:
64,192,239981,1,0,0:0:0:0:
320,192,240045,1,0,0:0:0:0:
192,192,240109,1,0,0:0:0:0:
448,192,240173,1,0,0:0:0:0:
320,192,240173,1,0,0:0:0:0:
64,192,240237,1,0,0:0:0:0:
320,192,240301,1,0,0:0:0:0:
192,192,240365,1,0,0:0:0:0:
320,192,240429,1,0,0:0:0:0:
448,192,240429,1,0,0:0:0:0:
64,192,240493,1,0,0:0:0:0:
320,192,240558,1,0,0:0:0:0:
192,192,240622,1,0,0:0:0:0:
320,192,240686,1,0,0:0:0:0:
448,192,240686,1,0,0:0:0:0:
64,192,240750,1,0,0:0:0:0:
192,192,240814,1,0,0:0:0:0:
320,192,240814,1,0,0:0:0:0:
448,192,240878,1,0,0:0:0:0:
64,192,240942,1,0,0:0:0:0:
192,192,240942,1,0,0:0:0:0:
320,192,241006,1,0,0:0:0:0:
448,192,241070,1,0,0:0:0:0:
192,192,241070,1,0,0:0:0:0:
64,192,241134,1,0,0:0:0:0:
192,192,241199,1,0,0:0:0:0:
320,192,241199,1,0,0:0:0:0:
448,192,241263,1,0,0:0:0:0:
320,192,241327,1,0,0:0:0:0:
64,192,241327,1,0,0:0:0:0:
192,192,241391,1,0,0:0:0:0:
448,192,241455,1,0,0:0:0:0:
64,192,241455,1,0,0:0:0:0:
320,192,241519,1,0,0:0:0:0:
192,192,241583,1,0,0:0:0:0:
448,192,241583,1,0,0:0:0:0:
64,192,241647,1,0,0:0:0:0:
320,192,241711,1,0,0:0:0:0:
448,192,241711,1,0,0:0:0:0:
192,192,241775,1,0,0:0:0:0:
64,192,241775,1,0,0:0:0:0:
320,192,241840,1,0,0:0:0:0:
448,192,241840,1,0,0:0:0:0:
192,192,241904,1,0,0:0:0:0:
64,192,241904,1,0,0:0:0:0:
320,192,241968,1,0,0:0:0:0:
448,192,241968,1,0,0:0:0:0:
192,192,242032,1,0,0:0:0:0:
64,192,242032,1,0,0:0:0:0:
320,192,242096,1,0,0:0:0:0:
448,192,242096,1,0,0:0:0:0:
192,192,242160,1,0,0:0:0:0:
64,192,242160,1,0,0:0:0:0:
64,192,242224,1,0,0:0:0:0:
320,192,242224,1,0,0:0:0:0:
448,192,242224,1,0,0:0:0:0:
448,192,242416,1,0,0:0:0:0:
64,192,242416,1,0,0:0:0:0:
192,192,242416,1,0,0:0:0:0:
64,192,242609,1,0,0:0:0:0:
320,192,242609,1,0,0:0:0:0:
448,192,242609,1,0,0:0:0:0:
64,192,242737,1,0,0:0:0:0:
192,192,242737,1,0,0:0:0:0:
320,192,242737,1,0,0:0:0:0:
448,192,242801,1,0,0:0:0:0:
192,192,242865,1,0,0:0:0:0:
320,192,242865,1,0,0:0:0:0:
64,192,242929,1,0,0:0:0:0:
320,192,242993,1,0,0:0:0:0:
448,192,242993,1,0,0:0:0:0:
192,192,243058,1,0,0:0:0:0:
448,192,243122,1,0,0:0:0:0:
192,192,243186,1,0,0:0:0:0:
320,192,243186,1,0,0:0:0:0:
448,192,243250,1,0,0:0:0:0:
64,192,243250,1,0,0:0:0:0:
192,192,243314,1,0,0:0:0:0:
320,192,243378,1,0,0:0:0:0:
64,192,243442,1,0,0:0:0:0:
192,192,243442,1,0,0:0:0:0:
448,192,243506,1,0,0:0:0:0:
320,192,243506,1,0,0:0:0:0:
192,192,243570,1,0,0:0:0:0:
64,192,243634,1,0,0:0:0:0:
448,192,243634,1,0,0:0:0:0:
320,192,243699,1,0,0:0:0:0:
448,192,243763,1,0,0:0:0:0:
192,192,243763,1,0,0:0:0:0:
64,192,243763,1,0,0:0:0:0:
320,192,243827,1,0,0:0:0:0:
64,192,243891,1,0,0:0:0:0:
192,192,243891,1,0,0:0:0:0:
320,192,243955,1,0,0:0:0:0:
448,192,244019,1,0,0:0:0:0:
64,192,244019,1,0,0:0:0:0:
192,192,244083,1,0,0:0:0:0:
320,192,244147,1,0,0:0:0:0:
448,192,244147,1,0,0:0:0:0:
64,192,244211,1,0,0:0:0:0:
192,192,244275,1,0,0:0:0:0:
448,192,244275,1,0,0:0:0:0:
320,192,244275,1,0,0:0:0:0:
64,192,244340,1,0,0:0:0:0:
192,192,244404,1,0,0:0:0:0:
320,192,244468,1,0,0:0:0:0:
448,192,244468,1,0,0:0:0:0:
64,192,244532,1,0,0:0:0:0:
320,192,244596,1,0,0:0:0:0:
192,192,244660,1,0,0:0:0:0:
64,192,244660,1,0,0:0:0:0:
448,192,244724,1,0,0:0:0:0:
320,192,244788,1,0,0:0:0:0:
192,192,244788,1,0,0:0:0:0:
64,192,244788,1,0,0:0:0:0:
448,192,244852,1,0,0:0:0:0:
192,192,244916,1,0,0:0:0:0:
320,192,244916,1,0,0:0:0:0:
64,192,244981,1,0,0:0:0:0:
448,192,245045,1,0,0:0:0:0:
192,192,245045,1,0,0:0:0:0:
320,192,245109,1,0,0:0:0:0:
448,192,245173,1,0,0:0:0:0:
192,192,245237,1,0,0:0:0:0:
320,192,245237,1,0,0:0:0:0:
64,192,245301,1,0,0:0:0:0:
448,192,245301,1,0,0:0:0:0:
192,192,245365,1,0,0:0:0:0:
448,192,245429,1,0,0:0:0:0:
320,192,245493,1,0,0:0:0:0:
64,192,245493,1,0,0:0:0:0:
192,192,245558,1,0,0:0:0:0:
448,192,245622,1,0,0:0:0:0:
192,192,245686,1,0,0:0:0:0:
320,192,245686,1,0,0:0:0:0:
64,192,245750,1,0,0:0:0:0:
192,192,245814,1,0,0:0:0:0:
320,192,245814,1,0,0:0:0:0:
448,192,245814,1,0,0:0:0:0:
64,192,245878,1,0,0:0:0:0:
320,192,245942,1,0,0:0:0:0:
448,192,245942,1,0,0:0:0:0:
192,192,246006,1,0,0:0:0:0:
64,192,246070,1,0,0:0:0:0:
448,192,246070,1,0,0:0:0:0:
320,192,246134,1,0,0:0:0:0:
192,192,246199,1,0,0:0:0:0:
320,192,246263,1,0,0:0:0:0:
448,192,246263,1,0,0:0:0:0:
192,192,246327,1,0,0:0:0:0:
64,192,246327,1,0,0:0:0:0:
320,192,246391,1,0,0:0:0:0:
448,192,246455,1,0,0:0:0:0:
192,192,246519,1,0,0:0:0:0:
64,192,246519,1,0,0:0:0:0:
320,192,246583,1,0,0:0:0:0:
448,192,246583,1,0,0:0:0:0:
64,192,246647,1,0,0:0:0:0:
320,192,246711,1,0,0:0:0:0:
448,192,246711,1,0,0:0:0:0:
192,192,246775,1,0,0:0:0:0:
64,192,246840,1,0,0:0:0:0:
448,192,246840,1,0,0:0:0:0:
320,192,246840,1,0,0:0:0:0:
192,192,246904,1,0,0:0:0:0:
448,192,246968,1,0,0:0:0:0:
64,192,246968,1,0,0:0:0:0:
320,192,247032,1,0,0:0:0:0:
192,192,247096,1,0,0:0:0:0:
64,192,247096,1,0,0:0:0:0:
320,192,247160,1,0,0:0:0:0:
448,192,247224,1,0,0:0:0:0:
192,192,247224,1,0,0:0:0:0:
64,192,247288,1,0,0:0:0:0:
320,192,247288,1,0,0:0:0:0:
192,192,247352,1,0,0:0:0:0:
448,192,247352,1,0,0:0:0:0:
192,192,247481,1,0,0:0:0:0:
448,192,247545,1,0,0:0:0:0:
64,192,247545,1,0,0:0:0:0:
320,192,247609,1,0,0:0:0:0:
192,192,247609,1,0,0:0:0:0:
448,192,247673,1,0,0:0:0:0:
64,192,247737,1,0,0:0:0:0:
448,192,247801,1,0,0:0:0:0:
192,192,247865,1,0,0:0:0:0:
320,192,247865,1,0,0:0:0:0:
64,192,247865,1,0,0:0:0:0:
448,192,247929,1,0,0:0:0:0:
192,192,247993,1,0,0:0:0:0:
320,192,247993,1,0,0:0:0:0:
64,192,248058,1,0,0:0:0:0:
448,192,248122,1,0,0:0:0:0:
320,192,248122,1,0,0:0:0:0:
192,192,248186,1,0,0:0:0:0:
64,192,248250,1,0,0:0:0:0:
320,192,248250,1,0,0:0:0:0:
192,192,248314,1,0,0:0:0:0:
448,192,248314,1,0,0:0:0:0:
320,192,248378,1,0,0:0:0:0:
64,192,248378,1,0,0:0:0:0:
448,192,248442,1,0,0:0:0:0:
192,192,248506,1,0,0:0:0:0:
448,192,248570,1,0,0:0:0:0:
320,192,248570,1,0,0:0:0:0:
192,192,248634,1,0,0:0:0:0:
64,192,248634,1,0,0:0:0:0:
320,192,248699,1,0,0:0:0:0:
448,192,248763,1,0,0:0:0:0:
64,192,248763,1,0,0:0:0:0:
192,192,248827,1,0,0:0:0:0:
448,192,248891,1,0,0:0:0:0:
320,192,248891,1,0,0:0:0:0:
64,192,248891,1,0,0:0:0:0:
192,192,248955,1,0,0:0:0:0:
448,192,249019,1,0,0:0:0:0:
192,192,249083,1,0,0:0:0:0:
320,192,249083,1,0,0:0:0:0:
448,192,249147,1,0,0:0:0:0:
64,192,249147,1,0,0:0:0:0:
320,192,249211,1,0,0:0:0:0:
192,192,249275,1,0,0:0:0:0:
320,192,249340,1,0,0:0:0:0:
448,192,249340,1,0,0:0:0:0:
192,192,249404,1,0,0:0:0:0:
64,192,249404,1,0,0:0:0:0:
448,192,249468,1,0,0:0:0:0:
64,192,249532,1,0,0:0:0:0:
448,192,249596,1,0,0:0:0:0:
192,192,249596,1,0,0:0:0:0:
320,192,249660,1,0,0:0:0:0:
64,192,249660,1,0,0:0:0:0:
448,192,249724,1,0,0:0:0:0:
192,192,249788,1,0,0:0:0:0:
64,192,249788,1,0,0:0:0:0:
320,192,249852,1,0,0:0:0:0:
448,192,249852,1,0,0:0:0:0:
192,192,249916,1,0,0:0:0:0:
64,192,249916,1,0,0:0:0:0:
320,192,249981,1,0,0:0:0:0:
448,192,250045,1,0,0:0:0:0:
320,192,250109,1,0,0:0:0:0:
192,192,250109,1,0,0:0:0:0:
64,192,250173,1,0,0:0:0:0:
448,192,250173,1,0,0:0:0:0:
320,192,250237,1,0,0:0:0:0:
192,192,250301,1,0,0:0:0:0:
448,192,250301,1,0,0:0:0:0:
64,192,250365,1,0,0:0:0:0:
320,192,250429,1,0,0:0:0:0:
448,192,250429,1,0,0:0:0:0:
192,192,250429,1,0,0:0:0:0:
64,192,250493,1,0,0:0:0:0:
320,192,250558,1,0,0:0:0:0:
448,192,250558,1,0,0:0:0:0:
192,192,250622,1,0,0:0:0:0:
64,192,250622,1,0,0:0:0:0:
320,192,250686,1,0,0:0:0:0:
448,192,250686,1,0,0:0:0:0:
192,192,250750,1,0,0:0:0:0:
64,192,250814,1,0,0:0:0:0:
320,192,250814,1,0,0:0:0:0:
448,192,250878,1,0,0:0:0:0:
64,192,250942,1,0,0:0:0:0:
192,192,250942,1,0,0:0:0:0:
320,192,250942,1,0,0:0:0:0:
448,192,251006,1,0,0:0:0:0:
192,192,251070,1,0,0:0:0:0:
320,192,251134,1,0,0:0:0:0:
64,192,251134,1,0,0:0:0:0:
448,192,251199,1,0,0:0:0:0:
192,192,251199,1,0,0:0:0:0:
320,192,251263,1,0,0:0:0:0:
192,192,251327,1,0,0:0:0:0:
64,192,251327,1,0,0:0:0:0:
320,192,251391,1,0,0:0:0:0:
448,192,251391,1,0,0:0:0:0:
192,192,251455,1,0,0:0:0:0:
64,192,251455,1,0,0:0:0:0:
448,192,251519,1,0,0:0:0:0:
192,192,251583,1,0,0:0:0:0:
320,192,251647,1,0,0:0:0:0:
64,192,251647,1,0,0:0:0:0:
448,192,251711,1,0,0:0:0:0:
320,192,251775,1,0,0:0:0:0:
192,192,251840,1,0,0:0:0:0:
64,192,251840,1,0,0:0:0:0:
320,192,251904,1,0,0:0:0:0:
64,192,251968,1,0,0:0:0:0:
192,192,251968,1,0,0:0:0:0:
448,192,251968,1,0,0:0:0:0:
320,192,252032,1,0,0:0:0:0:
64,192,252096,1,0,0:0:0:0:
448,192,252096,1,0,0:0:0:0:
192,192,252160,1,0,0:0:0:0:
320,192,252224,1,0,0:0:0:0:
448,192,252224,1,0,0:0:0:0:
64,192,252288,1,0,0:0:0:0:
192,192,252352,1,0,0:0:0:0:
320,192,252352,1,0,0:0:0:0:
448,192,252416,1,0,0:0:0:0:
64,192,252416,1,0,0:0:0:0:
192,192,252481,1,0,0:0:0:0:
320,192,252481,1,0,0:0:0:0:
448,192,252545,1,0,0:0:0:0:
192,192,252609,1,0,0:0:0:0:
64,192,252673,1,0,0:0:0:0:
448,192,252673,1,0,0:0:0:0:
320,192,252737,1,0,0:0:0:0:
192,192,252801,1,0,0:0:0:0:
320,192,252865,1,0,0:0:0:0:
448,192,252865,1,0,0:0:0:0:
64,192,252929,1,0,0:0:0:0:
448,192,252993,1,0,0:0:0:0:
320,192,252993,1,0,0:0:0:0:
192,192,252993,1,0,0:0:0:0:
64,192,253058,1,0,0:0:0:0:
320,192,253122,1,0,0:0:0:0:
448,192,253122,1,0,0:0:0:0:
192,192,253186,1,0,0:0:0:0:
64,192,253250,1,0,0:0:0:0:
320,192,253250,1,0,0:0:0:0:
448,192,253314,1,0,0:0:0:0:
320,192,253378,1,0,0:0:0:0:
64,192,253378,1,0,0:0:0:0:
192,192,253442,1,0,0:0:0:0:
448,192,253442,1,0,0:0:0:0:
320,192,253506,1,0,0:0:0:0:
64,192,253506,1,0,0:0:0:0:
192,192,253570,1,0,0:0:0:0:
320,192,253634,1,0,0:0:0:0:
448,192,253699,1,0,0:0:0:0:
64,192,253699,1,0,0:0:0:0:
320,192,253763,1,0,0:0:0:0:
192,192,253763,1,0,0:0:0:0:
448,192,253827,1,0,0:0:0:0:
64,192,253891,1,0,0:0:0:0:
192,192,253891,1,0,0:0:0:0:
448,192,253955,1,0,0:0:0:0:
320,192,253955,1,0,0:0:0:0:
64,192,254019,1,0,0:0:0:0:
192,192,254019,1,0,0:0:0:0:
320,192,254083,1,0,0:0:0:0:
64,192,254147,1,0,0:0:0:0:
448,192,254147,1,0,0:0:0:0:
192,192,254211,1,0,0:0:0:0:
64,192,254275,1,0,0:0:0:0:
320,192,254275,1,0,0:0:0:0:
192,192,254340,1,0,0:0:0:0:
448,192,254404,1,0,0:0:0:0:
64,192,254404,1,0,0:0:0:0:
192,192,254468,1,0,0:0:0:0:
320,192,254468,1,0,0:0:0:0:
448,192,254532,1,0,0:0:0:0:
64,192,254532,1,0,0:0:0:0:
320,192,254596,1,0,0:0:0:0:
64,192,254660,1,0,0:0:0:0:
192,192,254724,1,0,0:0:0:0:
448,192,254724,1,0,0:0:0:0:
320,192,254788,1,0,0:0:0:0:
192,192,254852,1,0,0:0:0:0:
448,192,254916,1,0,0:0:0:0:
64,192,254916,1,0,0:0:0:0:
320,192,254981,1,0,0:0:0:0:
448,192,255045,1,0,0:0:0:0:
192,192,255045,1,0,0:0:0:0:
64,192,255045,1,0,0:0:0:0:
320,192,255109,1,0,0:0:0:0:
192,192,255173,1,0,0:0:0:0:
448,192,255173,1,0,0:0:0:0:
64,192,255237,1,0,0:0:0:0:
320,192,255301,1,0,0:0:0:0:
448,192,255301,1,0,0:0:0:0:
192,192,255365,1,0,0:0:0:0:
64,192,255429,1,0,0:0:0:0:
448,192,255429,1,0,0:0:0:0:
320,192,255493,1,0,0:0:0:0:
192,192,255493,1,0,0:0:0:0:
448,192,255558,1,0,0:0:0:0:
64,192,255558,1,0,0:0:0:0:
320,192,255622,1,0,0:0:0:0:
64,192,255686,1,0,0:0:0:0:
192,192,255750,1,0,0:0:0:0:
448,192,255750,1,0,0:0:0:0:
320,192,255814,1,0,0:0:0:0:
64,192,255878,1,0,0:0:0:0:
320,192,255942,1,0,0:0:0:0:
192,192,255942,1,0,0:0:0:0:
64,192,256006,1,0,0:0:0:0:
448,192,256070,1,0,0:0:0:0:
320,192,256070,1,0,0:0:0:0:
192,192,256070,1,0,0:0:0:0:
64,192,256134,1,0,0:0:0:0:
320,192,256199,1,0,0:0:0:0:
448,192,256199,1,0,0:0:0:0:
192,192,256263,1,0,0:0:0:0:
448,192,256327,1,0,0:0:0:0:
64,192,256327,1,0,0:0:0:0:
192,192,256391,1,0,0:0:0:0:
320,192,256455,1,0,0:0:0:0:
448,192,256455,1,0,0:0:0:0:
192,192,256519,1,0,0:0:0:0:
64,192,256519,1,0,0:0:0:0:
320,192,256583,1,0,0:0:0:0:
448,192,256583,1,0,0:0:0:0:
64,192,256647,1,0,0:0:0:0:
448,192,256711,1,0,0:0:0:0:
320,192,256775,1,0,0:0:0:0:
192,192,256775,1,0,0:0:0:0:
448,192,256840,1,0,0:0:0:0:
64,192,256840,1,0,0:0:0:0:
320,192,256904,1,0,0:0:0:0:
192,192,256968,1,0,0:0:0:0:
448,192,256968,1,0,0:0:0:0:
64,192,257032,1,0,0:0:0:0:
448,192,257096,1,0,0:0:0:0:
192,192,257096,1,0,0:0:0:0:
320,192,257096,1,0,0:0:0:0:
448,192,257224,1,0,0:0:0:0:
320,192,257224,1,0,0:0:0:0:
64,192,257224,1,0,0:0:0:0:
64,192,257481,1,0,0:0:0:0:
192,192,257481,1,0,0:0:0:0:
64,192,257545,1,0,0:0:0:0:
448,192,257545,1,0,0:0:0:0:
448,192,257609,1,0,0:0:0:0:
320,192,257609,1,0,0:0:0:0:
320,192,257737,1,0,0:0:0:0:
64,192,257737,1,0,0:0:0:0:
448,192,257801,1,0,0:0:0:0:
192,192,257801,1,0,0:0:0:0:
192,192,257929,1,0,0:0:0:0:
320,192,257929,1,0,0:0:0:0:
448,192,257993,1,0,0:0:0:0:
64,192,257993,1,0,0:0:0:0:
64,192,258122,1,0,0:0:0:0:
320,192,258122,1,0,0:0:0:0:
192,192,258122,1,0,0:0:0:0:
448,192,258314,1,0,0:0:0:0:
320,192,258314,1,0,0:0:0:0:
64,192,258378,1,0,0:0:0:0:
192,192,258378,1,0,0:0:0:0:
448,192,258442,1,0,0:0:0:0:
192,192,258506,1,0,0:0:0:0:
320,192,258506,1,0,0:0:0:0:
64,192,258570,1,0,0:0:0:0:
192,192,258634,1,0,0:0:0:0:
320,192,258634,1,0,0:0:0:0:
448,192,258634,1,0,0:0:0:0:
64,192,258699,1,0,0:0:0:0:
320,192,258763,1,0,0:0:0:0:
192,192,258827,1,0,0:0:0:0:
448,192,258891,1,0,0:0:0:0:
64,192,258955,1,0,0:0:0:0:
320,192,259019,1,0,0:0:0:0:
192,192,259083,1,0,0:0:0:0:
320,192,259147,1,0,0:0:0:0:
448,192,259147,1,0,0:0:0:0:
64,192,259147,1,0,0:0:0:0:
448,192,259275,1,0,0:0:0:0:
192,192,259275,1,0,0:0:0:0:
320,192,259404,1,0,0:0:0:0:
192,192,259404,1,0,0:0:0:0:
64,192,259404,1,0,0:0:0:0:
448,192,259532,1,0,0:0:0:0:
64,192,259532,1,0,0:0:0:0:
192,192,259660,1,0,0:0:0:0:
64,192,259660,1,0,0:0:0:0:
448,192,259660,1,0,0:0:0:0:
320,192,259660,1,0,0:0:0:0:
64,192,259788,1,0,0:0:0:0:
320,192,259788,1,0,0:0:0:0:
320,192,259916,1,0,0:0:0:0:
448,192,259916,1,0,0:0:0:0:
192,192,259916,1,0,0:0:0:0:
192,192,260045,1,0,0:0:0:0:
448,192,260045,1,0,0:0:0:0:
64,192,260173,1,0,0:0:0:0:
320,192,260173,1,0,0:0:0:0:
448,192,260173,1,0,0:0:0:0:
320,192,260301,1,0,0:0:0:0:
192,192,260301,1,0,0:0:0:0:
448,192,260429,1,0,0:0:0:0:
192,192,260429,1,0,0:0:0:0:
64,192,260429,1,0,0:0:0:0:
320,192,260558,1,0,0:0:0:0:
64,192,260558,1,0,0:0:0:0:
192,192,260686,1,0,0:0:0:0:
320,192,260686,1,0,0:0:0:0:
448,192,260686,1,0,0:0:0:0:
64,192,260686,1,0,0:0:0:0:
192,192,260814,1,0,0:0:0:0:
448,192,260814,1,0,0:0:0:0:
448,192,260942,1,0,0:0:0:0:
320,192,260942,1,0,0:0:0:0:
64,192,260942,1,0,0:0:0:0:
448,192,261070,1,0,0:0:0:0:
320,192,261070,1,0,0:0:0:0:
64,192,261199,1,0,0:0:0:0:
192,192,261199,1,0,0:0:0:0:
320,192,261199,1,0,0:0:0:0:
320,192,261327,1,0,0:0:0:0:
192,192,261327,1,0,0:0:0:0:
192,192,261455,1,0,0:0:0:0:
64,192,261455,1,0,0:0:0:0:
448,192,261455,1,0,0:0:0:0:
320,192,261583,1,0,0:0:0:0:
448,192,261583,1,0,0:0:0:0:
448,192,261711,1,0,0:0:0:0:
320,192,261711,1,0,0:0:0:0:
64,192,261711,1,0,0:0:0:0:
192,192,261711,1,0,0:0:0:0:
448,192,261840,1,0,0:0:0:0:
192,192,261840,1,0,0:0:0:0:
64,192,261968,1,0,0:0:0:0:
192,192,261968,1,0,0:0:0:0:
320,192,261968,1,0,0:0:0:0:
64,192,262096,1,0,0:0:0:0:
192,192,262096,1,0,0:0:0:0:
192,192,262224,1,0,0:0:0:0:
320,192,262224,1,0,0:0:0:0:
448,192,262224,1,0,0:0:0:0:
192,192,262352,1,0,0:0:0:0:
320,192,262352,1,0,0:0:0:0:
448,192,262481,1,0,0:0:0:0:
320,192,262481,1,0,0:0:0:0:
64,192,262481,1,0,0:0:0:0:
192,192,262609,1,0,0:0:0:0:
448,192,262609,1,0,0:0:0:0:
64,192,262737,1,0,0:0:0:0:
192,192,262737,1,0,0:0:0:0:
320,192,262737,1,0,0:0:0:0:
448,192,262737,1,0,0:0:0:0:
64,192,262865,1,0,0:0:0:0:
320,192,262865,1,0,0:0:0:0:
192,192,262993,1,0,0:0:0:0:
320,192,262993,1,0,0:0:0:0:
448,192,262993,1,0,0:0:0:0:
192,192,263122,1,0,0:0:0:0:
64,192,263122,1,0,0:0:0:0:
448,192,263250,1,0,0:0:0:0:
192,192,263250,1,0,0:0:0:0:
64,192,263250,1,0,0:0:0:0:
320,192,263314,1,0,0:0:0:0:
448,192,263378,1,0,0:0:0:0:
64,192,263378,1,0,0:0:0:0:
192,192,263442,1,0,0:0:0:0:
64,192,263506,1,0,0:0:0:0:
448,192,263506,1,0,0:0:0:0:
320,192,263506,1,0,0:0:0:0:
192,192,263570,1,0,0:0:0:0:
320,192,263634,1,0,0:0:0:0:
64,192,263634,1,0,0:0:0:0:
448,192,263699,1,0,0:0:0:0:
320,192,263763,1,0,0:0:0:0:
192,192,263763,1,0,0:0:0:0:
64,192,263763,1,0,0:0:0:0:
448,192,263827,1,0,0:0:0:0:
192,192,263891,1,0,0:0:0:0:
320,192,263891,1,0,0:0:0:0:
64,192,263955,1,0,0:0:0:0:
192,192,264019,1,0,0:0:0:0:
448,192,264019,1,0,0:0:0:0:
320,192,264019,1,0,0:0:0:0:
64,192,264083,1,0,0:0:0:0:
448,192,264147,1,0,0:0:0:0:
192,192,264147,1,0,0:0:0:0:
320,192,264211,1,0,0:0:0:0:
448,192,264275,1,0,0:0:0:0:
192,192,264275,1,0,0:0:0:0:
64,192,264275,1,0,0:0:0:0:
320,192,264340,1,0,0:0:0:0:
448,192,264404,1,0,0:0:0:0:
64,192,264404,1,0,0:0:0:0:
192,192,264468,1,0,0:0:0:0:
64,192,264532,1,0,0:0:0:0:
320,192,264532,1,0,0:0:0:0:
448,192,264532,1,0,0:0:0:0:
192,192,264596,1,0,0:0:0:0:
448,192,264660,1,0,0:0:0:0:
320,192,264660,1,0,0:0:0:0:
64,192,264724,1,0,0:0:0:0:
448,192,264788,1,0,0:0:0:0:
192,192,264788,1,0,0:0:0:0:
320,192,264788,1,0,0:0:0:0:
64,192,264852,1,0,0:0:0:0:
192,192,264916,1,0,0:0:0:0:
320,192,264916,1,0,0:0:0:0:
448,192,264981,1,0,0:0:0:0:
320,192,265045,1,0,0:0:0:0:
192,192,265045,1,0,0:0:0:0:
64,192,265045,1,0,0:0:0:0:
448,192,265109,1,0,0:0:0:0:
320,192,265173,1,0,0:0:0:0:
64,192,265173,1,0,0:0:0:0:
192,192,265237,1,0,0:0:0:0:
448,192,265301,1,0,0:0:0:0:
320,192,265301,1,0,0:0:0:0:
64,192,265301,1,0,0:0:0:0:
192,192,265365,1,0,0:0:0:0:
448,192,265429,1,0,0:0:0:0:
64,192,265429,1,0,0:0:0:0:
320,192,265493,1,0,0:0:0:0:
192,192,265558,1,0,0:0:0:0:
64,192,265558,1,0,0:0:0:0:
448,192,265558,1,0,0:0:0:0:
320,192,265622,1,0,0:0:0:0:
192,192,265686,1,0,0:0:0:0:
64,192,265686,1,0,0:0:0:0:
448,192,265750,1,0,0:0:0:0:
320,192,265814,1,0,0:0:0:0:
64,192,265814,1,0,0:0:0:0:
192,192,265814,1,0,0:0:0:0:
448,192,265878,1,0,0:0:0:0:
192,192,265942,1,0,0:0:0:0:
320,192,265942,1,0,0:0:0:0:
64,192,266006,1,0,0:0:0:0:
192,192,266070,1,0,0:0:0:0:
448,192,266070,1,0,0:0:0:0:
320,192,266070,1,0,0:0:0:0:
64,192,266134,1,0,0:0:0:0:
448,192,266199,1,0,0:0:0:0:
192,192,266199,1,0,0:0:0:0:
320,192,266263,1,0,0:0:0:0:
448,192,266327,1,0,0:0:0:0:
192,192,266327,1,0,0:0:0:0:
64,192,266327,1,0,0:0:0:0:
320,192,266391,1,0,0:0:0:0:
448,192,266455,1,0,0:0:0:0:
64,192,266455,1,0,0:0:0:0:
192,192,266519,1,0,0:0:0:0:
64,192,266583,1,0,0:0:0:0:
320,192,266583,1,0,0:0:0:0:
448,192,266583,1,0,0:0:0:0:
192,192,266647,1,0,0:0:0:0:
320,192,266711,1,0,0:0:0:0:
64,192,266711,1,0,0:0:0:0:
448,192,266775,1,0,0:0:0:0:
320,192,266840,1,0,0:0:0:0:
64,192,266840,1,0,0:0:0:0:
192,192,266840,1,0,0:0:0:0:
448,192,266904,1,0,0:0:0:0:
192,192,266968,1,0,0:0:0:0:
320,192,266968,1,0,0:0:0:0:
64,192,267032,1,0,0:0:0:0:
192,192,267096,1,0,0:0:0:0:
320,192,267096,1,0,0:0:0:0:
448,192,267096,1,0,0:0:0:0:
64,192,267160,1,0,0:0:0:0:
320,192,267224,1,0,0:0:0:0:
448,192,267224,1,0,0:0:0:0:
192,192,267288,1,0,0:0:0:0:
64,192,267352,1,0,0:0:0:0:
320,192,267352,1,0,0:0:0:0:
448,192,267352,1,0,0:0:0:0:
320,192,267481,1,0,0:0:0:0:
192,192,267481,1,0,0:0:0:0:
448,192,267609,1,0,0:0:0:0:
192,192,267609,1,0,0:0:0:0:
64,192,267609,1,0,0:0:0:0:
320,192,267737,1,0,0:0:0:0:
448,192,267737,1,0,0:0:0:0:
448,192,267865,1,0,0:0:0:0:
320,192,267865,1,0,0:0:0:0:
192,192,267865,1,0,0:0:0:0:
64,192,267865,1,0,0:0:0:0:
192,192,267993,1,0,0:0:0:0:
64,192,267993,1,0,0:0:0:0:
64,192,268122,1,0,0:0:0:0:
320,192,268122,1,0,0:0:0:0:
448,192,268122,1,0,0:0:0:0:
448,192,268250,1,0,0:0:0:0:
192,192,268250,1,0,0:0:0:0:
320,192,268378,1,0,0:0:0:0:
192,192,268378,1,0,0:0:0:0:
64,192,268378,1,0,0:0:0:0:
320,192,268506,1,0,0:0:0:0:
448,192,268506,1,0,0:0:0:0:
192,192,268634,1,0,0:0:0:0:
64,192,268634,1,0,0:0:0:0:
448,192,268634,1,0,0:0:0:0:
320,192,268763,1,0,0:0:0:0:
64,192,268763,1,0,0:0:0:0:
320,192,268891,1,0,0:0:0:0:
192,192,268891,1,0,0:0:0:0:
448,192,268891,1,0,0:0:0:0:
64,192,268891,1,0,0:0:0:0:
192,192,269019,1,0,0:0:0:0:
320,192,269019,1,0,0:0:0:0:
448,192,269147,1,0,0:0:0:0:
320,192,269147,1,0,0:0:0:0:
64,192,269147,1,0,0:0:0:0:
192,192,269275,1,0,0:0:0:0:
448,192,269275,1,0,0:0:0:0:
64,192,269404,1,0,0:0:0:0:
192,192,269404,1,0,0:0:0:0:
320,192,269404,1,0,0:0:0:0:
64,192,269532,1,0,0:0:0:0:
448,192,269532,1,0,0:0:0:0:
192,192,269660,1,0,0:0:0:0:
320,192,269660,1,0,0:0:0:0:
448,192,269660,1,0,0:0:0:0:
64,192,269788,1,0,0:0:0:0:
192,192,269788,1,0,0:0:0:0:
448,192,269916,1,0,0:0:0:0:
320,192,269916,1,0,0:0:0:0:
64,192,269916,1,0,0:0:0:0:
192,192,269916,1,0,0:0:0:0:
448,192,270045,1,0,0:0:0:0:
320,192,270045,1,0,0:0:0:0:
64,192,270173,1,0,0:0:0:0:
320,192,270173,1,0,0:0:0:0:
192,192,270173,1,0,0:0:0:0:
448,192,270301,1,0,0:0:0:0:
64,192,270301,1,0,0:0:0:0:
64,192,270429,1,0,0:0:0:0:
192,192,270429,1,0,0:0:0:0:
448,192,270429,1,0,0:0:0:0:
192,192,270558,1,0,0:0:0:0:
320,192,270558,1,0,0:0:0:0:
64,192,270686,1,0,0:0:0:0:
448,192,270686,1,0,0:0:0:0:
320,192,270686,1,0,0:0:0:0:
192,192,270814,1,0,0:0:0:0:
448,192,270814,1,0,0:0:0:0:
448,192,270942,1,0,0:0:0:0:
192,192,270942,1,0,0:0:0:0:
320,192,270942,1,0,0:0:0:0:
64,192,270942,1,0,0:0:0:0:
448,192,271070,1,0,0:0:0:0:
64,192,271070,1,0,0:0:0:0:
192,192,271199,1,0,0:0:0:0:
64,192,271199,1,0,0:0:0:0:
320,192,271199,1,0,0:0:0:0:
192,192,271327,1,0,0:0:0:0:
320,192,271327,1,0,0:0:0:0:
448,192,271455,1,0,0:0:0:0:
320,192,271455,1,0,0:0:0:0:
192,192,271519,1,0,0:0:0:0:
64,192,271519,1,0,0:0:0:0:
320,192,271583,1,0,0:0:0:0:
448,192,271583,1,0,0:0:0:0:
64,192,271647,1,0,0:0:0:0:
320,192,271711,1,0,0:0:0:0:
448,192,271711,1,0,0:0:0:0:
192,192,271775,1,0,0:0:0:0:
320,192,271840,1,0,0:0:0:0:
448,192,271840,1,0,0:0:0:0:
64,192,271904,1,0,0:0:0:0:
320,192,271968,1,0,0:0:0:0:
448,192,271968,1,0,0:0:0:0:
192,192,272032,1,0,0:0:0:0:
320,192,272096,1,0,0:0:0:0:
448,192,272096,1,0,0:0:0:0:
64,192,272160,1,0,0:0:0:0:
192,192,272224,1,0,0:0:0:0:
320,192,272224,1,0,0:0:0:0:
448,192,272224,1,0,0:0:0:0:
64,192,272481,1,0,0:0:0:0:
192,192,272481,1,0,0:0:0:0:
320,192,272545,1,0,0:0:0:0:
448,192,272545,1,0,0:0:0:0:
192,192,272609,1,0,0:0:0:0:
64,192,272609,1,0,0:0:0:0:
448,192,272673,1,0,0:0:0:0:
192,192,272737,1,0,0:0:0:0:
64,192,272737,1,0,0:0:0:0:
320,192,272801,1,0,0:0:0:0:
192,192,272865,1,0,0:0:0:0:
64,192,272865,1,0,0:0:0:0:
448,192,272929,1,0,0:0:0:0:
192,192,272993,1,0,0:0:0:0:
64,192,272993,1,0,0:0:0:0:
320,192,273058,1,0,0:0:0:0:
192,192,273122,1,0,0:0:0:0:
64,192,273122,1,0,0:0:0:0:
448,192,273186,1,0,0:0:0:0:
320,192,273250,1,0,0:0:0:0:
192,192,273250,1,0,0:0:0:0:
64,192,273250,1,0,0:0:0:0:
192,192,273378,1,0,0:0:0:0:
320,192,273378,1,0,0:0:0:0:
448,192,273378,1,0,0:0:0:0:
448,192,273506,1,0,0:0:0:0:
320,192,273506,1,0,0:0:0:0:
192,192,273506,1,0,0:0:0:0:
64,192,273506,1,0,0:0:0:0:
448,192,274532,1,0,0:0:0:0:
192,192,274564,1,0,0:0:0:0:
320,192,274596,1,0,0:0:0:0:
64,192,274628,1,0,0:0:0:0:
448,192,274660,1,0,0:0:0:0:
192,192,274692,1,0,0:0:0:0:
320,192,274724,1,0,0:0:0:0:
64,192,274756,1,0,0:0:0:0:
448,192,274788,1,0,0:0:0:0:
192,192,274820,1,0,0:0:0:0:
320,192,274852,1,0,0:0:0:0:
64,192,274884,1,0,0:0:0:0:
448,192,274916,1,0,0:0:0:0:
192,192,274949,1,0,0:0:0:0:
320,192,274981,1,0,0:0:0:0:
64,192,275013,1,0,0:0:0:0:
448,192,275045,1,0,0:0:0:0:
192,192,275077,1,0,0:0:0:0:
320,192,275109,1,0,0:0:0:0:
64,192,275141,1,0,0:0:0:0:
448,192,275173,1,0,0:0:0:0:
192,192,275205,1,0,0:0:0:0:
320,192,275237,1,0,0:0:0:0:
64,192,275269,1,0,0:0:0:0:
448,192,275301,1,0,0:0:0:0:
192,192,275333,1,0,0:0:0:0:
320,192,275365,1,0,0:0:0:0:
64,192,275397,1,0,0:0:0:0:
448,192,275429,1,0,0:0:0:0:
192,192,275461,1,0,0:0:0:0:
320,192,275493,1,0,0:0:0:0:
64,192,275525,1,0,0:0:0:0:
448,192,275558,128,0,275814:0:0:0:0:
192,192,275814,1,0,0:0:0:0:
64,192,275814,1,0,0:0:0:0:
320,192,275878,1,0,0:0:0:0:
192,192,275942,1,0,0:0:0:0:
448,192,275942,1,0,0:0:0:0:
320,192,276006,1,0,0:0:0:0:
448,192,276070,1,0,0:0:0:0:
64,192,276070,1,0,0:0:0:0:
192,192,276134,1,0,0:0:0:0:
320,192,276199,1,0,0:0:0:0:
448,192,276199,1,0,0:0:0:0:
192,192,276263,1,0,0:0:0:0:
64,192,276327,1,0,0:0:0:0:
320,192,276327,1,0,0:0:0:0:
448,192,276391,1,0,0:0:0:0:
192,192,276455,1,0,0:0:0:0:
64,192,276455,1,0,0:0:0:0:
320,192,276519,1,0,0:0:0:0:
448,192,276583,1,0,0:0:0:0:
192,192,276583,1,0,0:0:0:0:
64,192,276583,1,0,0:0:0:0:
320,192,276647,1,0,0:0:0:0:
64,192,276711,1,0,0:0:0:0:
192,192,276775,1,0,0:0:0:0:
64,192,276840,1,0,0:0:0:0:
320,192,276840,1,0,0:0:0:0:
448,192,276840,1,0,0:0:0:0:
192,192,276904,1,0,0:0:0:0:
320,192,276968,1,0,0:0:0:0:
448,192,277032,1,0,0:0:0:0:
320,192,277096,1,0,0:0:0:0:
192,192,277096,1,0,0:0:0:0:
64,192,277096,1,0,0:0:0:0:
448,192,277160,1,0,0:0:0:0:
192,192,277224,1,0,0:0:0:0:
64,192,277288,1,0,0:0:0:0:
192,192,277352,1,0,0:0:0:0:
320,192,277352,1,0,0:0:0:0:
448,192,277352,1,0,0:0:0:0:
64,192,277416,1,0,0:0:0:0:
320,192,277481,1,0,0:0:0:0:
192,192,277545,1,0,0:0:0:0:
448,192,277609,1,0,0:0:0:0:
320,192,277609,1,0,0:0:0:0:
64,192,277609,1,0,0:0:0:0:
192,192,277673,1,0,0:0:0:0:
320,192,277737,1,0,0:0:0:0:
448,192,277801,1,0,0:0:0:0:
64,192,277865,1,0,0:0:0:0:
192,192,277865,1,0,0:0:0:0:
320,192,277865,1,0,0:0:0:0:
448,192,277929,1,0,0:0:0:0:
192,192,277993,1,0,0:0:0:0:
64,192,278058,1,0,0:0:0:0:
192,192,278122,1,0,0:0:0:0:
320,192,278122,1,0,0:0:0:0:
448,192,278122,1,0,0:0:0:0:
64,192,278186,1,0,0:0:0:0:
192,192,278250,1,0,0:0:0:0:
320,192,278314,1,0,0:0:0:0:
448,192,278378,1,0,0:0:0:0:
192,192,278378,1,0,0:0:0:0:
64,192,278378,1,0,0:0:0:0:
320,192,278442,1,0,0:0:0:0:
448,192,278506,1,0,0:0:0:0:
192,192,278570,1,0,0:0:0:0:
64,192,278634,1,0,0:0:0:0:
320,192,278634,1,0,0:0:0:0:
448,192,278634,1,0,0:0:0:0:
192,192,278699,1,0,0:0:0:0:
320,192,278763,1,0,0:0:0:0:
64,192,278827,1,0,0:0:0:0:
192,192,278891,1,0,0:0:0:0:
320,192,278891,1,0,0:0:0:0:
448,192,278891,1,0,0:0:0:0:
64,192,278955,1,0,0:0:0:0:
320,192,279019,1,0,0:0:0:0:
448,192,279083,1,0,0:0:0:0:
192,192,279147,1,0,0:0:0:0:
64,192,279147,1,0,0:0:0:0:
320,192,279147,1,0,0:0:0:0:
448,192,279211,1,0,0:0:0:0:
192,192,279275,1,0,0:0:0:0:
64,192,279340,1,0,0:0:0:0:
448,192,279340,1,0,0:0:0:0:
320,192,279340,1,0,0:0:0:0:
192,192,279404,1,0,0:0:0:0:
320,192,279468,1,0,0:0:0:0:
448,192,279532,1,0,0:0:0:0:
192,192,279532,1,0,0:0:0:0:
64,192,279532,1,0,0:0:0:0:
320,192,279596,1,0,0:0:0:0:
448,192,279660,1,0,0:0:0:0:
64,192,279660,1,0,0:0:0:0:
192,192,279660,1,0,0:0:0:0:
320,192,279724,1,0,0:0:0:0:
192,192,279788,1,0,0:0:0:0:
64,192,279852,1,0,0:0:0:0:
192,192,279916,1,0,0:0:0:0:
320,192,279916,1,0,0:0:0:0:
448,192,279916,1,0,0:0:0:0:
64,192,279981,1,0,0:0:0:0:
320,192,280045,1,0,0:0:0:0:
448,192,280109,1,0,0:0:0:0:
320,192,280173,1,0,0:0:0:0:
192,192,280173,1,0,0:0:0:0:
64,192,280173,1,0,0:0:0:0:
448,192,280237,1,0,0:0:0:0:
192,192,280301,1,0,0:0:0:0:
320,192,280365,1,0,0:0:0:0:
64,192,280429,1,0,0:0:0:0:
192,192,280429,1,0,0:0:0:0:
448,192,280429,1,0,0:0:0:0:
320,192,280493,1,0,0:0:0:0:
192,192,280558,1,0,0:0:0:0:
64,192,280622,1,0,0:0:0:0:
448,192,280686,1,0,0:0:0:0:
320,192,280686,1,0,0:0:0:0:
192,192,280686,1,0,0:0:0:0:
64,192,280750,1,0,0:0:0:0:
448,192,280814,1,0,0:0:0:0:
192,192,280878,1,0,0:0:0:0:
64,192,280942,1,0,0:0:0:0:
320,192,280942,1,0,0:0:0:0:
448,192,280942,1,0,0:0:0:0:
192,192,281006,1,0,0:0:0:0:
320,192,281070,1,0,0:0:0:0:
448,192,281134,1,0,0:0:0:0:
320,192,281199,1,0,0:0:0:0:
64,192,281199,1,0,0:0:0:0:
192,192,281199,1,0,0:0:0:0:
448,192,281263,1,0,0:0:0:0:
192,192,281327,1,0,0:0:0:0:
64,192,281391,1,0,0:0:0:0:
192,192,281455,1,0,0:0:0:0:
448,192,281455,1,0,0:0:0:0:
320,192,281455,1,0,0:0:0:0:
64,192,281519,1,0,0:0:0:0:
320,192,281583,1,0,0:0:0:0:
192,192,281647,1,0,0:0:0:0:
448,192,281711,1,0,0:0:0:0:
320,192,281711,1,0,0:0:0:0:
64,192,281711,1,0,0:0:0:0:
192,192,281775,1,0,0:0:0:0:
448,192,281840,1,0,0:0:0:0:
320,192,281904,1,0,0:0:0:0:
192,192,281968,1,0,0:0:0:0:
64,192,281968,1,0,0:0:0:0:
448,192,281968,1,0,0:0:0:0:
320,192,282032,1,0,0:0:0:0:
192,192,282096,1,0,0:0:0:0:
64,192,282160,1,0,0:0:0:0:
192,192,282224,1,0,0:0:0:0:
320,192,282224,1,0,0:0:0:0:
448,192,282224,1,0,0:0:0:0:
64,192,282288,1,0,0:0:0:0:
192,192,282352,1,0,0:0:0:0:
448,192,282416,1,0,0:0:0:0:
320,192,282481,1,0,0:0:0:0:
192,192,282481,1,0,0:0:0:0:
64,192,282481,1,0,0:0:0:0:
448,192,282545,1,0,0:0:0:0:
320,192,282609,1,0,0:0:0:0:
192,192,282673,1,0,0:0:0:0:
64,192,282737,1,0,0:0:0:0:
320,192,282737,1,0,0:0:0:0:
448,192,282737,1,0,0:0:0:0:
192,192,282801,1,0,0:0:0:0:
448,192,282865,1,0,0:0:0:0:
320,192,282929,1,0,0:0:0:0:
448,192,282993,1,0,0:0:0:0:
192,192,282993,1,0,0:0:0:0:
64,192,282993,1,0,0:0:0:0:
320,192,283058,1,0,0:0:0:0:
192,192,283122,1,0,0:0:0:0:
64,192,283186,1,0,0:0:0:0:
192,192,283250,1,0,0:0:0:0:
320,192,283250,1,0,0:0:0:0:
448,192,283250,1,0,0:0:0:0:
64,192,283314,1,0,0:0:0:0:
320,192,283378,1,0,0:0:0:0:
448,192,283442,1,0,0:0:0:0:
320,192,283506,1,0,0:0:0:0:
192,192,283506,1,0,0:0:0:0:
64,192,283506,1,0,0:0:0:0:
64,192,283634,1,0,0:0:0:0:
320,192,283763,1,0,0:0:0:0:
448,192,283763,1,0,0:0:0:0:
192,192,283827,1,0,0:0:0:0:
64,192,283891,1,0,0:0:0:0:
320,192,283891,1,0,0:0:0:0:
192,192,283955,1,0,0:0:0:0:
448,192,284019,1,0,0:0:0:0:
64,192,284019,1,0,0:0:0:0:
320,192,284083,1,0,0:0:0:0:
192,192,284147,1,0,0:0:0:0:
448,192,284147,1,0,0:0:0:0:
320,192,284211,1,0,0:0:0:0:
192,192,284275,1,0,0:0:0:0:
64,192,284275,1,0,0:0:0:0:
448,192,284340,1,0,0:0:0:0:
320,192,284404,1,0,0:0:0:0:
192,192,284404,1,0,0:0:0:0:
64,192,284468,1,0,0:0:0:0:
448,192,284532,1,0,0:0:0:0:
192,192,284532,1,0,0:0:0:0:
320,192,284596,1,0,0:0:0:0:
64,192,284660,1,0,0:0:0:0:
448,192,284660,1,0,0:0:0:0:
192,192,284724,1,0,0:0:0:0:
448,192,284788,1,0,0:0:0:0:
320,192,284788,1,0,0:0:0:0:
64,192,284788,1,0,0:0:0:0:
192,192,284852,1,0,0:0:0:0:
320,192,284916,1,0,0:0:0:0:
64,192,284981,1,0,0:0:0:0:
192,192,285045,1,0,0:0:0:0:
320,192,285045,1,0,0:0:0:0:
448,192,285045,1,0,0:0:0:0:
64,192,285109,1,0,0:0:0:0:
448,192,285173,1,0,0:0:0:0:
320,192,285237,1,0,0:0:0:0:
448,192,285301,1,0,0:0:0:0:
192,192,285301,1,0,0:0:0:0:
64,192,285301,1,0,0:0:0:0:
320,192,285365,1,0,0:0:0:0:
64,192,285429,1,0,0:0:0:0:
192,192,285493,1,0,0:0:0:0:
64,192,285558,1,0,0:0:0:0:
448,192,285558,1,0,0:0:0:0:
320,192,285558,1,0,0:0:0:0:
192,192,285622,1,0,0:0:0:0:
320,192,285686,1,0,0:0:0:0:
64,192,285750,1,0,0:0:0:0:
192,192,285814,1,0,0:0:0:0:
320,192,285814,1,0,0:0:0:0:
448,192,285814,1,0,0:0:0:0:
64,192,285878,1,0,0:0:0:0:
192,192,285942,1,0,0:0:0:0:
448,192,286006,1,0,0:0:0:0:
320,192,286070,1,0,0:0:0:0:
192,192,286070,1,0,0:0:0:0:
64,192,286070,1,0,0:0:0:0:
448,192,286134,1,0,0:0:0:0:
64,192,286199,1,0,0:0:0:0:
320,192,286263,1,0,0:0:0:0:
192,192,286327,1,0,0:0:0:0:
64,192,286327,1,0,0:0:0:0:
448,192,286327,1,0,0:0:0:0:
320,192,286391,1,0,0:0:0:0:
192,192,286455,1,0,0:0:0:0:
64,192,286519,1,0,0:0:0:0:
192,192,286583,1,0,0:0:0:0:
320,192,286583,1,0,0:0:0:0:
448,192,286583,1,0,0:0:0:0:
64,192,286647,1,0,0:0:0:0:
320,192,286711,1,0,0:0:0:0:
448,192,286775,1,0,0:0:0:0:
320,192,286840,1,0,0:0:0:0:
192,192,286840,1,0,0:0:0:0:
64,192,286840,1,0,0:0:0:0:
448,192,286904,1,0,0:0:0:0:
64,192,286968,1,0,0:0:0:0:
192,192,287032,1,0,0:0:0:0:
64,192,287096,1,0,0:0:0:0:
448,192,287096,1,0,0:0:0:0:
320,192,287096,1,0,0:0:0:0:
192,192,287160,1,0,0:0:0:0:
320,192,287224,1,0,0:0:0:0:
64,192,287288,1,0,0:0:0:0:
448,192,287352,1,0,0:0:0:0:
192,192,287352,1,0,0:0:0:0:
320,192,287352,1,0,0:0:0:0:
64,192,287416,1,0,0:0:0:0:
192,192,287481,1,0,0:0:0:0:
448,192,287545,1,0,0:0:0:0:
320,192,287609,1,0,0:0:0:0:
64,192,287609,1,0,0:0:0:0:
192,192,287609,1,0,0:0:0:0:
448,192,287673,1,0,0:0:0:0:
320,192,287737,1,0,0:0:0:0:
448,192,287865,1,0,0:0:0:0:
64,192,287865,1,0,0:0:0:0:
192,192,287929,1,0,0:0:0:0:
320,192,287993,1,0,0:0:0:0:
64,192,287993,1,0,0:0:0:0:
192,192,288058,1,0,0:0:0:0:
320,192,288122,1,0,0:0:0:0:
448,192,288122,1,0,0:0:0:0:
64,192,288186,1,0,0:0:0:0:
192,192,288250,1,0,0:0:0:0:
320,192,288250,1,0,0:0:0:0:
448,192,288314,1,0,0:0:0:0:
192,192,288378,1,0,0:0:0:0:
64,192,288378,1,0,0:0:0:0:
320,192,288442,1,0,0:0:0:0:
448,192,288506,1,0,0:0:0:0:
192,192,288506,1,0,0:0:0:0:
64,192,288570,1,0,0:0:0:0:
320,192,288634,1,0,0:0:0:0:
192,192,288634,1,0,0:0:0:0:
448,192,288634,1,0,0:0:0:0:
448,192,288763,1,0,0:0:0:0:
192,192,288891,1,0,0:0:0:0:
64,192,288891,1,0,0:0:0:0:
320,192,288955,1,0,0:0:0:0:
448,192,289019,1,0,0:0:0:0:
192,192,289019,1,0,0:0:0:0:
64,192,289083,1,0,0:0:0:0:
192,192,289147,1,0,0:0:0:0:
320,192,289147,1,0,0:0:0:0:
448,192,289211,1,0,0:0:0:0:
192,192,289275,1,0,0:0:0:0:
64,192,289275,1,0,0:0:0:0:
448,192,289340,1,0,0:0:0:0:
320,192,289404,1,0,0:0:0:0:
64,192,289404,1,0,0:0:0:0:
192,192,289468,1,0,0:0:0:0:
64,192,289532,1,0,0:0:0:0:
448,192,289532,1,0,0:0:0:0:
320,192,289596,1,0,0:0:0:0:
448,192,289660,1,0,0:0:0:0:
192,192,289660,1,0,0:0:0:0:
64,192,289660,1,0,0:0:0:0:
448,192,289788,1,0,0:0:0:0:
64,192,289788,1,0,0:0:0:0:
320,192,289916,1,0,0:0:0:0:
448,192,289916,1,0,0:0:0:0:
192,192,289916,1,0,0:0:0:0:
64,192,289916,1,0,0:0:0:0:
320,192,290045,1,0,0:0:0:0:
448,192,290045,1,0,0:0:0:0:
192,192,290109,1,0,0:0:0:0:
64,192,290109,1,0,0:0:0:0:
448,192,290173,1,0,0:0:0:0:
320,192,290173,1,0,0:0:0:0:
64,192,290173,1,0,0:0:0:0:
64,192,290429,1,0,0:0:0:0:
192,192,290429,1,0,0:0:0:0:
448,192,290429,1,0,0:0:0:0:
320,192,290429,1,0,0:0:0:0:
448,192,290558,1,0,0:0:0:0:
64,192,290558,1,0,0:0:0:0:
192,192,290622,1,0,0:0:0:0:
320,192,290622,1,0,0:0:0:0:
448,192,290686,1,0,0:0:0:0:
192,192,290686,1,0,0:0:0:0:
64,192,290686,1,0,0:0:0:0:
320,192,290942,1,0,0:0:0:0:
448,192,290942,128,0,291455:0:0:0:0:
192,192,291455,128,0,291583:0:0:0:0:
64,192,291487,128,0,291647:0:0:0:0:
320,192,291487,128,0,291615:0:0:0:0:
192,192,291711,128,0,291808:0:0:0:0:
320,192,291754,128,0,291925:0:0:0:0:
64,192,291754,128,0,291882:0:0:0:0:
448,192,291968,1,0,0:0:0:0:
320,192,291968,1,0,0:0:0:0:
192,192,291968,1,0,0:0:0:0:
64,192,291968,1,0,0:0:0:0:
64,192,292096,1,0,0:0:0:0:
192,192,292096,1,0,0:0:0:0:
320,192,292160,1,0,0:0:0:0:
448,192,292160,1,0,0:0:0:0:
192,192,292224,1,0,0:0:0:0:
64,192,292224,1,0,0:0:0:0:
64,192,292352,1,0,0:0:0:0:
448,192,292352,1,0,0:0:0:0:
320,192,292416,1,0,0:0:0:0:
192,192,292416,1,0,0:0:0:0:
64,192,292481,1,0,0:0:0:0:
448,192,292481,1,0,0:0:0:0:
320,192,292545,1,0,0:0:0:0:
192,192,292545,1,0,0:0:0:0:
64,192,292609,1,0,0:0:0:0:
448,192,292609,1,0,0:0:0:0:
320,192,292673,1,0,0:0:0:0:
192,192,292673,1,0,0:0:0:0:
448,192,292737,1,0,0:0:0:0:
64,192,292737,1,0,0:0:0:0:
64,192,292865,1,0,0:0:0:0:
192,192,292865,1,0,0:0:0:0:
320,192,292865,1,0,0:0:0:0:
448,192,292865,1,0,0:0:0:0:
64,192,292993,1,0,0:0:0:0:
192,192,293025,1,0,0:0:0:0:
320,192,293058,1,0,0:0:0:0:
448,192,293090,1,0,0:0:0:0:
192,192,293122,1,0,0:0:0:0:
64,192,293122,1,0,0:0:0:0:
320,192,293186,1,0,0:0:0:0:
448,192,293186,1,0,0:0:0:0:
192,192,293250,1,0,0:0:0:0:
64,192,293250,1,0,0:0:0:0:
320,192,293314,1,0,0:0:0:0:
448,192,293378,1,0,0:0:0:0:
192,192,293378,1,0,0:0:0:0:
64,192,293442,1,0,0:0:0:0:
192,192,293506,1,0,0:0:0:0:
448,192,293506,1,0,0:0:0:0:
320,192,293506,1,0,0:0:0:0:
192,192,293634,1,0,0:0:0:0:
64,192,293634,1,0,0:0:0:0:
448,192,293634,1,0,0:0:0:0:
192,192,293763,1,0,0:0:0:0:
320,192,293763,1,0,0:0:0:0:
448,192,293827,1,0,0:0:0:0:
320,192,293891,1,0,0:0:0:0:
64,192,293891,1,0,0:0:0:0:
192,192,293955,1,0,0:0:0:0:
64,192,294019,1,0,0:0:0:0:
320,192,294019,1,0,0:0:0:0:
448,192,294019,1,0,0:0:0:0:
64,192,294147,1,0,0:0:0:0:
192,192,294179,1,0,0:0:0:0:
320,192,294211,1,0,0:0:0:0:
448,192,294211,1,0,0:0:0:0:
64,192,294275,1,0,0:0:0:0:
192,192,294275,1,0,0:0:0:0:
320,192,294340,1,0,0:0:0:0:
448,192,294340,1,0,0:0:0:0:
448,192,294404,1,0,0:0:0:0:
192,192,294404,1,0,0:0:0:0:
64,192,294404,1,0,0:0:0:0:
64,192,294532,1,0,0:0:0:0:
320,192,294532,1,0,0:0:0:0:
192,192,294532,1,0,0:0:0:0:
448,192,294532,1,0,0:0:0:0:
192,192,294660,1,0,0:0:0:0:
64,192,294660,1,0,0:0:0:0:
320,192,294724,1,0,0:0:0:0:
448,192,294724,1,0,0:0:0:0:
320,192,294852,1,0,0:0:0:0:
192,192,294852,1,0,0:0:0:0:
64,192,294916,1,0,0:0:0:0:
448,192,294916,1,0,0:0:0:0:
192,192,295045,1,0,0:0:0:0:
64,192,295045,1,0,0:0:0:0:
320,192,295109,1,0,0:0:0:0:
448,192,295109,1,0,0:0:0:0:
192,192,295173,1,0,0:0:0:0:
64,192,295173,1,0,0:0:0:0:
448,192,295237,1,0,0:0:0:0:
320,192,295237,1,0,0:0:0:0:
192,192,295301,1,0,0:0:0:0:
64,192,295301,1,0,0:0:0:0:
448,192,295429,1,0,0:0:0:0:
192,192,295429,1,0,0:0:0:0:
320,192,295493,1,0,0:0:0:0:
64,192,295493,1,0,0:0:0:0:
192,192,295558,1,0,0:0:0:0:
448,192,295558,1,0,0:0:0:0:
320,192,295686,1,0,0:0:0:0:
192,192,295702,1,0,0:0:0:0:
448,192,295814,128,0,295942:0:0:0:0:
192,192,295830,128,0,295910:0:0:0:0:
320,192,295846,128,0,295974:0:0:0:0:
64,192,296070,1,0,0:0:0:0:
448,192,296070,1,0,0:0:0:0:
192,192,296134,1,0,0:0:0:0:
320,192,296199,1,0,0:0:0:0:
64,192,296199,1,0,0:0:0:0:
192,192,296263,1,0,0:0:0:0:
320,192,296327,1,0,0:0:0:0:
448,192,296327,1,0,0:0:0:0:
64,192,296391,1,0,0:0:0:0:
320,192,296455,1,0,0:0:0:0:
448,192,296455,1,0,0:0:0:0:
192,192,296455,1,0,0:0:0:0:
448,192,296583,1,0,0:0:0:0:
64,192,296583,1,0,0:0:0:0:
192,192,296647,1,0,0:0:0:0:
320,192,296711,1,0,0:0:0:0:
448,192,296711,1,0,0:0:0:0:
192,192,296775,1,0,0:0:0:0:
64,192,296840,1,0,0:0:0:0:
448,192,296840,1,0,0:0:0:0:
320,192,296904,1,0,0:0:0:0:
448,192,296968,1,0,0:0:0:0:
192,192,296968,1,0,0:0:0:0:
64,192,296968,1,0,0:0:0:0:
320,192,297096,1,0,0:0:0:0:
448,192,297096,1,0,0:0:0:0:
192,192,297160,1,0,0:0:0:0:
64,192,297160,1,0,0:0:0:0:
448,192,297224,1,0,0:0:0:0:
320,192,297224,1,0,0:0:0:0:
64,192,297224,1,0,0:0:0:0:
320,192,297352,1,0,0:0:0:0:
64,192,297352,1,0,0:0:0:0:
192,192,297416,1,0,0:0:0:0:
448,192,297481,1,0,0:0:0:0:
64,192,297481,1,0,0:0:0:0:
192,192,297545,1,0,0:0:0:0:
320,192,297609,1,0,0:0:0:0:
448,192,297609,1,0,0:0:0:0:
64,192,297673,1,0,0:0:0:0:
192,192,297737,1,0,0:0:0:0:
320,192,297737,1,0,0:0:0:0:
448,192,297801,1,0,0:0:0:0:
192,192,297865,1,0,0:0:0:0:
64,192,297865,1,0,0:0:0:0:
320,192,297929,1,0,0:0:0:0:
448,192,297929,1,0,0:0:0:0:
64,192,297993,1,0,0:0:0:0:
192,192,297993,1,0,0:0:0:0:
320,192,298058,1,0,0:0:0:0:
192,192,298122,1,0,0:0:0:0:
64,192,298122,1,0,0:0:0:0:
448,192,298186,1,0,0:0:0:0:
320,192,298250,1,0,0:0:0:0:
192,192,298250,1,0,0:0:0:0:
64,192,298314,1,0,0:0:0:0:
320,192,298378,1,0,0:0:0:0:
448,192,298378,1,0,0:0:0:0:
192,192,298442,1,0,0:0:0:0:
64,192,298506,1,0,0:0:0:0:
448,192,298506,1,0,0:0:0:0:
320,192,298570,1,0,0:0:0:0:
192,192,298570,1,0,0:0:0:0:
448,192,298634,1,0,0:0:0:0:
64,192,298699,1,0,0:0:0:0:
320,192,298699,1,0,0:0:0:0:
192,192,298763,1,0,0:0:0:0:
448,192,298763,1,0,0:0:0:0:
320,192,298827,1,0,0:0:0:0:
64,192,298891,1,0,0:0:0:0:
448,192,298955,1,0,0:0:0:0:
320,192,298955,1,0,0:0:0:0:
192,192,299019,1,0,0:0:0:0:
64,192,299019,1,0,0:0:0:0:
448,192,299083,1,0,0:0:0:0:
192,192,299147,1,0,0:0:0:0:
320,192,299147,1,0,0:0:0:0:
64,192,299211,1,0,0:0:0:0:
448,192,299211,1,0,0:0:0:0:
320,192,299275,1,0,0:0:0:0:
192,192,299275,1,0,0:0:0:0:
64,192,299340,1,0,0:0:0:0:
320,192,299404,1,0,0:0:0:0:
448,192,299404,1,0,0:0:0:0:
192,192,299468,1,0,0:0:0:0:
64,192,299468,1,0,0:0:0:0:
320,192,299532,1,0,0:0:0:0:
448,192,299532,1,0,0:0:0:0:
192,192,299660,1,0,0:0:0:0:
64,192,299681,1,0,0:0:0:0:
448,192,299703,1,0,0:0:0:0:
320,192,299724,1,0,0:0:0:0:
192,192,299746,1,0,0:0:0:0:
64,192,299767,1,0,0:0:0:0:
448,192,299788,1,0,0:0:0:0:
320,192,299820,1,0,0:0:0:0:
192,192,299852,1,0,0:0:0:0:
64,192,299884,1,0,0:0:0:0:
320,192,299916,1,0,0:0:0:0:
448,192,299916,1,0,0:0:0:0:
192,192,299981,1,0,0:0:0:0:
64,192,300045,1,0,0:0:0:0:
320,192,300045,1,0,0:0:0:0:
448,192,300045,1,0,0:0:0:0:
192,192,300173,1,0,0:0:0:0:
320,192,300173,1,0,0:0:0:0:
448,192,300237,1,0,0:0:0:0:
320,192,300301,1,0,0:0:0:0:
64,192,300301,1,0,0:0:0:0:
192,192,300365,1,0,0:0:0:0:
64,192,300429,1,0,0:0:0:0:
448,192,300429,1,0,0:0:0:0:
192,192,300493,1,0,0:0:0:0:
320,192,300558,1,0,0:0:0:0:
448,192,300558,1,0,0:0:0:0:
64,192,300622,1,0,0:0:0:0:
192,192,300686,1,0,0:0:0:0:
320,192,300686,1,0,0:0:0:0:
448,192,300750,1,0,0:0:0:0:
192,192,300814,1,0,0:0:0:0:
64,192,300814,1,0,0:0:0:0:
448,192,300878,1,0,0:0:0:0:
192,192,300942,1,0,0:0:0:0:
320,192,300942,1,0,0:0:0:0:
64,192,301006,1,0,0:0:0:0:
320,192,301070,1,0,0:0:0:0:
448,192,301070,1,0,0:0:0:0:
192,192,301134,1,0,0:0:0:0:
320,192,301199,1,0,0:0:0:0:
64,192,301199,1,0,0:0:0:0:
448,192,301263,1,0,0:0:0:0:
320,192,301327,1,0,0:0:0:0:
192,192,301327,1,0,0:0:0:0:
64,192,301391,1,0,0:0:0:0:
192,192,301455,1,0,0:0:0:0:
448,192,301455,1,0,0:0:0:0:
320,192,301519,1,0,0:0:0:0:
448,192,301583,1,0,0:0:0:0:
64,192,301583,1,0,0:0:0:0:
192,192,301647,1,0,0:0:0:0:
320,192,301711,1,0,0:0:0:0:
448,192,301711,1,0,0:0:0:0:
192,192,301775,1,0,0:0:0:0:
320,192,301840,1,0,0:0:0:0:
64,192,301840,1,0,0:0:0:0:
448,192,301904,1,0,0:0:0:0:
192,192,301968,1,0,0:0:0:0:
64,192,301968,1,0,0:0:0:0:
320,192,302032,1,0,0:0:0:0:
448,192,302096,1,0,0:0:0:0:
64,192,302096,1,0,0:0:0:0:
192,192,302160,1,0,0:0:0:0:
320,192,302224,1,0,0:0:0:0:
64,192,302224,1,0,0:0:0:0:
448,192,302288,1,0,0:0:0:0:
320,192,302352,1,0,0:0:0:0:
192,192,302352,1,0,0:0:0:0:
64,192,302416,1,0,0:0:0:0:
192,192,302481,1,0,0:0:0:0:
448,192,302481,1,0,0:0:0:0:
320,192,302545,1,0,0:0:0:0:
448,192,302609,1,0,0:0:0:0:
64,192,302609,1,0,0:0:0:0:
320,192,302673,1,0,0:0:0:0:
192,192,302737,1,0,0:0:0:0:
64,192,302737,1,0,0:0:0:0:
448,192,302801,1,0,0:0:0:0:
320,192,302865,1,0,0:0:0:0:
192,192,302865,1,0,0:0:0:0:
64,192,302929,1,0,0:0:0:0:
320,192,302993,1,0,0:0:0:0:
448,192,302993,1,0,0:0:0:0:
192,192,303058,1,0,0:0:0:0:
64,192,303122,1,0,0:0:0:0:
448,192,303122,1,0,0:0:0:0:
320,192,303186,1,0,0:0:0:0:
192,192,303250,1,0,0:0:0:0:
448,192,303250,1,0,0:0:0:0:
64,192,303314,1,0,0:0:0:0:
448,192,303378,1,0,0:0:0:0:
320,192,303378,1,0,0:0:0:0:
192,192,303442,1,0,0:0:0:0:
320,192,303506,1,0,0:0:0:0:
64,192,303506,1,0,0:0:0:0:
448,192,303570,1,0,0:0:0:0:
64,192,303634,1,0,0:0:0:0:
192,192,303634,1,0,0:0:0:0:
320,192,303699,1,0,0:0:0:0:
448,192,303763,1,0,0:0:0:0:
192,192,303827,1,0,0:0:0:0:
320,192,303891,1,0,0:0:0:0:
64,192,303955,1,0,0:0:0:0:
448,192,304019,1,0,0:0:0:0:
192,192,304083,1,0,0:0:0:0:
320,192,304147,1,0,0:0:0:0:
448,192,304147,1,0,0:0:0:0:
192,192,304211,1,0,0:0:0:0:
320,192,304275,1,0,0:0:0:0:
448,192,304275,1,0,0:0:0:0:
64,192,304275,1,0,0:0:0:0:
64,192,304404,1,0,0:0:0:0:
320,192,304404,1,0,0:0:0:0:
448,192,304404,1,0,0:0:0:0:
192,192,304468,1,0,0:0:0:0:
64,192,304532,1,0,0:0:0:0:
448,192,304532,1,0,0:0:0:0:
320,192,304596,1,0,0:0:0:0:
448,192,304660,1,0,0:0:0:0:
192,192,304660,1,0,0:0:0:0:
64,192,304660,1,0,0:0:0:0:
192,192,304788,1,0,0:0:0:0:
64,192,304788,1,0,0:0:0:0:
448,192,304788,1,0,0:0:0:0:
320,192,304852,1,0,0:0:0:0:
64,192,304916,1,0,0:0:0:0:
192,192,304916,1,0,0:0:0:0:
448,192,304981,1,0,0:0:0:0:
320,192,305045,1,0,0:0:0:0:
192,192,305045,1,0,0:0:0:0:
64,192,305045,1,0,0:0:0:0:
64,192,305173,1,0,0:0:0:0:
192,192,305173,1,0,0:0:0:0:
320,192,305173,1,0,0:0:0:0:
448,192,305237,1,0,0:0:0:0:
192,192,305301,1,0,0:0:0:0:
320,192,305301,1,0,0:0:0:0:
64,192,305365,1,0,0:0:0:0:
192,192,305429,1,0,0:0:0:0:
320,192,305429,1,0,0:0:0:0:
448,192,305429,1,0,0:0:0:0:
448,192,305558,1,0,0:0:0:0:
320,192,305558,1,0,0:0:0:0:
192,192,305558,1,0,0:0:0:0:
64,192,305622,1,0,0:0:0:0:
320,192,305686,1,0,0:0:0:0:
448,192,305686,1,0,0:0:0:0:
192,192,305750,1,0,0:0:0:0:
64,192,305814,1,0,0:0:0:0:
320,192,305814,1,0,0:0:0:0:
448,192,305814,1,0,0:0:0:0:
320,192,305942,1,0,0:0:0:0:
448,192,305942,1,0,0:0:0:0:
64,192,305942,1,0,0:0:0:0:
192,192,306006,1,0,0:0:0:0:
320,192,306070,1,0,0:0:0:0:
64,192,306070,1,0,0:0:0:0:
448,192,306134,1,0,0:0:0:0:
192,192,306199,1,0,0:0:0:0:
64,192,306199,1,0,0:0:0:0:
320,192,306199,1,0,0:0:0:0:
64,192,306327,1,0,0:0:0:0:
192,192,306327,1,0,0:0:0:0:
320,192,306327,1,0,0:0:0:0:
448,192,306391,1,0,0:0:0:0:
192,192,306455,1,0,0:0:0:0:
320,192,306455,1,0,0:0:0:0:
64,192,306519,1,0,0:0:0:0:
192,192,306583,1,0,0:0:0:0:
320,192,306583,1,0,0:0:0:0:
448,192,306583,1,0,0:0:0:0:
448,192,306711,1,0,0:0:0:0:
320,192,306711,1,0,0:0:0:0:
192,192,306711,1,0,0:0:0:0:
64,192,306775,1,0,0:0:0:0:
448,192,306840,1,0,0:0:0:0:
192,192,306840,1,0,0:0:0:0:
320,192,306904,1,0,0:0:0:0:
448,192,306968,1,0,0:0:0:0:
192,192,306968,1,0,0:0:0:0:
64,192,306968,1,0,0:0:0:0:
64,192,307096,1,0,0:0:0:0:
192,192,307096,1,0,0:0:0:0:
448,192,307096,1,0,0:0:0:0:
320,192,307160,1,0,0:0:0:0:
64,192,307224,1,0,0:0:0:0:
448,192,307224,1,0,0:0:0:0:
192,192,307288,1,0,0:0:0:0:
64,192,307352,1,0,0:0:0:0:
320,192,307352,1,0,0:0:0:0:
448,192,307352,1,0,0:0:0:0:
448,192,307481,1,0,0:0:0:0:
320,192,307481,1,0,0:0:0:0:
64,192,307481,1,0,0:0:0:0:
192,192,307545,1,0,0:0:0:0:
320,192,307609,1,0,0:0:0:0:
448,192,307609,1,0,0:0:0:0:
64,192,307673,1,0,0:0:0:0:
192,192,307737,1,0,0:0:0:0:
320,192,307737,1,0,0:0:0:0:
448,192,307737,1,0,0:0:0:0:
320,192,307865,1,0,0:0:0:0:
448,192,307865,1,0,0:0:0:0:
192,192,307865,1,0,0:0:0:0:
64,192,307929,1,0,0:0:0:0:
320,192,307993,1,0,0:0:0:0:
192,192,307993,1,0,0:0:0:0:
448,192,308058,1,0,0:0:0:0:
320,192,308122,1,0,0:0:0:0:
192,192,308122,1,0,0:0:0:0:
64,192,308122,1,0,0:0:0:0:
64,192,308250,1,0,0:0:0:0:
192,192,308250,1,0,0:0:0:0:
320,192,308250,1,0,0:0:0:0:
448,192,308314,1,0,0:0:0:0:
320,192,308378,1,0,0:0:0:0:
64,192,308378,1,0,0:0:0:0:
192,192,308442,1,0,0:0:0:0:
64,192,308506,1,0,0:0:0:0:
320,192,308506,1,0,0:0:0:0:
448,192,308506,1,0,0:0:0:0:
448,192,308634,1,0,0:0:0:0:
320,192,308634,1,0,0:0:0:0:
64,192,308634,1,0,0:0:0:0:
192,192,308699,1,0,0:0:0:0:
448,192,308763,1,0,0:0:0:0:
320,192,308763,1,0,0:0:0:0:
64,192,308827,1,0,0:0:0:0:
192,192,308891,1,0,0:0:0:0:
320,192,308891,1,0,0:0:0:0:
448,192,308891,1,0,0:0:0:0:
448,192,309019,1,0,0:0:0:0:
320,192,309019,1,0,0:0:0:0:
192,192,309019,1,0,0:0:0:0:
64,192,309083,1,0,0:0:0:0:
320,192,309147,1,0,0:0:0:0:
448,192,309147,1,0,0:0:0:0:
192,192,309211,1,0,0:0:0:0:
64,192,309275,1,0,0:0:0:0:
320,192,309275,1,0,0:0:0:0:
448,192,309275,1,0,0:0:0:0:
192,192,309340,1,0,0:0:0:0:
320,192,309404,1,0,0:0:0:0:
448,192,309404,1,0,0:0:0:0:
192,192,309468,1,0,0:0:0:0:
64,192,309468,1,0,0:0:0:0:
320,192,309532,1,0,0:0:0:0:
448,192,309532,1,0,0:0:0:0:
64,192,309596,1,0,0:0:0:0:
192,192,309596,1,0,0:0:0:0:
320,192,309660,1,0,0:0:0:0:
448,192,309660,1,0,0:0:0:0:
64,192,309724,1,0,0:0:0:0:
192,192,309724,1,0,0:0:0:0:
320,192,309788,1,0,0:0:0:0:
448,192,309788,1,0,0:0:0:0:
192,192,309852,1,0,0:0:0:0:
64,192,309852,1,0,0:0:0:0:
320,192,309916,1,0,0:0:0:0:
448,192,309916,1,0,0:0:0:0:
192,192,309981,1,0,0:0:0:0:
320,192,310045,1,0,0:0:0:0:
448,192,310045,1,0,0:0:0:0:
64,192,310109,1,0,0:0:0:0:
320,192,310173,1,0,0:0:0:0:
448,192,310173,1,0,0:0:0:0:
192,192,310237,1,0,0:0:0:0:
320,192,310301,1,0,0:0:0:0:
448,192,310301,1,0,0:0:0:0:
64,192,310365,1,0,0:0:0:0:
320,192,310429,1,0,0:0:0:0:
448,192,310429,1,0,0:0:0:0:
192,192,310472,1,0,0:0:0:0:
64,192,310515,1,0,0:0:0:0:
320,192,310558,1,0,0:0:0:0:
192,192,310600,1,0,0:0:0:0:
320,192,310643,1,0,0:0:0:0:
448,192,310686,1,0,0:0:0:0:
64,192,310728,1,0,0:0:0:0:
320,192,310771,1,0,0:0:0:0:
192,192,310814,1,0,0:0:0:0:
448,192,310857,1,0,0:0:0:0:
320,192,310899,1,0,0:0:0:0:
192,192,310942,1,0,0:0:0:0:
64,192,310942,1,0,0:0:0:0:
320,192,311006,1,0,0:0:0:0:
448,192,311006,1,0,0:0:0:0:
192,192,311070,1,0,0:0:0:0:
64,192,311070,1,0,0:0:0:0:
320,192,311134,1,0,0:0:0:0:
448,192,311134,1,0,0:0:0:0:
192,192,311199,1,0,0:0:0:0:
64,192,311199,1,0,0:0:0:0:
320,192,311263,1,0,0:0:0:0:
448,192,311263,1,0,0:0:0:0:
192,192,311327,1,0,0:0:0:0:
64,192,311327,1,0,0:0:0:0:
320,192,311391,1,0,0:0:0:0:
448,192,311391,1,0,0:0:0:0:
64,192,311455,128,0,312053:0:0:0:0:
192,192,311540,128,0,311797:0:0:0:0:
320,192,311626,128,0,311711:0:0:0:0:
448,192,311711,128,0,311797:0:0:0:0:
320,192,311797,128,0,311882:0:0:0:0:
192,192,311882,128,0,311968:0:0:0:0:
448,192,311882,1,0,0:0:0:0:
320,192,311968,1,0,0:0:0:0:
192,192,312053,1,0,0:0:0:0:
64,192,312139,1,0,0:0:0:0:
448,192,312224,1,0,0:0:0:0:
64,192,312310,1,0,0:0:0:0:
192,192,312395,1,0,0:0:0:0:
320,192,312481,1,0,0:0:0:0:
448,192,312566,1,0,0:0:0:0:
320,192,312652,1,0,0:0:0:0:
192,192,312737,1,0,0:0:0:0:
64,192,312822,1,0,0:0:0:0:
192,192,312908,1,0,0:0:0:0:
320,192,312993,1,0,0:0:0:0:
448,192,313079,1,0,0:0:0:0:
320,192,313164,1,0,0:0:0:0:
192,192,313250,1,0,0:0:0:0:
64,192,313335,1,0,0:0:0:0:
448,192,313421,1,0,0:0:0:0:
64,192,313506,1,0,0:0:0:0:
320,192,313538,1,0,0:0:0:0:
192,192,313570,1,0,0:0:0:0:
448,192,313602,1,0,0:0:0:0:
64,192,313634,1,0,0:0:0:0:
320,192,313666,1,0,0:0:0:0:
192,192,313699,1,0,0:0:0:0:
448,192,313731,1,0,0:0:0:0:
64,192,313763,1,0,0:0:0:0:
320,192,313795,1,0,0:0:0:0:
192,192,313827,1,0,0:0:0:0:
448,192,313859,1,0,0:0:0:0:
64,192,313891,1,0,0:0:0:0:
320,192,313923,1,0,0:0:0:0:
192,192,313955,1,0,0:0:0:0:
448,192,313987,1,0,0:0:0:0:
64,192,314019,128,0,319275:0:0:0:0:
320,192,314019,128,0,319275:0:0:0:0:
192,192,314019,128,0,319275:0:0:0:0:
448,192,314019,128,0,319275:0:0:0:0:
320,192,319372,128,0,325269:0:0:0:0:
192,192,319372,128,0,325269:0:0:0:0:
448,192,319372,128,0,325269:0:0:0:0:
64,192,319372,128,0,325269:0:0:0:0:
