osu file format v14

[General]
AudioFilename: audio.mp3
AudioLeadIn: 0
PreviewTime: 84581
Countdown: 0
SampleSet: Normal
StackLeniency: 0.7
Mode: 1
LetterboxInBreaks: 0
WidescreenStoryboard: 0

[Editor]
Bookmarks: 3157,15954,25554,33154,41025,49775,66185,74390,78492,84646,101056,109261,117466,133876,142081,150287,154389,158492,162594,170799,179004,187210,195415,203620,220030,228235,232338,242594,259004,275415,283620,287722,291825,304133,313875
DistanceSpacing: 3
BeatDivisor: 4
GridSize: 32
TimelineZoom: 2.1

[Metadata]
Title:Ragnarok
TitleUnicode:Ragnarok
Artist:Gram vs. Camellia
ArtistUnicode:Gram vs. かめりあ
Creator:KatK1
Version:Graveyard of Gods
Source:
Tags:fa featured artist mg mpg mappers' guild melodic speedcore darkpsy psy The Requiem 彦田元気 dj genki hikota kamelcamellia かめるかめりあ cametek gnkcd-004 music media-mix market m3 m3-40 mediamix 2017 fall 秋 electronic instrumental
BeatmapID:3902329
BeatmapSetID:1893673

[Difficulty]
HPDrainRate:4
CircleSize:4
OverallDifficulty:7.2
ApproachRate:8
SliderMultiplier:1.4
SliderTickRate:1

[Events]
//Background and Video events
0,0,"ioajfwoijfe.jpg",0,50
//Break Periods
2,195614,202869
2,314075,318445
//Storyboard Layer 0 (Background)
//Storyboard Layer 1 (Fail)
//Storyboard Layer 2 (Pass)
//Storyboard Layer 3 (Foreground)
//Storyboard Layer 4 (Overlay)
//Storyboard Sound Samples

[TimingPoints]
3157,1132.07547169811,4,1,0,100,1,0
3157,-71.42857,4,1,0,60,0,0
4289,1043.47826086957,4,1,0,100,1,8
4289,-77.01974,4,1,0,60,0,8
6340,923.076923076923,4,1,0,100,1,8
6340,-83.54023,4,1,0,60,0,8
7263,869.565217391304,4,1,0,100,1,0
7263,-86.03286,4,1,0,60,0,0
8149,833.333333333333,4,1,0,100,1,8
8149,-86.67223,4,1,0,60,0,8
9798,774.193548387097,4,1,0,100,1,8
9798,-86.20622,4,1,0,60,0,8
10572,731.707317073171,4,1,0,100,1,0
10572,-87.444496,4,1,0,60,0,0
11329,727.272727272727,4,1,0,100,1,8
11329,-84.205696,4,1,0,60,0,8
12747,666.666666666667,4,1,0,100,1,8
12747,-84.15871,4,1,0,60,0,8
13417,648.648648648649,4,1,0,100,1,0
13417,-82.8293,4,1,0,60,0,0
14071,631.578947368421,4,1,0,100,1,8
14071,-81.47143,4,1,0,60,0,8
15345,612.244897959184,4,1,0,100,1,8
15345,-77.11489,4,1,0,60,0,8
15804,-77.11489,4,1,0,80,0,8
15954,600,4,1,0,100,1,0
15954,-75.471695,4,1,0,80,0,0
16399,-76.190475,4,1,0,80,0,0
16549,-76.23348,4,1,0,80,0,0
17449,-76.38855,4,1,0,80,0,0
17599,-76.40641,4,1,0,80,0,0
17749,-76.42303,4,1,0,80,0,0
18049,-76.45321,4,1,0,80,0,0
18349,-76.48012,4,1,0,80,0,0
18799,-76.51586,4,1,0,80,0,0
18949,-76.52678,4,1,0,80,0,0
19849,-76.584465,4,1,0,80,0,0
19999,-76.593025,4,1,0,80,0,0
20149,-76.60133,4,1,0,80,0,0
20449,-76.61726,4,1,0,80,0,0
20749,-76.63237,4,1,0,80,0,0
21199,-76.653694,4,1,0,80,0,0
21349,-76.66048,4,1,0,80,0,0
22249,-76.6983,4,1,0,80,0,0
22399,-76.704185,4,1,0,80,0,0
22549,-76.70995,4,1,0,80,0,0
22849,-76.7212,4,1,0,80,0,0
23149,-76.732056,4,1,0,80,0,0
23599,-76.747696,4,1,0,80,0,0
23749,-76.75275,4,1,0,80,0,0
24199,-76.76744,4,1,0,80,0,0
24349,-76.77221,4,1,0,80,0,0
24949,-76.79059,4,1,0,80,0,0
25249,-76.79942,4,1,0,80,0,0
25399,-76.80375,4,1,0,80,0,0
25549,-76.80802,4,1,0,80,0,0
25999,-76.82055,4,1,0,80,0,0
26149,-76.824615,4,1,0,80,0,0
27049,-76.848114,4,1,0,80,0,0
27199,-76.85188,4,1,0,80,0,0
27349,-76.855606,4,1,0,80,0,0
27649,-76.862946,4,1,0,80,0,0
27949,-76.87014,4,1,0,80,0,0
28399,-76.88068,4,1,0,80,0,0
28549,-76.88411,4,1,0,80,0,0
29449,-76.904106,4,1,0,80,0,0
29599,-76.90735,4,1,0,80,0,0
29749,-76.91054,4,1,0,80,0,0
30049,-76.91686,4,1,0,80,0,0
30349,-76.92308,4,1,0,80,0,0
30354,-76.9230769230769,4,1,0,80,0,0
30799,-82.86117,4,1,0,80,0,0
30967,681.818181818182,4,1,0,80,1,8
30967,-74.53201,4,1,0,80,0,8
31627,714.285714285714,4,1,0,80,1,8
31627,-77.35223,4,1,0,80,0,0
31979,-80.83665,4,1,0,80,0,0
32157,-82.62988,4,1,0,80,0,0
32341,800,4,1,0,80,1,8
32341,-75.426346,4,1,0,80,0,8
32736,-79.27765,4,1,0,80,0,8
33154,875.912408759124,4,1,0,80,1,0
33154,-76.294,4,1,0,80,0,0
33805,-83.122406,4,1,0,80,0,0
34030,1008.40336134454,4,1,0,80,1,8
34030,-74.375,4,1,0,80,0,8
34156,-74.375,4,1,0,20,0,8
35920,-74.375,4,1,0,60,0,8
36056,1290.32258064516,4,1,0,60,1,0
36056,-71.42857,4,1,0,60,0,0
36131,-71.43391,4,1,0,100,0,0
36217,-71.43391,4,1,0,20,0,0
38416,-71.43391,4,1,0,60,0,0
38625,1666.66666666667,4,1,0,60,1,0
38625,-41.666668,4,1,0,60,0,0
38825,1363.63636363636,4,1,0,60,1,8
38825,-52.412292,4,1,0,60,0,8
38994,1142.85714285714,4,1,0,60,1,8
38994,-64.34313,4,1,0,60,0,8
39131,-66.017815,4,1,0,60,0,8
39283,1034.48275862069,4,1,0,60,1,8
39283,-75.01366,4,1,0,60,0,8
39407,-76.98148,4,1,0,60,0,8
39536,-79.09069,4,1,0,60,0,8
39665,-81.35135,4,1,0,60,0,8
39795,-83.7952,4,1,0,60,0,8
39921,1290.32258064516,4,1,0,60,1,8
39921,-69.13455,4,1,0,60,0,8
40087,1690.14084507042,4,1,0,60,1,8
40087,-54.998863,4,1,0,60,0,8
40504,1016.94915254237,4,1,0,60,1,8
40504,-100,4,1,0,60,0,8
40885,-100,4,1,0,80,0,8
41005,571.428571428571,4,1,0,80,1,0
41005,-55.555557,4,1,0,80,0,0
43286,-100,4,1,0,85,0,0
43290,-100,4,1,0,100,0,0
44440,558.139534883721,4,1,0,100,1,8
45556,540.540540540541,4,1,0,100,1,0
45556,-55.555557,4,1,0,90,0,0
46637,530.973451327434,4,1,0,100,1,8
47698,521.739130434783,4,1,0,100,1,0
47698,-100,4,1,0,95,0,0
48741,517.241379310345,4,1,0,100,1,8
49775,512.820512820513,4,1,0,100,1,0
49775,-41.666668,4,1,0,100,0,0
50795,-83.3325,4,1,0,100,0,0
51564,-83.3254,4,1,0,100,0,0
51821,-83.31978,4,1,0,100,0,0
52334,-83.30024,4,1,0,100,0,0
52462,-83.29312,4,1,0,100,0,0
52846,-83.2648,4,1,0,100,0,0
53359,-83.20641,4,1,0,100,0,0
53616,-83.166046,4,1,0,100,0,0
53872,-83.11699,4,1,0,100,0,0
53873,-83.11678,4,1,0,100,0,0
54000,-83.088776,4,1,0,100,0,0
54385,-82.98726,4,1,0,100,0,0
54898,-82.806915,4,1,0,100,0,0
55667,-82.417076,4,1,0,100,0,0
55795,-82.335884,4,1,0,100,0,0
55924,-82.248825,4,1,0,100,0,0
56436,-81.8476,4,1,0,100,0,0
56564,-81.73241,4,1,0,100,0,0
56693,-81.6099,4,1,0,100,0,0
56821,-81.48177,4,1,0,100,0,0
56949,-81.34691,4,1,0,100,0,0
57462,-80.73501,4,1,0,100,0,0
57975,-80,4,1,0,100,0,0
58103,-79.79611,4,1,0,100,0,0
59000,-78.12081,4,1,0,100,0,0
59770,-76.317215,4,1,0,100,0,0
59898,-75.98333,4,1,0,100,0,0
60026,-75.63962,4,1,0,100,0,0
60539,-74.163414,4,1,0,100,0,0
60667,-73.77054,4,1,0,100,0,0
61052,-72.53046,4,1,0,100,0,0
61564,-70.74878,4,1,0,100,0,0
62077,-68.81915,4,1,0,100,0,0
62078,-68.815254,4,1,0,100,0,0
62205,-68.31636,4,1,0,100,0,0
62334,-67.80142,4,1,0,100,0,0
62590,-66.755936,4,1,0,100,0,0
63103,-64.57312,4,1,0,100,0,0
63872,-61.113735,4,1,0,100,0,0
64128,-59.921597,4,1,0,100,0,0
64129,-59.916904,4,1,0,100,0,0
64641,-57.486763,4,1,0,100,0,0
64770,-56.866753,4,1,0,100,0,0
64898,-56.249123,4,1,0,100,0,0
65026,-55.6294,4,1,0,100,0,0
65154,-55.007896,4,1,0,100,0,0
65667,-52.50564,4,1,0,100,0,0
66185,256.410256410256,4,1,0,100,1,0
66185,-83.3333333333333,4,1,0,100,0,0
67205,-83.33333,4,1,0,100,0,0
67206,-83.44181,4,1,0,100,0,0
67210,-83.3333333333333,4,1,0,100,0,0
67291,-87.339905,4,1,0,100,0,0
67376,-90.530334,4,1,0,100,0,0
67462,-93.646675,4,1,0,100,0,0
67632,-99.837654,4,1,0,100,0,0
67718,-103.065125,4,1,0,100,0,0
67803,-106.35114,4,1,0,100,0,0
67889,-109.79269,4,1,0,100,0,0
67974,-113.32754,4,1,0,100,0,0
68060,-117.0566,4,1,0,100,0,0
68145,-120.9109,4,1,0,100,0,0
68231,-125,4,1,0,100,0,0
68236,-83.3333333333333,4,1,0,100,0,0
69256,-83.33333,4,1,0,100,0,0
69257,-83.44181,4,1,0,100,0,0
69261,-83.3333333333333,4,1,0,100,0,0
69342,-87.339905,4,1,0,100,0,0
69427,-90.530334,4,1,0,100,0,0
69513,-93.646675,4,1,0,100,0,0
69684,-99.8747,4,1,0,100,0,0
69769,-103.065125,4,1,0,100,0,0
69855,-106.39045,4,1,0,100,0,0
69940,-109.79269,4,1,0,100,0,0
70026,-113.36999,4,1,0,100,0,0
70111,-117.0566,4,1,0,100,0,0
70197,-120.95731,4,1,0,100,0,0
70282,-125,4,1,0,100,0,0
70287,-83.3333333333333,4,1,0,100,0,0
71308,-83.33333,4,1,0,100,0,0
71313,-83.3333333333333,4,1,0,100,0,0
71393,-87.304054,4,1,0,100,0,0
71479,-90.536446,4,1,0,100,0,0
71564,-93.61962,4,1,0,100,0,0
71650,-96.73304,4,1,0,100,0,0
71735,-99.85307,4,1,0,100,0,0
71821,-103.084175,4,1,0,100,0,0
71906,-106.37408,4,1,0,100,0,0
71991,-109.779076,4,1,0,100,0,0
72077,-113.35938,4,1,0,100,0,0
72162,-117.0492,4,1,0,100,0,0
72248,-120.95346,4,1,0,100,0,0
72333,-125,4,1,0,100,0,0
72338,-83.3333333333333,4,1,0,100,0,0
73872,-83.33333,4,1,0,100,0,0
73877,-83.3333333333333,4,1,0,100,0,0
74000,-88.17351,4,1,0,100,0,0
74064,-90.18046,4,1,0,100,0,0
74192,-94.08275,4,1,0,100,0,0
74256,-96.027885,4,1,0,100,0,0
74385,-83.33333,4,1,0,100,0,0
74390,-83.3333333333333,4,1,0,100,0,0
74513,-83.33671,4,1,0,100,0,0
74641,-83.36035,4,1,0,100,0,0
74769,-83.42459,4,1,0,100,0,0
74897,-83.54996,4,1,0,100,0,0
75026,-83.75948,4,1,0,100,0,0
75154,-84.071884,4,1,0,100,0,0
75282,-84.511604,4,1,0,100,0,0
75410,-85.10374,4,1,0,100,0,0
75411,-85.10903,4,1,0,100,0,0
75538,-85.87613,4,1,0,100,0,0
75667,-86.86909,4,1,0,100,0,0
75795,-88.104294,4,1,0,100,0,0
75923,-89.632545,4,1,0,100,0,0
76009,-90.85018,4,1,0,100,0,0
76094,-92.22598,4,1,0,100,0,0
76179,-93.794945,4,1,0,100,0,0
76265,-95.60507,4,1,0,100,0,0
76350,-97.644966,4,1,0,100,0,0
76436,-100,4,1,0,100,0,0
76441,-100,4,1,0,100,0,0
76564,-99.99514,4,1,0,100,0,0
76692,-99.96113,4,1,0,100,0,0
76821,-99.86789,4,1,0,100,0,0
76949,-99.68802,4,1,0,100,0,0
77077,-99.39317,4,1,0,100,0,0
77205,-98.956825,4,1,0,100,0,0
77333,-98.35448,4,1,0,100,0,0
77462,-97.557495,4,1,0,100,0,0
77590,-96.56008,4,1,0,100,0,0
77718,-95.34321,4,1,0,100,0,0
77846,-93.89834,4,1,0,100,0,0
77974,-92.22252,4,1,0,100,0,0
78060,-90.96808,4,1,0,100,0,0
78145,-89.62927,4,1,0,100,0,0
78231,-88.17811,4,1,0,100,0,0
78316,-86.652824,4,1,0,100,0,0
78402,-85.02314,4,1,0,100,0,0
78487,-83.33333,4,1,0,100,0,0
78488,-83.333305,4,1,0,100,0,0
78492,-83.3333333333333,4,1,0,100,0,0
78551,-83.23724,4,1,0,100,0,0
78615,-82.9503,4,1,0,100,0,0
78679,-82.47644,4,1,0,100,0,0
78744,-81.81043,4,1,0,100,0,0
78808,-80.981575,4,1,0,100,0,0
78872,-79.99168,4,1,0,100,0,0
78936,-78.853035,4,1,0,100,0,0
79000,-77.57925,4,1,0,100,0,0
79064,-76.184814,4,1,0,100,0,0
79128,-74.68477,4,1,0,100,0,0
79192,-73.09432,4,1,0,100,0,0
79256,-71.42857,4,1,0,100,0,0
79261,-71.4285714285714,4,1,0,100,0,0
79513,-83.33333,4,1,0,100,0,0
79518,-83.3333333333333,4,1,0,100,0,0
79577,-83.23724,4,1,0,100,0,0
79641,-82.9503,4,1,0,100,0,0
79705,-82.47644,4,1,0,100,0,0
79769,-81.822044,4,1,0,100,0,0
79833,-80.9958,4,1,0,100,0,0
79897,-80.008316,4,1,0,100,0,0
79962,-78.853035,4,1,0,100,0,0
80026,-77.57925,4,1,0,100,0,0
80090,-76.184814,4,1,0,100,0,0
80154,-74.68477,4,1,0,100,0,0
80218,-73.09432,4,1,0,100,0,0
80282,-71.42857,4,1,0,100,0,0
80287,-71.4285714285714,4,1,0,100,0,0
80538,-83.33333,4,1,0,100,0,0
80539,-83.32443,4,1,0,100,0,0
80543,-83.3333333333333,4,1,0,100,0,0
80603,-82.02018,4,1,0,100,0,0
80667,-80.40325,4,1,0,100,0,0
80731,-78.683365,4,1,0,100,0,0
80795,-76.92308,4,1,0,100,0,0
80800,-76.9230769230769,4,1,0,100,0,0
81051,-83.33333,4,1,0,100,0,0
81056,-83.3333333333333,4,1,0,100,0,0
81115,-82.044014,4,1,0,100,0,0
81179,-80.429535,4,1,0,100,0,0
81244,-78.683365,4,1,0,100,0,0
81308,-76.92308,4,1,0,100,0,0
81313,-76.9230769230769,4,1,0,100,0,0
81564,-71.42857,4,1,0,100,0,0
81565,-71.4684,4,1,0,100,0,0
81569,-71.4285714285714,4,1,0,100,0,0
81628,-72.55472,4,1,0,100,0,0
81692,-73.41249,4,1,0,100,0,0
81756,-74.202156,4,1,0,100,0,0
81821,-74.96692,4,1,0,100,0,0
81885,-75.69698,4,1,0,100,0,0
81949,-76.411835,4,1,0,100,0,0
82013,-77.11614,4,1,0,100,0,0
82077,-77.81314,4,1,0,100,0,0
82141,-78.50514,4,1,0,100,0,0
82205,-79.19395,4,1,0,100,0,0
82269,-79.88094,4,1,0,100,0,0
82333,-80.56725,4,1,0,100,0,0
82397,-81.25383,4,1,0,100,0,0
82462,-81.9522,4,1,0,100,0,0
82526,-82.641594,4,1,0,100,0,0
82590,-83.33333,4,1,0,100,0,0
82595,-83.3333333333333,4,1,0,100,0,0
82627,-83.3333333333333,4,1,0,20,0,0
83620,256.410256410256,5,1,0,20,1,8
84100,-166.666666666667,5,1,0,60,0,0
84613,-166.666666666667,5,1,0,100,0,0
84646,256.410256410256,4,1,0,100,1,0
84646,-83.3333333333333,4,1,0,100,0,1
85153,-71.42857,4,1,0,100,0,1
85158,-71.4285714285714,4,1,0,100,0,1
85217,-72.55472,4,1,0,100,0,1
85282,-73.42522,4,1,0,100,0,1
85346,-74.21416,4,1,0,100,0,1
85410,-74.96692,4,1,0,100,0,1
85474,-75.69698,4,1,0,100,0,1
85538,-76.411835,4,1,0,100,0,1
85602,-77.11614,4,1,0,100,0,1
85666,-77.81314,4,1,0,100,0,1
85667,-77.82398,4,1,0,100,0,1
85730,-78.50514,4,1,0,100,0,1
85794,-79.19395,4,1,0,100,0,1
85858,-79.88094,4,1,0,100,0,1
85923,-80.57797,4,1,0,100,0,1
86051,-81.9522,4,1,0,100,0,1
86179,-76.92308,4,1,0,100,0,1
86184,-76.9230769230769,4,1,0,100,0,1
86243,-78.23073,4,1,0,100,0,1
86307,-79.228874,4,1,0,100,0,1
86371,-80.149414,4,1,0,100,0,1
86435,-81.0289,4,1,0,100,0,1
86499,-81.88309,4,1,0,100,0,1
86564,-82.73366,4,1,0,100,0,1
86628,-83.55996,4,1,0,100,0,1
86692,-84.37892,4,1,0,100,0,1
86756,-85.193245,4,1,0,100,0,1
86820,-86.00502,4,1,0,100,0,1
86884,-86.81587,4,1,0,100,0,1
86948,-87.62714,4,1,0,100,0,1
87076,-89.25515,4,1,0,100,0,1
87205,-83.33333,4,1,0,100,0,1
87210,-83.3333333333333,4,1,0,100,0,1
87269,-84.87141,4,1,0,100,0,1
87333,-86.0484,4,1,0,100,0,1
87397,-87.13619,4,1,0,100,0,1
87461,-88.177505,4,1,0,100,0,1
87525,-89.1908,4,1,0,100,0,1
87589,-90.18624,4,1,0,100,0,1
87653,-91.17024,4,1,0,100,0,1
87717,-92.147224,4,1,0,100,0,1
87718,-92.16245,4,1,0,100,0,1
87760,-92.80134,4,1,0,100,0,1
87803,-93.454506,4,1,0,100,0,1
87846,-94.10741,4,1,0,100,0,1
87910,-95.07986,4,1,0,100,0,1
87974,-96.05455,4,1,0,100,0,1
88038,-97.03282,4,1,0,100,0,1
88102,-98.01582,4,1,0,100,0,1
88230,-90.90909,4,1,0,100,0,1
88235,-90.9090909090909,4,1,0,100,0,1
88294,-90.23417,4,1,0,100,0,1
88358,-89.373314,4,1,0,100,0,1
88423,-88.421974,4,1,0,100,0,1
88551,-86.43249,4,1,0,100,0,1
88615,-85.40717,4,1,0,100,0,1
88679,-84.37234,4,1,0,100,0,1
88743,-83.33333,4,1,0,100,0,1
88748,-83.3333333333333,4,1,0,100,0,1
89256,-71.42857,4,1,0,100,0,1
89261,-71.4285714285714,4,1,0,100,0,1
89320,-72.55472,4,1,0,100,0,1
89384,-73.41249,4,1,0,100,0,1
89448,-74.202156,4,1,0,100,0,1
89512,-74.95535,4,1,0,100,0,1
89576,-75.685715,4,1,0,100,0,1
89640,-76.40076,4,1,0,100,0,1
89705,-77.11614,4,1,0,100,0,1
89769,-77.81314,4,1,0,100,0,1
89833,-78.50514,4,1,0,100,0,1
89897,-79.19395,4,1,0,100,0,1
89961,-79.88094,4,1,0,100,0,1
90025,-80.56725,4,1,0,100,0,1
90153,-81.94145,4,1,0,100,0,1
90282,-76.92308,4,1,0,100,0,1
90287,-76.9230769230769,4,1,0,100,0,1
90346,-80.469124,4,1,0,100,0,1
90410,-83.31549,4,1,0,100,0,1
90474,-86.05562,4,1,0,100,0,1
90538,-88.78336,4,1,0,100,0,1
90602,-91.54186,4,1,0,100,0,1
90666,-94.357765,4,1,0,100,0,1
90730,-97.25071,4,1,0,100,0,1
90794,-83.3333333333333,4,1,0,100,0,1
92205,-71.42857,4,1,0,100,0,1
92210,-71.4285714285714,4,1,0,100,0,1
92247,-73.81183,4,1,0,100,0,1
92290,-75.72617,4,1,0,100,0,1
92333,-77.533844,4,1,0,100,0,1
92397,-80.15907,4,1,0,100,0,1
92461,-82.77735,4,1,0,100,0,1
92504,-84.55411,4,1,0,100,0,1
92546,-86.31271,4,1,0,100,0,1
92589,-88.143326,4,1,0,100,0,1
92717,-93.82508,4,1,0,100,0,1
92846,-100,4,1,0,100,0,1
92851,-83.3333333333333,4,1,0,100,0,1
93358,-71.42857,4,1,0,100,0,1
93363,-71.4285714285714,4,1,0,100,0,1
93423,-72.56899,4,1,0,100,0,1
93487,-73.42522,4,1,0,100,0,1
93551,-74.21416,4,1,0,100,0,1
93615,-74.96692,4,1,0,100,0,1
93658,-75.459404,4,1,0,100,0,1
93700,-75.93296,4,1,0,100,0,1
93743,-76.411835,4,1,0,100,0,1
93807,-77.11614,4,1,0,100,0,1
93871,-77.81314,4,1,0,100,0,1
93872,-77.82398,4,1,0,100,0,1
93935,-78.50514,4,1,0,100,0,1
93999,-79.19395,4,1,0,100,0,1
94128,-80.57797,4,1,0,100,0,1
94256,-81.9522,4,1,0,100,0,1
94384,-76.92308,4,1,0,100,0,1
94389,-76.9230769230769,4,1,0,100,0,1
94448,-78.23073,4,1,0,100,0,1
94512,-79.228874,4,1,0,100,0,1
94576,-80.149414,4,1,0,100,0,1
94640,-81.0289,4,1,0,100,0,1
94705,-81.89629,4,1,0,100,0,1
94769,-82.73366,4,1,0,100,0,1
94833,-83.55996,4,1,0,100,0,1
94897,-84.37892,4,1,0,100,0,1
94940,-84.92642,4,1,0,100,0,1
94982,-85.45981,4,1,0,100,0,1
95025,-86.00502,4,1,0,100,0,1
95089,-86.81587,4,1,0,100,0,1
95153,-87.62714,4,1,0,100,0,1
95282,-89.26791,4,1,0,100,0,1
95346,-90.08649,4,1,0,100,0,1
95410,-83.33333,4,1,0,100,0,1
95415,-83.3333333333333,4,1,0,100,0,1
95474,-84.87141,4,1,0,100,0,1
95538,-86.0484,4,1,0,100,0,1
95602,-87.13619,4,1,0,100,0,1
95666,-88.177505,4,1,0,100,0,1
95730,-89.1908,4,1,0,100,0,1
95794,-90.18624,4,1,0,100,0,1
95858,-91.17024,4,1,0,100,0,1
95923,-92.16245,4,1,0,100,0,1
95987,-93.13559,4,1,0,100,0,1
96051,-94.10741,4,1,0,100,0,1
96093,-94.74541,4,1,0,100,0,1
96136,-95.39936,4,1,0,100,0,1
96179,-96.05455,4,1,0,100,0,1
96243,-97.03282,4,1,0,100,0,1
96307,-98.01582,4,1,0,100,0,1
96371,-99.004585,4,1,0,100,0,1
96435,-100,4,1,0,100,0,1
96440,-100,4,1,0,100,0,1
96499,-98.38111,4,1,0,100,0,1
96564,-96.324356,4,1,0,100,0,1
96628,-94.17251,4,1,0,100,0,1
96692,-91.974434,4,1,0,100,0,1
96756,-89.77104,4,1,0,100,0,1
96820,-87.586876,4,1,0,100,0,1
96948,-71.42857,4,1,0,100,0,1
96949,-71.47874,4,1,0,100,0,1
96953,-71.4285714285714,4,1,0,100,0,1
97012,-72.85271,4,1,0,100,0,1
97076,-73.94532,4,1,0,100,0,1
97140,-74.95728,4,1,0,100,0,1
97205,-75.94292,4,1,0,100,0,1
97269,-76.88903,4,1,0,100,0,1
97333,-77.82037,4,1,0,100,0,1
97397,-78.74281,4,1,0,100,0,1
97461,-79.66042,4,1,0,100,0,1
97525,-80.5762,4,1,0,100,0,1
97589,-81.492424,4,1,0,100,0,1
97653,-82.410965,4,1,0,100,0,1
97722,-83.33333,4,1,0,100,0,0
97979,-71.42857,4,1,0,100,0,1
98038,-72.85271,4,1,0,100,0,1
98102,-73.94532,4,1,0,100,0,1
98166,-74.95728,4,1,0,100,0,1
98230,-75.92797,4,1,0,100,0,1
98294,-76.87438,4,1,0,100,0,1
98358,-77.80589,4,1,0,100,0,1
98423,-78.74281,4,1,0,100,0,1
98487,-79.66042,4,1,0,100,0,1
98551,-80.5762,4,1,0,100,0,1
98615,-81.492424,4,1,0,100,0,1
98679,-82.410965,4,1,0,100,0,1
98748,-83.33333,4,1,0,100,0,0
99004,-71.42857,4,1,0,100,0,1
99064,-73.74643,4,1,0,100,0,1
99128,-75.5367,4,1,0,100,0,1
99192,-77.22583,4,1,0,100,0,1
99256,-78.99688,4,1,0,100,0,1
99320,-80.602974,4,1,0,100,0,1
99384,-82.142555,4,1,0,100,0,1
99448,-83.78782,4,1,0,100,0,1
99512,-85.45107,4,1,0,100,0,1
99576,-87.13809,4,1,0,100,0,1
99640,-88.85371,4,1,0,100,0,1
99705,-90.62979,4,1,0,100,0,1
99769,-92.41566,4,1,0,100,0,1
99833,-94.24206,4,1,0,100,0,1
99897,-96.11256,4,1,0,100,0,1
99961,-98.03069,4,1,0,100,0,1
100030,-100,4,1,0,100,0,0
101051,-83.33333,4,1,0,100,0,0
101056,-83.3333333333333,4,1,0,100,0,0
101179,-86.57985,4,1,0,100,0,0
101307,-88.35503,4,1,0,100,0,0
101371,-89.12444,4,1,0,100,0,0
101435,-89.846214,4,1,0,100,0,0
101499,-90.53185,4,1,0,100,0,0
101564,-91.199,4,1,0,100,0,0
101692,-92.446754,4,1,0,100,0,0
101820,-93.62865,4,1,0,100,0,0
101884,-94.20046,4,1,0,100,0,0
101948,-94.761665,4,1,0,100,0,0
102076,-95.857056,4,1,0,100,0,0
102077,-95.86548,4,1,0,100,0,0
102140,-96.39318,4,1,0,100,0,0
102205,-96.930885,4,1,0,100,0,0
102333,-97.97233,4,1,0,100,0,0
102461,-98.994225,4,1,0,100,0,0
102525,-99.49893,4,1,0,100,0,0
102589,-83.33333,4,1,0,100,0,0
102594,-83.3333333333333,4,1,0,100,0,0
102653,-86.04622,4,1,0,100,0,0
102717,-88.17351,4,1,0,100,0,0
102782,-90.21132,4,1,0,100,0,0
102846,-92.17006,4,1,0,100,0,0
102910,-94.11308,4,1,0,100,0,0
102974,-96.05836,4,1,0,100,0,0
103038,-98.01775,4,1,0,100,0,0
103102,-100,4,1,0,100,0,0
103107,-100,4,1,0,100,0,0
104645,-83.3333333333333,4,1,0,100,0,0
104704,-86.04622,4,1,0,100,0,0
104768,-88.17351,4,1,0,100,0,0
104833,-90.21132,4,1,0,100,0,0
104897,-92.17006,4,1,0,100,0,0
104961,-94.11308,4,1,0,100,0,0
105025,-96.05836,4,1,0,100,0,0
105089,-98.01775,4,1,0,100,0,0
105153,-100,4,1,0,100,0,0
106697,-83.3333333333333,4,1,0,100,0,0
106756,-86.04622,4,1,0,100,0,0
106820,-88.17351,4,1,0,100,0,0
106885,-90.21132,4,1,0,100,0,0
106949,-92.17006,4,1,0,100,0,0
107013,-94.11308,4,1,0,100,0,0
107077,-96.05836,4,1,0,100,0,0
107141,-98.01775,4,1,0,100,0,0
107205,-100,4,1,0,100,0,0
108230,-90.90909,4,1,0,100,0,0
108231,-90.9497,4,1,0,100,0,0
108235,-90.9090909090909,4,1,0,100,0,0
108294,-92.054214,4,1,0,100,0,0
108358,-92.92166,4,1,0,100,0,0
108487,-94.48319,4,1,0,100,0,0
108615,-95.92277,4,1,0,100,0,0
108679,-96.62035,4,1,0,100,0,0
108743,-97.308044,4,1,0,100,0,0
108807,-97.988235,4,1,0,100,0,0
108871,-98.66274,4,1,0,100,0,0
108935,-99.33294,4,1,0,100,0,0
108999,-100,4,1,0,100,0,0
109004,-100,4,1,0,100,0,0
109256,-83.33333,4,1,0,100,0,0
109261,-83.3333333333333,4,1,0,100,0,0
109384,-86.019066,4,1,0,100,0,0
109512,-87.47295,4,1,0,100,0,0
109576,-88.09992,4,1,0,100,0,0
109640,-88.68634,4,1,0,100,0,0
109704,-89.24184,4,1,0,100,0,0
109769,-89.780914,4,1,0,100,0,0
109897,-90.78534,4,1,0,100,0,0
110025,-91.73219,4,1,0,100,0,0
110089,-92.18871,4,1,0,100,0,0
110153,-92.63577,4,1,0,100,0,0
110281,-93.505516,4,1,0,100,0,0
110282,-93.5122,4,1,0,100,0,0
110346,-93.936424,4,1,0,100,0,0
110410,-94.35454,4,1,0,100,0,0
110474,-94.76708,4,1,0,100,0,0
110538,-95.17455,4,1,0,100,0,0
110666,-95.97594,4,1,0,100,0,0
110730,-96.37057,4,1,0,100,0,0
110794,-96.76158,4,1,0,100,0,0
110858,-97.149254,4,1,0,100,0,0
110922,-97.53381,4,1,0,100,0,0
110987,-97.92143,4,1,0,100,0,0
111051,-98.3004,4,1,0,100,0,0
111115,-98.67687,4,1,0,100,0,0
111179,-99.05104,4,1,0,100,0,0
111243,-99.42305,4,1,0,100,0,0
111307,-99.79304,4,1,0,100,0,0
111308,-99.79881,4,1,0,100,0,0
111435,-100.527534,4,1,0,100,0,0
111499,-100.892265,4,1,0,100,0,0
111563,-101.25547,4,1,0,100,0,0
111692,-101.9833,4,1,0,100,0,0
111756,-102.34248,4,1,0,100,0,0
111820,-102.7005,4,1,0,100,0,0
111884,-103.057434,4,1,0,100,0,0
111948,-103.41336,4,1,0,100,0,0
112076,-104.122475,4,1,0,100,0,0
112140,-104.47579,4,1,0,100,0,0
112204,-104.828354,4,1,0,100,0,0
112333,-105.53695,4,1,0,100,0,0
112397,-105.88759,4,1,0,100,0,0
112461,-106.237686,4,1,0,100,0,0
112589,-106.93646,4,1,0,100,0,0
112717,-107.63364,4,1,0,100,0,0
112781,-107.98171,4,1,0,100,0,0
112845,-108.3295,4,1,0,100,0,0
112910,-108.68248,4,1,0,100,0,0
112974,-109.02981,4,1,0,100,0,0
113038,-109.37696,4,1,0,100,0,0
113102,-109.72396,4,1,0,100,0,0
113166,-110.070854,4,1,0,100,0,0
113230,-110.417656,4,1,0,100,0,0
113294,-110.7644,4,1,0,100,0,0
113358,-100,4,1,0,100,0,0
113359,-100,4,1,0,100,0,0
113363,-100,4,1,0,100,0,0
113423,-99.99972,4,1,0,100,0,0
113487,-99.997795,4,1,0,100,0,0
113615,-99.98251,4,1,0,100,0,0
113743,-99.94126,4,1,0,100,0,0
113807,-99.906876,4,1,0,100,0,0
113871,-99.86117,4,1,0,100,0,0
113999,-99.72952,4,1,0,100,0,0
114128,-99.532074,4,1,0,100,0,0
114192,-99.40619,4,1,0,100,0,0
114256,-99.25982,4,1,0,100,0,0
114320,-99.09155,4,1,0,100,0,0
114384,-98.90003,4,1,0,100,0,0
114385,-98.89685,4,1,0,100,0,0
114448,-98.68397,4,1,0,100,0,0
114512,-98.442116,4,1,0,100,0,0
114640,-97.87636,4,1,0,100,0,0
114769,-97.188515,4,1,0,100,0,0
114897,-96.38215,4,1,0,100,0,0
114961,-95.93091,4,1,0,100,0,0
115025,-95.44691,4,1,0,100,0,0
115089,-94.92972,4,1,0,100,0,0
115153,-94.37908,4,1,0,100,0,0
115217,-93.79481,4,1,0,100,0,0
115282,-93.16693,4,1,0,100,0,0
115410,-91.82943,4,1,0,100,0,0
115474,-91.11094,4,1,0,100,0,0
115538,-90.359856,4,1,0,100,0,0
115602,-89.57676,4,1,0,100,0,0
115666,-88.76235,4,1,0,100,0,0
115730,-87.91747,4,1,0,100,0,0
115794,-87.043,4,1,0,100,0,0
115858,-86.13999,4,1,0,100,0,0
115923,-85.19481,4,1,0,100,0,0
115987,-84.23778,4,1,0,100,0,0
116051,-83.255875,4,1,0,100,0,0
116115,-82.25045,4,1,0,100,0,0
116179,-81.22298,4,1,0,100,0,0
116243,-80.174934,4,1,0,100,0,0
116307,-79.10787,4,1,0,100,0,0
116371,-78.02338,4,1,0,100,0,0
116435,-76.92308,4,1,0,100,0,0
116440,-76.9230769230769,4,1,0,100,0,0
116472,-76.9230769230769,4,1,0,20,0,0
117434,-166.666666666667,4,1,0,80,0,0
117722,-100,4,1,0,100,0,1
129774,-83.3333333333333,4,1,0,100,0,1
131307,-83.33333,4,1,0,100,0,1
131312,-83.3333333333333,4,1,0,100,0,1
131435,-88.17351,4,1,0,100,0,1
131564,-92.17006,4,1,0,100,0,1
131628,-94.11308,4,1,0,100,0,1
131692,-96.05836,4,1,0,100,0,1
131756,-98.01775,4,1,0,100,0,1
131825,-100,4,1,0,100,0,0
131884,-103.77382,4,1,0,100,0,0
131948,-106.75966,4,1,0,100,0,0
132013,-109.64213,4,1,0,100,0,0
132077,-112.43344,4,1,0,100,0,0
132210,-100,4,1,0,100,0,0
132269,-103.77382,4,1,0,100,0,0
132333,-106.75966,4,1,0,100,0,0
132398,-109.64213,4,1,0,100,0,0
132462,-112.43344,4,1,0,100,0,0
132594,-100,4,1,0,100,0,0
132653,-103.77382,4,1,0,100,0,0
132717,-106.75966,4,1,0,100,0,0
132782,-109.64213,4,1,0,100,0,0
132846,-112.43344,4,1,0,100,0,0
132931,-116.1421,4,1,0,100,0,0
133017,-119.94791,4,1,0,100,0,0
133102,-123.79913,4,1,0,100,0,0
133188,-127.81449,4,1,0,100,0,0
133273,-131.9241,4,1,0,100,0,0
133358,-136.19536,4,1,0,100,0,0
133529,-145.36362,4,1,0,100,0,0
133700,-155.45198,4,1,0,100,0,0
133876,512.820512820513,4,1,0,100,1,0
133876,-50,4,1,0,100,0,0
134896,-56.486183,4,1,0,100,0,0
135665,-59.570576,4,1,0,100,0,0
135922,-60.53982,4,1,0,100,0,0
136435,-62.425926,4,1,0,100,0,0
136563,-62.889496,4,1,0,100,0,0
136947,-64.26953,4,1,0,100,0,0
137460,-66.09865,4,1,0,100,0,0
137973,-67.92392,4,1,0,100,0,0
137974,-67.92748,4,1,0,100,0,0
138101,-68.380035,4,1,0,100,0,0
138486,-69.755905,4,1,0,100,0,0
138999,-71.60291,4,1,0,100,0,0
139768,-74.41461,4,1,0,100,0,0
139896,-74.888794,4,1,0,100,0,0
140025,-75.368706,4,1,0,100,0,0
140537,-77.29503,4,1,0,100,0,0
140665,-77.78237,4,1,0,100,0,0
140794,-78.27601,4,1,0,100,0,0
140922,-78.768364,4,1,0,100,0,0
141050,-79.2633,4,1,0,100,0,0
141306,-80.26131,4,1,0,100,0,0
141435,-80.76843,4,1,0,100,0,0
141563,-81.27454,4,1,0,100,0,0
141819,-82.2957,4,1,0,100,0,0
141947,-82.8109,4,1,0,100,0,0
142081,256.410256410256,4,1,0,100,1,0
142081,-125,4,1,0,100,0,0
142332,-126.31406,4,1,0,100,0,0
142588,-127.656044,4,1,0,100,0,0
142845,-129.03226,4,1,0,100,0,0
143101,-130.43292,4,1,0,100,0,0
143102,-130.43846,4,1,0,100,0,0
143358,-131.87001,4,1,0,100,0,0
143614,-133.76884,4,1,0,100,0,0
143619,-133.333333333333,4,1,0,100,0,0
143699,-137.86569,4,1,0,100,0,0
143785,-141.27576,4,1,0,100,0,0
143870,-144.46472,4,1,0,100,0,0
143956,-147.61829,4,1,0,100,0,0
144041,-150.7117,4,1,0,100,0,0
144127,-153.84616,4,1,0,100,0,0
144132,-153.846153846154,4,1,0,100,0,0
144383,-151.90125,4,1,0,100,0,0
144640,-149.99756,4,1,0,100,0,0
144896,-148.14815,4,1,0,100,0,0
145152,-146.3438,4,1,0,100,0,0
145153,-146.33682,4,1,0,100,0,0
145409,-144.57607,4,1,0,100,0,0
145665,-142.85715,4,1,0,100,0,0
145670,-142.857142857143,4,1,0,100,0,0
145751,-139.35469,4,1,0,100,0,0
145836,-135.1101,4,1,0,100,0,0
145922,-130.64313,4,1,0,100,0,0
146007,-126.22903,4,1,0,100,0,0
146093,-121.848206,4,1,0,100,0,0
146178,-117.64706,4,1,0,100,0,0
146179,-117.64809,4,1,0,100,0,0
146183,-117.647058823529,4,1,0,100,0,0
146434,-118.456726,4,1,0,100,0,0
146691,-119.52843,4,1,0,100,0,0
146947,-120.73602,4,1,0,100,0,0
147204,-122.06091,4,1,0,100,0,0
147460,-123.48055,4,1,0,100,0,0
147717,-125,4,1,0,100,0,0
147722,-125,4,1,0,100,0,0
147802,-126.88542,4,1,0,100,0,0
147887,-128.31982,4,1,0,100,0,0
147973,-129.65417,4,1,0,100,0,0
148058,-130.91075,4,1,0,100,0,0
148144,-132.14247,4,1,0,100,0,0
148229,-133.33333,4,1,0,100,0,0
148230,-133.3584,4,1,0,100,0,0
148234,-133.333333333333,4,1,0,100,0,0
148486,-135.49095,4,1,0,100,0,0
148742,-137.12947,4,1,0,100,0,0
148999,-138.6448,4,1,0,100,0,0
149255,-140.08527,4,1,0,100,0,0
149511,-141.48286,4,1,0,100,0,0
149768,-142.85715,4,1,0,100,0,0
149773,-142.857142857143,4,1,0,100,0,0
149853,-142.29906,4,1,0,100,0,0
149939,-140.625,4,1,0,100,0,0
150024,-137.94955,4,1,0,100,0,0
150110,-134.32835,4,1,0,100,0,0
150195,-129.99132,4,1,0,100,0,0
150281,-100,4,1,0,100,0,0
150286,-100,4,1,0,100,0,0
150409,-103.0589,4,1,0,100,0,0
150537,-104.71073,4,1,0,100,0,0
150665,-106.087166,4,1,0,100,0,0
150793,-107.317924,4,1,0,100,0,0
150922,-108.46355,4,1,0,100,0,0
151050,-109.5336,4,1,0,100,0,0
151114,-110.049095,4,1,0,100,0,0
151178,-110.553635,4,1,0,100,0,0
151242,-111.04841,4,1,0,100,0,0
151306,-111.53445,4,1,0,100,0,0
151307,-111.541985,4,1,0,100,0,0
151434,-112.48361,4,1,0,100,0,0
151563,-113.41382,4,1,0,100,0,0
151691,-114.31489,4,1,0,100,0,0
151819,-115.197426,4,1,0,100,0,0
151947,-116.0641,4,1,0,100,0,0
152075,-116.91706,4,1,0,100,0,0
152140,-117.345535,4,1,0,100,0,0
152204,-117.76462,4,1,0,100,0,0
152268,-118.18111,4,1,0,100,0,0
152332,-118.59516,4,1,0,100,0,0
152460,-119.416565,4,1,0,100,0,0
152588,-120.229935,4,1,0,100,0,0
152717,-121.04253,4,1,0,100,0,0
152845,-121.84255,4,1,0,100,0,0
152973,-122.63707,4,1,0,100,0,0
153101,-123.426765,4,1,0,100,0,0
153165,-123.81998,4,1,0,100,0,0
153229,-124.212204,4,1,0,100,0,0
153293,-124.60349,4,1,0,100,0,0
153358,-125,4,1,0,100,0,0
153363,-125,4,1,0,100,0,0
153486,-124.51456,4,1,0,100,0,0
153550,-123.91304,4,1,0,100,0,0
153614,-123.08061,4,1,0,100,0,0
153742,-120.76271,4,1,0,100,0,0
153806,-119.30233,4,1,0,100,0,0
153870,-117.50881,4,1,0,100,0,0
153913,-116.21988,4,1,0,100,0,0
153956,-114.95892,4,1,0,100,0,0
153999,-113.86714,4,1,0,100,0,0
154063,-111.779915,4,1,0,100,0,0
154127,-109.580246,4,1,0,100,0,0
154255,-104.91333,4,1,0,100,0,0
154383,-83.33333,4,1,0,100,0,0
154384,-83.38754,4,1,0,100,0,0
154388,-83.3333333333333,4,1,0,100,0,0
154447,-84.87018,4,1,0,100,0,0
154511,-86.04622,4,1,0,100,0,0
154575,-87.13309,4,1,0,100,0,0
154640,-88.18951,4,1,0,100,0,0
154704,-89.20157,4,1,0,100,0,0
154768,-90.1959,4,1,0,100,0,0
154832,-91.178856,4,1,0,100,0,0
154896,-92.15485,4,1,0,100,0,0
154960,-93.12705,4,1,0,100,0,0
155024,-94.097916,4,1,0,100,0,0
155088,-95.069405,4,1,0,100,0,0
155152,-96.04311,4,1,0,100,0,0
155409,-100,4,1,0,100,0,0
155414,-83.3333333333333,4,1,0,100,0,0
155473,-84.87018,4,1,0,100,0,0
155537,-86.04622,4,1,0,100,0,0
155601,-87.13309,4,1,0,100,0,0
155666,-88.18951,4,1,0,100,0,0
155730,-89.20157,4,1,0,100,0,0
155794,-90.1959,4,1,0,100,0,0
155858,-91.178856,4,1,0,100,0,0
155922,-92.15485,4,1,0,100,0,0
155986,-93.12705,4,1,0,100,0,0
156050,-94.097916,4,1,0,100,0,0
156114,-95.069405,4,1,0,100,0,0
156178,-96.04311,4,1,0,100,0,0
156434,-83.33333,4,1,0,100,0,0
156435,-83.380516,4,1,0,100,0,0
156439,-83.3333333333333,4,1,0,100,0,0
156499,-84.68498,4,1,0,100,0,0
156563,-85.700226,4,1,0,100,0,0
156627,-86.63603,4,1,0,100,0,0
156691,-87.52923,4,1,0,100,0,0
156952,-83.3333333333333,4,1,0,100,0,0
157012,-84.68498,4,1,0,100,0,0
157076,-85.700226,4,1,0,100,0,0
157140,-86.63603,4,1,0,100,0,0
157204,-87.52923,4,1,0,100,0,0
157460,-83.33333,4,1,0,100,0,0
157461,-83.44181,4,1,0,100,0,0
157465,-83.3333333333333,4,1,0,100,0,0
157524,-86.46477,4,1,0,100,0,0
157588,-88.94167,4,1,0,100,0,0
157652,-91.2959,4,1,0,100,0,0
157717,-93.646675,4,1,0,100,0,0
157781,-95.95888,4,1,0,100,0,0
157845,-98.29016,4,1,0,100,0,0
157909,-100.655174,4,1,0,100,0,0
157973,-103.065125,4,1,0,100,0,0
158037,-105.52933,4,1,0,100,0,0
158101,-108.05607,4,1,0,100,0,0
158165,-110.65299,4,1,0,100,0,0
158229,-113.32754,4,1,0,100,0,0
158293,-116.08706,4,1,0,100,0,0
158358,-118.98434,4,1,0,100,0,0
158422,-121.93801,4,1,0,100,0,0
158486,-125.00000546875,4,1,0,100,0,0
158742,-142.83235,4,1,0,60,0,0
158870,-142.7735,4,1,0,62,0,0
158999,-142.65784,4,1,0,63,0,0
159127,-142.46884,4,1,0,65,0,0
159191,-142.34099,4,1,0,65,0,0
159255,-142.188,4,1,0,66,0,0
159383,-141.79807,4,1,0,68,0,0
159511,-141.27808,4,1,0,69,0,0
159512,-141.27808,4,1,0,69,0,0
159575,-140.97305,4,1,0,70,0,0
159640,-140.62073,4,1,0,71,0,0
159704,-140.23485,4,1,0,72,0,0
159768,-139.80867,4,1,0,72,0,0
159896,-138.82974,4,1,0,74,0,0
160024,-137.67386,4,1,0,75,0,0
160088,-137.02701,4,1,0,76,0,0
160152,-136.33318,4,1,0,77,0,0
160281,-134.78972,4,1,0,79,0,0
160345,-133.9514,4,1,0,79,0,0
160409,-133.06482,4,1,0,80,0,0
160537,-131.13182,4,1,0,82,0,0
160538,-131.13182,4,1,0,82,0,0
160601,-130.11765,4,1,0,82,0,0
160665,-129.04108,4,1,0,83,0,0
160729,-127.91866,4,1,0,84,0,0
160793,-126.75141,4,1,0,85,0,0
160858,-125.521255,4,1,0,85,0,0
160922,-124.26738,4,1,0,86,0,0
160986,-122.972694,4,1,0,87,0,0
161050,-121.63882,4,1,0,88,0,0
161114,-120.2675,4,1,0,89,0,0
161178,-118.860634,4,1,0,89,0,0
161242,-117.42018,4,1,0,90,0,0
161306,-115.94822,4,1,0,91,0,0
161370,-114.446915,4,1,0,92,0,0
161434,-112.91848,4,1,0,92,0,0
161499,-111.34075,4,1,0,93,0,0
161563,-109.76462,4,1,0,94,0,0
161627,-108.168365,4,1,0,95,0,0
161691,-106.55434,4,1,0,95,0,0
161755,-104.92492,4,1,0,96,0,0
161819,-103.282455,4,1,0,97,0,0
161883,-101.62931,4,1,0,98,0,0
161947,-99.967766,4,1,0,99,0,0
162011,-98.30011,4,1,0,99,0,0
162075,-96.62855,4,1,0,100,0,0
162268,-91.58557,4,1,0,100,0,0
162460,-86.607155,4,1,0,100,0,0
162588,-83.33333,4,1,0,100,0,0
162589,-83.47512,4,1,0,100,0,0
162593,-83.3333333333333,4,1,0,100,0,0
162717,-86.03164,4,1,0,100,0,0
162781,-86.80018,4,1,0,100,0,0
162845,-87.48249,4,1,0,100,0,0
162973,-88.694405,4,1,0,100,0,0
163101,-89.7799,4,1,0,100,0,0
163165,-90.2904,4,1,0,100,0,0
163229,-90.78416,4,1,0,100,0,0
163293,-91.26365,4,1,0,100,0,0
163358,-91.73805,4,1,0,100,0,0
163486,-92.641174,4,1,0,100,0,0
163614,-93.51053,4,1,0,100,0,0
163678,-93.93468,4,1,0,100,0,0
163742,-94.352715,4,1,0,100,0,0
163806,-94.76518,4,1,0,100,0,0
163870,-95.17258,4,1,0,100,0,0
163999,-95.98,4,1,0,100,0,0
164127,-96.76539,4,1,0,100,0,0
164191,-97.15292,4,1,0,100,0,0
164255,-97.53736,4,1,0,100,0,0
164319,-97.918915,4,1,0,100,0,0
164383,-98.29782,4,1,0,100,0,0
164447,-98.67422,4,1,0,100,0,0
164511,-99.0483,4,1,0,100,0,0
164575,-99.42024,4,1,0,100,0,0
164640,-99.79593,4,1,0,100,0,0
164768,-100.530205,4,1,0,100,0,0
164832,-100.894844,4,1,0,100,0,0
164896,-101.25795,4,1,0,100,0,0
164960,-101.61962,4,1,0,100,0,0
165024,-101.979965,4,1,0,100,0,0
165152,-102.69701,4,1,0,100,0,0
165217,-103.05943,4,1,0,100,0,0
165281,-103.415276,4,1,0,100,0,0
165345,-103.77017,4,1,0,100,0,0
165409,-104.1242,4,1,0,100,0,0
165537,-104.8299,4,1,0,100,0,0
165665,-105.53284,4,1,0,100,0,0
165666,-105.53832,4,1,0,100,0,0
165729,-105.8834,4,1,0,100,0,0
165793,-106.23341,4,1,0,100,0,0
165858,-106.58842,4,1,0,100,0,0
165922,-106.937485,4,1,0,100,0,0
166050,-107.63448,4,1,0,100,0,0
166114,-107.982475,4,1,0,100,0,0
166178,-108.330185,4,1,0,100,0,0
166242,-108.67764,4,1,0,100,0,0
166306,-109.024895,4,1,0,100,0,0
166370,-109.371956,4,1,0,100,0,0
166434,-109.71888,4,1,0,100,0,0
166499,-110.071106,4,1,0,100,0,0
166563,-110.41782,4,1,0,100,0,0
166627,-110.76447,4,1,0,100,0,0
166691,-100,4,1,0,100,0,0
166696,-100,4,1,0,100,0,0
166776,-99.96565,4,1,0,100,0,0
166862,-99.86117,4,1,0,100,0,0
166947,-99.68938,4,1,0,100,0,0
167033,-99.446976,4,1,0,100,0,0
167118,-99.14059,4,1,0,100,0,0
167204,-98.764244,4,1,0,100,0,0
167289,-98.32822,4,1,0,100,0,0
167375,-97.824005,4,1,0,100,0,0
167460,-97.265305,4,1,0,100,0,0
167546,-96.641136,4,1,0,100,0,0
167631,-95.96835,4,1,0,100,0,0
167717,-95.23368,4,1,0,100,0,0
167802,-94.45681,4,1,0,100,0,0
167887,-93.63224,4,1,0,100,0,0
167973,-92.75231,4,1,0,100,0,0
168058,-91.84039,4,1,0,100,0,0
168144,-90.87803,4,1,0,100,0,0
168229,-89.890594,4,1,0,100,0,0
168315,-88.85791,4,1,0,100,0,0
168400,-87.80697,4,1,0,100,0,0
168486,-86.71605,4,1,0,100,0,0
168571,-85.61346,4,1,0,100,0,0
168657,-84.476135,4,1,0,100,0,0
168742,-83.33333,4,1,0,100,0,0
168743,-83.34688,4,1,0,100,0,0
168747,-83.3333333333333,4,1,0,100,0,0
168828,-84.51458,4,1,0,100,0,0
168913,-85.71548,4,1,0,100,0,0
168999,-86.96574,4,1,0,100,0,0
169084,-88.23783,4,1,0,100,0,0
169170,-89.56332,4,1,0,100,0,0
169255,-90.91312,4,1,0,100,0,0
169340,-92.30424,4,1,0,100,0,0
169426,-93.755714,4,1,0,100,0,0
169511,-95.235886,4,1,0,100,0,0
169597,-96.7818,4,1,0,100,0,0
169682,-98.35987,4,1,0,100,0,0
169768,-100.00975,4,1,0,100,0,0
169853,-101.695755,4,1,0,100,0,0
169939,-103.46045,4,1,0,100,0,0
170024,-105.26586,4,1,0,100,0,0
170110,-107.15778,4,1,0,100,0,0
170195,-109.09574,4,1,0,100,0,0
170281,-111.129166,4,1,0,100,0,0
170366,-113.214836,4,1,0,100,0,0
170452,-115.40625,4,1,0,100,0,0
170537,-117.65718,4,1,0,100,0,0
170623,-120.02574,4,1,0,100,0,0
170708,-122.46238,4,1,0,100,0,0
170793,-83.33333,4,1,0,100,0,0
170794,-83.36015,4,1,0,100,0,0
170798,-83.3333333333333,4,1,0,100,0,0
170922,-84.66263,4,1,0,100,0,0
170986,-85.17937,4,1,0,100,0,0
171050,-85.668,4,1,0,100,0,0
171178,-86.59407,4,1,0,100,0,0
171306,-87.47762,4,1,0,100,0,0
171370,-87.90876,4,1,0,100,0,0
171434,-88.33456,4,1,0,100,0,0
171499,-88.76249,4,1,0,100,0,0
171563,-89.18015,4,1,0,100,0,0
171691,-90.00686,4,1,0,100,0,0
171819,-90.82507,4,1,0,100,0,0
171820,-90.831436,4,1,0,100,0,0
171883,-91.23186,4,1,0,100,0,0
171947,-91.63751,4,1,0,100,0,0
172011,-92.042244,4,1,0,100,0,0
172075,-92.44628,4,1,0,100,0,0
172204,-93.25929,4,1,0,100,0,0
172332,-94.0653,4,1,0,100,0,0
172396,-94.46838,4,1,0,100,0,0
172460,-94.87169,4,1,0,100,0,0
172524,-95.27533,4,1,0,100,0,0
172588,-95.67941,4,1,0,100,0,0
172652,-96.084015,4,1,0,100,0,0
172717,-96.49559,4,1,0,100,0,0
172781,-96.90155,4,1,0,100,0,0
172845,-97.30829,4,1,0,100,0,0
172973,-98.12446,4,1,0,100,0,0
173037,-98.53403,4,1,0,100,0,0
173101,-98.94466,4,1,0,100,0,0
173165,-99.35643,4,1,0,100,0,0
173229,-99.76941,4,1,0,100,0,0
173357,-100.59917,4,1,0,100,0,0
173422,-101.022606,4,1,0,100,0,0
173486,-101.44094,4,1,0,100,0,0
173550,-101.86076,4,1,0,100,0,0
173614,-102.2821,4,1,0,100,0,0
173742,-103.12953,4,1,0,100,0,0
173870,-103.983604,4,1,0,100,0,0
173871,-103.9903,4,1,0,100,0,0
173934,-104.413246,4,1,0,100,0,0
173998,-104.84469,4,1,0,100,0,0
174063,-105.284744,4,1,0,100,0,0
174127,-105.71994,4,1,0,100,0,0
174255,-106.59614,4,1,0,100,0,0
174319,-107.03721,4,1,0,100,0,0
174383,-107.48035,4,1,0,100,0,0
174447,-107.925575,4,1,0,100,0,0
174511,-108.37292,4,1,0,100,0,0
174575,-108.82243,4,1,0,100,0,0
174639,-109.274155,4,1,0,100,0,0
174704,-109.735245,4,1,0,100,0,0
174768,-110.19152,4,1,0,100,0,0
174832,-110.65013,4,1,0,100,0,0
174896,-100,4,1,0,100,0,0
174897,-100,4,1,0,100,0,0
174901,-100,4,1,0,100,0,0
174981,-99.99957,4,1,0,100,0,0
175067,-99.99657,4,1,0,100,0,0
175152,-99.98849,4,1,0,100,0,0
175238,-99.97256,4,1,0,100,0,0
175323,-99.94659,4,1,0,100,0,0
175409,-99.9074,4,1,0,100,0,0
175494,-99.85341,4,1,0,100,0,0
175580,-99.78079,4,1,0,100,0,0
175665,-99.688774,4,1,0,100,0,0
175751,-99.572754,4,1,0,100,0,0
175836,-99.43303,4,1,0,100,0,0
175922,-99.263985,4,1,0,100,0,0
176007,-99.06735,4,1,0,100,0,0
176093,-98.83628,4,1,0,100,0,0
176178,-98.57415,4,1,0,100,0,0
176264,-98.272804,4,1,0,100,0,0
176349,-97.93749,4,1,0,100,0,0
176434,-97.56329,4,1,0,100,0,0
176520,-97.1436,4,1,0,100,0,0
176605,-96.68685,4,1,0,100,0,0
176691,-96.18117,4,1,0,100,0,0
176776,-95.63737,4,1,0,100,0,0
176862,-95.04192,4,1,0,100,0,0
176947,-94.40817,4,1,0,100,0,0
176948,-94.40045,4,1,0,100,0,0
177033,-93.7209,4,1,0,100,0,0
177118,-92.996025,4,1,0,100,0,0
177204,-92.21669,4,1,0,100,0,0
177289,-91.40138,4,1,0,100,0,0
177375,-90.531586,4,1,0,100,0,0
177460,-89.62837,4,1,0,100,0,0
177546,-88.67158,4,1,0,100,0,0
177631,-87.68474,4,1,0,100,0,0
177717,-86.646164,4,1,0,100,0,0
177781,-85.848076,4,1,0,100,0,0
177845,-85.02935,4,1,0,100,0,0
177909,-84.19081,4,1,0,100,0,0
177973,-83.33333,4,1,0,100,0,0
177978,-83.3333333333333,4,1,0,100,0,0
178010,-83.3333333333333,4,1,0,20,0,0
178972,-83.3333333333333,4,1,0,100,0,0
178999,-83.33333,4,1,0,100,0,0
179004,-83.3333333333333,4,1,0,100,0,0
179127,-83.333336,4,1,0,100,0,0
179191,-83.3334,4,1,0,100,0,0
179255,-83.33354,4,1,0,100,0,0
179383,-83.3344,4,1,0,100,0,0
179511,-83.3367,4,1,0,100,0,0
179575,-83.33873,4,1,0,100,0,0
179640,-83.341606,4,1,0,100,0,0
179704,-83.34545,4,1,0,100,0,0
179768,-83.35049,4,1,0,100,0,0
179896,-83.365105,4,1,0,100,0,0
179960,-83.3752,4,1,0,100,0,0
180024,-83.38752,4,1,0,100,0,0
180025,-83.38773,4,1,0,100,0,0
180088,-83.40239,4,1,0,100,0,0
180152,-83.42012,4,1,0,100,0,0
180217,-83.44144,4,1,0,100,0,0
180281,-83.46606,4,1,0,100,0,0
180345,-83.49466,4,1,0,100,0,0
180409,-83.52768,4,1,0,100,0,0
180537,-83.60873,4,1,0,100,0,0
180601,-83.657684,4,1,0,100,0,0
180665,-83.71296,4,1,0,100,0,0
180729,-83.77507,4,1,0,100,0,0
180793,-83.844574,4,1,0,100,0,0
180858,-83.92335,4,1,0,100,0,0
180922,-84.00959,4,1,0,100,0,0
180986,-84.10509,4,1,0,100,0,0
181050,-84.210526,4,1,0,100,0,0
181178,-84.4541,4,1,0,100,0,0
181242,-84.59377,4,1,0,100,0,0
181306,-84.74645,4,1,0,100,0,0
181434,-85.094345,4,1,0,100,0,0
181499,-85.29465,4,1,0,100,0,0
181563,-85.50878,4,1,0,100,0,0
181627,-85.740776,4,1,0,100,0,0
181691,-85.99175,4,1,0,100,0,0
181755,-86.262924,4,1,0,100,0,0
181819,-86.55557,4,1,0,100,0,0
181883,-86.87104,4,1,0,100,0,0
181947,-87.210785,4,1,0,100,0,0
182075,-87.96932,4,1,0,100,0,0
182076,-87.97569,4,1,0,100,0,0
182140,-88.39837,4,1,0,100,0,0
182204,-88.85215,4,1,0,100,0,0
182268,-89.33908,4,1,0,100,0,0
182332,-89.861336,4,1,0,100,0,0
182396,-90.42126,4,1,0,100,0,0
182460,-91.02137,4,1,0,100,0,0
182524,-91.66446,4,1,0,100,0,0
182588,-92.35347,4,1,0,100,0,0
182717,-93.89537,4,1,0,100,0,0
182781,-94.7438,4,1,0,100,0,0
182845,-95.65309,4,1,0,100,0,0
182973,-97.67351,4,1,0,100,0,0
183101,-83.33333,4,1,0,100,0,0
183102,-83.33333,4,1,0,100,0,0
183106,-83.3333333333333,4,1,0,100,0,0
183165,-83.33164,4,1,0,100,0,0
183229,-83.32658,4,1,0,100,0,0
183293,-83.31813,4,1,0,100,0,0
183358,-83.30611,4,1,0,100,0,0
183422,-83.29085,4,1,0,100,0,0
183486,-83.27224,4,1,0,100,0,0
183550,-83.25026,4,1,0,100,0,0
183614,-83.22491,4,1,0,100,0,0
183678,-83.19623,4,1,0,100,0,0
183742,-83.164185,4,1,0,100,0,0
183806,-83.12881,4,1,0,100,0,0
183870,-83.0901,4,1,0,100,0,0
183934,-83.04807,4,1,0,100,0,0
183999,-83.002,4,1,0,100,0,0
184063,-82.95332,4,1,0,100,0,0
184127,-82.901344,4,1,0,100,0,0
184191,-82.8461,4,1,0,100,0,0
184255,-82.78759,4,1,0,100,0,0
184319,-82.72582,4,1,0,100,0,0
184383,-82.660835,4,1,0,100,0,0
184447,-82.59262,4,1,0,100,0,0
184511,-82.52121,4,1,0,100,0,0
184575,-82.44661,4,1,0,100,0,0
184640,-82.367615,4,1,0,100,0,0
184704,-82.28666,4,1,0,100,0,0
184768,-82.20257,4,1,0,100,0,0
184832,-82.11537,4,1,0,100,0,0
184896,-82.02508,4,1,0,100,0,0
184960,-81.93173,4,1,0,100,0,0
185024,-81.83532,4,1,0,100,0,0
185088,-81.7359,4,1,0,100,0,0
185152,-81.63347,4,1,0,100,0,0
185153,-81.63184,4,1,0,100,0,0
185217,-81.52639,4,1,0,100,0,0
185281,-81.417984,4,1,0,100,0,0
185345,-81.30664,4,1,0,100,0,0
185409,-81.192406,4,1,0,100,0,0
185473,-81.07528,4,1,0,100,0,0
185537,-80.955315,4,1,0,100,0,0
185601,-80.83251,4,1,0,100,0,0
185665,-80.70693,4,1,0,100,0,0
185729,-80.57856,4,1,0,100,0,0
185793,-80.44746,4,1,0,100,0,0
185858,-80.31152,4,1,0,100,0,0
185922,-80.17498,4,1,0,100,0,0
185986,-80.03579,4,1,0,100,0,0
186050,-79.89396,4,1,0,100,0,0
186114,-79.74955,4,1,0,100,0,0
186178,-79.60257,4,1,0,100,0,0
186179,-79.60025,4,1,0,100,0,0
186242,-79.453064,4,1,0,100,0,0
186306,-79.30105,4,1,0,100,0,0
186370,-79.146576,4,1,0,100,0,0
186434,-78.95432,4,1,0,100,0,0
186499,-78.49773,4,1,0,100,0,0
186563,-78.0533,4,1,0,100,0,0
186627,-77.61387,4,1,0,100,0,0
186691,-77.213135,4,1,0,100,0,0
186755,-79.35689,4,1,0,100,0,0
186819,-81.129196,4,1,0,100,0,0
186883,-82.80111,4,1,0,100,0,0
186947,-84.429436,4,1,0,100,0,0
187011,-86.03957,4,1,0,100,0,0
187075,-87.646034,4,1,0,100,0,0
187140,-89.28368,4,1,0,100,0,0
187204,-83.33333,4,1,0,100,0,0
187209,-83.3333333333333,4,1,0,100,0,0
187332,-83.33376,4,1,0,100,0,0
187396,-83.334755,4,1,0,100,0,0
187460,-83.33671,4,1,0,100,0,0
187588,-83.344734,4,1,0,100,0,0
187716,-83.36035,4,1,0,100,0,0
187781,-83.37201,4,1,0,100,0,0
187845,-83.38637,4,1,0,100,0,0
187909,-83.4039,4,1,0,100,0,0
187973,-83.42494,4,1,0,100,0,0
188101,-83.47882,4,1,0,100,0,0
188229,-83.5506,4,1,0,100,0,0
188230,-62.5,4,1,0,100,0,0
189255,-85.106384,4,1,0,100,0,0
189383,-85.46854,4,1,0,100,0,0
189447,-85.66769,4,1,0,100,0,0
189511,-85.87955,4,1,0,100,0,0
189639,-86.34348,4,1,0,100,0,0
189704,-86.60074,4,1,0,100,0,0
189768,-86.86909,4,1,0,100,0,0
189832,-87.152954,4,1,0,100,0,0
189896,-87.453,4,1,0,100,0,0
189960,-87.76988,4,1,0,100,0,0
190024,-88.104294,4,1,0,100,0,0
190088,-88.456985,4,1,0,100,0,0
190152,-88.82871,4,1,0,100,0,0
190281,-62.5,4,1,0,100,0,0
191306,-83.33333,4,1,0,100,0,0
191307,-83.33333,4,1,0,100,0,0
191311,-83.3333333333333,4,1,0,100,0,0
191370,-83.33164,4,1,0,100,0,0
191434,-83.32658,4,1,0,100,0,0
191498,-83.31813,4,1,0,100,0,0
191563,-83.30611,4,1,0,100,0,0
191627,-83.29085,4,1,0,100,0,0
191691,-83.27224,4,1,0,100,0,0
191755,-83.25026,4,1,0,100,0,0
191819,-83.22491,4,1,0,100,0,0
191883,-83.19623,4,1,0,100,0,0
191947,-83.164185,4,1,0,100,0,0
192011,-83.12881,4,1,0,100,0,0
192075,-83.0901,4,1,0,100,0,0
192139,-83.04807,4,1,0,100,0,0
192204,-83.002,4,1,0,100,0,0
192268,-82.95332,4,1,0,100,0,0
192332,-82.901344,4,1,0,100,0,0
192396,-82.8461,4,1,0,100,0,0
192460,-82.78759,4,1,0,100,0,0
192524,-82.72582,4,1,0,100,0,0
192588,-82.660835,4,1,0,100,0,0
192652,-82.59262,4,1,0,100,0,0
192716,-82.52121,4,1,0,100,0,0
192780,-82.44661,4,1,0,100,0,0
192845,-82.367615,4,1,0,100,0,0
192909,-82.28666,4,1,0,100,0,0
192973,-82.20257,4,1,0,100,0,0
193037,-82.11537,4,1,0,100,0,0
193101,-82.02508,4,1,0,100,0,0
193165,-81.93173,4,1,0,100,0,0
193229,-81.83532,4,1,0,100,0,0
193293,-81.7359,4,1,0,100,0,0
193357,-81.63347,4,1,0,100,0,0
193358,-81.63184,4,1,0,100,0,0
193422,-81.52639,4,1,0,100,0,0
193486,-81.417984,4,1,0,100,0,0
193550,-81.30664,4,1,0,100,0,0
193614,-81.192406,4,1,0,100,0,0
193678,-81.07528,4,1,0,100,0,0
193742,-80.955315,4,1,0,100,0,0
193806,-80.83251,4,1,0,100,0,0
193870,-80.70693,4,1,0,100,0,0
193934,-80.57856,4,1,0,100,0,0
193999,-80.44539,4,1,0,100,0,0
194063,-80.31152,4,1,0,100,0,0
194127,-80.17498,4,1,0,100,0,0
194191,-80.03579,4,1,0,100,0,0
194255,-79.89396,4,1,0,100,0,0
194319,-79.74955,4,1,0,100,0,0
194383,-79.60257,4,1,0,100,0,0
194384,-79.60025,4,1,0,100,0,0
194447,-79.453064,4,1,0,100,0,0
194511,-79.30105,4,1,0,100,0,0
194575,-79.146576,4,1,0,100,0,0
194640,-78.98719,4,1,0,100,0,0
194704,-78.82784,4,1,0,100,0,0
194768,-78.66612,4,1,0,100,0,0
194832,-78.50206,4,1,0,100,0,0
194896,-77.35899,4,1,0,100,0,0
194960,-80.63248,4,1,0,100,0,0
195024,-83.40959,4,1,0,100,0,0
195088,-86.09038,4,1,0,100,0,0
195152,-88.760155,4,1,0,100,0,0
195216,-91.45918,4,1,0,100,0,0
195280,-94.21259,4,1,0,100,0,0
195345,-97.08376,4,1,0,100,0,0
195414,512.820512820513,4,1,0,100,1,0
195414,-41.6666666666667,4,1,0,100,0,0
195478,-41.6666666666667,4,1,0,20,0,0
197460,-49.895565,4,1,0,20,0,0
199512,-58.455128,4,1,0,20,0,0
201563,-69.12438,4,1,0,20,0,0
203555,-69.12438,4,1,0,100,0,0
203614,-41.6666666666667,4,1,0,100,0,0
203619,-41.6666666666667,4,1,0,100,0,0
204639,-83.3325,4,1,0,100,0,0
205409,-83.325386,4,1,0,100,0,0
205665,-83.31978,4,1,0,100,0,0
206178,-83.30024,4,1,0,100,0,0
206306,-83.29312,4,1,0,100,0,0
206691,-83.26471,4,1,0,100,0,0
207203,-83.20641,4,1,0,100,0,0
207460,-83.166046,4,1,0,100,0,0
207716,-83.11699,4,1,0,100,0,0
207717,-83.11678,4,1,0,100,0,0
207844,-83.088776,4,1,0,100,0,0
208229,-82.98726,4,1,0,100,0,0
208742,-82.806915,4,1,0,100,0,0
209255,-82.564735,4,1,0,100,0,0
209511,-82.417076,4,1,0,100,0,0
209639,-82.335884,4,1,0,100,0,0
209767,-82.24952,4,1,0,100,0,0
209768,-82.248825,4,1,0,100,0,0
210280,-81.8476,4,1,0,100,0,0
210409,-81.73148,4,1,0,100,0,0
210537,-81.6099,4,1,0,100,0,0
210665,-81.48177,4,1,0,100,0,0
210793,-81.34691,4,1,0,100,0,0
211306,-80.73501,4,1,0,100,0,0
211562,-80.384315,4,1,0,100,0,0
211819,-80,4,1,0,100,0,0
211947,-79.79611,4,1,0,100,0,0
212075,-79.583725,4,1,0,100,0,0
212844,-78.12081,4,1,0,100,0,0
213101,-77.55751,4,1,0,100,0,0
213357,-76.95805,4,1,0,100,0,0
213614,-76.317215,4,1,0,100,0,0
213870,-75.63962,4,1,0,100,0,0
213871,-75.6369,4,1,0,100,0,0
214383,-74.163414,4,1,0,100,0,0
214511,-73.77054,4,1,0,100,0,0
214896,-72.53046,4,1,0,100,0,0
215409,-70.74516,4,1,0,100,0,0
215921,-68.81915,4,1,0,100,0,0
215922,-68.815254,4,1,0,100,0,0
216050,-68.3124,4,1,0,100,0,0
216434,-66.755936,4,1,0,100,0,0
216947,-64.57312,4,1,0,100,0,0
217716,-61.113735,4,1,0,100,0,0
217844,-60.51984,4,1,0,100,0,0
217973,-59.916904,4,1,0,100,0,0
218485,-57.486763,4,1,0,100,0,0
218614,-56.866753,4,1,0,100,0,0
218742,-56.249123,4,1,0,100,0,0
218870,-55.6294,4,1,0,100,0,0
218998,-55.007896,4,1,0,100,0,0
220029,256.410256410256,4,1,0,100,1,0
220029,-83.3333333333333,4,1,0,100,0,0
221049,-83.33333,4,1,0,100,0,0
221050,-83.44181,4,1,0,100,0,0
221054,-83.3333333333333,4,1,0,100,0,0
221135,-87.339905,4,1,0,100,0,0
221220,-90.530334,4,1,0,100,0,0
221306,-93.646675,4,1,0,100,0,0
221476,-99.837654,4,1,0,100,0,0
221562,-103.065125,4,1,0,100,0,0
221647,-106.35114,4,1,0,100,0,0
221733,-109.79269,4,1,0,100,0,0
221818,-113.32754,4,1,0,100,0,0
221904,-117.0566,4,1,0,100,0,0
221989,-120.9109,4,1,0,100,0,0
222075,-125,4,1,0,100,0,0
222080,-83.3333333333333,4,1,0,100,0,0
223100,-83.33333,4,1,0,100,0,0
223101,-83.44181,4,1,0,100,0,0
223105,-83.3333333333333,4,1,0,100,0,0
223186,-87.339905,4,1,0,100,0,0
223271,-90.530334,4,1,0,100,0,0
223357,-93.646675,4,1,0,100,0,0
223528,-99.8747,4,1,0,100,0,0
223613,-103.065125,4,1,0,100,0,0
223699,-106.39045,4,1,0,100,0,0
223784,-109.79269,4,1,0,100,0,0
223870,-113.36999,4,1,0,100,0,0
223955,-117.0566,4,1,0,100,0,0
224041,-120.95731,4,1,0,100,0,0
224126,-125,4,1,0,100,0,0
224131,-83.3333333333333,4,1,0,100,0,0
225152,-83.33333,4,1,0,100,0,0
225157,-83.3333333333333,4,1,0,100,0,0
225237,-87.304054,4,1,0,100,0,0
225323,-90.536446,4,1,0,100,0,0
225408,-93.61962,4,1,0,100,0,0
225494,-96.73304,4,1,0,100,0,0
225579,-99.85307,4,1,0,100,0,0
225665,-103.084175,4,1,0,100,0,0
225750,-106.37408,4,1,0,100,0,0
225835,-109.779076,4,1,0,100,0,0
225921,-113.35938,4,1,0,100,0,0
226006,-117.0492,4,1,0,100,0,0
226092,-120.95346,4,1,0,100,0,0
226177,-125,4,1,0,100,0,0
226182,-83.3333333333333,4,1,0,100,0,0
227716,-83.33333,4,1,0,100,0,0
227721,-83.3333333333333,4,1,0,100,0,0
227844,-88.17351,4,1,0,100,0,0
227908,-90.18046,4,1,0,100,0,0
228036,-94.08275,4,1,0,100,0,0
228100,-96.027885,4,1,0,100,0,0
228229,-83.33333,4,1,0,100,0,0
228234,-83.3333333333333,4,1,0,100,0,0
228357,-83.33671,4,1,0,100,0,0
228485,-83.36035,4,1,0,100,0,0
228613,-83.42459,4,1,0,100,0,0
228741,-83.54996,4,1,0,100,0,0
228870,-83.75948,4,1,0,100,0,0
228998,-84.071884,4,1,0,100,0,0
229126,-84.511604,4,1,0,100,0,0
229254,-85.10374,4,1,0,100,0,0
229255,-85.10903,4,1,0,100,0,0
229382,-85.87613,4,1,0,100,0,0
229511,-86.86909,4,1,0,100,0,0
229639,-88.104294,4,1,0,100,0,0
229767,-89.632545,4,1,0,100,0,0
229853,-90.85018,4,1,0,100,0,0
229938,-92.22598,4,1,0,100,0,0
230023,-93.794945,4,1,0,100,0,0
230109,-95.60507,4,1,0,100,0,0
230194,-97.644966,4,1,0,100,0,0
230280,-100,4,1,0,100,0,0
230285,-100,4,1,0,100,0,0
230408,-99.99514,4,1,0,100,0,0
230536,-99.96113,4,1,0,100,0,0
230665,-99.86789,4,1,0,100,0,0
230793,-99.68802,4,1,0,100,0,0
230921,-99.39317,4,1,0,100,0,0
231049,-98.956825,4,1,0,100,0,0
231177,-98.35448,4,1,0,100,0,0
231306,-97.557495,4,1,0,100,0,0
231434,-96.56008,4,1,0,100,0,0
231562,-95.34321,4,1,0,100,0,0
231690,-93.89834,4,1,0,100,0,0
231818,-92.22252,4,1,0,100,0,0
231904,-90.96808,4,1,0,100,0,0
231989,-89.62927,4,1,0,100,0,0
232075,-88.17811,4,1,0,100,0,0
232160,-86.652824,4,1,0,100,0,0
232246,-85.02314,4,1,0,100,0,0
232331,-83.33333,4,1,0,100,0,0
232332,-83.333305,4,1,0,100,0,0
232336,-83.3333333333333,4,1,0,100,0,0
232395,-83.23724,4,1,0,100,0,0
232459,-82.9503,4,1,0,100,0,0
232523,-82.47644,4,1,0,100,0,0
232588,-81.81043,4,1,0,100,0,0
232652,-80.981575,4,1,0,100,0,0
232716,-79.99168,4,1,0,100,0,0
232780,-78.853035,4,1,0,100,0,0
232844,-77.57925,4,1,0,100,0,0
232908,-76.184814,4,1,0,100,0,0
232972,-74.68477,4,1,0,100,0,0
233036,-73.09432,4,1,0,100,0,0
233100,-71.42857,4,1,0,100,0,0
233105,-71.4285714285714,4,1,0,100,0,0
233357,-83.33333,4,1,0,100,0,0
233362,-83.3333333333333,4,1,0,100,0,0
233421,-83.23724,4,1,0,100,0,0
233485,-82.9503,4,1,0,100,0,0
233549,-82.47644,4,1,0,100,0,0
233613,-81.822044,4,1,0,100,0,0
233677,-80.9958,4,1,0,100,0,0
233741,-80.008316,4,1,0,100,0,0
233806,-78.853035,4,1,0,100,0,0
233870,-77.57925,4,1,0,100,0,0
233934,-76.184814,4,1,0,100,0,0
233998,-74.68477,4,1,0,100,0,0
234062,-73.09432,4,1,0,100,0,0
234126,-71.42857,4,1,0,100,0,0
234131,-71.4285714285714,4,1,0,100,0,0
234382,-83.33333,4,1,0,100,0,0
234383,-83.32443,4,1,0,100,0,0
234387,-83.3333333333333,4,1,0,100,0,0
234447,-82.02018,4,1,0,100,0,0
234511,-80.40325,4,1,0,100,0,0
234575,-78.683365,4,1,0,100,0,0
234639,-76.92308,4,1,0,100,0,0
234644,-76.9230769230769,4,1,0,100,0,0
234895,-83.33333,4,1,0,100,0,0
234900,-83.3333333333333,4,1,0,100,0,0
234959,-82.044014,4,1,0,100,0,0
235023,-80.429535,4,1,0,100,0,0
235088,-78.683365,4,1,0,100,0,0
235152,-76.92308,4,1,0,100,0,0
235157,-76.9230769230769,4,1,0,100,0,0
235408,-71.42857,4,1,0,100,0,0
235409,-71.4684,4,1,0,100,0,0
235413,-71.4285714285714,4,1,0,100,0,0
235472,-72.55472,4,1,0,100,0,0
235536,-73.41249,4,1,0,100,0,0
235600,-74.202156,4,1,0,100,0,0
235665,-74.96692,4,1,0,100,0,0
235729,-75.69698,4,1,0,100,0,0
235793,-76.411835,4,1,0,100,0,0
235857,-77.11614,4,1,0,100,0,0
235921,-77.81314,4,1,0,100,0,0
235985,-78.50514,4,1,0,100,0,0
236049,-79.19395,4,1,0,100,0,0
236113,-79.88094,4,1,0,100,0,0
236177,-80.56725,4,1,0,100,0,0
236241,-81.25383,4,1,0,100,0,0
236306,-81.9522,4,1,0,100,0,0
236370,-82.641594,4,1,0,100,0,0
236434,-83.33333,4,1,0,100,0,0
236439,-83.3333333333333,4,1,0,100,0,0
236471,-83.3333333333333,4,1,0,20,0,0
237460,-132.358330536031,4,1,0,20,0,0
238459,-132.358330536031,4,1,0,100,0,0
238486,-83.3170960034724,4,1,0,60,0,0
238492,256.410256410256,4,1,0,60,1,8
238492,-83.333336,4,1,0,60,0,0
238748,-125,4,1,0,100,0,0
238871,-124.953926,4,1,0,64,0,0
238935,-124.89638,4,1,0,64,0,0
238999,-124.81592,4,1,0,65,0,0
239192,-124.43544,4,1,0,67,0,0
239384,-123.85476,4,1,0,69,0,0
239512,-123.3541,4,1,0,70,0,0
239513,-123.3541,4,1,0,70,0,0
239769,-122.107285,4,1,0,73,0,0
239897,-121.36281,4,1,0,74,0,0
239961,-120.961586,4,1,0,74,0,0
240025,-120.54157,4,1,0,75,0,0
240153,-119.64686,4,1,0,76,0,0
240217,-119.173035,4,1,0,77,0,0
240281,-118.682175,4,1,0,77,0,0
240410,-117.6429,4,1,0,79,0,0
240538,-116.54903,4,1,0,80,0,0
240602,-115.979904,4,1,0,81,0,0
240666,-115.396675,4,1,0,81,0,0
240794,-114.18993,4,1,0,82,0,0
240858,-113.56743,4,1,0,83,0,0
240922,-112.93286,4,1,0,84,0,0
240987,-112.276566,4,1,0,84,0,0
241051,-111.61926,4,1,0,85,0,0
241179,-110.27363,4,1,0,86,0,0
241243,-109.58634,4,1,0,87,0,0
241307,-108.89007,4,1,0,87,0,0
241371,-108.185326,4,1,0,88,0,0
241435,-107.4726,4,1,0,89,0,0
241563,-106.01381,4,1,0,90,0,0
241564,-106.01381,4,1,0,90,0,0
241628,-105.28001,4,1,0,91,0,0
241692,-104.54016,4,1,0,91,0,0
241756,-103.79476,4,1,0,92,0,0
241820,-103.04425,4,1,0,93,0,0
241884,-102.289085,4,1,0,93,0,0
241948,-101.5297,4,1,0,94,0,0
242012,-100.76653,4,1,0,94,0,0
242076,-100,4,1,0,95,0,0
242081,-100,4,1,0,100,0,0
242269,-110.07055,4,1,0,97,0,0
242461,-118.901276,4,1,0,99,0,0
242594,-83.333336,4,1,0,100,0,1
258491,-100,4,1,0,100,0,0
259004,-76.9230769230769,4,1,0,100,0,1
263102,-76.92308,4,1,0,100,0,1
263107,-76.9230769230769,4,1,0,100,0,1
263166,-77.41375,4,1,0,100,0,1
263230,-77.66924,4,1,0,100,0,1
263358,-78.05973,4,1,0,100,0,1
263486,-78.37873,4,1,0,100,0,1
263550,-78.52271,4,1,0,100,0,1
263614,-78.659164,4,1,0,100,0,1
263679,-78.79137,4,1,0,100,0,1
263743,-78.91623,4,1,0,100,0,1
263807,-79.03657,4,1,0,100,0,1
263871,-79.152954,4,1,0,100,0,1
263935,-79.26586,4,1,0,100,0,1
263999,-79.375656,4,1,0,100,0,1
264063,-79.482635,4,1,0,100,0,1
264127,-79.58709,4,1,0,100,0,1
264128,-79.58871,4,1,0,100,0,1
264191,-79.689224,4,1,0,100,0,1
264255,-79.78924,4,1,0,100,0,1
264384,-79.98505,4,1,0,100,0,1
264448,-80.07959,4,1,0,100,0,1
264512,-80.17258,4,1,0,100,0,1
264576,-80.2641,4,1,0,100,0,1
264640,-80.35425,4,1,0,100,0,1
264704,-80.4431,4,1,0,100,0,1
264768,-80.53073,4,1,0,100,0,1
264832,-80.617226,4,1,0,100,0,1
264896,-80.70263,4,1,0,100,0,1
264961,-80.7883,4,1,0,100,0,1
265025,-80.87167,4,1,0,100,0,1
265089,-80.95412,4,1,0,100,0,1
265153,-81.03566,4,1,0,100,0,1
265154,-81.03693,4,1,0,100,0,1
265217,-81.116356,4,1,0,100,0,1
265281,-81.19624,4,1,0,100,0,1
265410,-81.35492,4,1,0,100,0,1
265538,-81.5095,4,1,0,100,0,1
265602,-81.585785,4,1,0,100,0,1
265666,-81.66143,4,1,0,100,0,1
265730,-81.73646,4,1,0,100,0,1
265794,-81.8109,4,1,0,100,0,1
265858,-81.884766,4,1,0,100,0,1
265922,-81.95809,4,1,0,100,0,1
265986,-82.030876,4,1,0,100,0,1
266050,-82.10315,4,1,0,100,0,1
266114,-82.17491,4,1,0,100,0,1
266179,-82.24732,4,1,0,100,0,1
266243,-82.31813,4,1,0,100,0,1
266307,-82.38849,4,1,0,100,0,1
266371,-82.4584,4,1,0,100,0,1
266435,-82.52789,4,1,0,100,0,1
266499,-82.59696,4,1,0,100,0,1
266563,-82.66563,4,1,0,100,0,1
266627,-82.73391,4,1,0,100,0,1
266691,-82.801796,4,1,0,100,0,1
266755,-82.86932,4,1,0,100,0,1
266820,-82.93753,4,1,0,100,0,1
266884,-83.00433,4,1,0,100,0,1
266948,-83.070786,4,1,0,100,0,1
267012,-83.1369,4,1,0,100,0,1
267076,-83.2027,4,1,0,100,0,1
267140,-83.268166,4,1,0,100,0,1
267204,-83.33333,4,1,0,100,0,1
267209,-76.9230769230769,4,1,0,100,0,1
271308,-76.92104,4,1,0,100,0,1
271312,-76.9230769230769,4,1,0,100,0,1
271372,-76.61915,4,1,0,100,0,1
271435,-76.24108,4,1,0,100,0,1
271499,-75.81979,4,1,0,100,0,1
271564,-75.36695,4,1,0,100,0,1
271628,-74.903534,4,1,0,100,0,1
271692,-74.42717,4,1,0,100,0,1
271756,-73.940956,4,1,0,100,0,1
271820,-73.44723,4,1,0,100,0,1
271885,-72.93996,4,1,0,100,0,1
271949,-72.43622,4,1,0,100,0,1
272012,-71.93738,4,1,0,100,0,1
272081,-71.42857,4,1,0,100,0,0
272338,-76.92308,4,1,0,100,0,1
272397,-76.62473,4,1,0,100,0,1
272461,-76.24108,4,1,0,100,0,1
272525,-75.81979,4,1,0,100,0,1
272590,-75.36695,4,1,0,100,0,1
272653,-74.91089,4,1,0,100,0,1
272717,-74.43469,4,1,0,100,0,1
272782,-73.940956,4,1,0,100,0,1
272846,-73.44723,4,1,0,100,0,1
272910,-72.94779,4,1,0,100,0,1
272974,-72.444115,4,1,0,100,0,1
273038,-71.93738,4,1,0,100,0,1
273102,-71.42857,4,1,0,100,0,1
273107,-71.4285714285714,4,1,0,100,0,1
273231,-76.96933,4,1,0,100,0,1
273331,-76.96933,4,1,0,60,0,1
273363,-83.33333,4,1,0,60,0,0
273620,-100,4,1,0,100,0,0
273743,-99.99275,4,1,0,68,0,0
273807,-99.97553,4,1,0,69,0,0
273871,-99.94202,4,1,0,70,0,0
274063,-99.69003,4,1,0,74,0,0
274256,-99.09745,4,1,0,78,0,0
274384,-98.44581,4,1,0,80,0,0
274385,-98.44581,4,1,0,80,0,0
274576,-97.02232,4,1,0,84,0,0
274769,-94.95378,4,1,0,88,0,0
274897,-93.20864,4,1,0,90,0,0
274961,-92.223015,4,1,0,91,0,0
275025,-91.16286,4,1,0,92,0,0
275089,-90.029564,4,1,0,94,0,0
275153,-88.82516,4,1,0,95,0,0
275217,-87.55223,4,1,0,96,0,0
275281,-86.21397,4,1,0,97,0,0
275345,-84.81403,4,1,0,99,0,0
275410,-83.333336,4,1,0,100,0,0
275415,-83.3333333333333,4,1,0,100,0,0
275671,-100,4,1,0,100,0,0
283615,-83.33333,4,1,0,100,0,0
283616,-83.36045,4,1,0,100,0,0
283620,-83.3333333333333,4,1,0,100,0,0
283679,-84.49367,4,1,0,100,0,0
283743,-85.525024,4,1,0,100,0,0
283807,-86.52723,4,1,0,100,0,0
283871,-87.51851,4,1,0,100,0,0
283935,-88.50716,4,1,0,100,0,0
283999,-89.497986,4,1,0,100,0,0
284063,-90.49425,4,1,0,100,0,0
284128,-91.51403,4,1,0,100,0,0
284192,-92.527824,4,1,0,100,0,0
284256,-93.55276,4,1,0,100,0,0
284320,-94.59008,4,1,0,100,0,0
284384,-95.640976,4,1,0,100,0,0
284448,-96.70647,4,1,0,100,0,0
284512,-97.78754,4,1,0,100,0,0
284576,-98.88508,4,1,0,100,0,0
284640,-100,4,1,0,100,0,0
284645,-100,4,1,0,100,0,0
287717,-83.33333,4,1,0,100,0,0
287718,-83.32855,4,1,0,100,0,0
287722,-83.3333333333333,4,1,0,100,0,0
287781,-82.636185,4,1,0,100,0,0
287845,-81.74891,4,1,0,100,0,0
287910,-80.77085,4,1,0,100,0,0
287974,-79.76497,4,1,0,100,0,0
288038,-78.7339,4,1,0,100,0,0
288102,-77.68855,4,1,0,100,0,0
288166,-76.63652,4,1,0,100,0,0
288230,-75.5833,4,1,0,100,0,0
288294,-74.53305,4,1,0,100,0,0
288358,-73.488945,4,1,0,100,0,0
288422,-72.453476,4,1,0,100,0,0
288486,-71.42857,4,1,0,100,0,0
288491,-71.4285714285714,4,1,0,100,0,0
288743,-83.33333,4,1,0,100,0,0
288744,-83.32855,4,1,0,100,0,0
288748,-83.3333333333333,4,1,0,100,0,0
288807,-82.636185,4,1,0,100,0,0
288871,-81.74891,4,1,0,100,0,0
288935,-80.786285,4,1,0,100,0,0
288999,-79.780914,4,1,0,100,0,0
289063,-78.75014,4,1,0,100,0,0
289128,-77.68855,4,1,0,100,0,0
289192,-76.63652,4,1,0,100,0,0
289256,-75.5833,4,1,0,100,0,0
289320,-74.53305,4,1,0,100,0,0
289384,-73.488945,4,1,0,100,0,0
289448,-72.453476,4,1,0,100,0,0
289512,-71.42857,4,1,0,100,0,0
289517,-71.4285714285714,4,1,0,100,0,0
289645,-76.9230769230769,4,1,0,100,0,0
289769,-83.33333,4,1,0,100,0,0
289774,-83.3333333333333,4,1,0,100,0,0
289833,-86.05059,4,1,0,100,0,0
289897,-89.8517,4,1,0,100,0,0
289961,-94.48341,4,1,0,100,0,0
290025,-100,4,1,0,100,0,0
290030,-100,4,1,0,100,0,0
290286,-83.3333333333333,4,1,0,100,0,0
290345,-86.05059,4,1,0,100,0,0
290409,-89.8517,4,1,0,100,0,0
290473,-94.48341,4,1,0,100,0,0
290537,-100,4,1,0,100,0,0
290542,-100,4,1,0,100,0,0
290767,-125,4,1,0,80,0,0
291793,-125,4,1,0,100,0,0
291825,-76.9230769230769,4,1,0,100,0,1
295415,-76.9230769230769,4,1,0,100,0,0
295927,-76.9230769230769,4,1,0,100,0,1
299512,-71.42857,4,1,0,100,0,1
299517,-71.4285714285714,4,1,0,100,0,1
299555,-72.13769,4,1,0,100,0,1
299598,-72.67236,4,1,0,100,0,1
299640,-73.14948,4,1,0,100,0,1
299683,-73.61192,4,1,0,100,0,1
299726,-74.05688,4,1,0,100,0,1
299769,-74.48925,4,1,0,100,0,1
299833,-75.11592,4,1,0,100,0,1
299897,-75.72792,4,1,0,100,0,1
299961,-76.32937,4,1,0,100,0,1
300025,-76.92308,4,1,0,100,0,1
300030,-76.9230769230769,4,1,0,100,0,1
303620,-76.9230769230769,4,1,0,100,0,0
304133,-76.9230769230769,4,1,0,100,0,1
307209,256.410256410256,4,1,0,100,1,0
307209,-76.9230769230769,4,1,0,100,0,1
309260,256.410256410256,4,1,0,100,1,0
309260,-76.92308,4,1,0,100,0,1
309319,-76.91732,4,1,0,100,0,1
309383,-76.90004,4,1,0,100,0,1
309447,-76.87126,4,1,0,100,0,1
309511,-76.831,4,1,0,100,0,1
309575,-76.77931,4,1,0,100,0,1
309639,-76.71622,4,1,0,100,0,1
309703,-76.64179,4,1,0,100,0,1
309767,-76.55609,4,1,0,100,0,1
309831,-76.459206,4,1,0,100,0,1
309896,-76.34942,4,1,0,100,0,1
309960,-76.23024,4,1,0,100,0,1
310024,-76.10015,4,1,0,100,0,1
310088,-75.95926,4,1,0,100,0,1
310152,-75.80769,4,1,0,100,0,1
310216,-75.64559,4,1,0,100,0,1
310280,-75.47309,4,1,0,100,0,1
310281,-75.470314,4,1,0,100,0,1
310323,-75.35142,4,1,0,100,0,1
310366,-75.22516,4,1,0,100,0,1
310408,-75.09746,4,1,0,100,0,1
310472,-74.89466,4,1,0,100,0,1
310537,-74.67869,4,1,0,100,0,1
310579,-74.53387,4,1,0,100,0,1
310622,-74.38137,4,1,0,100,0,1
310665,-74.22465,4,1,0,100,0,1
310729,-73.983696,4,1,0,100,0,1
310793,-73.73371,4,1,0,100,0,1
310836,-73.56078,4,1,0,100,0,1
310878,-73.38809,4,1,0,100,0,1
310921,-73.20746,4,1,0,100,0,1
310985,-72.93161,4,1,0,100,0,1
311049,-72.647545,4,1,0,100,0,1
311092,-72.45218,4,1,0,100,0,1
311135,-72.25327,4,1,0,100,0,1
311178,-72.0509,4,1,0,100,0,1
311242,-71.7434,4,1,0,100,0,1
311278,-71.7434,4,1,0,80,0,1
311311,256.410256410256,69,1,0,80,1,0
311311,-71.42857,69,1,0,80,0,0
311391,-73.909935,69,1,0,81,0,0
311476,-75.86303,69,1,0,81,0,0
311562,-77.73304,69,1,0,82,0,0
311647,-79.54296,69,1,0,83,0,0
311733,-81.36501,69,1,0,83,0,0
311818,-83.17354,69,1,0,84,0,0
311904,-85.022514,69,1,0,85,0,0
311989,-86.87734,69,1,0,85,0,0
312075,-88.78853,69,1,0,86,0,0
312160,-90.7175,69,1,0,87,0,0
312246,-92.715004,69,1,0,87,0,0
312331,-94.739586,69,1,0,88,0,0
312417,-96.84378,69,1,0,89,0,0
312502,-98.98343,69,1,0,89,0,0
312588,-101.21378,69,1,0,90,0,0
312673,-103.48797,69,1,0,91,0,0
312758,-105.8366,69,1,0,91,0,0
312844,-108.29411,69,1,0,92,0,0
312929,-110.809006,69,1,0,93,0,0
313015,-113.44662,69,1,0,93,0,0
313100,-116.15204,69,1,0,94,0,0
313357,-124.99999,69,1,0,96,0,0
313362,-124.999995625,69,1,0,100,0,0
313618,-124.999995625,69,1,0,100,0,0
313741,-102.74351,69,1,0,99,0,0
313806,-92.27926,69,1,0,100,0,0
313875,512.820512820513,69,1,0,100,1,0
313875,-35.714283,69,1,0,100,0,0
313939,-35.714283,69,1,0,20,0,0
319130,-35.714283,69,1,0,60,0,0
319195,512.820512820513,69,1,0,60,1,0
319195,-35.7142857142857,69,1,0,60,0,0

[HitObjects]
288,160,3157,5,8,0:0:0:0:
224,160,4289,1,0,0:0:0:0:
224,160,6340,1,0,0:0:0:0:
288,160,7263,1,8,0:0:0:0:
224,160,8149,1,0,0:0:0:0:
224,160,9798,1,0,0:0:0:0:
288,160,10572,1,8,0:0:0:0:
224,160,11329,1,0,0:0:0:0:
224,160,12747,1,0,0:0:0:0:
288,160,13417,1,8,0:0:0:0:
224,160,14071,1,0,0:0:0:0:
224,160,15345,1,0,0:0:0:0:
288,160,15954,1,8,0:0:0:0:
224,160,16404,1,0,0:0:0:0:
224,160,16554,1,0,0:0:0:0:
224,160,17454,1,0,0:0:0:0:
224,160,17604,1,0,0:0:0:0:
288,160,17754,1,8,0:0:0:0:
224,160,18054,1,0,0:0:0:0:
288,160,18354,1,8,0:0:0:0:
288,160,18804,1,8,0:0:0:0:
224,160,18954,1,0,0:0:0:0:
224,160,19854,1,0,0:0:0:0:
224,160,20004,1,0,0:0:0:0:
288,160,20154,1,8,0:0:0:0:
224,160,20454,1,0,0:0:0:0:
288,160,20754,1,8,0:0:0:0:
288,160,21204,1,8,0:0:0:0:
288,160,21354,1,8,0:0:0:0:
224,160,22254,1,0,0:0:0:0:
224,160,22404,1,0,0:0:0:0:
288,160,22554,1,8,0:0:0:0:
288,160,22854,1,8,0:0:0:0:
224,160,23154,1,0,0:0:0:0:
224,160,23604,1,0,0:0:0:0:
288,160,23754,1,8,0:0:0:0:
288,160,24204,1,8,0:0:0:0:
288,160,24354,1,8,0:0:0:0:
288,160,24954,1,8,0:0:0:0:
224,160,25254,1,0,0:0:0:0:
224,160,25404,1,0,0:0:0:0:
288,160,25554,1,8,0:0:0:0:
224,160,26004,1,0,0:0:0:0:
288,160,26154,1,8,0:0:0:0:
288,160,27054,1,8,0:0:0:0:
224,160,27204,1,0,0:0:0:0:
288,160,27354,1,8,0:0:0:0:
288,160,27654,1,8,0:0:0:0:
224,160,27954,1,0,0:0:0:0:
288,160,28404,1,8,0:0:0:0:
288,160,28554,1,8,0:0:0:0:
224,160,29454,1,0,0:0:0:0:
224,160,29604,1,0,0:0:0:0:
288,160,29754,1,8,0:0:0:0:
288,160,30054,1,8,0:0:0:0:
224,160,30354,1,0,0:0:0:0:
288,160,30804,1,8,0:0:0:0:
288,160,30967,1,8,0:0:0:0:
224,160,31627,1,0,0:0:0:0:
288,160,31984,1,8,0:0:0:0:
288,160,32162,1,8,0:0:0:0:
224,160,32341,1,0,0:0:0:0:
224,160,32741,1,0,0:0:0:0:
288,160,33154,1,8,0:0:0:0:
288,160,33810,1,8,0:0:0:0:
288,160,34030,1,8,0:0:0:0:
224,160,36056,1,0,0:0:0:0:
288,160,36136,1,8,0:0:0:0:
288,160,38625,1,8,0:0:0:0:
224,160,38825,1,0,0:0:0:0:
288,160,38994,1,8,0:0:0:0:
288,160,39136,1,8,0:0:0:0:
224,160,39283,1,0,0:0:0:0:
224,160,39412,1,0,0:0:0:0:
288,160,39541,1,8,0:0:0:0:
224,160,39670,1,0,0:0:0:0:
288,160,39800,1,8,0:0:0:0:
288,160,39921,1,8,0:0:0:0:
224,160,40087,1,0,0:0:0:0:
288,160,40504,1,8,0:0:0:0:
224,224,41005,1,4,0:0:0:0:
224,224,45556,1,4,0:0:0:0:
224,224,49775,1,4,0:0:0:0:
288,160,50800,1,8,0:0:0:0:
224,160,51569,1,0,0:0:0:0:
224,160,52339,1,0,0:0:0:0:
224,160,52467,1,0,0:0:0:0:
288,160,52851,1,8,0:0:0:0:
288,160,53364,1,8,0:0:0:0:
288,160,53621,1,8,0:0:0:0:
224,160,53877,1,0,0:0:0:0:
224,160,54005,1,0,0:0:0:0:
224,160,54390,1,0,0:0:0:0:
288,160,54903,1,8,0:0:0:0:
224,160,55672,1,0,0:0:0:0:
224,160,55800,1,0,0:0:0:0:
224,160,56441,1,0,0:0:0:0:
288,160,56569,1,8,0:0:0:0:
224,160,56698,1,0,0:0:0:0:
224,160,56826,1,0,0:0:0:0:
288,160,56954,1,8,0:0:0:0:
288,160,57467,1,8,0:0:0:0:
224,160,57980,1,0,0:0:0:0:
224,160,58108,1,0,0:0:0:0:
288,160,59005,1,8,0:0:0:0:
224,160,59775,1,0,0:0:0:0:
224,160,59903,1,0,0:0:0:0:
224,160,60544,1,0,0:0:0:0:
224,160,60672,1,0,0:0:0:0:
288,160,61057,1,8,0:0:0:0:
288,160,61569,1,8,0:0:0:0:
224,160,62082,1,0,0:0:0:0:
288,160,62210,1,8,0:0:0:0:
224,160,62339,1,0,0:0:0:0:
224,160,62595,1,0,0:0:0:0:
288,160,63108,1,8,0:0:0:0:
224,160,63877,1,0,0:0:0:0:
224,160,64133,1,0,0:0:0:0:
224,160,64646,1,0,0:0:0:0:
224,160,64775,1,0,0:0:0:0:
288,160,64903,1,8,0:0:0:0:
224,160,65031,1,0,0:0:0:0:
288,160,65159,1,8,0:0:0:0:
288,160,65672,1,8,0:0:0:0:
288,224,66185,1,12,0:0:0:0:
288,224,66313,1,12,0:0:0:0:
288,224,66569,1,12,0:0:0:0:
288,224,66697,1,12,0:0:0:0:
288,224,66954,1,12,0:0:0:0:
288,224,67082,1,12,0:0:0:0:
224,160,67210,1,0,0:0:0:0:
224,160,67296,1,0,0:0:0:0:
224,160,67381,1,0,0:0:0:0:
288,160,67467,1,8,0:0:0:0:
224,160,67637,1,0,0:0:0:0:
288,160,67723,1,8,0:0:0:0:
224,160,67808,1,0,0:0:0:0:
224,160,67894,1,0,0:0:0:0:
288,160,67979,1,8,0:0:0:0:
288,160,68065,1,8,0:0:0:0:
288,160,68150,1,8,0:0:0:0:
224,224,68236,1,4,0:0:0:0:
224,224,68364,1,4,0:0:0:0:
224,224,68620,1,4,0:0:0:0:
224,224,68749,1,4,0:0:0:0:
224,224,69005,1,4,0:0:0:0:
224,224,69133,1,4,0:0:0:0:
288,160,69261,1,8,0:0:0:0:
224,160,69347,1,0,0:0:0:0:
224,160,69432,1,0,0:0:0:0:
288,160,69518,1,8,0:0:0:0:
224,160,69689,1,0,0:0:0:0:
288,160,69774,1,8,0:0:0:0:
288,160,69860,1,8,0:0:0:0:
224,160,69945,1,0,0:0:0:0:
288,160,70031,1,8,0:0:0:0:
224,160,70116,1,0,0:0:0:0:
224,160,70202,1,0,0:0:0:0:
288,224,70287,1,12,0:0:0:0:
224,224,70415,1,4,0:0:0:0:
288,224,70672,1,12,0:0:0:0:
224,224,70800,1,4,0:0:0:0:
288,224,71056,1,12,0:0:0:0:
224,224,71184,1,4,0:0:0:0:
288,160,71313,1,8,0:0:0:0:
288,160,71398,1,8,0:0:0:0:
224,160,71484,1,0,0:0:0:0:
288,160,71569,1,8,0:0:0:0:
288,160,71655,1,8,0:0:0:0:
288,160,71740,1,8,0:0:0:0:
224,160,71826,1,0,0:0:0:0:
288,160,71911,1,8,0:0:0:0:
288,160,71996,1,8,0:0:0:0:
224,160,72082,1,0,0:0:0:0:
288,160,72167,1,8,0:0:0:0:
288,160,72253,1,8,0:0:0:0:
224,224,72338,1,4,0:0:0:0:
288,224,72467,1,12,0:0:0:0:
224,224,72723,1,4,0:0:0:0:
288,224,72851,1,12,0:0:0:0:
224,224,73108,1,4,0:0:0:0:
288,224,73236,1,12,0:0:0:0:
224,224,73492,1,4,0:0:0:0:
288,224,73620,1,12,0:0:0:0:
224,224,73877,1,4,0:0:0:0:
288,160,74005,1,8,0:0:0:0:
224,160,74069,1,0,0:0:0:0:
288,160,74197,1,8,0:0:0:0:
224,160,74261,1,0,0:0:0:0:
288,224,74390,1,12,0:0:0:0:
224,160,74518,1,0,0:0:0:0:
288,160,74646,1,8,0:0:0:0:
224,160,74774,1,0,0:0:0:0:
288,160,74902,1,8,0:0:0:0:
224,160,75031,1,0,0:0:0:0:
288,160,75159,1,8,0:0:0:0:
224,160,75287,1,0,0:0:0:0:
288,160,75415,1,8,0:0:0:0:
224,160,75543,1,0,0:0:0:0:
288,160,75672,1,8,0:0:0:0:
224,160,75800,1,0,0:0:0:0:
288,160,75928,1,8,0:0:0:0:
288,160,76014,1,8,0:0:0:0:
224,160,76099,1,0,0:0:0:0:
288,160,76184,1,8,0:0:0:0:
224,160,76270,1,0,0:0:0:0:
224,160,76355,1,0,0:0:0:0:
288,160,76441,1,8,0:0:0:0:
224,160,76569,1,0,0:0:0:0:
288,160,76697,1,8,0:0:0:0:
224,160,76826,1,0,0:0:0:0:
288,160,76954,1,8,0:0:0:0:
224,160,77082,1,0,0:0:0:0:
288,160,77210,1,8,0:0:0:0:
224,160,77338,1,0,0:0:0:0:
288,160,77467,1,8,0:0:0:0:
224,160,77595,1,0,0:0:0:0:
288,160,77723,1,8,0:0:0:0:
224,160,77851,1,0,0:0:0:0:
288,160,77979,1,8,0:0:0:0:
224,160,78065,1,0,0:0:0:0:
224,160,78150,1,0,0:0:0:0:
288,160,78236,1,8,0:0:0:0:
224,160,78321,1,0,0:0:0:0:
224,160,78407,1,0,0:0:0:0:
288,160,78492,1,8,0:0:0:0:
224,160,78556,1,0,0:0:0:0:
224,160,78620,1,0,0:0:0:0:
224,160,78684,1,0,0:0:0:0:
288,160,78749,1,8,0:0:0:0:
288,160,78813,1,8,0:0:0:0:
224,160,78877,1,0,0:0:0:0:
224,160,78941,1,0,0:0:0:0:
288,160,79005,1,8,0:0:0:0:
224,160,79069,1,0,0:0:0:0:
288,160,79133,1,8,0:0:0:0:
288,160,79197,1,8,0:0:0:0:
224,160,79261,1,0,0:0:0:0:
288,160,79518,1,8,0:0:0:0:
224,160,79582,1,0,0:0:0:0:
288,160,79646,1,8,0:0:0:0:
288,160,79710,1,8,0:0:0:0:
224,160,79774,1,0,0:0:0:0:
288,160,79838,1,8,0:0:0:0:
224,160,79902,1,0,0:0:0:0:
224,160,79967,1,0,0:0:0:0:
288,160,80031,1,8,0:0:0:0:
288,160,80095,1,8,0:0:0:0:
288,160,80159,1,8,0:0:0:0:
288,160,80223,1,8,0:0:0:0:
224,160,80287,1,0,0:0:0:0:
288,160,80543,1,8,0:0:0:0:
288,160,80608,1,8,0:0:0:0:
288,160,80672,1,8,0:0:0:0:
288,160,80736,1,8,0:0:0:0:
224,160,80800,1,0,0:0:0:0:
288,160,81056,1,8,0:0:0:0:
224,160,81120,1,0,0:0:0:0:
288,160,81184,1,8,0:0:0:0:
288,160,81249,1,8,0:0:0:0:
224,160,81313,1,0,0:0:0:0:
288,160,81569,1,8,0:0:0:0:
224,160,81633,1,0,0:0:0:0:
224,160,81697,1,0,0:0:0:0:
288,160,81761,1,8,0:0:0:0:
224,160,81826,1,0,0:0:0:0:
224,160,81890,1,0,0:0:0:0:
288,160,81954,1,8,0:0:0:0:
224,160,82018,1,0,0:0:0:0:
288,160,82082,1,8,0:0:0:0:
224,160,82146,1,0,0:0:0:0:
224,160,82210,1,0,0:0:0:0:
288,160,82274,1,8,0:0:0:0:
224,160,82338,1,0,0:0:0:0:
224,160,82402,1,0,0:0:0:0:
288,160,82467,1,8,0:0:0:0:
224,160,82531,1,0,0:0:0:0:
288,160,82595,1,8,0:0:0:0:
256,192,84133,8,8,84518,0:0:0:0:
224,224,84646,5,4,0:0:0:0:
288,160,84774,1,8,0:0:0:0:
224,160,84816,1,0,0:0:0:0:
224,160,84859,1,0,0:0:0:0:
288,160,84902,1,8,0:0:0:0:
224,160,85030,1,0,0:0:0:0:
288,160,85158,1,8,0:0:0:0:
288,160,85222,1,8,0:0:0:0:
288,160,85287,1,8,0:0:0:0:
224,160,85351,1,0,0:0:0:0:
288,160,85415,1,8,0:0:0:0:
288,160,85479,1,8,0:0:0:0:
224,160,85543,1,0,0:0:0:0:
224,160,85607,1,0,0:0:0:0:
288,160,85671,1,8,0:0:0:0:
224,160,85735,1,0,0:0:0:0:
288,160,85799,1,8,0:0:0:0:
288,160,85863,1,8,0:0:0:0:
224,160,85928,1,0,0:0:0:0:
224,160,86056,1,0,0:0:0:0:
288,160,86184,1,8,0:0:0:0:
224,160,86248,1,0,0:0:0:0:
224,160,86312,1,0,0:0:0:0:
224,160,86376,1,0,0:0:0:0:
288,160,86440,1,8,0:0:0:0:
288,160,86504,1,8,0:0:0:0:
288,160,86569,1,8,0:0:0:0:
288,160,86633,1,8,0:0:0:0:
224,160,86697,1,0,0:0:0:0:
288,160,86761,1,8,0:0:0:0:
224,160,86825,1,0,0:0:0:0:
224,160,86889,1,0,0:0:0:0:
288,160,86953,1,8,0:0:0:0:
224,160,87081,1,0,0:0:0:0:
288,160,87210,1,8,0:0:0:0:
224,160,87274,1,0,0:0:0:0:
224,160,87338,1,0,0:0:0:0:
224,160,87402,1,0,0:0:0:0:
288,160,87466,1,8,0:0:0:0:
288,160,87530,1,8,0:0:0:0:
224,160,87594,1,0,0:0:0:0:
224,160,87658,1,0,0:0:0:0:
288,160,87722,1,8,0:0:0:0:
224,160,87765,1,0,0:0:0:0:
224,160,87808,1,0,0:0:0:0:
288,160,87851,1,8,0:0:0:0:
288,160,87915,1,8,0:0:0:0:
224,160,87979,1,0,0:0:0:0:
288,160,88043,1,8,0:0:0:0:
224,160,88107,1,0,0:0:0:0:
288,160,88235,1,8,0:0:0:0:
288,160,88299,1,8,0:0:0:0:
224,160,88363,1,0,0:0:0:0:
224,160,88428,1,0,0:0:0:0:
288,160,88556,1,8,0:0:0:0:
224,160,88620,1,0,0:0:0:0:
224,160,88684,1,0,0:0:0:0:
288,160,88748,1,8,0:0:0:0:
224,160,88876,1,0,0:0:0:0:
224,160,88940,1,0,0:0:0:0:
288,160,89004,1,8,0:0:0:0:
224,160,89133,1,0,0:0:0:0:
288,160,89261,1,8,0:0:0:0:
288,160,89325,1,8,0:0:0:0:
288,160,89389,1,8,0:0:0:0:
224,160,89453,1,0,0:0:0:0:
288,160,89517,1,8,0:0:0:0:
224,160,89581,1,0,0:0:0:0:
288,160,89645,1,8,0:0:0:0:
288,160,89710,1,8,0:0:0:0:
224,160,89774,1,0,0:0:0:0:
288,160,89838,1,8,0:0:0:0:
224,160,89902,1,0,0:0:0:0:
224,160,89966,1,0,0:0:0:0:
288,160,90030,1,8,0:0:0:0:
224,160,90158,1,0,0:0:0:0:
288,160,90287,1,8,0:0:0:0:
224,160,90351,1,0,0:0:0:0:
224,160,90415,1,0,0:0:0:0:
224,160,90479,1,0,0:0:0:0:
288,160,90543,1,8,0:0:0:0:
288,160,90607,1,8,0:0:0:0:
224,160,90671,1,0,0:0:0:0:
224,160,90735,1,0,0:0:0:0:
288,160,90799,1,8,0:0:0:0:
224,160,90863,1,0,0:0:0:0:
288,160,90928,1,8,0:0:0:0:
288,160,90992,1,8,0:0:0:0:
224,160,91056,1,0,0:0:0:0:
288,160,91120,1,8,0:0:0:0:
288,160,91184,1,8,0:0:0:0:
288,160,91312,1,8,0:0:0:0:
224,160,91376,1,0,0:0:0:0:
224,160,91440,1,0,0:0:0:0:
288,160,91504,1,8,0:0:0:0:
224,160,91569,1,0,0:0:0:0:
224,160,91633,1,0,0:0:0:0:
288,160,91697,1,8,0:0:0:0:
224,160,91825,1,0,0:0:0:0:
224,160,91889,1,0,0:0:0:0:
288,160,91953,1,8,0:0:0:0:
224,160,92017,1,0,0:0:0:0:
224,160,92081,1,0,0:0:0:0:
288,160,92210,1,8,0:0:0:0:
288,160,92252,1,8,0:0:0:0:
288,160,92295,1,8,0:0:0:0:
224,160,92338,1,0,0:0:0:0:
224,160,92402,1,0,0:0:0:0:
288,160,92466,1,8,0:0:0:0:
288,160,92509,1,8,0:0:0:0:
288,160,92551,1,8,0:0:0:0:
224,160,92594,1,0,0:0:0:0:
288,160,92722,1,8,0:0:0:0:
224,224,92851,1,4,0:0:0:0:
288,160,92979,1,8,0:0:0:0:
224,160,93043,1,0,0:0:0:0:
288,160,93107,1,8,0:0:0:0:
224,160,93235,1,0,0:0:0:0:
224,160,93299,1,0,0:0:0:0:
288,160,93363,1,8,0:0:0:0:
288,160,93428,1,8,0:0:0:0:
224,160,93492,1,0,0:0:0:0:
224,160,93556,1,0,0:0:0:0:
288,160,93620,1,8,0:0:0:0:
288,160,93663,1,8,0:0:0:0:
288,160,93705,1,8,0:0:0:0:
224,160,93748,1,0,0:0:0:0:
224,160,93812,1,0,0:0:0:0:
288,160,93876,1,8,0:0:0:0:
288,160,93940,1,8,0:0:0:0:
224,160,94004,1,0,0:0:0:0:
224,160,94133,1,0,0:0:0:0:
288,160,94261,1,8,0:0:0:0:
224,160,94389,1,0,0:0:0:0:
288,160,94453,1,8,0:0:0:0:
224,160,94517,1,0,0:0:0:0:
224,160,94581,1,0,0:0:0:0:
288,160,94645,1,8,0:0:0:0:
288,160,94710,1,8,0:0:0:0:
288,160,94774,1,8,0:0:0:0:
288,160,94838,1,8,0:0:0:0:
224,160,94902,1,0,0:0:0:0:
288,160,94945,1,8,0:0:0:0:
288,160,94987,1,8,0:0:0:0:
224,160,95030,1,0,0:0:0:0:
224,160,95094,1,0,0:0:0:0:
288,160,95158,1,8,0:0:0:0:
224,160,95287,1,0,0:0:0:0:
288,160,95415,1,8,0:0:0:0:
288,160,95479,1,8,0:0:0:0:
288,160,95543,1,8,0:0:0:0:
224,160,95607,1,0,0:0:0:0:
288,160,95671,1,8,0:0:0:0:
224,160,95735,1,0,0:0:0:0:
224,160,95799,1,0,0:0:0:0:
224,160,95863,1,0,0:0:0:0:
288,160,95928,1,8,0:0:0:0:
288,160,95992,1,8,0:0:0:0:
224,160,96056,1,0,0:0:0:0:
224,160,96098,1,0,0:0:0:0:
224,160,96141,1,0,0:0:0:0:
288,160,96184,1,8,0:0:0:0:
288,160,96248,1,8,0:0:0:0:
224,160,96312,1,0,0:0:0:0:
224,160,96376,1,0,0:0:0:0:
288,160,96440,1,8,0:0:0:0:
224,160,96504,1,0,0:0:0:0:
224,160,96569,1,0,0:0:0:0:
288,160,96633,1,8,0:0:0:0:
224,160,96697,1,0,0:0:0:0:
224,160,96761,1,0,0:0:0:0:
288,160,96825,1,8,0:0:0:0:
288,160,96953,1,8,0:0:0:0:
224,160,97017,1,0,0:0:0:0:
224,160,97081,1,0,0:0:0:0:
224,160,97145,1,0,0:0:0:0:
288,160,97210,1,8,0:0:0:0:
288,160,97274,1,8,0:0:0:0:
224,160,97338,1,0,0:0:0:0:
224,160,97402,1,0,0:0:0:0:
288,160,97466,1,8,0:0:0:0:
224,160,97530,1,0,0:0:0:0:
288,160,97594,1,8,0:0:0:0:
288,160,97658,1,8,0:0:0:0:
224,160,97722,1,0,0:0:0:0:
224,160,97851,1,0,0:0:0:0:
288,160,97979,1,8,0:0:0:0:
224,160,98043,1,0,0:0:0:0:
288,160,98107,1,8,0:0:0:0:
288,160,98171,1,8,0:0:0:0:
224,160,98235,1,0,0:0:0:0:
288,160,98299,1,8,0:0:0:0:
224,160,98363,1,0,0:0:0:0:
224,160,98428,1,0,0:0:0:0:
288,160,98492,1,8,0:0:0:0:
288,160,98556,1,8,0:0:0:0:
288,160,98620,1,8,0:0:0:0:
288,160,98684,1,8,0:0:0:0:
224,160,98748,1,0,0:0:0:0:
224,160,98876,1,0,0:0:0:0:
288,160,99004,1,8,0:0:0:0:
288,160,99069,1,8,0:0:0:0:
288,160,99133,1,8,0:0:0:0:
288,160,99197,1,8,0:0:0:0:
224,160,99261,1,0,0:0:0:0:
224,160,99325,1,0,0:0:0:0:
288,160,99389,1,8,0:0:0:0:
224,160,99453,1,0,0:0:0:0:
288,160,99517,1,8,0:0:0:0:
288,160,99581,1,8,0:0:0:0:
224,160,99645,1,0,0:0:0:0:
224,160,99710,1,0,0:0:0:0:
288,160,99774,1,8,0:0:0:0:
224,160,99838,1,0,0:0:0:0:
224,160,99902,1,0,0:0:0:0:
224,160,99966,1,0,0:0:0:0:
288,160,100030,1,8,0:0:0:0:
288,224,101056,1,12,0:0:0:0:
224,160,101184,1,0,0:0:0:0:
288,160,101312,1,8,0:0:0:0:
224,160,101376,1,0,0:0:0:0:
224,160,101440,1,0,0:0:0:0:
224,160,101504,1,0,0:0:0:0:
288,160,101569,1,8,0:0:0:0:
224,160,101697,1,0,0:0:0:0:
288,160,101825,1,8,0:0:0:0:
288,160,101889,1,8,0:0:0:0:
224,160,101953,1,0,0:0:0:0:
288,160,102081,1,8,0:0:0:0:
224,160,102145,1,0,0:0:0:0:
288,160,102210,1,8,0:0:0:0:
224,160,102338,1,0,0:0:0:0:
224,160,102466,1,0,0:0:0:0:
288,160,102594,1,8,0:0:0:0:
288,160,102658,1,8,0:0:0:0:
224,160,102722,1,0,0:0:0:0:
224,160,102787,1,0,0:0:0:0:
288,160,102851,1,8,0:0:0:0:
224,160,102915,1,0,0:0:0:0:
224,160,102979,1,0,0:0:0:0:
224,160,103043,1,0,0:0:0:0:
288,160,103107,1,8,0:0:0:0:
224,160,103235,1,0,0:0:0:0:
224,160,103299,1,0,0:0:0:0:
224,160,103363,1,0,0:0:0:0:
224,160,103492,1,0,0:0:0:0:
224,160,103556,1,0,0:0:0:0:
288,160,103620,1,8,0:0:0:0:
288,160,103684,1,8,0:0:0:0:
224,160,103748,1,0,0:0:0:0:
288,160,103876,1,8,0:0:0:0:
288,160,103940,1,8,0:0:0:0:
224,160,104004,1,0,0:0:0:0:
288,160,104133,1,8,0:0:0:0:
288,160,104197,1,8,0:0:0:0:
288,160,104261,1,8,0:0:0:0:
224,160,104389,1,0,0:0:0:0:
224,160,104517,1,0,0:0:0:0:
288,160,104645,1,8,0:0:0:0:
288,160,104710,1,8,0:0:0:0:
224,160,104774,1,0,0:0:0:0:
224,160,104838,1,0,0:0:0:0:
288,160,104902,1,8,0:0:0:0:
224,160,104966,1,0,0:0:0:0:
224,160,105030,1,0,0:0:0:0:
224,160,105094,1,0,0:0:0:0:
288,160,105158,1,8,0:0:0:0:
224,160,105287,1,0,0:0:0:0:
224,160,105351,1,0,0:0:0:0:
288,160,105415,1,8,0:0:0:0:
224,160,105479,1,0,0:0:0:0:
224,160,105543,1,0,0:0:0:0:
288,160,105671,1,8,0:0:0:0:
288,160,105735,1,8,0:0:0:0:
224,160,105799,1,0,0:0:0:0:
224,160,105928,1,0,0:0:0:0:
224,160,105992,1,0,0:0:0:0:
224,160,106056,1,0,0:0:0:0:
224,160,106120,1,0,0:0:0:0:
288,160,106184,1,8,0:0:0:0:
288,160,106312,1,8,0:0:0:0:
224,160,106440,1,0,0:0:0:0:
224,160,106569,1,0,0:0:0:0:
288,160,106697,1,8,0:0:0:0:
288,160,106761,1,8,0:0:0:0:
224,160,106825,1,0,0:0:0:0:
224,160,106889,1,0,0:0:0:0:
288,160,106953,1,8,0:0:0:0:
224,160,107017,1,0,0:0:0:0:
224,160,107081,1,0,0:0:0:0:
224,160,107145,1,0,0:0:0:0:
288,160,107210,1,8,0:0:0:0:
224,160,107338,1,0,0:0:0:0:
288,160,107466,1,8,0:0:0:0:
224,160,107530,1,0,0:0:0:0:
224,160,107594,1,0,0:0:0:0:
224,160,107658,1,0,0:0:0:0:
288,160,107722,1,8,0:0:0:0:
224,160,107851,1,0,0:0:0:0:
288,160,107979,1,8,0:0:0:0:
288,160,108043,1,8,0:0:0:0:
224,160,108107,1,0,0:0:0:0:
288,160,108235,1,8,0:0:0:0:
224,160,108299,1,0,0:0:0:0:
288,160,108363,1,8,0:0:0:0:
224,160,108492,1,0,0:0:0:0:
288,160,108620,1,8,0:0:0:0:
224,160,108684,1,0,0:0:0:0:
288,160,108748,1,8,0:0:0:0:
288,160,108812,1,8,0:0:0:0:
288,160,108876,1,8,0:0:0:0:
288,160,108940,1,8,0:0:0:0:
224,160,109004,1,0,0:0:0:0:
288,224,109261,1,12,0:0:0:0:
224,160,109389,1,0,0:0:0:0:
288,160,109517,1,8,0:0:0:0:
224,160,109581,1,0,0:0:0:0:
224,160,109645,1,0,0:0:0:0:
224,160,109709,1,0,0:0:0:0:
288,160,109774,1,8,0:0:0:0:
224,160,109902,1,0,0:0:0:0:
288,160,110030,1,8,0:0:0:0:
288,160,110094,1,8,0:0:0:0:
224,160,110158,1,0,0:0:0:0:
288,160,110286,1,8,0:0:0:0:
288,160,110351,1,8,0:0:0:0:
288,160,110415,1,8,0:0:0:0:
288,160,110479,1,8,0:0:0:0:
224,160,110543,1,0,0:0:0:0:
224,160,110671,1,0,0:0:0:0:
224,160,110735,1,0,0:0:0:0:
288,160,110799,1,8,0:0:0:0:
288,160,110863,1,8,0:0:0:0:
224,160,110927,1,0,0:0:0:0:
224,160,110992,1,0,0:0:0:0:
288,160,111056,1,8,0:0:0:0:
224,160,111120,1,0,0:0:0:0:
224,160,111184,1,0,0:0:0:0:
224,160,111248,1,0,0:0:0:0:
288,160,111312,1,8,0:0:0:0:
224,160,111440,1,0,0:0:0:0:
224,160,111504,1,0,0:0:0:0:
224,160,111568,1,0,0:0:0:0:
224,160,111697,1,0,0:0:0:0:
224,160,111761,1,0,0:0:0:0:
288,160,111825,1,8,0:0:0:0:
288,160,111889,1,8,0:0:0:0:
224,160,111953,1,0,0:0:0:0:
288,160,112081,1,8,0:0:0:0:
288,160,112145,1,8,0:0:0:0:
224,160,112209,1,0,0:0:0:0:
288,160,112338,1,8,0:0:0:0:
288,160,112402,1,8,0:0:0:0:
288,160,112466,1,8,0:0:0:0:
224,160,112594,1,0,0:0:0:0:
224,160,112722,1,0,0:0:0:0:
224,160,112786,1,0,0:0:0:0:
288,160,112850,1,8,0:0:0:0:
288,160,112915,1,8,0:0:0:0:
288,160,112979,1,8,0:0:0:0:
288,160,113043,1,8,0:0:0:0:
224,160,113107,1,0,0:0:0:0:
224,160,113171,1,0,0:0:0:0:
224,160,113235,1,0,0:0:0:0:
224,160,113299,1,0,0:0:0:0:
288,160,113363,1,8,0:0:0:0:
224,160,113428,1,0,0:0:0:0:
288,160,113492,1,8,0:0:0:0:
224,160,113620,1,0,0:0:0:0:
288,160,113748,1,8,0:0:0:0:
224,160,113812,1,0,0:0:0:0:
288,160,113876,1,8,0:0:0:0:
224,160,114004,1,0,0:0:0:0:
288,160,114133,1,8,0:0:0:0:
288,160,114197,1,8,0:0:0:0:
288,160,114261,1,8,0:0:0:0:
288,160,114325,1,8,0:0:0:0:
224,160,114389,1,0,0:0:0:0:
224,160,114453,1,0,0:0:0:0:
288,160,114517,1,8,0:0:0:0:
224,160,114645,1,0,0:0:0:0:
288,160,114774,1,8,0:0:0:0:
224,160,114902,1,0,0:0:0:0:
224,160,114966,1,0,0:0:0:0:
288,160,115030,1,8,0:0:0:0:
224,160,115094,1,0,0:0:0:0:
288,160,115158,1,8,0:0:0:0:
288,160,115222,1,8,0:0:0:0:
224,160,115287,1,0,0:0:0:0:
288,160,115415,1,8,0:0:0:0:
224,160,115479,1,0,0:0:0:0:
288,160,115543,1,8,0:0:0:0:
288,160,115607,1,8,0:0:0:0:
224,160,115671,1,0,0:0:0:0:
224,160,115735,1,0,0:0:0:0:
288,160,115799,1,8,0:0:0:0:
288,160,115863,1,8,0:0:0:0:
288,160,115928,1,8,0:0:0:0:
288,160,115992,1,8,0:0:0:0:
224,160,116056,1,0,0:0:0:0:
224,160,116120,1,0,0:0:0:0:
288,160,116184,1,8,0:0:0:0:
224,160,116248,1,0,0:0:0:0:
288,160,116312,1,8,0:0:0:0:
288,160,116376,1,8,0:0:0:0:
224,160,116440,1,0,0:0:0:0:
224,160,117466,1,0,0:0:0:0:
288,224,117722,1,12,0:0:0:0:
224,160,117851,1,0,0:0:0:0:
224,160,117915,1,0,0:0:0:0:
288,160,117979,1,8,0:0:0:0:
224,160,118107,1,0,0:0:0:0:
288,160,118235,1,8,0:0:0:0:
288,160,118299,1,8,0:0:0:0:
224,160,118363,1,0,0:0:0:0:
224,160,118428,1,0,0:0:0:0:
288,160,118492,1,8,0:0:0:0:
224,160,118620,1,0,0:0:0:0:
288,160,118748,1,8,0:0:0:0:
224,160,118812,1,0,0:0:0:0:
288,160,118876,1,8,0:0:0:0:
288,160,118940,1,8,0:0:0:0:
224,160,119004,1,0,0:0:0:0:
224,160,119133,1,0,0:0:0:0:
288,160,119261,1,8,0:0:0:0:
224,160,119325,1,0,0:0:0:0:
224,160,119389,1,0,0:0:0:0:
224,160,119453,1,0,0:0:0:0:
288,160,119517,1,8,0:0:0:0:
224,160,119645,1,0,0:0:0:0:
224,160,119710,1,0,0:0:0:0:
224,160,119774,1,0,0:0:0:0:
288,160,119902,1,8,0:0:0:0:
224,160,119966,1,0,0:0:0:0:
288,160,120030,1,8,0:0:0:0:
224,160,120158,1,0,0:0:0:0:
224,160,120287,1,0,0:0:0:0:
288,160,120351,1,8,0:0:0:0:
224,160,120415,1,0,0:0:0:0:
224,160,120479,1,0,0:0:0:0:
288,160,120543,1,8,0:0:0:0:
224,160,120671,1,0,0:0:0:0:
288,160,120799,1,8,0:0:0:0:
224,160,120863,1,0,0:0:0:0:
224,160,120928,1,0,0:0:0:0:
224,160,120992,1,0,0:0:0:0:
288,160,121056,1,8,0:0:0:0:
224,160,121184,1,0,0:0:0:0:
288,160,121312,1,8,0:0:0:0:
224,160,121376,1,0,0:0:0:0:
224,160,121440,1,0,0:0:0:0:
288,160,121569,1,8,0:0:0:0:
224,160,121697,1,0,0:0:0:0:
224,160,121761,1,0,0:0:0:0:
224,160,121825,1,0,0:0:0:0:
288,160,121953,1,8,0:0:0:0:
224,160,122017,1,0,0:0:0:0:
288,160,122081,1,8,0:0:0:0:
224,160,122210,1,0,0:0:0:0:
288,160,122338,1,8,0:0:0:0:
224,160,122402,1,0,0:0:0:0:
288,160,122466,1,8,0:0:0:0:
288,160,122530,1,8,0:0:0:0:
224,160,122594,1,0,0:0:0:0:
224,160,122722,1,0,0:0:0:0:
288,160,122851,1,8,0:0:0:0:
288,160,122915,1,8,0:0:0:0:
224,160,122979,1,0,0:0:0:0:
224,160,123043,1,0,0:0:0:0:
288,160,123107,1,8,0:0:0:0:
224,160,123235,1,0,0:0:0:0:
224,160,123299,1,0,0:0:0:0:
288,160,123363,1,8,0:0:0:0:
224,160,123492,1,0,0:0:0:0:
288,160,123620,1,8,0:0:0:0:
224,160,123684,1,0,0:0:0:0:
224,160,123748,1,0,0:0:0:0:
224,160,123876,1,0,0:0:0:0:
288,160,124004,1,8,0:0:0:0:
224,160,124069,1,0,0:0:0:0:
288,160,124133,1,8,0:0:0:0:
224,160,124261,1,0,0:0:0:0:
224,160,124325,1,0,0:0:0:0:
224,160,124389,1,0,0:0:0:0:
288,160,124517,1,8,0:0:0:0:
288,160,124581,1,8,0:0:0:0:
288,160,124645,1,8,0:0:0:0:
288,160,124774,1,8,0:0:0:0:
224,160,124902,1,0,0:0:0:0:
224,160,124966,1,0,0:0:0:0:
288,160,125030,1,8,0:0:0:0:
224,160,125158,1,0,0:0:0:0:
224,160,125222,1,0,0:0:0:0:
288,160,125287,1,8,0:0:0:0:
224,160,125415,1,0,0:0:0:0:
288,160,125479,1,8,0:0:0:0:
224,160,125543,1,0,0:0:0:0:
224,160,125607,1,0,0:0:0:0:
288,160,125671,1,8,0:0:0:0:
288,160,125799,1,8,0:0:0:0:
224,160,125863,1,0,0:0:0:0:
224,160,125928,1,0,0:0:0:0:
288,160,126056,1,8,0:0:0:0:
224,160,126120,1,0,0:0:0:0:
288,160,126184,1,8,0:0:0:0:
224,160,126312,1,0,0:0:0:0:
288,160,126440,1,8,0:0:0:0:
224,160,126504,1,0,0:0:0:0:
224,160,126569,1,0,0:0:0:0:
224,160,126633,1,0,0:0:0:0:
288,160,126697,1,8,0:0:0:0:
224,160,126825,1,0,0:0:0:0:
288,160,126953,1,8,0:0:0:0:
288,160,127017,1,8,0:0:0:0:
224,160,127081,1,0,0:0:0:0:
224,160,127145,1,0,0:0:0:0:
288,160,127210,1,8,0:0:0:0:
224,160,127338,1,0,0:0:0:0:
224,160,127402,1,0,0:0:0:0:
288,160,127466,1,8,0:0:0:0:
224,160,127594,1,0,0:0:0:0:
288,160,127722,1,8,0:0:0:0:
288,160,127787,1,8,0:0:0:0:
224,160,127851,1,0,0:0:0:0:
224,160,127979,1,0,0:0:0:0:
288,160,128107,1,8,0:0:0:0:
224,160,128171,1,0,0:0:0:0:
288,160,128235,1,8,0:0:0:0:
224,160,128363,1,0,0:0:0:0:
224,160,128428,1,0,0:0:0:0:
288,160,128492,1,8,0:0:0:0:
224,160,128556,1,0,0:0:0:0:
288,160,128620,1,8,0:0:0:0:
288,160,128684,1,8,0:0:0:0:
224,160,128748,1,0,0:0:0:0:
224,160,128876,1,0,0:0:0:0:
288,160,129004,1,8,0:0:0:0:
224,160,129069,1,0,0:0:0:0:
288,160,129133,1,8,0:0:0:0:
224,160,129197,1,0,0:0:0:0:
288,160,129261,1,8,0:0:0:0:
224,160,129389,1,0,0:0:0:0:
288,160,129517,1,8,0:0:0:0:
288,160,129581,1,8,0:0:0:0:
224,160,129645,1,0,0:0:0:0:
288,160,129774,1,8,0:0:0:0:
224,160,129838,1,0,0:0:0:0:
288,160,129902,1,8,0:0:0:0:
224,160,130030,1,0,0:0:0:0:
288,160,130158,1,8,0:0:0:0:
224,160,130222,1,0,0:0:0:0:
288,160,130287,1,8,0:0:0:0:
224,160,130415,1,0,0:0:0:0:
288,160,130543,1,8,0:0:0:0:
224,160,130607,1,0,0:0:0:0:
288,160,130671,1,8,0:0:0:0:
224,160,130799,1,0,0:0:0:0:
224,160,130928,1,0,0:0:0:0:
224,160,130992,1,0,0:0:0:0:
288,160,131056,1,8,0:0:0:0:
224,160,131120,1,0,0:0:0:0:
288,160,131184,1,8,0:0:0:0:
224,160,131248,1,0,0:0:0:0:
288,160,131312,1,8,0:0:0:0:
224,160,131440,1,0,0:0:0:0:
288,160,131569,1,8,0:0:0:0:
288,160,131633,1,8,0:0:0:0:
224,160,131697,1,0,0:0:0:0:
224,160,131761,1,0,0:0:0:0:
288,160,131825,1,8,0:0:0:0:
224,160,131889,1,0,0:0:0:0:
288,160,131953,1,8,0:0:0:0:
288,160,132017,1,8,0:0:0:0:
224,160,132081,1,0,0:0:0:0:
288,160,132210,1,8,0:0:0:0:
224,160,132274,1,0,0:0:0:0:
288,160,132338,1,8,0:0:0:0:
288,160,132402,1,8,0:0:0:0:
224,160,132466,1,0,0:0:0:0:
288,160,132594,1,8,0:0:0:0:
224,160,132658,1,0,0:0:0:0:
288,160,132722,1,8,0:0:0:0:
288,160,132787,1,8,0:0:0:0:
224,160,132851,1,0,0:0:0:0:
288,160,132936,1,8,0:0:0:0:
288,160,133022,1,8,0:0:0:0:
224,160,133107,1,0,0:0:0:0:
224,160,133193,1,0,0:0:0:0:
224,160,133278,1,0,0:0:0:0:
288,160,133363,1,8,0:0:0:0:
288,160,133534,1,8,0:0:0:0:
288,160,133705,1,8,0:0:0:0:
224,224,133876,1,4,0:0:0:0:
288,160,134901,1,8,0:0:0:0:
224,160,135670,1,0,0:0:0:0:
224,160,136440,1,0,0:0:0:0:
224,160,136568,1,0,0:0:0:0:
288,160,136952,1,8,0:0:0:0:
288,160,137465,1,8,0:0:0:0:
224,160,137978,1,0,0:0:0:0:
224,160,138106,1,0,0:0:0:0:
224,160,138491,1,0,0:0:0:0:
288,160,139004,1,8,0:0:0:0:
224,160,139773,1,0,0:0:0:0:
224,160,139901,1,0,0:0:0:0:
224,160,140542,1,0,0:0:0:0:
224,160,140670,1,0,0:0:0:0:
224,160,140799,1,0,0:0:0:0:
224,160,140927,1,0,0:0:0:0:
288,160,141055,1,8,0:0:0:0:
224,160,141311,1,0,0:0:0:0:
224,160,141440,1,0,0:0:0:0:
288,160,141568,1,8,0:0:0:0:
288,160,141824,1,8,0:0:0:0:
288,160,141952,1,8,0:0:0:0:
224,224,142081,1,4,0:0:0:0:
224,160,142337,1,0,0:0:0:0:
224,160,142593,1,0,0:0:0:0:
224,160,142850,1,0,0:0:0:0:
224,160,143106,1,0,0:0:0:0:
224,160,143363,1,0,0:0:0:0:
288,160,143619,1,8,0:0:0:0:
224,160,143704,1,0,0:0:0:0:
224,160,143790,1,0,0:0:0:0:
288,160,143875,1,8,0:0:0:0:
224,160,143961,1,0,0:0:0:0:
224,160,144046,1,0,0:0:0:0:
288,160,144132,1,8,0:0:0:0:
224,160,144388,1,0,0:0:0:0:
224,160,144645,1,0,0:0:0:0:
224,160,144901,1,0,0:0:0:0:
224,160,145157,1,0,0:0:0:0:
224,160,145414,1,0,0:0:0:0:
224,160,145670,1,0,0:0:0:0:
288,160,145756,1,8,0:0:0:0:
288,160,145841,1,8,0:0:0:0:
224,160,145927,1,0,0:0:0:0:
288,160,146012,1,8,0:0:0:0:
288,160,146098,1,8,0:0:0:0:
224,160,146183,1,0,0:0:0:0:
224,160,146439,1,0,0:0:0:0:
224,160,146696,1,0,0:0:0:0:
224,160,146952,1,0,0:0:0:0:
224,160,147209,1,0,0:0:0:0:
224,160,147465,1,0,0:0:0:0:
224,160,147722,1,0,0:0:0:0:
224,160,147807,1,0,0:0:0:0:
224,160,147892,1,0,0:0:0:0:
288,160,147978,1,8,0:0:0:0:
288,160,148063,1,8,0:0:0:0:
288,160,148149,1,8,0:0:0:0:
224,160,148234,1,0,0:0:0:0:
224,160,148491,1,0,0:0:0:0:
224,160,148747,1,0,0:0:0:0:
224,160,149004,1,0,0:0:0:0:
224,160,149260,1,0,0:0:0:0:
224,160,149516,1,0,0:0:0:0:
288,160,149773,1,8,0:0:0:0:
288,160,149858,1,8,0:0:0:0:
288,160,149944,1,8,0:0:0:0:
224,160,150029,1,0,0:0:0:0:
224,160,150115,1,0,0:0:0:0:
224,160,150200,1,0,0:0:0:0:
288,224,150286,1,12,0:0:0:0:
224,160,150414,1,0,0:0:0:0:
288,160,150542,1,8,0:0:0:0:
224,160,150670,1,0,0:0:0:0:
288,160,150798,1,8,0:0:0:0:
224,160,150927,1,0,0:0:0:0:
288,160,151055,1,8,0:0:0:0:
224,160,151119,1,0,0:0:0:0:
288,160,151183,1,8,0:0:0:0:
224,160,151247,1,0,0:0:0:0:
288,160,151311,1,8,0:0:0:0:
224,160,151439,1,0,0:0:0:0:
288,160,151568,1,8,0:0:0:0:
224,160,151696,1,0,0:0:0:0:
288,160,151824,1,8,0:0:0:0:
224,160,151952,1,0,0:0:0:0:
288,160,152080,1,8,0:0:0:0:
224,160,152145,1,0,0:0:0:0:
288,160,152209,1,8,0:0:0:0:
224,160,152273,1,0,0:0:0:0:
288,160,152337,1,8,0:0:0:0:
224,160,152465,1,0,0:0:0:0:
288,160,152593,1,8,0:0:0:0:
224,160,152722,1,0,0:0:0:0:
288,160,152850,1,8,0:0:0:0:
224,160,152978,1,0,0:0:0:0:
288,160,153106,1,8,0:0:0:0:
224,160,153170,1,0,0:0:0:0:
288,160,153234,1,8,0:0:0:0:
224,160,153298,1,0,0:0:0:0:
288,160,153363,1,8,0:0:0:0:
224,160,153491,1,0,0:0:0:0:
224,160,153555,1,0,0:0:0:0:
288,160,153619,1,8,0:0:0:0:
224,160,153747,1,0,0:0:0:0:
224,160,153811,1,0,0:0:0:0:
288,160,153875,1,8,0:0:0:0:
288,160,153918,1,8,0:0:0:0:
288,160,153961,1,8,0:0:0:0:
224,160,154004,1,0,0:0:0:0:
224,160,154068,1,0,0:0:0:0:
288,160,154132,1,8,0:0:0:0:
224,160,154260,1,0,0:0:0:0:
288,160,154388,1,8,0:0:0:0:
288,160,154452,1,8,0:0:0:0:
224,160,154516,1,0,0:0:0:0:
224,160,154580,1,0,0:0:0:0:
288,160,154645,1,8,0:0:0:0:
224,160,154709,1,0,0:0:0:0:
288,160,154773,1,8,0:0:0:0:
288,160,154837,1,8,0:0:0:0:
224,160,154901,1,0,0:0:0:0:
288,160,154965,1,8,0:0:0:0:
224,160,155029,1,0,0:0:0:0:
224,160,155093,1,0,0:0:0:0:
288,160,155157,1,8,0:0:0:0:
288,160,155414,1,8,0:0:0:0:
224,160,155478,1,0,0:0:0:0:
224,160,155542,1,0,0:0:0:0:
224,160,155606,1,0,0:0:0:0:
288,160,155670,1,8,0:0:0:0:
288,160,155734,1,8,0:0:0:0:
288,160,155798,1,8,0:0:0:0:
224,160,155863,1,0,0:0:0:0:
288,160,155927,1,8,0:0:0:0:
288,160,155991,1,8,0:0:0:0:
224,160,156055,1,0,0:0:0:0:
224,160,156119,1,0,0:0:0:0:
288,160,156183,1,8,0:0:0:0:
288,160,156439,1,8,0:0:0:0:
288,160,156504,1,8,0:0:0:0:
288,160,156568,1,8,0:0:0:0:
288,160,156632,1,8,0:0:0:0:
224,160,156696,1,0,0:0:0:0:
288,160,156952,1,8,0:0:0:0:
288,160,157016,1,8,0:0:0:0:
288,160,157080,1,8,0:0:0:0:
288,160,157145,1,8,0:0:0:0:
224,160,157209,1,0,0:0:0:0:
288,160,157465,1,8,0:0:0:0:
224,160,157529,1,0,0:0:0:0:
224,160,157593,1,0,0:0:0:0:
288,160,157657,1,8,0:0:0:0:
224,160,157722,1,0,0:0:0:0:
224,160,157786,1,0,0:0:0:0:
288,160,157850,1,8,0:0:0:0:
224,160,157914,1,0,0:0:0:0:
288,160,157978,1,8,0:0:0:0:
224,160,158042,1,0,0:0:0:0:
224,160,158106,1,0,0:0:0:0:
288,160,158170,1,8,0:0:0:0:
224,160,158234,1,0,0:0:0:0:
224,160,158298,1,0,0:0:0:0:
288,160,158363,1,8,0:0:0:0:
224,160,158427,1,0,0:0:0:0:
288,160,158491,1,8,0:0:0:0:
224,160,158747,1,0,0:0:0:0:
224,160,158875,1,0,0:0:0:0:
288,160,159004,1,8,0:0:0:0:
224,160,159132,1,0,0:0:0:0:
224,160,159196,1,0,0:0:0:0:
288,160,159260,1,8,0:0:0:0:
224,160,159388,1,0,0:0:0:0:
288,160,159516,1,8,0:0:0:0:
224,160,159580,1,0,0:0:0:0:
288,160,159645,1,8,0:0:0:0:
288,160,159709,1,8,0:0:0:0:
224,160,159773,1,0,0:0:0:0:
224,160,159901,1,0,0:0:0:0:
288,160,160029,1,8,0:0:0:0:
224,160,160093,1,0,0:0:0:0:
288,160,160157,1,8,0:0:0:0:
224,160,160286,1,0,0:0:0:0:
288,160,160350,1,8,0:0:0:0:
224,160,160414,1,0,0:0:0:0:
288,160,160542,1,8,0:0:0:0:
224,160,160606,1,0,0:0:0:0:
288,160,160670,1,8,0:0:0:0:
288,160,160734,1,8,0:0:0:0:
224,160,160798,1,0,0:0:0:0:
288,160,160863,1,8,0:0:0:0:
224,160,160927,1,0,0:0:0:0:
224,160,160991,1,0,0:0:0:0:
288,160,161055,1,8,0:0:0:0:
224,160,161119,1,0,0:0:0:0:
288,160,161183,1,8,0:0:0:0:
288,160,161247,1,8,0:0:0:0:
224,160,161311,1,0,0:0:0:0:
288,160,161375,1,8,0:0:0:0:
224,160,161439,1,0,0:0:0:0:
224,160,161504,1,0,0:0:0:0:
288,160,161568,1,8,0:0:0:0:
224,160,161632,1,0,0:0:0:0:
288,160,161696,1,8,0:0:0:0:
288,160,161760,1,8,0:0:0:0:
224,160,161824,1,0,0:0:0:0:
288,160,161888,1,8,0:0:0:0:
288,160,161952,1,8,0:0:0:0:
288,160,162016,1,8,0:0:0:0:
224,224,162080,1,4,0:0:0:0:
224,224,162273,1,4,0:0:0:0:
224,224,162465,1,4,0:0:0:0:
288,224,162593,1,12,0:0:0:0:
224,160,162722,1,0,0:0:0:0:
224,160,162786,1,0,0:0:0:0:
288,160,162850,1,8,0:0:0:0:
224,160,162978,1,0,0:0:0:0:
288,160,163106,1,8,0:0:0:0:
288,160,163170,1,8,0:0:0:0:
224,160,163234,1,0,0:0:0:0:
224,160,163298,1,0,0:0:0:0:
288,160,163363,1,8,0:0:0:0:
224,160,163491,1,0,0:0:0:0:
288,160,163619,1,8,0:0:0:0:
224,160,163683,1,0,0:0:0:0:
288,160,163747,1,8,0:0:0:0:
288,160,163811,1,8,0:0:0:0:
224,160,163875,1,0,0:0:0:0:
224,160,164004,1,0,0:0:0:0:
288,160,164132,1,8,0:0:0:0:
224,160,164196,1,0,0:0:0:0:
288,160,164260,1,8,0:0:0:0:
288,160,164324,1,8,0:0:0:0:
224,160,164388,1,0,0:0:0:0:
288,160,164452,1,8,0:0:0:0:
288,160,164516,1,8,0:0:0:0:
288,160,164580,1,8,0:0:0:0:
224,160,164645,1,0,0:0:0:0:
288,160,164773,1,8,0:0:0:0:
224,160,164837,1,0,0:0:0:0:
224,160,164901,1,0,0:0:0:0:
288,160,164965,1,8,0:0:0:0:
224,160,165029,1,0,0:0:0:0:
288,160,165157,1,8,0:0:0:0:
288,160,165222,1,8,0:0:0:0:
224,160,165286,1,0,0:0:0:0:
224,160,165350,1,0,0:0:0:0:
288,160,165414,1,8,0:0:0:0:
224,160,165542,1,0,0:0:0:0:
288,160,165670,1,8,0:0:0:0:
224,160,165734,1,0,0:0:0:0:
288,160,165798,1,8,0:0:0:0:
288,160,165863,1,8,0:0:0:0:
224,160,165927,1,0,0:0:0:0:
288,160,166055,1,8,0:0:0:0:
288,160,166119,1,8,0:0:0:0:
224,160,166183,1,0,0:0:0:0:
288,160,166247,1,8,0:0:0:0:
288,160,166311,1,8,0:0:0:0:
288,160,166375,1,8,0:0:0:0:
224,160,166439,1,0,0:0:0:0:
224,160,166504,1,0,0:0:0:0:
224,160,166568,1,0,0:0:0:0:
224,160,166632,1,0,0:0:0:0:
288,160,166696,1,8,0:0:0:0:
288,160,166781,1,8,0:0:0:0:
224,160,166867,1,0,0:0:0:0:
288,160,166952,1,8,0:0:0:0:
224,160,167038,1,0,0:0:0:0:
288,160,167123,1,8,0:0:0:0:
288,160,167209,1,8,0:0:0:0:
288,160,167294,1,8,0:0:0:0:
224,160,167380,1,0,0:0:0:0:
288,160,167465,1,8,0:0:0:0:
224,160,167551,1,0,0:0:0:0:
288,160,167636,1,8,0:0:0:0:
288,160,167722,1,8,0:0:0:0:
224,160,167807,1,0,0:0:0:0:
288,160,167892,1,8,0:0:0:0:
224,160,167978,1,0,0:0:0:0:
288,160,168063,1,8,0:0:0:0:
288,160,168149,1,8,0:0:0:0:
288,160,168234,1,8,0:0:0:0:
224,160,168320,1,0,0:0:0:0:
288,160,168405,1,8,0:0:0:0:
224,160,168491,1,0,0:0:0:0:
288,160,168576,1,8,0:0:0:0:
224,160,168662,1,0,0:0:0:0:
288,160,168747,1,8,0:0:0:0:
288,160,168833,1,8,0:0:0:0:
288,160,168918,1,8,0:0:0:0:
224,160,169004,1,0,0:0:0:0:
288,160,169089,1,8,0:0:0:0:
224,160,169175,1,0,0:0:0:0:
288,160,169260,1,8,0:0:0:0:
288,160,169345,1,8,0:0:0:0:
288,160,169431,1,8,0:0:0:0:
224,160,169516,1,0,0:0:0:0:
288,160,169602,1,8,0:0:0:0:
224,160,169687,1,0,0:0:0:0:
288,160,169773,1,8,0:0:0:0:
224,160,169858,1,0,0:0:0:0:
288,160,169944,1,8,0:0:0:0:
224,160,170029,1,0,0:0:0:0:
288,160,170115,1,8,0:0:0:0:
288,160,170200,1,8,0:0:0:0:
224,160,170286,1,0,0:0:0:0:
288,160,170371,1,8,0:0:0:0:
288,160,170457,1,8,0:0:0:0:
224,160,170542,1,0,0:0:0:0:
288,160,170628,1,8,0:0:0:0:
288,160,170713,1,8,0:0:0:0:
224,224,170798,1,4,0:0:0:0:
224,160,170927,1,0,0:0:0:0:
224,160,170991,1,0,0:0:0:0:
288,160,171055,1,8,0:0:0:0:
224,160,171183,1,0,0:0:0:0:
288,160,171311,1,8,0:0:0:0:
288,160,171375,1,8,0:0:0:0:
224,160,171439,1,0,0:0:0:0:
224,160,171504,1,0,0:0:0:0:
288,160,171568,1,8,0:0:0:0:
224,160,171696,1,0,0:0:0:0:
288,160,171824,1,8,0:0:0:0:
224,160,171888,1,0,0:0:0:0:
288,160,171952,1,8,0:0:0:0:
288,160,172016,1,8,0:0:0:0:
224,160,172080,1,0,0:0:0:0:
288,160,172209,1,8,0:0:0:0:
288,160,172337,1,8,0:0:0:0:
224,160,172401,1,0,0:0:0:0:
288,160,172465,1,8,0:0:0:0:
288,160,172529,1,8,0:0:0:0:
224,160,172593,1,0,0:0:0:0:
288,160,172657,1,8,0:0:0:0:
288,160,172722,1,8,0:0:0:0:
288,160,172786,1,8,0:0:0:0:
224,160,172850,1,0,0:0:0:0:
288,160,172978,1,8,0:0:0:0:
224,160,173042,1,0,0:0:0:0:
224,160,173106,1,0,0:0:0:0:
288,160,173170,1,8,0:0:0:0:
224,160,173234,1,0,0:0:0:0:
288,160,173362,1,8,0:0:0:0:
288,160,173427,1,8,0:0:0:0:
224,160,173491,1,0,0:0:0:0:
224,160,173555,1,0,0:0:0:0:
288,160,173619,1,8,0:0:0:0:
224,160,173747,1,0,0:0:0:0:
288,160,173875,1,8,0:0:0:0:
224,160,173939,1,0,0:0:0:0:
288,160,174003,1,8,0:0:0:0:
288,160,174068,1,8,0:0:0:0:
224,160,174132,1,0,0:0:0:0:
288,160,174260,1,8,0:0:0:0:
288,160,174324,1,8,0:0:0:0:
224,160,174388,1,0,0:0:0:0:
288,160,174452,1,8,0:0:0:0:
288,160,174516,1,8,0:0:0:0:
288,160,174580,1,8,0:0:0:0:
224,160,174644,1,0,0:0:0:0:
224,160,174709,1,0,0:0:0:0:
224,160,174773,1,0,0:0:0:0:
224,160,174837,1,0,0:0:0:0:
288,160,174901,1,8,0:0:0:0:
288,160,174986,1,8,0:0:0:0:
224,160,175072,1,0,0:0:0:0:
288,160,175157,1,8,0:0:0:0:
224,160,175243,1,0,0:0:0:0:
288,160,175328,1,8,0:0:0:0:
288,160,175414,1,8,0:0:0:0:
288,160,175499,1,8,0:0:0:0:
224,160,175585,1,0,0:0:0:0:
288,160,175670,1,8,0:0:0:0:
224,160,175756,1,0,0:0:0:0:
288,160,175841,1,8,0:0:0:0:
288,160,175927,1,8,0:0:0:0:
224,160,176012,1,0,0:0:0:0:
288,160,176098,1,8,0:0:0:0:
224,160,176183,1,0,0:0:0:0:
288,160,176269,1,8,0:0:0:0:
224,160,176354,1,0,0:0:0:0:
288,160,176439,1,8,0:0:0:0:
288,160,176525,1,8,0:0:0:0:
288,160,176610,1,8,0:0:0:0:
224,160,176696,1,0,0:0:0:0:
288,160,176781,1,8,0:0:0:0:
224,160,176867,1,0,0:0:0:0:
288,160,176952,1,8,0:0:0:0:
288,160,177038,1,8,0:0:0:0:
288,160,177123,1,0,0:0:0:0:
288,160,177209,1,8,0:0:0:0:
224,160,177294,1,0,0:0:0:0:
224,160,177380,1,0,0:0:0:0:
288,160,177465,1,8,0:0:0:0:
224,160,177551,1,0,0:0:0:0:
224,160,177636,1,0,0:0:0:0:
288,160,177722,1,8,0:0:0:0:
288,160,177786,1,8,0:0:0:0:
224,160,177850,1,0,0:0:0:0:
224,160,177914,1,0,0:0:0:0:
288,160,177978,1,8,0:0:0:0:
288,224,179004,1,12,0:0:0:0:
224,160,179132,1,0,0:0:0:0:
288,160,179196,1,8,0:0:0:0:
224,160,179260,1,0,0:0:0:0:
224,160,179388,1,0,0:0:0:0:
288,160,179516,1,8,0:0:0:0:
288,160,179580,1,8,0:0:0:0:
224,160,179645,1,0,0:0:0:0:
288,160,179709,1,8,0:0:0:0:
288,160,179773,1,8,0:0:0:0:
224,160,179901,1,0,0:0:0:0:
224,160,179965,1,0,0:0:0:0:
288,160,180029,1,8,0:0:0:0:
224,160,180093,1,0,0:0:0:0:
288,160,180157,1,8,0:0:0:0:
288,160,180222,1,8,0:0:0:0:
224,160,180286,1,0,0:0:0:0:
288,160,180350,1,8,0:0:0:0:
224,160,180414,1,0,0:0:0:0:
288,160,180542,1,8,0:0:0:0:
288,160,180606,1,8,0:0:0:0:
224,160,180670,1,0,0:0:0:0:
224,160,180734,1,0,0:0:0:0:
288,160,180798,1,8,0:0:0:0:
224,160,180863,1,0,0:0:0:0:
288,160,180927,1,8,0:0:0:0:
288,160,180991,1,8,0:0:0:0:
224,160,181055,1,0,0:0:0:0:
288,160,181183,1,8,0:0:0:0:
224,160,181247,1,0,0:0:0:0:
288,160,181311,1,8,0:0:0:0:
224,160,181439,1,0,0:0:0:0:
224,160,181504,1,0,0:0:0:0:
288,160,181568,1,8,0:0:0:0:
224,160,181632,1,0,0:0:0:0:
288,160,181696,1,8,0:0:0:0:
288,160,181760,1,8,0:0:0:0:
224,160,181824,1,0,0:0:0:0:
224,160,181888,1,0,0:0:0:0:
288,160,181952,1,8,0:0:0:0:
224,160,182080,1,0,0:0:0:0:
288,160,182145,1,8,0:0:0:0:
224,160,182209,1,0,0:0:0:0:
224,160,182273,1,0,0:0:0:0:
288,160,182337,1,8,0:0:0:0:
288,160,182401,1,8,0:0:0:0:
288,160,182465,1,8,0:0:0:0:
288,160,182529,1,8,0:0:0:0:
224,160,182593,1,0,0:0:0:0:
288,160,182722,1,8,0:0:0:0:
288,160,182786,1,8,0:0:0:0:
224,160,182850,1,0,0:0:0:0:
224,160,182978,1,0,0:0:0:0:
288,160,183106,1,8,0:0:0:0:
224,160,183170,1,0,0:0:0:0:
288,160,183234,1,8,0:0:0:0:
288,160,183298,1,8,0:0:0:0:
224,160,183363,1,0,0:0:0:0:
224,160,183427,1,0,0:0:0:0:
288,160,183491,1,8,0:0:0:0:
224,160,183555,1,0,0:0:0:0:
288,160,183619,1,8,0:0:0:0:
288,160,183683,1,8,0:0:0:0:
288,160,183747,1,8,0:0:0:0:
288,160,183811,1,8,0:0:0:0:
224,160,183875,1,0,0:0:0:0:
224,160,183939,1,0,0:0:0:0:
288,160,184004,1,8,0:0:0:0:
224,160,184068,1,0,0:0:0:0:
288,160,184132,1,8,0:0:0:0:
224,160,184196,1,0,0:0:0:0:
288,160,184260,1,8,0:0:0:0:
288,160,184324,1,8,0:0:0:0:
224,160,184388,1,0,0:0:0:0:
224,160,184452,1,0,0:0:0:0:
288,160,184516,1,8,0:0:0:0:
224,160,184580,1,0,0:0:0:0:
288,160,184645,1,8,0:0:0:0:
288,160,184709,1,8,0:0:0:0:
288,160,184773,1,8,0:0:0:0:
288,160,184837,1,8,0:0:0:0:
224,160,184901,1,0,0:0:0:0:
224,160,184965,1,0,0:0:0:0:
288,160,185029,1,8,0:0:0:0:
224,160,185093,1,0,0:0:0:0:
288,160,185157,1,8,0:0:0:0:
288,160,185222,1,8,0:0:0:0:
288,160,185286,1,8,0:0:0:0:
288,160,185350,1,8,0:0:0:0:
224,160,185414,1,0,0:0:0:0:
224,160,185478,1,0,0:0:0:0:
288,160,185542,1,8,0:0:0:0:
224,160,185606,1,0,0:0:0:0:
288,160,185670,1,8,0:0:0:0:
288,160,185734,1,8,0:0:0:0:
288,160,185798,1,8,0:0:0:0:
288,160,185863,1,8,0:0:0:0:
224,160,185927,1,0,0:0:0:0:
224,160,185991,1,0,0:0:0:0:
288,160,186055,1,8,0:0:0:0:
224,160,186119,1,0,0:0:0:0:
288,160,186183,1,8,0:0:0:0:
288,160,186247,1,8,0:0:0:0:
288,160,186311,1,8,0:0:0:0:
288,160,186375,1,8,0:0:0:0:
224,160,186439,1,0,0:0:0:0:
224,160,186504,1,0,0:0:0:0:
288,160,186568,1,8,0:0:0:0:
224,160,186632,1,0,0:0:0:0:
288,160,186696,1,8,0:0:0:0:
224,160,186760,1,0,0:0:0:0:
288,160,186824,1,8,0:0:0:0:
288,160,186888,1,8,0:0:0:0:
224,160,186952,1,0,0:0:0:0:
224,160,187016,1,0,0:0:0:0:
224,160,187080,1,0,0:0:0:0:
224,160,187145,1,0,0:0:0:0:
288,224,187209,1,12,0:0:0:0:
224,160,187337,1,0,0:0:0:0:
288,160,187401,1,8,0:0:0:0:
224,160,187465,1,0,0:0:0:0:
224,160,187593,1,0,0:0:0:0:
288,160,187721,1,8,0:0:0:0:
224,160,187786,1,0,0:0:0:0:
288,160,187850,1,8,0:0:0:0:
288,160,187914,1,8,0:0:0:0:
224,160,187978,1,0,0:0:0:0:
224,160,188106,1,0,0:0:0:0:
256,192,188234,8,0,189004,0:0:0:0:
224,224,189260,5,4,0:0:0:0:
288,160,189388,1,8,0:0:0:0:
224,160,189452,1,0,0:0:0:0:
288,160,189516,1,8,0:0:0:0:
224,160,189644,1,0,0:0:0:0:
224,160,189709,1,0,0:0:0:0:
288,160,189773,1,8,0:0:0:0:
224,160,189837,1,0,0:0:0:0:
288,160,189901,1,8,0:0:0:0:
288,160,189965,1,8,0:0:0:0:
224,160,190029,1,0,0:0:0:0:
224,160,190093,1,0,0:0:0:0:
288,160,190157,1,8,0:0:0:0:
256,192,190286,8,0,191055,0:0:0:0:
288,160,191311,5,8,0:0:0:0:
224,160,191375,1,0,0:0:0:0:
288,160,191439,1,8,0:0:0:0:
288,160,191503,1,8,0:0:0:0:
224,160,191568,1,0,0:0:0:0:
224,160,191632,1,0,0:0:0:0:
288,160,191696,1,8,0:0:0:0:
224,160,191760,1,0,0:0:0:0:
288,160,191824,1,8,0:0:0:0:
288,160,191888,1,8,0:0:0:0:
288,160,191952,1,8,0:0:0:0:
288,160,192016,1,8,0:0:0:0:
224,160,192080,1,0,0:0:0:0:
224,160,192144,1,0,0:0:0:0:
288,160,192209,1,8,0:0:0:0:
224,160,192273,1,0,0:0:0:0:
288,160,192337,1,8,0:0:0:0:
224,160,192401,1,0,0:0:0:0:
288,160,192465,1,8,0:0:0:0:
288,160,192529,1,8,0:0:0:0:
224,160,192593,1,0,0:0:0:0:
224,160,192657,1,0,0:0:0:0:
288,160,192721,1,8,0:0:0:0:
224,160,192785,1,0,0:0:0:0:
288,160,192850,1,8,0:0:0:0:
288,160,192914,1,8,0:0:0:0:
288,160,192978,1,8,0:0:0:0:
288,160,193042,1,8,0:0:0:0:
224,160,193106,1,0,0:0:0:0:
224,160,193170,1,0,0:0:0:0:
288,160,193234,1,8,0:0:0:0:
224,160,193298,1,0,0:0:0:0:
288,160,193362,1,8,0:0:0:0:
224,160,193427,1,0,0:0:0:0:
224,160,193491,1,0,0:0:0:0:
288,160,193555,1,8,0:0:0:0:
224,160,193619,1,0,0:0:0:0:
224,160,193683,1,0,0:0:0:0:
288,160,193747,1,8,0:0:0:0:
224,160,193811,1,0,0:0:0:0:
288,160,193875,1,8,0:0:0:0:
224,160,193939,1,0,0:0:0:0:
224,160,194004,1,0,0:0:0:0:
288,160,194068,1,8,0:0:0:0:
224,160,194132,1,0,0:0:0:0:
224,160,194196,1,0,0:0:0:0:
288,160,194260,1,8,0:0:0:0:
224,160,194324,1,0,0:0:0:0:
288,160,194388,1,8,0:0:0:0:
224,160,194452,1,0,0:0:0:0:
288,160,194516,1,8,0:0:0:0:
288,160,194580,1,8,0:0:0:0:
224,160,194645,1,0,0:0:0:0:
288,160,194709,1,8,0:0:0:0:
288,160,194773,1,8,0:0:0:0:
224,160,194837,1,0,0:0:0:0:
288,160,194901,1,8,0:0:0:0:
224,160,194965,1,0,0:0:0:0:
288,160,195029,1,8,0:0:0:0:
288,160,195093,1,8,0:0:0:0:
224,160,195157,1,0,0:0:0:0:
224,160,195221,1,0,0:0:0:0:
224,160,195285,1,0,0:0:0:0:
224,160,195350,1,0,0:0:0:0:
288,224,195414,1,12,0:0:0:0:
224,224,203619,5,4,0:0:0:0:
288,160,204644,1,8,0:0:0:0:
224,160,205414,1,0,0:0:0:0:
288,160,205670,1,8,0:0:0:0:
224,160,206183,1,0,0:0:0:0:
224,160,206311,1,0,0:0:0:0:
288,160,206696,1,8,0:0:0:0:
288,160,207208,1,8,0:0:0:0:
288,160,207465,1,8,0:0:0:0:
224,160,207721,1,0,0:0:0:0:
224,160,207849,1,0,0:0:0:0:
224,160,208234,1,0,0:0:0:0:
288,160,208747,1,8,0:0:0:0:
288,160,209260,1,8,0:0:0:0:
224,160,209516,1,0,0:0:0:0:
224,160,209644,1,0,0:0:0:0:
288,160,209772,1,8,0:0:0:0:
224,160,210285,1,0,0:0:0:0:
224,160,210414,1,0,0:0:0:0:
224,160,210542,1,0,0:0:0:0:
224,160,210670,1,0,0:0:0:0:
288,160,210798,1,8,0:0:0:0:
288,160,211311,1,8,0:0:0:0:
288,160,211567,1,8,0:0:0:0:
224,160,211824,1,0,0:0:0:0:
224,160,211952,1,0,0:0:0:0:
224,160,212080,1,0,0:0:0:0:
288,160,212849,1,8,0:0:0:0:
224,160,213106,1,0,0:0:0:0:
288,160,213362,1,8,0:0:0:0:
288,160,213619,1,8,0:0:0:0:
224,160,213875,1,0,0:0:0:0:
224,160,214388,1,0,0:0:0:0:
224,160,214516,1,0,0:0:0:0:
288,160,214901,1,8,0:0:0:0:
224,160,215414,1,0,0:0:0:0:
224,160,215926,1,0,0:0:0:0:
224,160,216055,1,0,0:0:0:0:
224,160,216439,1,0,0:0:0:0:
288,160,216952,1,8,0:0:0:0:
224,160,217721,1,0,0:0:0:0:
224,160,217849,1,0,0:0:0:0:
288,160,217978,1,8,0:0:0:0:
224,160,218490,1,0,0:0:0:0:
224,160,218619,1,0,0:0:0:0:
224,160,218747,1,0,0:0:0:0:
224,160,218875,1,0,0:0:0:0:
288,160,219003,1,8,0:0:0:0:
288,224,220029,1,12,0:0:0:0:
288,224,220157,1,12,0:0:0:0:
288,224,220413,1,12,0:0:0:0:
288,224,220541,1,12,0:0:0:0:
288,224,220798,1,12,0:0:0:0:
288,224,220926,1,12,0:0:0:0:
224,160,221054,1,0,0:0:0:0:
224,160,221140,1,0,0:0:0:0:
224,160,221225,1,0,0:0:0:0:
288,160,221311,1,8,0:0:0:0:
224,160,221481,1,0,0:0:0:0:
288,160,221567,1,8,0:0:0:0:
224,160,221652,1,0,0:0:0:0:
224,160,221738,1,0,0:0:0:0:
288,160,221823,1,8,0:0:0:0:
288,160,221909,1,8,0:0:0:0:
288,160,221994,1,8,0:0:0:0:
224,224,222080,1,4,0:0:0:0:
224,224,222208,1,4,0:0:0:0:
224,224,222464,1,4,0:0:0:0:
224,224,222593,1,4,0:0:0:0:
224,224,222849,1,4,0:0:0:0:
224,224,222977,1,4,0:0:0:0:
288,160,223105,1,8,0:0:0:0:
224,160,223191,1,0,0:0:0:0:
224,160,223276,1,0,0:0:0:0:
288,160,223362,1,8,0:0:0:0:
224,160,223533,1,0,0:0:0:0:
288,160,223618,1,8,0:0:0:0:
288,160,223704,1,8,0:0:0:0:
224,160,223789,1,0,0:0:0:0:
288,160,223875,1,8,0:0:0:0:
224,160,223960,1,0,0:0:0:0:
224,160,224046,1,0,0:0:0:0:
288,224,224131,1,12,0:0:0:0:
224,224,224259,1,4,0:0:0:0:
288,224,224516,1,12,0:0:0:0:
224,224,224644,1,4,0:0:0:0:
288,224,224900,1,12,0:0:0:0:
224,224,225028,1,4,0:0:0:0:
288,160,225157,1,8,0:0:0:0:
288,160,225242,1,8,0:0:0:0:
224,160,225328,1,0,0:0:0:0:
288,160,225413,1,8,0:0:0:0:
288,160,225499,1,8,0:0:0:0:
288,160,225584,1,8,0:0:0:0:
224,160,225670,1,0,0:0:0:0:
288,160,225755,1,8,0:0:0:0:
288,160,225840,1,8,0:0:0:0:
224,160,225926,1,0,0:0:0:0:
288,160,226011,1,8,0:0:0:0:
288,160,226097,1,8,0:0:0:0:
224,224,226182,1,4,0:0:0:0:
288,224,226311,1,12,0:0:0:0:
224,224,226567,1,4,0:0:0:0:
288,224,226695,1,12,0:0:0:0:
224,224,226952,1,4,0:0:0:0:
288,224,227080,1,12,0:0:0:0:
224,224,227336,1,4,0:0:0:0:
288,224,227464,1,12,0:0:0:0:
224,224,227721,1,4,0:0:0:0:
288,160,227849,1,8,0:0:0:0:
224,160,227913,1,0,0:0:0:0:
288,160,228041,1,8,0:0:0:0:
224,160,228105,1,0,0:0:0:0:
288,224,228234,1,12,0:0:0:0:
224,160,228362,1,0,0:0:0:0:
288,160,228490,1,8,0:0:0:0:
224,160,228618,1,0,0:0:0:0:
288,160,228746,1,8,0:0:0:0:
224,160,228875,1,0,0:0:0:0:
288,160,229003,1,8,0:0:0:0:
224,160,229131,1,0,0:0:0:0:
288,160,229259,1,8,0:0:0:0:
224,160,229387,1,0,0:0:0:0:
288,160,229516,1,8,0:0:0:0:
224,160,229644,1,0,0:0:0:0:
288,160,229772,1,8,0:0:0:0:
288,160,229858,1,8,0:0:0:0:
224,160,229943,1,0,0:0:0:0:
288,160,230028,1,8,0:0:0:0:
224,160,230114,1,0,0:0:0:0:
224,160,230199,1,0,0:0:0:0:
288,160,230285,1,8,0:0:0:0:
224,160,230413,1,0,0:0:0:0:
288,160,230541,1,8,0:0:0:0:
224,160,230670,1,0,0:0:0:0:
288,160,230798,1,8,0:0:0:0:
224,160,230926,1,0,0:0:0:0:
288,160,231054,1,8,0:0:0:0:
224,160,231182,1,0,0:0:0:0:
288,160,231311,1,8,0:0:0:0:
224,160,231439,1,0,0:0:0:0:
288,160,231567,1,8,0:0:0:0:
224,160,231695,1,0,0:0:0:0:
288,160,231823,1,8,0:0:0:0:
224,160,231909,1,0,0:0:0:0:
224,160,231994,1,0,0:0:0:0:
288,160,232080,1,8,0:0:0:0:
224,160,232165,1,0,0:0:0:0:
224,160,232251,1,0,0:0:0:0:
288,160,232336,1,8,0:0:0:0:
224,160,232400,1,0,0:0:0:0:
224,160,232464,1,0,0:0:0:0:
224,160,232528,1,0,0:0:0:0:
288,160,232593,1,8,0:0:0:0:
288,160,232657,1,8,0:0:0:0:
224,160,232721,1,0,0:0:0:0:
224,160,232785,1,0,0:0:0:0:
288,160,232849,1,8,0:0:0:0:
224,160,232913,1,0,0:0:0:0:
288,160,232977,1,8,0:0:0:0:
288,160,233041,1,8,0:0:0:0:
224,160,233105,1,0,0:0:0:0:
288,160,233362,1,8,0:0:0:0:
224,160,233426,1,0,0:0:0:0:
288,160,233490,1,8,0:0:0:0:
288,160,233554,1,8,0:0:0:0:
224,160,233618,1,0,0:0:0:0:
288,160,233682,1,8,0:0:0:0:
224,160,233746,1,0,0:0:0:0:
224,160,233811,1,0,0:0:0:0:
288,160,233875,1,8,0:0:0:0:
288,160,233939,1,8,0:0:0:0:
288,160,234003,1,8,0:0:0:0:
288,160,234067,1,8,0:0:0:0:
224,160,234131,1,0,0:0:0:0:
288,160,234387,1,8,0:0:0:0:
288,160,234452,1,8,0:0:0:0:
288,160,234516,1,8,0:0:0:0:
288,160,234580,1,8,0:0:0:0:
224,160,234644,1,0,0:0:0:0:
288,160,234900,1,8,0:0:0:0:
224,160,234964,1,0,0:0:0:0:
288,160,235028,1,8,0:0:0:0:
288,160,235093,1,8,0:0:0:0:
224,160,235157,1,0,0:0:0:0:
288,160,235413,1,8,0:0:0:0:
224,160,235477,1,0,0:0:0:0:
224,160,235541,1,0,0:0:0:0:
288,160,235605,1,8,0:0:0:0:
224,160,235670,1,0,0:0:0:0:
224,160,235734,1,0,0:0:0:0:
288,160,235798,1,8,0:0:0:0:
224,160,235862,1,0,0:0:0:0:
288,160,235926,1,8,0:0:0:0:
224,160,235990,1,0,0:0:0:0:
224,160,236054,1,0,0:0:0:0:
288,160,236118,1,8,0:0:0:0:
224,160,236182,1,0,0:0:0:0:
224,160,236246,1,0,0:0:0:0:
288,160,236311,1,8,0:0:0:0:
224,160,236375,1,0,0:0:0:0:
288,160,236439,1,8,0:0:0:0:
224,224,238492,1,4,0:0:0:0:
224,160,238876,1,0,0:0:0:0:
224,160,238940,1,0,0:0:0:0:
288,160,239004,1,8,0:0:0:0:
288,160,239197,1,8,0:0:0:0:
288,160,239389,1,8,0:0:0:0:
224,160,239517,1,0,0:0:0:0:
224,160,239774,1,0,0:0:0:0:
224,160,239902,1,0,0:0:0:0:
224,160,239966,1,0,0:0:0:0:
288,160,240030,1,8,0:0:0:0:
224,160,240158,1,0,0:0:0:0:
288,160,240222,1,8,0:0:0:0:
224,160,240286,1,0,0:0:0:0:
288,160,240415,1,8,0:0:0:0:
224,160,240543,1,0,0:0:0:0:
224,160,240607,1,0,0:0:0:0:
224,160,240671,1,0,0:0:0:0:
288,160,240799,1,8,0:0:0:0:
224,160,240863,1,0,0:0:0:0:
224,160,240927,1,0,0:0:0:0:
224,160,240992,1,0,0:0:0:0:
288,160,241056,1,8,0:0:0:0:
224,160,241184,1,0,0:0:0:0:
288,160,241248,1,8,0:0:0:0:
224,160,241312,1,0,0:0:0:0:
224,160,241376,1,0,0:0:0:0:
288,160,241440,1,8,0:0:0:0:
224,160,241568,1,0,0:0:0:0:
288,160,241633,1,8,0:0:0:0:
224,160,241697,1,0,0:0:0:0:
224,160,241761,1,0,0:0:0:0:
288,160,241825,1,8,0:0:0:0:
224,160,241889,1,0,0:0:0:0:
224,160,241953,1,0,0:0:0:0:
224,160,242017,1,0,0:0:0:0:
288,160,242081,1,8,0:0:0:0:
288,160,242274,1,8,0:0:0:0:
288,160,242466,1,8,0:0:0:0:
224,224,242594,1,4,0:0:0:0:
288,160,242722,1,8,0:0:0:0:
288,160,242786,1,8,0:0:0:0:
224,160,242850,1,0,0:0:0:0:
224,160,242979,1,0,0:0:0:0:
224,160,243043,1,0,0:0:0:0:
288,160,243107,1,8,0:0:0:0:
224,160,243171,1,0,0:0:0:0:
224,160,243235,1,0,0:0:0:0:
288,160,243299,1,8,0:0:0:0:
224,160,243427,1,0,0:0:0:0:
288,160,243492,1,8,0:0:0:0:
224,160,243556,1,0,0:0:0:0:
288,160,243620,1,8,0:0:0:0:
224,160,243684,1,0,0:0:0:0:
224,160,243748,1,0,0:0:0:0:
288,160,243876,1,8,0:0:0:0:
224,160,244004,1,0,0:0:0:0:
224,160,244068,1,0,0:0:0:0:
288,160,244133,1,8,0:0:0:0:
224,160,244261,1,0,0:0:0:0:
288,160,244325,1,8,0:0:0:0:
224,160,244389,1,0,0:0:0:0:
224,160,244453,1,0,0:0:0:0:
288,160,244517,1,8,0:0:0:0:
224,160,244581,1,0,0:0:0:0:
288,160,244645,1,8,0:0:0:0:
288,160,244709,1,8,0:0:0:0:
224,160,244774,1,0,0:0:0:0:
288,160,244902,1,8,0:0:0:0:
224,160,245030,1,0,0:0:0:0:
224,160,245094,1,0,0:0:0:0:
288,160,245158,1,8,0:0:0:0:
224,160,245286,1,0,0:0:0:0:
288,160,245350,1,8,0:0:0:0:
224,160,245415,1,0,0:0:0:0:
224,160,245479,1,0,0:0:0:0:
288,160,245543,1,8,0:0:0:0:
288,160,245607,1,8,0:0:0:0:
224,160,245671,1,0,0:0:0:0:
288,160,245735,1,8,0:0:0:0:
224,160,245799,1,0,0:0:0:0:
288,160,245927,1,8,0:0:0:0:
224,160,246056,1,0,0:0:0:0:
224,160,246120,1,0,0:0:0:0:
288,160,246184,1,8,0:0:0:0:
224,160,246248,1,0,0:0:0:0:
224,160,246312,1,0,0:0:0:0:
288,160,246376,1,8,0:0:0:0:
224,160,246504,1,0,0:0:0:0:
288,160,246568,1,8,0:0:0:0:
224,160,246633,1,0,0:0:0:0:
288,160,246697,1,8,0:0:0:0:
288,160,246761,1,8,0:0:0:0:
224,160,246825,1,0,0:0:0:0:
288,160,246953,1,8,0:0:0:0:
224,160,247081,1,0,0:0:0:0:
224,160,247145,1,0,0:0:0:0:
288,160,247209,1,8,0:0:0:0:
224,160,247274,1,0,0:0:0:0:
224,160,247338,1,0,0:0:0:0:
288,160,247402,1,8,0:0:0:0:
288,160,247466,1,8,0:0:0:0:
224,160,247530,1,0,0:0:0:0:
288,160,247594,1,8,0:0:0:0:
224,160,247658,1,0,0:0:0:0:
288,160,247722,1,8,0:0:0:0:
288,160,247786,1,8,0:0:0:0:
224,160,247850,1,0,0:0:0:0:
288,160,247979,1,8,0:0:0:0:
288,160,248043,1,8,0:0:0:0:
224,160,248107,1,0,0:0:0:0:
224,160,248171,1,0,0:0:0:0:
288,160,248235,1,8,0:0:0:0:
288,160,248299,1,8,0:0:0:0:
224,160,248363,1,0,0:0:0:0:
288,160,248427,1,8,0:0:0:0:
224,160,248556,1,0,0:0:0:0:
288,160,248620,1,8,0:0:0:0:
224,160,248684,1,0,0:0:0:0:
288,160,248748,1,8,0:0:0:0:
288,160,248812,1,8,0:0:0:0:
288,160,248876,1,8,0:0:0:0:
224,160,249004,1,0,0:0:0:0:
224,160,249133,1,0,0:0:0:0:
224,160,249197,1,0,0:0:0:0:
288,160,249261,1,8,0:0:0:0:
224,160,249325,1,0,0:0:0:0:
224,160,249389,1,0,0:0:0:0:
288,160,249453,1,8,0:0:0:0:
288,160,249517,1,8,0:0:0:0:
224,160,249581,1,0,0:0:0:0:
288,160,249645,1,8,0:0:0:0:
224,160,249709,1,0,0:0:0:0:
288,160,249774,1,8,0:0:0:0:
224,160,249838,1,0,0:0:0:0:
224,160,249902,1,0,0:0:0:0:
288,160,249966,1,8,0:0:0:0:
288,160,250030,1,8,0:0:0:0:
224,160,250094,1,0,0:0:0:0:
288,160,250158,1,8,0:0:0:0:
224,160,250222,1,0,0:0:0:0:
288,160,250286,1,8,0:0:0:0:
288,160,250350,1,8,0:0:0:0:
288,160,250415,1,8,0:0:0:0:
288,160,250479,1,8,0:0:0:0:
224,160,250543,1,0,0:0:0:0:
288,160,250607,1,8,0:0:0:0:
224,160,250671,1,0,0:0:0:0:
224,160,250735,1,0,0:0:0:0:
288,160,250799,1,8,0:0:0:0:
288,160,250863,1,8,0:0:0:0:
224,160,250927,1,0,0:0:0:0:
224,160,251056,1,0,0:0:0:0:
224,160,251185,1,0,0:0:0:0:
224,160,251249,1,0,0:0:0:0:
288,160,251313,1,8,0:0:0:0:
224,160,251377,1,0,0:0:0:0:
224,160,251441,1,0,0:0:0:0:
288,160,251505,1,8,0:0:0:0:
224,160,251633,1,0,0:0:0:0:
288,160,251698,1,8,0:0:0:0:
224,160,251762,1,0,0:0:0:0:
288,160,251826,1,8,0:0:0:0:
288,160,251889,1,8,0:0:0:0:
224,160,251954,1,0,0:0:0:0:
288,160,252082,1,8,0:0:0:0:
224,160,252210,1,0,0:0:0:0:
224,160,252274,1,0,0:0:0:0:
288,160,252339,1,8,0:0:0:0:
224,160,252467,1,0,0:0:0:0:
288,160,252531,1,8,0:0:0:0:
224,160,252595,1,0,0:0:0:0:
224,160,252659,1,0,0:0:0:0:
288,160,252723,1,8,0:0:0:0:
224,160,252787,1,0,0:0:0:0:
288,160,252851,1,8,0:0:0:0:
288,160,252915,1,8,0:0:0:0:
224,160,252980,1,0,0:0:0:0:
288,160,253108,1,8,0:0:0:0:
224,160,253236,1,0,0:0:0:0:
224,160,253300,1,0,0:0:0:0:
288,160,253364,1,8,0:0:0:0:
224,160,253492,1,0,0:0:0:0:
288,160,253556,1,8,0:0:0:0:
224,160,253621,1,0,0:0:0:0:
224,160,253685,1,0,0:0:0:0:
288,160,253749,1,8,0:0:0:0:
288,160,253813,1,8,0:0:0:0:
224,160,253877,1,0,0:0:0:0:
288,160,253941,1,8,0:0:0:0:
224,160,254005,1,0,0:0:0:0:
288,160,254133,1,8,0:0:0:0:
224,160,254262,1,0,0:0:0:0:
224,160,254326,1,0,0:0:0:0:
288,160,254390,1,8,0:0:0:0:
224,160,254454,1,0,0:0:0:0:
224,160,254518,1,0,0:0:0:0:
288,160,254582,1,8,0:0:0:0:
224,160,254646,1,0,0:0:0:0:
224,160,254710,1,0,0:0:0:0:
288,160,254774,1,8,0:0:0:0:
224,160,254839,1,0,0:0:0:0:
288,160,254903,1,8,0:0:0:0:
288,160,254967,1,8,0:0:0:0:
224,160,255031,1,0,0:0:0:0:
288,160,255159,1,8,0:0:0:0:
224,160,255287,1,0,0:0:0:0:
224,160,255351,1,0,0:0:0:0:
288,160,255415,1,8,0:0:0:0:
224,160,255480,1,0,0:0:0:0:
224,160,255544,1,0,0:0:0:0:
288,160,255608,1,8,0:0:0:0:
224,160,255736,1,0,0:0:0:0:
288,160,255800,1,8,0:0:0:0:
224,160,255864,1,0,0:0:0:0:
288,160,255928,1,8,0:0:0:0:
288,160,255992,1,8,0:0:0:0:
224,160,256056,1,0,0:0:0:0:
288,160,256185,1,8,0:0:0:0:
288,160,256249,1,8,0:0:0:0:
224,160,256313,1,0,0:0:0:0:
224,160,256377,1,0,0:0:0:0:
288,160,256441,1,8,0:0:0:0:
288,160,256505,1,8,0:0:0:0:
224,160,256569,1,0,0:0:0:0:
288,160,256633,1,8,0:0:0:0:
224,160,256762,1,0,0:0:0:0:
288,160,256826,1,8,0:0:0:0:
224,160,256890,1,0,0:0:0:0:
288,160,256954,1,8,0:0:0:0:
288,160,257018,1,8,0:0:0:0:
288,160,257082,1,8,0:0:0:0:
224,160,257209,1,0,0:0:0:0:
224,160,257339,1,0,0:0:0:0:
224,160,257403,1,0,0:0:0:0:
288,160,257467,1,8,0:0:0:0:
224,160,257531,1,0,0:0:0:0:
224,160,257595,1,0,0:0:0:0:
288,160,257658,1,8,0:0:0:0:
224,160,257722,1,0,0:0:0:0:
224,160,257786,1,0,0:0:0:0:
288,160,257851,1,8,0:0:0:0:
224,160,257915,1,0,0:0:0:0:
288,160,257980,1,8,0:0:0:0:
288,160,258043,1,8,0:0:0:0:
224,160,258108,1,0,0:0:0:0:
288,160,258172,1,8,0:0:0:0:
224,160,258235,1,0,0:0:0:0:
224,160,258300,1,0,0:0:0:0:
288,160,258364,1,8,0:0:0:0:
288,160,258427,1,8,0:0:0:0:
224,224,259004,1,4,0:0:0:0:
288,160,259132,1,8,0:0:0:0:
288,160,259196,1,8,0:0:0:0:
224,160,259260,1,0,0:0:0:0:
224,160,259325,1,0,0:0:0:0:
288,160,259389,1,8,0:0:0:0:
224,160,259453,1,0,0:0:0:0:
288,160,259517,1,8,0:0:0:0:
224,160,259581,1,0,0:0:0:0:
224,160,259645,1,0,0:0:0:0:
288,160,259709,1,8,0:0:0:0:
224,160,259774,1,0,0:0:0:0:
224,160,259838,1,0,0:0:0:0:
288,160,259902,1,8,0:0:0:0:
224,160,259966,1,0,0:0:0:0:
288,160,260030,1,8,0:0:0:0:
288,160,260094,1,8,0:0:0:0:
224,160,260158,1,0,0:0:0:0:
224,160,260222,1,0,0:0:0:0:
288,160,260286,1,8,0:0:0:0:
224,160,260350,1,0,0:0:0:0:
288,160,260415,1,8,0:0:0:0:
224,160,260478,1,0,0:0:0:0:
288,160,260543,1,8,0:0:0:0:
288,160,260607,1,8,0:0:0:0:
224,160,260671,1,0,0:0:0:0:
288,160,260735,1,8,0:0:0:0:
224,160,260799,1,0,0:0:0:0:
224,160,260863,1,0,0:0:0:0:
288,160,260927,1,8,0:0:0:0:
224,160,260991,1,0,0:0:0:0:
288,160,261055,1,8,0:0:0:0:
288,160,261119,1,8,0:0:0:0:
224,160,261184,1,0,0:0:0:0:
224,160,261248,1,0,0:0:0:0:
288,160,261312,1,8,0:0:0:0:
224,160,261376,1,0,0:0:0:0:
288,160,261440,1,8,0:0:0:0:
224,160,261504,1,0,0:0:0:0:
288,160,261568,1,8,0:0:0:0:
288,160,261633,1,8,0:0:0:0:
224,160,261696,1,0,0:0:0:0:
288,160,261760,1,8,0:0:0:0:
224,160,261825,1,0,0:0:0:0:
224,160,261889,1,0,0:0:0:0:
288,160,261953,1,8,0:0:0:0:
288,160,262017,1,8,0:0:0:0:
224,160,262081,1,0,0:0:0:0:
288,160,262145,1,8,0:0:0:0:
224,160,262209,1,0,0:0:0:0:
224,160,262274,1,0,0:0:0:0:
288,160,262337,1,8,0:0:0:0:
288,160,262402,1,8,0:0:0:0:
224,160,262466,1,0,0:0:0:0:
224,160,262530,1,0,0:0:0:0:
288,160,262594,1,8,0:0:0:0:
256,160,262658,1,8,0:0:0:0:
224,160,262722,1,0,0:0:0:0:
288,160,262786,1,8,0:0:0:0:
224,160,262850,1,0,0:0:0:0:
224,160,262914,1,0,0:0:0:0:
288,160,262978,1,8,0:0:0:0:
224,160,263043,1,0,0:0:0:0:
288,160,263107,1,8,0:0:0:0:
288,160,263171,1,8,0:0:0:0:
224,160,263235,1,0,0:0:0:0:
288,160,263363,1,8,0:0:0:0:
224,160,263491,1,0,0:0:0:0:
224,160,263555,1,0,0:0:0:0:
288,160,263619,1,8,0:0:0:0:
224,160,263684,1,0,0:0:0:0:
224,160,263748,1,0,0:0:0:0:
288,160,263812,1,8,0:0:0:0:
288,160,263876,1,8,0:0:0:0:
224,160,263940,1,0,0:0:0:0:
288,160,264004,1,8,0:0:0:0:
224,160,264068,1,0,0:0:0:0:
288,160,264132,1,8,0:0:0:0:
288,160,264196,1,8,0:0:0:0:
224,160,264260,1,0,0:0:0:0:
288,160,264389,1,8,0:0:0:0:
288,160,264453,1,8,0:0:0:0:
224,160,264517,1,0,0:0:0:0:
224,160,264581,1,0,0:0:0:0:
288,160,264645,1,8,0:0:0:0:
288,160,264709,1,8,0:0:0:0:
224,160,264773,1,0,0:0:0:0:
288,160,264837,1,8,0:0:0:0:
288,160,264901,1,8,0:0:0:0:
224,160,264966,1,0,0:0:0:0:
288,160,265030,1,8,0:0:0:0:
224,160,265094,1,0,0:0:0:0:
288,160,265158,1,8,0:0:0:0:
288,160,265222,1,8,0:0:0:0:
288,160,265286,1,8,0:0:0:0:
224,160,265415,1,0,0:0:0:0:
224,160,265543,1,0,0:0:0:0:
224,160,265607,1,0,0:0:0:0:
288,160,265671,1,8,0:0:0:0:
224,160,265735,1,0,0:0:0:0:
224,160,265799,1,0,0:0:0:0:
288,160,265863,1,8,0:0:0:0:
288,160,265927,1,8,0:0:0:0:
224,160,265991,1,0,0:0:0:0:
288,160,266055,1,8,0:0:0:0:
224,160,266119,1,0,0:0:0:0:
288,160,266184,1,8,0:0:0:0:
224,160,266248,1,0,0:0:0:0:
224,160,266312,1,0,0:0:0:0:
288,160,266376,1,8,0:0:0:0:
288,160,266440,1,8,0:0:0:0:
224,160,266504,1,0,0:0:0:0:
288,160,266568,1,8,0:0:0:0:
224,160,266632,1,0,0:0:0:0:
288,160,266696,1,8,0:0:0:0:
288,160,266760,1,8,0:0:0:0:
288,160,266825,1,8,0:0:0:0:
288,160,266889,1,8,0:0:0:0:
224,160,266953,1,0,0:0:0:0:
288,160,267017,1,8,0:0:0:0:
224,160,267081,1,0,0:0:0:0:
224,160,267145,1,0,0:0:0:0:
288,160,267209,1,8,0:0:0:0:
288,160,267273,1,8,0:0:0:0:
224,160,267337,1,0,0:0:0:0:
288,160,267466,1,8,0:0:0:0:
288,160,267530,1,8,0:0:0:0:
224,160,267595,1,0,0:0:0:0:
224,160,267659,1,0,0:0:0:0:
288,160,267723,1,8,0:0:0:0:
288,160,267786,1,8,0:0:0:0:
224,160,267851,1,0,0:0:0:0:
288,160,267915,1,8,0:0:0:0:
224,160,267979,1,0,0:0:0:0:
224,160,268043,1,0,0:0:0:0:
288,160,268108,1,8,0:0:0:0:
224,160,268172,1,0,0:0:0:0:
288,160,268236,1,8,0:0:0:0:
288,160,268299,1,8,0:0:0:0:
224,160,268364,1,0,0:0:0:0:
224,160,268427,1,0,0:0:0:0:
288,160,268492,1,8,0:0:0:0:
224,160,268556,1,0,0:0:0:0:
288,160,268620,1,8,0:0:0:0:
288,160,268684,1,8,0:0:0:0:
288,160,268749,1,8,0:0:0:0:
288,160,268812,1,8,0:0:0:0:
224,160,268877,1,0,0:0:0:0:
288,160,268940,1,8,0:0:0:0:
224,160,269005,1,0,0:0:0:0:
224,160,269069,1,0,0:0:0:0:
288,160,269133,1,8,0:0:0:0:
224,160,269197,1,0,0:0:0:0:
288,160,269261,1,8,0:0:0:0:
288,160,269325,1,8,0:0:0:0:
224,160,269390,1,0,0:0:0:0:
224,160,269453,1,0,0:0:0:0:
288,160,269518,1,8,0:0:0:0:
288,160,269581,1,8,0:0:0:0:
224,160,269646,1,0,0:0:0:0:
224,160,269710,1,0,0:0:0:0:
288,160,269774,1,8,0:0:0:0:
288,160,269838,1,8,0:0:0:0:
224,160,269902,1,0,0:0:0:0:
288,160,269966,1,8,0:0:0:0:
224,160,270031,1,0,0:0:0:0:
224,160,270095,1,0,0:0:0:0:
288,160,270159,1,8,0:0:0:0:
288,160,270223,1,8,0:0:0:0:
224,160,270287,1,0,0:0:0:0:
288,160,270351,1,8,0:0:0:0:
224,160,270415,1,0,0:0:0:0:
224,160,270479,1,0,0:0:0:0:
288,160,270543,1,8,0:0:0:0:
288,160,270607,1,8,0:0:0:0:
224,160,270672,1,0,0:0:0:0:
224,160,270736,1,0,0:0:0:0:
288,160,270800,1,8,0:0:0:0:
288,160,270863,1,8,0:0:0:0:
288,160,270927,1,8,0:0:0:0:
288,160,270992,1,8,0:0:0:0:
224,160,271056,1,0,0:0:0:0:
224,160,271120,1,0,0:0:0:0:
288,160,271184,1,8,0:0:0:0:
224,160,271248,1,0,0:0:0:0:
288,160,271313,1,8,0:0:0:0:
288,160,271377,1,8,0:0:0:0:
288,160,271440,1,8,0:0:0:0:
224,160,271504,1,0,0:0:0:0:
288,160,271569,1,8,0:0:0:0:
288,160,271633,1,8,0:0:0:0:
224,160,271697,1,0,0:0:0:0:
224,160,271761,1,0,0:0:0:0:
288,160,271825,1,8,0:0:0:0:
224,160,271890,1,0,0:0:0:0:
224,160,271954,1,0,0:0:0:0:
224,160,272017,1,0,0:0:0:0:
288,160,272081,1,8,0:0:0:0:
288,160,272338,1,8,0:0:0:0:
224,160,272402,1,0,0:0:0:0:
288,160,272466,1,8,0:0:0:0:
224,160,272530,1,0,0:0:0:0:
288,160,272595,1,8,0:0:0:0:
224,160,272658,1,0,0:0:0:0:
224,160,272722,1,0,0:0:0:0:
224,160,272787,1,0,0:0:0:0:
288,160,272851,1,8,0:0:0:0:
288,160,272915,1,8,0:0:0:0:
224,160,272979,1,0,0:0:0:0:
224,160,273043,1,0,0:0:0:0:
288,160,273107,1,8,0:0:0:0:
288,160,273236,1,8,0:0:0:0:
224,160,273363,1,0,0:0:0:0:
224,160,273748,1,0,0:0:0:0:
224,160,273812,1,0,0:0:0:0:
288,160,273876,1,8,0:0:0:0:
288,160,274068,1,8,0:0:0:0:
224,160,274261,1,0,0:0:0:0:
288,160,274389,1,8,0:0:0:0:
288,160,274581,1,8,0:0:0:0:
288,160,274774,1,8,0:0:0:0:
224,160,274902,1,0,0:0:0:0:
224,160,274966,1,0,0:0:0:0:
288,160,275030,1,8,0:0:0:0:
224,160,275094,1,0,0:0:0:0:
288,160,275158,1,8,0:0:0:0:
288,160,275222,1,8,0:0:0:0:
224,160,275286,1,0,0:0:0:0:
224,160,275350,1,0,0:0:0:0:
288,160,275415,1,8,0:0:0:0:
224,224,275671,1,4,0:0:0:0:
288,160,275799,1,8,0:0:0:0:
224,160,275863,1,0,0:0:0:0:
288,160,275927,1,8,0:0:0:0:
224,160,276056,1,0,0:0:0:0:
224,160,276120,1,0,0:0:0:0:
288,160,276184,1,8,0:0:0:0:
224,160,276248,1,0,0:0:0:0:
224,160,276312,1,0,0:0:0:0:
288,160,276440,1,8,0:0:0:0:
224,160,276504,1,0,0:0:0:0:
288,160,276568,1,8,0:0:0:0:
288,160,276633,1,8,0:0:0:0:
224,160,276697,1,0,0:0:0:0:
224,160,276825,1,0,0:0:0:0:
224,160,276889,1,0,0:0:0:0:
288,160,276953,1,8,0:0:0:0:
224,160,277081,1,0,0:0:0:0:
288,160,277209,1,8,0:0:0:0:
288,160,277274,1,8,0:0:0:0:
288,160,277338,1,8,0:0:0:0:
224,160,277466,1,0,0:0:0:0:
224,160,277594,1,0,0:0:0:0:
224,160,277658,1,0,0:0:0:0:
288,160,277722,1,8,0:0:0:0:
224,160,277786,1,0,0:0:0:0:
288,160,277850,1,8,0:0:0:0:
224,160,277979,1,0,0:0:0:0:
288,160,278043,1,8,0:0:0:0:
224,160,278107,1,0,0:0:0:0:
288,160,278235,1,8,0:0:0:0:
288,160,278299,1,8,0:0:0:0:
224,160,278363,1,0,0:0:0:0:
224,160,278427,1,0,0:0:0:0:
288,160,278491,1,8,0:0:0:0:
224,160,278620,1,0,0:0:0:0:
224,160,278684,1,0,0:0:0:0:
288,160,278748,1,8,0:0:0:0:
224,160,278812,1,0,0:0:0:0:
224,160,278876,1,0,0:0:0:0:
288,160,279004,1,8,0:0:0:0:
224,160,279068,1,0,0:0:0:0:
224,160,279133,1,0,0:0:0:0:
288,160,279197,1,8,0:0:0:0:
224,160,279261,1,0,0:0:0:0:
224,160,279325,1,0,0:0:0:0:
288,160,279389,1,8,0:0:0:0:
224,160,279517,1,0,0:0:0:0:
224,160,279645,1,0,0:0:0:0:
224,160,279709,1,0,0:0:0:0:
288,160,279774,1,8,0:0:0:0:
288,160,279838,1,8,0:0:0:0:
224,160,279902,1,0,0:0:0:0:
288,160,280030,1,8,0:0:0:0:
288,160,280094,1,8,0:0:0:0:
224,160,280158,1,0,0:0:0:0:
288,160,280286,1,8,0:0:0:0:
224,160,280350,1,0,0:0:0:0:
288,160,280415,1,8,0:0:0:0:
224,160,280543,1,0,0:0:0:0:
288,160,280607,1,8,0:0:0:0:
224,160,280671,1,0,0:0:0:0:
224,160,280735,1,0,0:0:0:0:
288,160,280799,1,8,0:0:0:0:
224,160,280927,1,0,0:0:0:0:
288,160,281056,1,8,0:0:0:0:
288,160,281120,1,8,0:0:0:0:
224,160,281184,1,0,0:0:0:0:
288,160,281248,1,8,0:0:0:0:
288,160,281312,1,8,0:0:0:0:
288,160,281440,1,8,0:0:0:0:
224,160,281568,1,0,0:0:0:0:
224,160,281697,1,0,0:0:0:0:
224,160,281761,1,0,0:0:0:0:
288,160,281825,1,8,0:0:0:0:
224,160,281953,1,0,0:0:0:0:
224,160,282017,1,0,0:0:0:0:
288,160,282081,1,8,0:0:0:0:
224,160,282145,1,0,0:0:0:0:
224,160,282209,1,0,0:0:0:0:
288,160,282338,1,8,0:0:0:0:
224,160,282466,1,0,0:0:0:0:
224,160,282530,1,0,0:0:0:0:
288,160,282594,1,8,0:0:0:0:
224,160,282722,1,0,0:0:0:0:
288,160,282786,1,8,0:0:0:0:
224,160,282850,1,0,0:0:0:0:
288,160,282979,1,8,0:0:0:0:
224,160,283107,1,0,0:0:0:0:
288,160,283171,1,8,0:0:0:0:
224,160,283235,1,0,0:0:0:0:
288,160,283363,1,8,0:0:0:0:
224,160,283620,1,0,0:0:0:0:
224,160,283684,1,0,0:0:0:0:
224,160,283748,1,0,0:0:0:0:
224,160,283812,1,0,0:0:0:0:
288,160,283876,1,8,0:0:0:0:
224,160,283940,1,0,0:0:0:0:
288,160,284004,1,8,0:0:0:0:
288,160,284068,1,8,0:0:0:0:
224,160,284133,1,0,0:0:0:0:
288,160,284197,1,8,0:0:0:0:
224,160,284261,1,0,0:0:0:0:
224,160,284325,1,0,0:0:0:0:
288,160,284389,1,8,0:0:0:0:
288,160,284453,1,8,0:0:0:0:
288,160,284517,1,8,0:0:0:0:
288,160,284581,1,8,0:0:0:0:
224,160,284645,1,0,0:0:0:0:
224,160,284774,1,0,0:0:0:0:
224,160,284838,1,0,0:0:0:0:
288,160,284902,1,8,0:0:0:0:
224,160,285030,1,0,0:0:0:0:
288,160,285158,1,8,0:0:0:0:
224,160,285222,1,0,0:0:0:0:
224,160,285286,1,0,0:0:0:0:
224,160,285350,1,0,0:0:0:0:
288,160,285415,1,8,0:0:0:0:
224,160,285479,1,0,0:0:0:0:
288,160,285543,1,8,0:0:0:0:
288,160,285607,1,8,0:0:0:0:
224,160,285671,1,0,0:0:0:0:
224,160,285799,1,0,0:0:0:0:
224,160,285863,1,0,0:0:0:0:
288,160,285927,1,8,0:0:0:0:
224,160,286056,1,0,0:0:0:0:
288,160,286184,1,8,0:0:0:0:
288,160,286248,1,8,0:0:0:0:
224,160,286312,1,0,0:0:0:0:
288,160,286440,1,8,0:0:0:0:
224,160,286504,1,0,0:0:0:0:
288,160,286568,1,8,0:0:0:0:
224,160,286697,1,0,0:0:0:0:
288,160,286761,1,8,0:0:0:0:
224,160,286825,1,0,0:0:0:0:
224,160,286889,1,0,0:0:0:0:
288,160,286953,1,8,0:0:0:0:
288,160,287017,1,8,0:0:0:0:
224,160,287081,1,0,0:0:0:0:
288,160,287209,1,8,0:0:0:0:
288,160,287274,1,8,0:0:0:0:
224,160,287338,1,0,0:0:0:0:
224,160,287402,1,0,0:0:0:0:
288,160,287466,1,8,0:0:0:0:
288,160,287594,1,8,0:0:0:0:
224,160,287722,1,0,0:0:0:0:
288,160,287786,1,8,0:0:0:0:
224,160,287850,1,0,0:0:0:0:
224,160,287915,1,0,0:0:0:0:
288,160,287979,1,8,0:0:0:0:
224,160,288043,1,0,0:0:0:0:
288,160,288107,1,8,0:0:0:0:
288,160,288171,1,8,0:0:0:0:
224,160,288235,1,0,0:0:0:0:
224,160,288299,1,0,0:0:0:0:
224,160,288363,1,0,0:0:0:0:
224,160,288427,1,0,0:0:0:0:
288,160,288491,1,8,0:0:0:0:
288,160,288748,1,8,0:0:0:0:
224,160,288812,1,0,0:0:0:0:
224,160,288876,1,0,0:0:0:0:
224,160,288940,1,0,0:0:0:0:
288,160,289004,1,8,0:0:0:0:
288,160,289068,1,8,0:0:0:0:
224,160,289133,1,0,0:0:0:0:
224,160,289197,1,0,0:0:0:0:
288,160,289261,1,8,0:0:0:0:
224,160,289325,1,0,0:0:0:0:
288,160,289389,1,8,0:0:0:0:
288,160,289453,1,8,0:0:0:0:
224,160,289517,1,0,0:0:0:0:
224,160,289645,1,0,0:0:0:0:
288,160,289774,1,8,0:0:0:0:
288,160,289838,1,8,0:0:0:0:
288,160,289902,1,8,0:0:0:0:
288,160,289966,1,8,0:0:0:0:
224,160,290030,1,0,0:0:0:0:
288,160,290286,1,8,0:0:0:0:
224,160,290350,1,0,0:0:0:0:
288,160,290415,1,8,0:0:0:0:
288,160,290479,1,8,0:0:0:0:
224,160,290543,1,0,0:0:0:0:
224,160,290799,1,0,0:0:0:0:
288,160,291825,1,8,0:0:0:0:
224,160,291889,1,0,0:0:0:0:
288,160,291953,1,8,0:0:0:0:
288,160,292017,1,8,0:0:0:0:
224,160,292081,1,0,0:0:0:0:
224,160,292145,1,0,0:0:0:0:
288,160,292209,1,8,0:0:0:0:
224,160,292274,1,0,0:0:0:0:
288,160,292338,1,8,0:0:0:0:
288,160,292402,1,8,0:0:0:0:
224,160,292466,1,0,0:0:0:0:
224,160,292530,1,0,0:0:0:0:
288,160,292594,1,8,0:0:0:0:
224,160,292658,1,0,0:0:0:0:
288,160,292722,1,8,0:0:0:0:
288,160,292786,1,8,0:0:0:0:
224,160,292850,1,0,0:0:0:0:
224,160,292893,1,0,0:0:0:0:
224,160,292936,1,0,0:0:0:0:
288,160,292979,1,8,0:0:0:0:
224,160,293043,1,0,0:0:0:0:
288,160,293107,1,8,0:0:0:0:
224,160,293171,1,0,0:0:0:0:
288,160,293235,1,8,0:0:0:0:
288,160,293299,1,8,0:0:0:0:
224,160,293363,1,0,0:0:0:0:
224,160,293427,1,0,0:0:0:0:
288,160,293491,1,8,0:0:0:0:
288,160,293556,1,8,0:0:0:0:
224,160,293620,1,0,0:0:0:0:
224,160,293684,1,0,0:0:0:0:
288,160,293748,1,8,0:0:0:0:
224,160,293812,1,0,0:0:0:0:
288,160,293876,1,8,0:0:0:0:
224,160,293940,1,0,0:0:0:0:
224,160,294004,1,0,0:0:0:0:
224,160,294068,1,0,0:0:0:0:
288,160,294133,1,8,0:0:0:0:
224,160,294197,1,0,0:0:0:0:
288,160,294261,1,8,0:0:0:0:
288,160,294325,1,8,0:0:0:0:
224,160,294389,1,0,0:0:0:0:
224,160,294453,1,0,0:0:0:0:
288,160,294517,1,8,0:0:0:0:
224,160,294581,1,0,0:0:0:0:
288,160,294645,1,8,0:0:0:0:
224,160,294709,1,0,0:0:0:0:
224,160,294774,1,0,0:0:0:0:
224,160,294838,1,0,0:0:0:0:
288,160,294902,1,8,0:0:0:0:
224,160,294966,1,0,0:0:0:0:
288,160,295030,1,8,0:0:0:0:
224,160,295094,1,0,0:0:0:0:
288,160,295158,1,8,0:0:0:0:
288,160,295222,1,8,0:0:0:0:
224,160,295286,1,0,0:0:0:0:
224,160,295350,1,0,0:0:0:0:
288,160,295415,1,8,0:0:0:0:
288,160,295927,1,8,0:0:0:0:
224,160,295991,1,0,0:0:0:0:
288,160,296056,1,8,0:0:0:0:
288,160,296120,1,8,0:0:0:0:
224,160,296184,1,0,0:0:0:0:
224,160,296248,1,0,0:0:0:0:
288,160,296312,1,8,0:0:0:0:
224,160,296376,1,0,0:0:0:0:
288,160,296440,1,8,0:0:0:0:
288,160,296504,1,8,0:0:0:0:
224,160,296568,1,0,0:0:0:0:
224,160,296633,1,0,0:0:0:0:
288,160,296697,1,8,0:0:0:0:
224,160,296761,1,0,0:0:0:0:
288,160,296825,1,8,0:0:0:0:
288,160,296889,1,8,0:0:0:0:
224,160,296953,1,0,0:0:0:0:
224,160,297017,1,0,0:0:0:0:
288,160,297081,1,8,0:0:0:0:
224,160,297145,1,0,0:0:0:0:
288,160,297209,1,8,0:0:0:0:
288,160,297274,1,8,0:0:0:0:
224,160,297338,1,0,0:0:0:0:
224,160,297402,1,0,0:0:0:0:
288,160,297466,1,8,0:0:0:0:
224,160,297530,1,0,0:0:0:0:
288,160,297594,1,8,0:0:0:0:
224,160,297658,1,0,0:0:0:0:
288,160,297722,1,8,0:0:0:0:
288,160,297786,1,8,0:0:0:0:
224,160,297850,1,0,0:0:0:0:
224,160,297915,1,0,0:0:0:0:
288,160,297979,1,8,0:0:0:0:
288,160,298043,1,8,0:0:0:0:
224,160,298107,1,0,0:0:0:0:
224,160,298171,1,0,0:0:0:0:
288,160,298235,1,8,0:0:0:0:
224,160,298299,1,0,0:0:0:0:
288,160,298363,1,8,0:0:0:0:
288,160,298427,1,8,0:0:0:0:
224,160,298491,1,0,0:0:0:0:
224,160,298556,1,0,0:0:0:0:
288,160,298620,1,8,0:0:0:0:
224,160,298684,1,0,0:0:0:0:
288,160,298748,1,8,0:0:0:0:
224,160,298812,1,0,0:0:0:0:
224,160,298876,1,0,0:0:0:0:
224,160,298940,1,0,0:0:0:0:
288,160,299004,1,8,0:0:0:0:
224,160,299068,1,0,0:0:0:0:
288,160,299133,1,8,0:0:0:0:
288,160,299197,1,8,0:0:0:0:
224,160,299261,1,0,0:0:0:0:
224,160,299325,1,0,0:0:0:0:
288,160,299389,1,8,0:0:0:0:
224,160,299453,1,0,0:0:0:0:
288,160,299517,1,8,0:0:0:0:
288,160,299560,1,8,0:0:0:0:
288,160,299603,1,8,0:0:0:0:
224,160,299645,1,0,0:0:0:0:
224,160,299688,1,0,0:0:0:0:
224,160,299731,1,0,0:0:0:0:
288,160,299774,1,8,0:0:0:0:
288,160,299838,1,8,0:0:0:0:
224,160,299902,1,0,0:0:0:0:
224,160,299966,1,0,0:0:0:0:
288,160,300030,1,8,0:0:0:0:
224,160,300094,1,0,0:0:0:0:
288,160,300158,1,8,0:0:0:0:
288,160,300222,1,8,0:0:0:0:
224,160,300286,1,0,0:0:0:0:
224,160,300350,1,0,0:0:0:0:
288,160,300415,1,8,0:0:0:0:
224,160,300479,1,0,0:0:0:0:
288,160,300543,1,8,0:0:0:0:
288,160,300607,1,8,0:0:0:0:
224,160,300671,1,0,0:0:0:0:
224,160,300735,1,0,0:0:0:0:
288,160,300799,1,8,0:0:0:0:
224,160,300863,1,0,0:0:0:0:
288,160,300927,1,8,0:0:0:0:
288,160,300991,1,8,0:0:0:0:
224,160,301056,1,0,0:0:0:0:
224,160,301120,1,0,0:0:0:0:
288,160,301184,1,8,0:0:0:0:
224,160,301248,1,0,0:0:0:0:
288,160,301312,1,8,0:0:0:0:
224,160,301376,1,0,0:0:0:0:
224,160,301440,1,0,0:0:0:0:
224,160,301504,1,0,0:0:0:0:
288,160,301568,1,8,0:0:0:0:
224,160,301633,1,0,0:0:0:0:
288,160,301697,1,8,0:0:0:0:
288,160,301761,1,8,0:0:0:0:
224,160,301825,1,0,0:0:0:0:
224,160,301889,1,0,0:0:0:0:
288,160,301953,1,8,0:0:0:0:
224,160,302017,1,0,0:0:0:0:
288,160,302081,1,8,0:0:0:0:
224,160,302145,1,0,0:0:0:0:
288,160,302209,1,8,0:0:0:0:
224,160,302274,1,0,0:0:0:0:
288,160,302338,1,8,0:0:0:0:
224,160,302402,1,0,0:0:0:0:
288,160,302466,1,8,0:0:0:0:
288,160,302530,1,8,0:0:0:0:
224,160,302594,1,0,0:0:0:0:
224,160,302658,1,0,0:0:0:0:
288,160,302722,1,8,0:0:0:0:
224,160,302786,1,0,0:0:0:0:
288,160,302850,1,8,0:0:0:0:
224,160,302915,1,0,0:0:0:0:
224,160,302979,1,0,0:0:0:0:
224,160,303043,1,0,0:0:0:0:
288,160,303107,1,8,0:0:0:0:
224,160,303171,1,0,0:0:0:0:
288,160,303235,1,8,0:0:0:0:
288,160,303299,1,8,0:0:0:0:
224,160,303363,1,0,0:0:0:0:
224,160,303427,1,0,0:0:0:0:
288,160,303491,1,8,0:0:0:0:
224,160,303556,1,0,0:0:0:0:
288,160,303620,1,8,0:0:0:0:
288,160,304133,1,8,0:0:0:0:
224,160,304197,1,0,0:0:0:0:
288,160,304261,1,8,0:0:0:0:
288,160,304325,1,8,0:0:0:0:
224,160,304389,1,0,0:0:0:0:
224,160,304453,1,0,0:0:0:0:
288,160,304517,1,8,0:0:0:0:
224,160,304581,1,0,0:0:0:0:
288,160,304645,1,8,0:0:0:0:
288,160,304709,1,8,0:0:0:0:
224,160,304774,1,0,0:0:0:0:
224,160,304838,1,0,0:0:0:0:
288,160,304902,1,8,0:0:0:0:
224,160,304966,1,0,0:0:0:0:
288,160,305030,1,8,0:0:0:0:
288,160,305094,1,8,0:0:0:0:
224,160,305158,1,0,0:0:0:0:
224,160,305222,1,0,0:0:0:0:
288,160,305286,1,8,0:0:0:0:
224,160,305350,1,0,0:0:0:0:
288,160,305415,1,8,0:0:0:0:
288,160,305479,1,8,0:0:0:0:
224,160,305543,1,0,0:0:0:0:
224,160,305607,1,0,0:0:0:0:
288,160,305671,1,8,0:0:0:0:
224,160,305735,1,0,0:0:0:0:
288,160,305799,1,8,0:0:0:0:
288,160,305863,1,8,0:0:0:0:
224,160,305927,1,0,0:0:0:0:
224,160,305991,1,0,0:0:0:0:
288,160,306056,1,8,0:0:0:0:
224,160,306120,1,0,0:0:0:0:
288,160,306184,1,8,0:0:0:0:
288,160,306248,1,8,0:0:0:0:
224,160,306312,1,0,0:0:0:0:
224,160,306376,1,0,0:0:0:0:
288,160,306440,1,8,0:0:0:0:
224,160,306504,1,0,0:0:0:0:
288,160,306568,1,8,0:0:0:0:
288,160,306633,1,8,0:0:0:0:
224,160,306697,1,0,0:0:0:0:
224,160,306761,1,0,0:0:0:0:
288,160,306825,1,8,0:0:0:0:
224,160,306889,1,0,0:0:0:0:
288,160,306953,1,8,0:0:0:0:
288,160,307017,1,8,0:0:0:0:
224,160,307081,1,0,0:0:0:0:
224,160,307145,1,0,0:0:0:0:
288,160,307209,1,8,0:0:0:0:
224,160,307273,1,0,0:0:0:0:
288,160,307337,1,8,0:0:0:0:
288,160,307401,1,8,0:0:0:0:
224,160,307465,1,0,0:0:0:0:
224,160,307529,1,0,0:0:0:0:
288,160,307593,1,8,0:0:0:0:
224,160,307657,1,0,0:0:0:0:
288,160,307721,1,8,0:0:0:0:
224,160,307785,1,0,0:0:0:0:
288,160,307850,1,8,0:0:0:0:
288,160,307914,1,8,0:0:0:0:
224,160,307978,1,0,0:0:0:0:
288,160,308042,1,8,0:0:0:0:
224,160,308106,1,0,0:0:0:0:
224,160,308170,1,0,0:0:0:0:
288,160,308234,1,8,0:0:0:0:
224,160,308298,1,0,0:0:0:0:
288,160,308362,1,8,0:0:0:0:
224,160,308426,1,0,0:0:0:0:
224,160,308491,1,0,0:0:0:0:
224,160,308555,1,0,0:0:0:0:
288,160,308619,1,8,0:0:0:0:
224,160,308683,1,0,0:0:0:0:
288,160,308747,1,8,0:0:0:0:
224,160,308811,1,0,0:0:0:0:
288,160,308875,1,8,0:0:0:0:
288,160,308939,1,8,0:0:0:0:
224,160,309003,1,0,0:0:0:0:
288,160,309067,1,8,0:0:0:0:
224,160,309132,1,0,0:0:0:0:
224,160,309196,1,0,0:0:0:0:
288,160,309260,1,8,0:0:0:0:
224,160,309324,1,0,0:0:0:0:
288,160,309388,1,8,0:0:0:0:
288,160,309452,1,8,0:0:0:0:
224,160,309516,1,0,0:0:0:0:
224,160,309580,1,0,0:0:0:0:
288,160,309644,1,8,0:0:0:0:
224,160,309708,1,0,0:0:0:0:
288,160,309772,1,8,0:0:0:0:
288,160,309836,1,8,0:0:0:0:
224,160,309901,1,0,0:0:0:0:
224,160,309965,1,0,0:0:0:0:
288,160,310029,1,8,0:0:0:0:
224,160,310093,1,0,0:0:0:0:
288,160,310157,1,8,0:0:0:0:
224,160,310221,1,0,0:0:0:0:
288,160,310285,1,8,0:0:0:0:
288,160,310328,1,8,0:0:0:0:
288,160,310371,1,8,0:0:0:0:
224,160,310413,1,0,0:0:0:0:
224,160,310477,1,0,0:0:0:0:
288,160,310542,1,8,0:0:0:0:
224,160,310584,1,0,0:0:0:0:
224,160,310627,1,0,0:0:0:0:
288,160,310670,1,8,0:0:0:0:
288,160,310734,1,8,0:0:0:0:
224,160,310798,1,0,0:0:0:0:
224,160,310841,1,0,0:0:0:0:
224,160,310883,1,0,0:0:0:0:
288,160,310926,1,8,0:0:0:0:
288,160,310990,1,8,0:0:0:0:
224,160,311054,1,0,0:0:0:0:
288,160,311097,1,8,0:0:0:0:
288,160,311140,1,8,0:0:0:0:
224,160,311183,1,0,0:0:0:0:
224,160,311247,1,0,0:0:0:0:
288,160,311311,1,8,0:0:0:0:
224,160,311396,1,0,0:0:0:0:
224,160,311481,1,0,0:0:0:0:
288,160,311567,1,8,0:0:0:0:
288,160,311652,1,8,0:0:0:0:
288,160,311738,1,8,0:0:0:0:
224,160,311823,1,0,0:0:0:0:
224,160,311909,1,0,0:0:0:0:
224,160,311994,1,0,0:0:0:0:
288,160,312080,1,8,0:0:0:0:
224,160,312165,1,0,0:0:0:0:
224,160,312251,1,0,0:0:0:0:
288,160,312336,1,8,0:0:0:0:
224,160,312422,1,0,0:0:0:0:
224,160,312507,1,0,0:0:0:0:
288,160,312593,1,8,0:0:0:0:
288,160,312678,1,8,0:0:0:0:
288,160,312763,1,8,0:0:0:0:
224,160,312849,1,0,0:0:0:0:
224,160,312934,1,0,0:0:0:0:
224,160,313020,1,0,0:0:0:0:
288,160,313105,1,8,0:0:0:0:
288,160,313362,1,8,0:0:0:0:
288,160,313746,1,8,0:0:0:0:
288,160,313811,1,8,0:0:0:0:
224,224,313875,1,4,0:0:0:0:
224,224,319195,5,4,0:0:0:0:
