osu file format v14

[General]
AudioFilename: audio.mp3
AudioLeadIn: 0
PreviewTime: 117609
Countdown: 0
SampleSet: Soft
StackLeniency: 0.7
Mode: 3
LetterboxInBreaks: 0
SpecialStyle: 0
WidescreenStoryboard: 1

[Editor]
DistanceSpacing: 1.4
BeatDivisor: 4
GridSize: 8
TimelineZoom: 1.6

[Metadata]
Title:Ragnarok
TitleUnicode:Ragnarok
Artist:Gram vs. Camellia
ArtistUnicode:Gram vs. かめりあ
Creator:Jinjin
Version:Fate
Source:
Tags:The Requiem
BeatmapID:1566335
BeatmapSetID:742624

[Difficulty]
HPDrainRate:8
CircleSize:7
OverallDifficulty:7
ApproachRate:10
SliderMultiplier:1.4
SliderTickRate:1

[Events]
//Background and Video events
0,0,"aa.jpg",0,0
//Break Periods
2,195758,203313
//Storyboard Layer 0 (Background)
//Storyboard Layer 1 (Fail)
//Storyboard Layer 2 (Pass)
//Storyboard Layer 3 (Foreground)
//Storyboard Sound Samples

[TimingPoints]
1035,566.037735849057,4,2,1,40,1,0
1035,-53.1914893617021,4,2,1,40,0,0
4431,521.739130434783,4,2,1,40,1,0
4431,-57.8034682080925,4,2,1,40,0,0
6482,461.538461538462,4,2,1,40,1,0
6482,-65.359477124183,4,2,1,40,0,0
7405,434.782608695652,4,2,1,40,1,0
7405,-69.4444444444444,4,2,1,40,0,0
8291,416.666666666667,4,2,1,40,1,0
8291,-72.463768115942,4,2,1,40,0,0
9940,387.096774193548,4,2,1,40,1,0
9940,-78.125,4,2,1,40,0,0
10714,365.853658536585,4,2,1,40,1,0
10714,-82.6446280991736,4,2,1,40,0,0
11471,363.636363636364,4,2,1,40,1,0
11471,-82.6446280991736,4,2,1,40,0,0
12889,333.333333333333,4,2,1,40,1,0
12889,-90.0900900900901,4,2,1,40,0,0
13559,324.324324324324,4,2,1,40,1,0
13559,-90.9090909090909,4,2,1,40,0,0
14213,315.789473684211,4,2,1,40,1,0
14213,-96.1538461538461,4,2,1,40,0,0
15487,306.122448979592,4,2,1,40,1,0
15487,-98.0392156862745,4,2,1,40,0,0
16096,300,4,2,1,40,1,0
16096,-101.010101010101,4,2,1,40,0,0
31109,340.909090909091,4,2,1,40,1,0
31109,-87.719298245614,4,2,1,40,0,0
31769,357.142857142857,4,2,1,40,1,0
31769,-93.4579439252336,4,2,1,40,0,0
32483,400,4,2,1,40,1,0
32483,-93.4579439252336,4,2,1,40,0,0
33296,437.956204379562,4,2,1,40,1,0
33296,-98.0392156862745,4,2,1,40,0,0
34172,504.201680672269,4,2,1,40,1,0
36198,645.161290322581,4,2,1,40,1,0
36198,-78.125,4,2,1,40,0,0
38767,833.333333333335,4,2,1,40,1,0
38767,-40.983606557377,4,2,1,40,0,0
38967,681.818181818183,4,2,1,40,1,0
38967,-50.251256281407,4,2,1,40,0,0
39136,571.428571428572,4,2,1,40,1,0
39136,-59.8802395209581,4,2,1,40,0,0
39425,517.241379310345,4,2,1,40,1,0
39425,-66.2251655629139,4,2,1,40,0,0
40063,645.161290322581,4,2,1,40,1,0
40063,-60.9756097560976,4,2,1,40,0,0
40229,845.070422535212,4,2,1,40,1,0
40229,-46.7289719626168,4,2,1,40,0,0
40646,508.474576271186,4,2,1,40,1,0
40646,-77.5193798449612,4,2,1,40,0,0
41167,285.714285714286,4,2,1,40,1,0
44582,279.06976744186,4,2,1,40,1,0
45698,270.27027027027,4,2,1,40,1,0
46779,265.486725663717,4,2,1,40,1,0
47840,260.869565217391,4,2,1,40,1,0
48883,258.620689655172,4,2,1,40,1,0
49917,256.410256410256,4,2,1,40,1,0
66327,-55.5555555555556,4,2,1,40,0,0
66391,-500,4,2,1,40,0,0
66455,-35.7142857142857,4,2,1,40,0,0
66487,-125,4,2,1,40,0,0
66711,-55.5555555555556,4,2,1,40,0,0
66775,-500,4,2,1,40,0,0
66839,-35.7142857142857,4,2,1,40,0,0
66871,-125,4,2,1,40,0,0
67096,-55.5555555555556,4,2,1,40,0,0
67160,-500,4,2,1,40,0,0
67224,-55.5555555555556,4,2,1,40,0,0
67288,-500,4,2,1,40,0,0
67352,-100,4,2,1,40,0,0
68378,-55.5555555555556,4,2,1,40,0,0
68442,-500,4,2,1,40,0,0
68506,-35.7142857142857,4,2,1,40,0,0
68538,-125,4,2,1,40,0,0
68762,-55.5555555555556,4,2,1,40,0,0
68826,-500,4,2,1,40,0,0
68890,-35.7142857142857,4,2,1,40,0,0
68922,-125,4,2,1,40,0,0
69147,-55.5555555555556,4,2,1,40,0,0
69211,-500,4,2,1,40,0,0
69275,-55.5555555555556,4,2,1,40,0,0
69339,-500,4,2,1,40,0,0
69403,-100,4,2,1,40,0,0
70429,-55.5555555555556,4,2,1,40,0,0
70493,-500,4,2,1,40,0,0
70557,-35.7142857142857,4,2,1,40,0,0
70589,-125,4,2,1,40,0,0
70813,-55.5555555555556,4,2,1,40,0,0
70877,-500,4,2,1,40,0,0
70941,-35.7142857142857,4,2,1,40,0,0
70973,-125,4,2,1,40,0,0
71199,-55.5555555555556,4,2,1,40,0,0
71263,-500,4,2,1,40,0,0
71327,-55.5555555555556,4,2,1,40,0,0
71391,-500,4,2,1,40,0,0
71455,-100,4,2,1,40,0,0
72481,-55.5555555555556,4,2,1,40,0,0
72545,-500,4,2,1,40,0,0
72609,-35.7142857142857,4,2,1,40,0,0
72641,-125,4,2,1,40,0,0
72865,-55.5555555555556,4,2,1,40,0,0
72929,-500,4,2,1,40,0,0
72993,-35.7142857142857,4,2,1,40,0,0
73025,-125,4,2,1,40,0,0
73250,-55.5555555555556,4,2,1,40,0,0
73314,-500,4,2,1,40,0,0
73378,-35.7142857142857,4,2,1,40,0,0
73410,-125,4,2,1,40,0,0
73634,-55.5555555555556,4,2,1,40,0,0
73698,-500,4,2,1,40,0,0
73762,-35.7142857142857,4,2,1,40,0,0
73794,-125,4,2,1,40,0,0
74019,-100,4,2,1,40,0,0
79404,-12.5,4,2,1,40,0,0
79414,-100,4,2,1,40,0,0
80429,-12.5,4,2,1,40,0,0
80439,-100,4,2,1,40,0,0
80942,-12.5,4,2,1,40,0,0
80952,-100,4,2,1,40,0,0
81455,-12.5,4,2,1,40,0,0
81465,-100,4,2,1,40,0,0
97865,-333.333333333333,4,2,1,40,0,0
97929,-50,4,2,1,40,0,0
97993,-333.333333333333,4,2,1,40,0,0
98058,-50,4,2,1,40,0,0
98122,-100,4,2,1,40,0,0
109147,-20,4,2,1,40,0,0
109164,-125,4,2,1,40,0,0
109404,-100,4,2,1,40,0,0
115814,-10,4,2,1,40,0,0
115824,-100,4,2,1,40,0,0
116327,-10,4,2,1,40,0,0
116337,-100,4,2,1,40,0,0
117673,-33.3333333333333,4,2,1,40,0,0
117689,-250,4,2,1,40,0,0
117849,-25,4,2,1,40,0,0
117865,-100,4,2,1,40,0,0
130045,-80,4,2,1,40,0,0
130173,-133.333333333333,4,2,1,40,0,0
130301,-100,4,2,1,40,0,0
130429,-76.9230769230769,4,2,1,40,0,0
130557,-138.888888888889,4,2,1,40,0,0
130685,-100,4,2,1,40,0,0
130814,-73.5294117647059,4,2,1,40,0,0
130942,-142.857142857143,4,2,1,40,0,0
131070,-100,4,2,1,40,0,0
131199,-70.4225352112676,4,2,1,40,0,0
131327,-147.058823529412,4,2,1,40,0,0
131455,-100,4,2,1,40,0,0
131583,-67.5675675675676,4,2,1,40,0,0
131711,-153.846153846154,4,2,1,40,0,0
131840,-100,4,2,1,40,0,0
132737,-100,4,1,0,15,0,0
132772.25,-98.0392156862745,4,1,0,15,0,0
132807.5,-96.1538461538461,4,1,0,15,0,0
132842.75,-94.3396226415094,4,1,0,15,0,0
132878,-92.5925925925926,4,1,0,15,0,0
132913.25,-90.9090909090909,4,1,0,15,0,0
132948.5,-89.2857142857143,4,1,0,15,0,0
132983.75,-87.719298245614,4,1,0,15,0,0
133019,-86.2068965517241,4,1,0,15,0,0
133054.25,-84.7457627118644,4,1,0,15,0,0
133089.5,-83.3333333333333,4,1,0,15,0,0
133124.75,-82.6446280991736,4,1,0,15,0,0
133160,-81.9672131147541,4,1,0,15,0,0
133195.25,-81.3008130081301,4,1,0,15,0,0
133230.5,-80.6451612903226,4,1,0,15,0,0
133265.75,-80,4,1,0,15,0,0
133301,-79.3650793650794,4,1,0,15,0,0
133336.25,-78.7401574803149,4,1,0,15,0,0
133371.5,-78.125,4,1,0,15,0,0
133406.75,-77.5193798449612,4,1,0,15,0,0
133442,-76.9230769230769,4,1,0,15,0,0
133506,-10.3092783505155,4,2,1,40,0,0
133570,-333.333333333333,4,2,1,40,0,0
133955,-55.5555555555556,4,2,1,40,0,0
134019,-250,4,2,1,40,0,0
135558,-1000,4,2,1,40,0,0
135750,-50,4,2,1,40,0,0
135814,-250,4,2,1,40,0,0
136327,-1000,4,2,1,40,0,0
136519,-50,4,2,1,40,0,0
136583,-250,4,2,1,40,0,0
137096,-166.666666666667,4,2,1,40,0,0
137609,-125,4,2,1,40,0,0
138122,-50,4,2,1,40,0,0
138186,-250,4,2,1,40,0,0
138634,-333.333333333333,4,2,1,40,0,0
139147,-500,4,2,1,40,0,0
139660,-1000,4,2,1,40,0,0
139852,-50,4,2,1,40,0,0
139916,-333.333333333333,4,2,1,40,0,0
140429,-1000,4,2,1,40,0,0
140622,-50,4,2,1,40,0,0
140686,-500,4,2,1,40,0,0
140750,-66.6666666666667,4,2,1,40,0,0
140814,-500,4,2,1,40,0,0
140878,-66.6666666666667,4,2,1,40,0,0
140942,-500,4,2,1,40,0,0
141006,-66.6666666666667,4,2,1,40,0,0
141070,-500,4,2,1,40,0,0
141134,-66.6666666666667,4,2,1,40,0,0
141199,-142.857142857143,4,2,1,40,0,0
141455,-125,4,2,1,40,0,0
141711,-111.111111111111,4,2,1,40,0,0
141968,-100,4,2,1,40,0,0
155301,-10,4,2,1,40,0,0
155311,-100,4,2,1,40,0,0
156327,-10,4,2,1,40,0,0
156337,-100,4,2,1,40,0,0
156840,-10,4,2,1,40,0,0
156850,-100,4,2,1,40,0,0
157352,-10,4,2,1,40,0,0
157362,-100,4,2,1,40,0,0
158634,-333.333333333333,4,2,1,40,0,0
158666,-55.5555555555556,4,2,1,40,0,0
158699,-357.142857142857,4,2,1,40,0,0
158731,-56.4971751412429,4,2,1,40,0,0
158763,-384.615384615385,4,2,1,40,0,0
158795,-57.4712643678161,4,2,1,40,0,0
158827,-416.666666666667,4,2,1,40,0,0
158859,-58.4795321637427,4,2,1,40,0,0
158891,-454.545454545455,4,2,1,40,0,0
158923,-59.5238095238095,4,2,1,40,0,0
158955,-476.190476190476,4,2,1,40,0,0
158987,-60.6060606060606,4,2,1,40,0,0
159019,-500,4,2,1,40,0,0
159051,-61.7283950617284,4,2,1,40,0,0
159083,-526.315789473684,4,2,1,40,0,0
159115,-62.8930817610063,4,2,1,40,0,0
159147,-555.555555555556,4,2,1,40,0,0
159179,-64.1025641025641,4,2,1,40,0,0
159211,-588.235294117647,4,2,1,40,0,0
159243,-65.359477124183,4,2,1,40,0,0
159275,-625,4,2,1,40,0,0
159308,-66.6666666666667,4,2,1,40,0,0
159340,-666.666666666667,4,2,1,40,0,0
159372,-68.0272108843537,4,2,1,40,0,0
159404,-666.666666666667,4,2,1,40,0,0
159436,-69.4444444444444,4,2,1,40,0,0
159468,-666.666666666667,4,2,1,40,0,0
159500,-70.9219858156028,4,2,1,40,0,0
159532,-666.666666666667,4,2,1,40,0,0
159564,-72.463768115942,4,2,1,40,0,0
159596,-666.666666666667,4,2,1,40,0,0
159628,-74.0740740740741,4,2,1,40,0,0
159660,-625,4,2,1,40,0,0
159692,-74.0740740740741,4,2,1,40,0,0
159724,-588.235294117647,4,2,1,40,0,0
159756,-72.463768115942,4,2,1,40,0,0
159788,-555.555555555556,4,2,1,40,0,0
159820,-70.9219858156028,4,2,1,40,0,0
159852,-526.315789473684,4,2,1,40,0,0
159884,-69.4444444444444,4,2,1,40,0,0
159916,-500,4,2,1,40,0,0
159949,-68.0272108843537,4,2,1,40,0,0
159981,-476.190476190476,4,2,1,40,0,0
160013,-66.6666666666667,4,2,1,40,0,0
160045,-454.545454545455,4,2,1,40,0,0
160077,-65.359477124183,4,2,1,40,0,0
160109,-434.782608695652,4,2,1,40,0,0
160141,-64.1025641025641,4,2,1,40,0,0
160173,-416.666666666667,4,2,1,40,0,0
160205,-62.8930817610063,4,2,1,40,0,0
160237,-400,4,2,1,40,0,0
160269,-61.7283950617284,4,2,1,40,0,0
160301,-384.615384615385,4,2,1,40,0,0
160333,-60.6060606060606,4,2,1,40,0,0
160365,-370.37037037037,4,2,1,40,0,0
160397,-59.5238095238095,4,2,1,40,0,0
160429,-357.142857142857,4,2,1,40,0,0
160461,-58.4795321637427,4,2,1,40,0,0
160493,-344.827586206897,4,2,1,40,0,0
160525,-57.4712643678161,4,2,1,40,0,0
160558,-333.333333333333,4,2,1,40,0,0
160590,-56.4971751412429,4,2,1,40,0,0
160622,-333.333333333333,4,2,1,40,0,0
160654,-55.5555555555556,4,2,1,40,0,0
160686,-333.333333333333,4,2,1,40,0,0
160718,-54.6448087431694,4,2,1,40,0,0
160750,-333.333333333333,4,2,1,40,0,0
160782,-53.475935828877,4,2,1,40,0,0
160814,-333.333333333333,4,2,1,40,0,0
160846,-52.6315789473684,4,2,1,40,0,0
160878,-333.333333333333,4,2,1,40,0,0
160910,-51.8134715025907,4,2,1,40,0,0
160942,-333.333333333333,4,2,1,40,0,0
160974,-51.0204081632653,4,2,1,40,0,0
161006,-333.333333333333,4,2,1,40,0,0
161038,-50,4,2,1,40,0,0
161070,-333.333333333333,4,2,1,40,0,0
161102,-50,4,2,1,40,0,0
161134,-333.333333333333,4,2,1,40,0,0
161166,-50,4,2,1,40,0,0
161199,-333.333333333333,4,2,1,40,0,0
161231,-50,4,2,1,40,0,0
161263,-333.333333333333,4,2,1,40,0,0
161295,-50,4,2,1,40,0,0
161327,-333.333333333333,4,2,1,40,0,0
161359,-50,4,2,1,40,0,0
161391,-333.333333333333,4,2,1,40,0,0
161423,-50,4,2,1,40,0,0
161455,-333.333333333333,4,2,1,40,0,0
161487,-50,4,2,1,40,0,0
161519,-333.333333333333,4,2,1,40,0,0
161551,-50,4,2,1,40,0,0
161583,-333.333333333333,4,2,1,40,0,0
161615,-50,4,2,1,40,0,0
161647,-333.333333333333,4,2,1,40,0,0
161679,-50,4,2,1,40,0,0
161711,-333.333333333333,4,2,1,40,0,0
161743,-50,4,2,1,40,0,0
161775,-333.333333333333,4,2,1,40,0,0
161808,-50,4,2,1,40,0,0
161840,-333.333333333333,4,2,1,40,0,0
161872,-50,4,2,1,40,0,0
161904,-333.333333333333,4,2,1,40,0,0
161936,-50,4,2,1,40,0,0
161968,-333.333333333333,4,2,1,40,0,0
162000,-50,4,2,1,40,0,0
162032,-333.333333333333,4,2,1,40,0,0
162064,-50,4,2,1,40,0,0
162096,-333.333333333333,4,2,1,40,0,0
162128,-50,4,2,1,40,0,0
162160,-333.333333333333,4,2,1,40,0,0
162192,-50,4,2,1,40,0,0
162224,-40,4,2,1,40,0,0
162256,-142.857142857143,4,2,1,40,0,0
162416,-40,4,2,1,40,0,0
162448,-142.857142857143,4,2,1,40,0,0
162609,-66.6666666666667,4,2,1,40,0,0
162673,-200,4,2,1,40,0,0
162737,-66.6666666666667,4,2,1,40,0,0
162801,-200,4,2,1,40,0,0
162865,-100,4,2,1,40,0,0
168891,-80,4,2,1,40,0,0
168934,-133.333333333333,4,2,1,40,0,0
168976,-80,4,2,1,40,0,0
169019,-133.333333333333,4,2,1,40,0,0
169062,-80,4,2,1,40,0,0
169105,-133.333333333333,4,2,1,40,0,0
169147,-80,4,2,1,40,0,0
169190,-133.333333333333,4,2,1,40,0,0
169233,-80,4,2,1,40,0,0
169276,-133.333333333333,4,2,1,40,0,0
169318,-80,4,2,1,40,0,0
169361,-133.333333333333,4,2,1,40,0,0
169404,-80,4,2,1,40,0,0
169447,-133.333333333333,4,2,1,40,0,0
169489,-80,4,2,1,40,0,0
169532,-133.333333333333,4,2,1,40,0,0
169575,-80,4,2,1,40,0,0
169618,-133.333333333333,4,2,1,40,0,0
169660,-80,4,2,1,40,0,0
169703,-133.333333333333,4,2,1,40,0,0
169746,-80,4,2,1,40,0,0
169789,-133.333333333333,4,2,1,40,0,0
169831,-80,4,2,1,40,0,0
169874,-133.333333333333,4,2,1,40,0,0
169916,-41.6666666666667,4,2,1,40,0,0
169959,-166.666666666667,4,2,1,40,0,0
170087,-41.6666666666667,4,2,1,40,0,0
170130,-166.666666666667,4,2,1,40,0,0
170258,-41.6666666666667,4,2,1,40,0,0
170301,-166.666666666667,4,2,1,40,0,0
170429,-41.6666666666667,4,2,1,40,0,0
170472,-166.666666666667,4,2,1,40,0,0
170600,-41.6666666666667,4,2,1,40,0,0
170643,-166.666666666667,4,2,1,40,0,0
170771,-100,4,2,1,40,0,0
178634,-66.6666666666667,4,2,1,40,0,0
178677,-200,4,2,1,40,0,0
178720,-66.6666666666667,4,2,1,40,0,0
178763,-200,4,2,1,40,0,0
178805,-66.6666666666667,4,2,1,40,0,0
178848,-200,4,2,1,40,0,0
178891,-66.6666666666667,4,2,1,40,0,0
178934,-200,4,2,1,40,0,0
178976,-66.6666666666667,4,2,1,40,0,0
179019,-200,4,2,1,40,0,0
179062,-66.6666666666667,4,2,1,40,0,0
179105,-200,4,2,1,40,0,0
179147,-66.6666666666667,4,2,1,40,0,0
179211,-200,4,2,1,40,0,0
179275,-66.6666666666667,4,2,1,40,0,0
179340,-200,4,2,1,40,0,0
179404,-66.6666666666667,4,2,1,40,0,0
179468,-200,4,2,1,40,0,0
179532,-66.6666666666667,4,2,1,40,0,0
179596,-200,4,2,1,40,0,0
179660,-66.6666666666667,4,2,1,40,0,0
179724,-200,4,2,1,40,0,0
179788,-66.6666666666667,4,2,1,40,0,0
179852,-200,4,2,1,40,0,0
179916,-66.6666666666667,4,2,1,40,0,0
179981,-200,4,2,1,40,0,0
180045,-66.6666666666667,4,2,1,40,0,0
180109,-200,4,2,1,40,0,0
180173,-66.6666666666667,4,2,1,40,0,0
180237,-200,4,2,1,40,0,0
180301,-66.6666666666667,4,2,1,40,0,0
180365,-200,4,2,1,40,0,0
180429,-66.6666666666667,4,2,1,40,0,0
180493,-200,4,2,1,40,0,0
180558,-66.6666666666667,4,2,1,40,0,0
180622,-200,4,2,1,40,0,0
180686,-66.6666666666667,4,2,1,40,0,0
180750,-200,4,2,1,40,0,0
180814,-66.6666666666667,4,2,1,40,0,0
180878,-200,4,2,1,40,0,0
180942,-66.6666666666667,4,2,1,40,0,0
181006,-200,4,2,1,40,0,0
181070,-66.6666666666667,4,2,1,40,0,0
181134,-200,4,2,1,40,0,0
181199,-66.6666666666667,4,2,1,40,0,0
181263,-200,4,2,1,40,0,0
181327,-66.6666666666667,4,2,1,40,0,0
181391,-200,4,2,1,40,0,0
181455,-66.6666666666667,4,2,1,40,0,0
181519,-200,4,2,1,40,0,0
181583,-66.6666666666667,4,2,1,40,0,0
181647,-200,4,2,1,40,0,0
181711,-66.6666666666667,4,2,1,40,0,0
181775,-200,4,2,1,40,0,0
181840,-66.6666666666667,4,2,1,40,0,0
181904,-200,4,2,1,40,0,0
181968,-66.6666666666667,4,2,1,40,0,0
182032,-200,4,2,1,40,0,0
182096,-66.6666666666667,4,2,1,40,0,0
182160,-200,4,2,1,40,0,0
182224,-66.6666666666667,4,2,1,40,0,0
182288,-200,4,2,1,40,0,0
182352,-66.6666666666667,4,2,1,40,0,0
182416,-200,4,2,1,40,0,0
182481,-66.6666666666667,4,2,1,40,0,0
182545,-200,4,2,1,40,0,0
182609,-66.6666666666667,4,2,1,40,0,0
182673,-200,4,2,1,40,0,0
182737,-66.6666666666667,4,2,1,40,0,0
182801,-200,4,2,1,40,0,0
182865,-66.6666666666667,4,2,1,40,0,0
182929,-200,4,2,1,40,0,0
182993,-66.6666666666667,4,2,1,40,0,0
183058,-200,4,2,1,40,0,0
183122,-66.6666666666667,4,2,1,40,0,0
183186,-200,4,2,1,40,0,0
183250,-100,4,2,1,40,0,0
187096,-33.3333333333333,4,2,1,40,0,0
187112,-166.666666666667,4,2,1,40,0,0
187336,-20,4,2,1,40,0,0
187352,-66.6666666666667,4,2,1,40,0,0
187416,-200,4,2,1,40,0,0
187481,-66.6666666666667,4,2,1,40,0,0
187545,-200,4,2,1,40,0,0
187609,-66.6666666666667,4,2,1,40,0,0
187673,-200,4,2,1,40,0,0
187737,-66.6666666666667,4,2,1,40,0,0
187801,-200,4,2,1,40,0,0
187865,-66.6666666666667,4,2,1,40,0,0
187929,-200,4,2,1,40,0,0
187993,-66.6666666666667,4,2,1,40,0,0
188058,-200,4,2,1,40,0,0
188122,-66.6666666666667,4,2,1,40,0,0
188186,-200,4,2,1,40,0,0
188250,-66.6666666666667,4,2,1,40,0,0
188314,-200,4,2,1,40,0,0
188378,-55.5555555555556,4,2,1,40,0,0
188410,-500,4,2,1,40,0,0
188442,-55.5555555555556,4,2,1,40,0,0
188474,-500,4,2,1,40,0,0
188506,-55.5555555555556,4,2,1,40,0,0
188538,-500,4,2,1,40,0,0
188570,-55.5555555555556,4,2,1,40,0,0
188602,-500,4,2,1,40,0,0
188634,-55.5555555555556,4,2,1,40,0,0
188666,-500,4,2,1,40,0,0
188699,-55.5555555555556,4,2,1,40,0,0
188731,-500,4,2,1,40,0,0
188763,-55.5555555555556,4,2,1,40,0,0
188795,-500,4,2,1,40,0,0
188827,-55.5555555555556,4,2,1,40,0,0
188859,-500,4,2,1,40,0,0
188891,-55.5555555555556,4,2,1,40,0,0
188923,-500,4,2,1,40,0,0
188955,-55.5555555555556,4,2,1,40,0,0
188987,-500,4,2,1,40,0,0
189019,-55.5555555555556,4,2,1,40,0,0
189051,-500,4,2,1,40,0,0
189083,-55.5555555555556,4,2,1,40,0,0
189115,-500,4,2,1,40,0,0
189147,-55.5555555555556,4,2,1,40,0,0
189179,-500,4,2,1,40,0,0
189211,-55.5555555555556,4,2,1,40,0,0
189243,-500,4,2,1,40,0,0
189275,-55.5555555555556,4,2,1,40,0,0
189307,-500,4,2,1,40,0,0
189340,-55.5555555555556,4,2,1,40,0,0
189372,-500,4,2,1,40,0,0
189404,-66.6666666666667,4,2,1,40,0,0
189468,-200,4,2,1,40,0,0
189532,-66.6666666666667,4,2,1,40,0,0
189596,-200,4,2,1,40,0,0
189660,-66.6666666666667,4,2,1,40,0,0
189724,-200,4,2,1,40,0,0
189788,-66.6666666666667,4,2,1,40,0,0
189852,-200,4,2,1,40,0,0
189916,-66.6666666666667,4,2,1,40,0,0
189981,-200,4,2,1,40,0,0
190045,-66.6666666666667,4,2,1,40,0,0
190109,-200,4,2,1,40,0,0
190173,-66.6666666666667,4,2,1,40,0,0
190237,-200,4,2,1,40,0,0
190301,-66.6666666666667,4,2,1,40,0,0
190365,-200,4,2,1,40,0,0
190429,-100,4,2,1,40,0,0
190750,-55.5555555555556,4,2,1,40,0,0
190782,-500,4,2,1,40,0,0
190814,-55.5555555555556,4,2,1,40,0,0
190846,-500,4,2,1,40,0,0
190878,-55.5555555555556,4,2,1,40,0,0
190910,-500,4,2,1,40,0,0
190942,-55.5555555555556,4,2,1,40,0,0
190974,-500,4,2,1,40,0,0
191006,-55.5555555555556,4,2,1,40,0,0
191038,-500,4,2,1,40,0,0
191070,-55.5555555555556,4,2,1,40,0,0
191102,-500,4,2,1,40,0,0
191134,-55.5555555555556,4,2,1,40,0,0
191166,-500,4,2,1,40,0,0
191199,-55.5555555555556,4,2,1,40,0,0
191231,-500,4,2,1,40,0,0
191263,-55.5555555555556,4,2,1,40,0,0
191295,-500,4,2,1,40,0,0
191327,-55.5555555555556,4,2,1,40,0,0
191359,-500,4,2,1,40,0,0
191391,-55.5555555555556,4,2,1,40,0,0
191423,-500,4,2,1,40,0,0
191455,-100,4,2,1,40,0,0
193506,-41.6666666666667,4,2,1,40,0,0
193538,-166.666666666667,4,2,1,40,0,0
193699,-41.6666666666667,4,2,1,40,0,0
193731,-166.666666666667,4,2,1,40,0,0
193891,-66.6666666666667,4,2,1,40,0,0
193955,-200,4,2,1,40,0,0
194019,-41.6666666666667,4,2,1,40,0,0
194051,-166.666666666667,4,2,1,40,0,0
194211,-41.6666666666667,4,2,1,40,0,0
194243,-166.666666666667,4,2,1,40,0,0
194404,-66.6666666666667,4,2,1,40,0,0
194468,-200,4,2,1,40,0,0
194532,-100,4,2,1,40,0,0
195045,-62.5,4,2,1,40,0,0
195493,-111.111111111111,4,2,1,40,0,0
195558,-100,4,2,1,40,0,0
220173,-55.5555555555556,4,2,1,40,0,0
220237,-500,4,2,1,40,0,0
220301,-35.7142857142857,4,2,1,40,0,0
220333,-125,4,2,1,40,0,0
220557,-55.5555555555556,4,2,1,40,0,0
220621,-500,4,2,1,40,0,0
220685,-35.7142857142857,4,2,1,40,0,0
220717,-125,4,2,1,40,0,0
220942,-55.5555555555556,4,2,1,40,0,0
221006,-500,4,2,1,40,0,0
221070,-55.5555555555556,4,2,1,40,0,0
221134,-500,4,2,1,40,0,0
221198,-100,4,2,1,40,0,0
222224,-55.5555555555556,4,2,1,40,0,0
222288,-500,4,2,1,40,0,0
222352,-35.7142857142857,4,2,1,40,0,0
222384,-125,4,2,1,40,0,0
222608,-55.5555555555556,4,2,1,40,0,0
222672,-500,4,2,1,40,0,0
222736,-35.7142857142857,4,2,1,40,0,0
222768,-125,4,2,1,40,0,0
222993,-55.5555555555556,4,2,1,40,0,0
223057,-500,4,2,1,40,0,0
223121,-55.5555555555556,4,2,1,40,0,0
223185,-500,4,2,1,40,0,0
223249,-100,4,2,1,40,0,0
224275,-55.5555555555556,4,2,1,40,0,0
224339,-500,4,2,1,40,0,0
224403,-35.7142857142857,4,2,1,40,0,0
224435,-125,4,2,1,40,0,0
224659,-55.5555555555556,4,2,1,40,0,0
224723,-500,4,2,1,40,0,0
224787,-35.7142857142857,4,2,1,40,0,0
224819,-125,4,2,1,40,0,0
225045,-55.5555555555556,4,2,1,40,0,0
225109,-500,4,2,1,40,0,0
225173,-55.5555555555556,4,2,1,40,0,0
225237,-500,4,2,1,40,0,0
225301,-100,4,2,1,40,0,0
226327,-55.5555555555556,4,2,1,40,0,0
226391,-500,4,2,1,40,0,0
226455,-35.7142857142857,4,2,1,40,0,0
226487,-125,4,2,1,40,0,0
226711,-55.5555555555556,4,2,1,40,0,0
226775,-500,4,2,1,40,0,0
226839,-35.7142857142857,4,2,1,40,0,0
226871,-125,4,2,1,40,0,0
227096,-55.5555555555556,4,2,1,40,0,0
227160,-500,4,2,1,40,0,0
227224,-35.7142857142857,4,2,1,40,0,0
227256,-125,4,2,1,40,0,0
227480,-55.5555555555556,4,2,1,40,0,0
227544,-500,4,2,1,40,0,0
227608,-35.7142857142857,4,2,1,40,0,0
227640,-125,4,2,1,40,0,0
227865,-100,4,2,1,40,0,0
233250,-10,4,2,1,40,0,0
233260,-100,4,2,1,40,0,0
234275,-10,4,2,1,40,0,0
234285,-100,4,2,1,40,0,0
234788,-10,4,2,1,40,0,0
234798,-100,4,2,1,40,0,0
235301,-10,4,2,1,40,0,0
235311,-100,4,2,1,40,0,0
238634,-333.333333333333,4,2,1,40,0,0
238666,-55.5555555555556,4,2,1,40,0,0
238699,-357.142857142857,4,2,1,40,0,0
238731,-56.4971751412429,4,2,1,40,0,0
238763,-384.615384615385,4,2,1,40,0,0
238795,-57.4712643678161,4,2,1,40,0,0
238827,-416.666666666667,4,2,1,40,0,0
238859,-58.4795321637427,4,2,1,40,0,0
238891,-454.545454545455,4,2,1,40,0,0
238923,-59.5238095238095,4,2,1,40,0,0
238955,-476.190476190476,4,2,1,40,0,0
238987,-60.6060606060606,4,2,1,40,0,0
239019,-500,4,2,1,40,0,0
239051,-61.7283950617284,4,2,1,40,0,0
239083,-526.315789473684,4,2,1,40,0,0
239115,-62.8930817610063,4,2,1,40,0,0
239147,-555.555555555556,4,2,1,40,0,0
239179,-64.1025641025641,4,2,1,40,0,0
239211,-588.235294117647,4,2,1,40,0,0
239243,-65.359477124183,4,2,1,40,0,0
239275,-625,4,2,1,40,0,0
239308,-66.6666666666667,4,2,1,40,0,0
239340,-666.666666666667,4,2,1,40,0,0
239372,-68.0272108843537,4,2,1,40,0,0
239404,-666.666666666667,4,2,1,40,0,0
239436,-69.4444444444444,4,2,1,40,0,0
239468,-666.666666666667,4,2,1,40,0,0
239500,-70.9219858156028,4,2,1,40,0,0
239532,-666.666666666667,4,2,1,40,0,0
239564,-72.463768115942,4,2,1,40,0,0
239596,-666.666666666667,4,2,1,40,0,0
239628,-74.0740740740741,4,2,1,40,0,0
239660,-625,4,2,1,40,0,0
239692,-74.0740740740741,4,2,1,40,0,0
239724,-588.235294117647,4,2,1,40,0,0
239756,-72.463768115942,4,2,1,40,0,0
239788,-555.555555555556,4,2,1,40,0,0
239820,-70.9219858156028,4,2,1,40,0,0
239852,-526.315789473684,4,2,1,40,0,0
239884,-69.4444444444444,4,2,1,40,0,0
239916,-500,4,2,1,40,0,0
239949,-68.0272108843537,4,2,1,40,0,0
239981,-476.190476190476,4,2,1,40,0,0
240013,-66.6666666666667,4,2,1,40,0,0
240045,-454.545454545455,4,2,1,40,0,0
240077,-65.359477124183,4,2,1,40,0,0
240109,-434.782608695652,4,2,1,40,0,0
240141,-64.1025641025641,4,2,1,40,0,0
240173,-416.666666666667,4,2,1,40,0,0
240205,-62.8930817610063,4,2,1,40,0,0
240237,-400,4,2,1,40,0,0
240269,-61.7283950617284,4,2,1,40,0,0
240301,-384.615384615385,4,2,1,40,0,0
240333,-60.6060606060606,4,2,1,40,0,0
240365,-370.37037037037,4,2,1,40,0,0
240397,-59.5238095238095,4,2,1,40,0,0
240429,-357.142857142857,4,2,1,40,0,0
240461,-58.4795321637427,4,2,1,40,0,0
240493,-344.827586206897,4,2,1,40,0,0
240525,-57.4712643678161,4,2,1,40,0,0
240558,-333.333333333333,4,2,1,40,0,0
240590,-56.4971751412429,4,2,1,40,0,0
240622,-333.333333333333,4,2,1,40,0,0
240654,-55.5555555555556,4,2,1,40,0,0
240686,-333.333333333333,4,2,1,40,0,0
240718,-54.6448087431694,4,2,1,40,0,0
240750,-333.333333333333,4,2,1,40,0,0
240782,-53.475935828877,4,2,1,40,0,0
240814,-333.333333333333,4,2,1,40,0,0
240846,-52.6315789473684,4,2,1,40,0,0
240878,-333.333333333333,4,2,1,40,0,0
240910,-51.8134715025907,4,2,1,40,0,0
240942,-333.333333333333,4,2,1,40,0,0
240974,-51.0204081632653,4,2,1,40,0,0
241006,-333.333333333333,4,2,1,40,0,0
241038,-50,4,2,1,40,0,0
241070,-333.333333333333,4,2,1,40,0,0
241102,-50,4,2,1,40,0,0
241134,-333.333333333333,4,2,1,40,0,0
241166,-50,4,2,1,40,0,0
241199,-333.333333333333,4,2,1,40,0,0
241231,-50,4,2,1,40,0,0
241263,-333.333333333333,4,2,1,40,0,0
241295,-50,4,2,1,40,0,0
241327,-333.333333333333,4,2,1,40,0,0
241359,-50,4,2,1,40,0,0
241391,-333.333333333333,4,2,1,40,0,0
241423,-50,4,2,1,40,0,0
241455,-333.333333333333,4,2,1,40,0,0
241487,-50,4,2,1,40,0,0
241519,-333.333333333333,4,2,1,40,0,0
241551,-50,4,2,1,40,0,0
241583,-333.333333333333,4,2,1,40,0,0
241615,-50,4,2,1,40,0,0
241647,-333.333333333333,4,2,1,40,0,0
241679,-50,4,2,1,40,0,0
241711,-333.333333333333,4,2,1,40,0,0
241743,-50,4,2,1,40,0,0
241775,-333.333333333333,4,2,1,40,0,0
241808,-50,4,2,1,40,0,0
241840,-333.333333333333,4,2,1,40,0,0
241872,-50,4,2,1,40,0,0
241904,-333.333333333333,4,2,1,40,0,0
241936,-50,4,2,1,40,0,0
241968,-333.333333333333,4,2,1,40,0,0
242000,-50,4,2,1,40,0,0
242032,-333.333333333333,4,2,1,40,0,0
242064,-50,4,2,1,40,0,0
242096,-333.333333333333,4,2,1,40,0,0
242128,-50,4,2,1,40,0,0
242160,-333.333333333333,4,2,1,40,0,0
242192,-50,4,2,1,40,0,0
242224,-40,4,2,1,40,0,0
242256,-142.857142857143,4,2,1,40,0,0
242416,-40,4,2,1,40,0,0
242448,-142.857142857143,4,2,1,40,0,0
242609,-66.6666666666667,4,2,1,40,0,0
242673,-200,4,2,1,40,0,0
242737,-100,4,2,1,40,0,0
257096,-71.4285714285714,4,2,1,40,0,0
257160,-200,4,2,1,40,0,0
257224,-33.3333333333333,4,2,1,40,0,0
257240,-200,4,2,1,40,0,0
257449,-33.3333333333333,4,2,1,40,0,0
257481,-100,4,2,1,40,0,0
257993,-66.6666666666667,4,2,1,40,0,0
258058,-200,4,2,1,40,0,0
258122,-100,4,2,1,40,0,0
258634,-96.1538461538461,4,2,1,40,0,0
258699,-94.3396226415094,4,2,1,40,0,0
258763,-92.5925925925926,4,2,1,40,0,0
258827,-90.9090909090909,4,2,1,40,0,0
258891,-89.2857142857143,4,2,1,40,0,0
258955,-87.719298245614,4,2,1,40,0,0
259019,-86.2068965517241,4,2,1,40,0,0
259083,-84.7457627118644,4,2,1,40,0,0
259147,-66.6666666666667,4,2,1,40,0,0
259211,-200,4,2,1,40,0,0
259275,-100,4,2,1,40,0,0
272224,-33.3333333333333,4,2,1,40,0,0
272234,-333.333333333333,4,2,1,40,0,0
272471,-10,4,2,1,40,0,0
272481,-100,4,2,1,40,0,0
273250,-66.6666666666667,4,2,1,40,0,0
273314,-200,4,2,1,40,0,0
273378,-66.6666666666667,4,2,1,40,0,0
273442,-200,4,2,1,40,0,0
273506,-142.857142857143,4,2,1,40,0,0
274019,-140.845070422535,4,1,0,15,0,0
274070.3,-137.362637362637,4,1,0,15,0,0
274121.6,-134.048257372654,4,1,0,15,0,0
274172.9,-130.890052356021,4,1,0,15,0,0
274224.2,-127.877237851662,4,1,0,15,0,0
274275.5,-125,4,1,0,15,0,0
274326.8,-122.249388753056,4,1,0,15,0,0
274378.1,-119.617224880383,4,1,0,15,0,0
274429.4,-117.096018735363,4,1,0,15,0,0
274480.7,-114.678899082569,4,1,0,15,0,0
274532,-112.359550561798,4,1,0,15,0,0
274583.3,-110.132158590308,4,1,0,15,0,0
274634.6,-107.991360691145,4,1,0,15,0,0
274685.9,-105.932203389831,4,1,0,15,0,0
274737.2,-103.950103950104,4,1,0,15,0,0
274788.5,-102.040816326531,4,1,0,15,0,0
274839.8,-100.200400801603,4,1,0,15,0,0
274891.1,-98.4251968503937,4,1,0,15,0,0
274942.4,-96.7117988394584,4,1,0,15,0,0
274993.7,-95.0570342205323,4,1,0,15,0,0
275045,-93.4579439252336,4,1,0,15,0,0
275096.3,-91.9117647058823,4,1,0,15,0,0
275147.6,-90.4159132007233,4,1,0,15,0,0
275198.9,-88.9679715302491,4,1,0,15,0,0
275250.2,-87.5656742556918,4,1,0,15,0,0
275301.5,-86.2068965517241,4,1,0,15,0,0
275352.8,-84.8896434634975,4,1,0,15,0,0
275404.1,-83.6120401337793,4,1,0,15,0,0
275455.4,-82.3723228995058,4,1,0,15,0,0
275506.7,-81.1688311688312,4,1,0,15,0,0
275558,-80,4,1,0,15,0,0
275750,-117.647058823529,4,1,0,15,0,0
275814,-100,4,1,0,15,0,0
283506,-33.3333333333333,4,2,1,40,0,0
283516,-333.333333333333,4,2,1,40,0,0
283753,-10,4,2,1,40,0,0
283763,-100,4,2,1,40,0,0
288634,-10,4,2,1,40,0,0
288644,-100,4,2,1,40,0,0
290173,-10,4,2,1,40,0,0
290183,-100,4,2,1,40,0,0
290686,-10,4,2,1,40,0,0
290696,-100,4,2,1,40,0,0
295814,-62.5,4,2,1,40,0,0
295846,-250,4,2,1,40,0,0
295878,-62.5,4,2,1,40,0,0
295910,-250,4,2,1,40,0,0
295942,-62.5,4,2,1,40,0,0
295974,-250,4,2,1,40,0,0
296006,-62.5,4,2,1,40,0,0
296038,-250,4,2,1,40,0,0
296070,-100,4,2,1,40,0,0
304019,-166.666666666667,4,2,1,40,0,0
304147,-55.5555555555556,4,2,1,40,0,0
304179,-333.333333333333,4,2,1,40,0,0
304211,-52.6315789473684,4,2,1,40,0,0
304243,-333.333333333333,4,2,1,40,0,0
304275,-100,4,2,1,40,0,0
312481,-98.0392156862745,4,2,1,40,0,0
312545,-97.0873786407767,4,2,1,40,0,0
312609,-96.1538461538461,4,2,1,40,0,0
312673,-95.2380952380952,4,2,1,40,0,0
312737,-94.3396226415094,4,2,1,40,0,0
312801,-93.4579439252336,4,2,1,40,0,0
312865,-92.5925925925926,4,2,1,40,0,0
312929,-91.743119266055,4,2,1,40,0,0
312993,-90.9090909090909,4,2,1,40,0,0
313058,-90.0900900900901,4,2,1,40,0,0
313122,-89.2857142857143,4,2,1,40,0,0
313186,-88.4955752212389,4,2,1,40,0,0
313250,-87.719298245614,4,2,1,40,0,0
313314,-86.9565217391304,4,2,1,40,0,0
313378,-86.2068965517241,4,2,1,40,0,0
313442,-85.4700854700855,4,2,1,40,0,0
313506,-84.7457627118644,4,2,1,40,0,0
313570,-55.5555555555556,4,2,1,40,0,0
314019,-333.333333333333,4,2,1,40,0,0
319404,-333.333333333333,4,1,0,15,0,0
319482.028985507,-294.871794871795,4,1,0,15,0,0
319560.057971014,-264.367816091954,4,1,0,15,0,0
319638.086956522,-239.583333333333,4,1,0,15,0,0
319716.115942029,-219.047619047619,4,1,0,15,0,0
319794.144927536,-201.754385964912,4,1,0,15,0,0
319872.173913043,-186.991869918699,4,1,0,15,0,0
319950.202898551,-174.242424242424,4,1,0,15,0,0
320028.231884058,-163.120567375887,4,1,0,15,0,0
320106.260869565,-153.333333333333,4,1,0,15,0,0
320184.289855072,-144.654088050314,4,1,0,15,0,0
320262.31884058,-136.904761904762,4,1,0,15,0,0
320340.347826087,-129.943502824859,4,1,0,15,0,0
320418.376811594,-123.655913978495,4,1,0,15,0,0
320496.405797101,-117.948717948718,4,1,0,15,0,0
320574.434782609,-112.745098039216,4,1,0,15,0,0
320652.463768116,-107.981220657277,4,1,0,15,0,0
320730.492753623,-103.603603603604,4,1,0,15,0,0
320808.52173913,-99.5670995670996,4,1,0,15,0,0
320886.550724638,-95.8333333333333,4,1,0,15,0,0
320964.579710145,-92.3694779116466,4,1,0,15,0,0
321042.608695652,-89.1472868217054,4,1,0,15,0,0
321120.637681159,-86.1423220973783,4,1,0,15,0,0
321198.666666667,-83.3333333333333,4,1,0,15,0,0
321276.695652174,-80.7017543859649,4,1,0,15,0,0
321354.724637681,-78.2312925170068,4,1,0,15,0,0
321432.753623188,-75.9075907590759,4,1,0,15,0,0
321510.782608696,-73.7179487179487,4,1,0,15,0,0
321588.811594203,-71.6510903426791,4,1,0,15,0,0
321666.84057971,-69.6969696969697,4,1,0,15,0,0
321744.869565217,-67.8466076696165,4,1,0,15,0,0
321822.898550725,-66.0919540229885,4,1,0,15,0,0
321900.927536232,-64.4257703081232,4,1,0,15,0,0
321978.956521739,-62.8415300546448,4,1,0,15,0,0
322056.985507246,-61.3333333333333,4,1,0,15,0,0
322135.014492754,-59.8958333333333,4,1,0,15,0,0
322213.043478261,-58.5241730279898,4,1,0,15,0,0
322291.072463768,-57.2139303482587,4,1,0,15,0,0
322369.101449275,-55.9610705596107,4,1,0,15,0,0
322447.130434783,-54.7619047619048,4,1,0,15,0,0
322525.15942029,-53.6130536130536,4,1,0,15,0,0
322603.188405797,-52.5114155251142,4,1,0,15,0,0
322681.217391304,-51.4541387024608,4,1,0,15,0,0
322759.246376812,-50.4385964912281,4,1,0,15,0,0
322837.275362319,-49.4623655913978,4,1,0,15,0,0
322915.304347826,-48.5232067510549,4,1,0,15,0,0
322993.333333333,-47.6190476190476,4,1,0,15,0,0
323071.362318841,-46.7479674796748,4,1,0,15,0,0
323149.391304348,-45.9081836327345,4,1,0,15,0,0
323227.420289855,-45.0980392156863,4,1,0,15,0,0
323305.449275362,-44.3159922928709,4,1,0,15,0,0
323383.47826087,-43.5606060606061,4,1,0,15,0,0
323461.507246377,-42.8305400372439,4,1,0,15,0,0
323539.536231884,-42.1245421245421,4,1,0,15,0,0
323617.565217391,-41.4414414414414,4,1,0,15,0,0
323695.594202899,-40.7801418439716,4,1,0,15,0,0
323773.623188406,-40.1396160558464,4,1,0,15,0,0
323851.652173913,-39.5189003436426,4,1,0,15,0,0
323929.68115942,-38.917089678511,4,1,0,15,0,0
324007.710144928,-38.3333333333333,4,1,0,15,0,0
324085.739130435,-37.7668308702791,4,1,0,15,0,0

[HitObjects]
36,192,3299,5,0,0:0:0:0:
475,192,3299,128,0,7289:0:0:0:0:
182,192,3369,1,0,0:0:0:0:
329,192,3440,1,0,0:0:0:0:
402,192,3487,1,0,0:0:0:0:
182,192,4431,128,0,4496:0:0:0:0:
329,192,4431,128,0,4496:0:0:0:0:
182,192,6482,128,0,6539:0:0:0:0:
329,192,6482,128,0,6539:0:0:0:0:
475,192,7405,1,0,0:0:0:0:
36,192,7405,128,0,10617:0:0:0:0:
182,192,7459,1,0,0:0:0:0:
329,192,7513,1,0,0:0:0:0:
402,192,7549,1,0,0:0:0:0:
182,192,8291,128,0,8343:0:0:0:0:
329,192,8291,128,0,8343:0:0:0:0:
182,192,9940,128,0,9988:0:0:0:0:
329,192,9940,128,0,9988:0:0:0:0:
36,192,10714,1,0,0:0:0:0:
475,192,10714,128,0,13472:0:0:0:0:
182,192,10759,1,0,0:0:0:0:
256,192,10805,1,0,0:0:0:0:
402,192,10835,1,0,0:0:0:0:
182,192,11471,128,0,11516:0:0:0:0:
329,192,11471,128,0,11516:0:0:0:0:
182,192,12880,128,0,12930:0:0:0:0:
329,192,12880,128,0,12930:0:0:0:0:
475,192,13555,1,0,0:0:0:0:
36,192,13559,128,0,16022:0:0:0:0:
182,192,13599,1,0,0:0:0:0:
256,192,13640,1,0,0:0:0:0:
329,192,13667,1,0,0:0:0:0:
182,192,14213,128,0,14252:0:0:0:0:
329,192,14213,128,0,14252:0:0:0:0:
182,192,15487,128,0,15525:0:0:0:0:
329,192,15487,128,0,15525:0:0:0:0:
256,192,16096,1,0,0:0:0:0:
402,192,16096,1,0,0:0:0:0:
475,192,16096,1,0,0:0:0:0:
36,192,16096,1,0,0:0:0:0:
109,192,16096,1,0,0:0:0:0:
36,192,16546,128,0,16583:0:0:0:0:
36,192,16696,128,0,16733:0:0:0:0:
36,192,17596,128,0,17633:0:0:0:0:
109,192,17746,128,0,17783:0:0:0:0:
182,192,17896,128,0,17933:0:0:0:0:
256,192,18196,128,0,18233:0:0:0:0:
475,192,18496,1,0,0:0:0:0:
109,192,18496,1,0,0:0:0:0:
329,192,18496,128,0,18533:0:0:0:0:
36,192,18946,128,0,18983:0:0:0:0:
36,192,19096,128,0,19133:0:0:0:0:
109,192,19996,128,0,20033:0:0:0:0:
182,192,20146,128,0,20183:0:0:0:0:
256,192,20296,128,0,20333:0:0:0:0:
329,192,20596,128,0,20633:0:0:0:0:
402,192,20896,128,0,20933:0:0:0:0:
36,192,20896,1,0,0:0:0:0:
109,192,20933,1,0,0:0:0:0:
182,192,20971,1,0,0:0:0:0:
182,192,21346,128,0,21383:0:0:0:0:
182,192,21496,128,0,21533:0:0:0:0:
182,192,22396,128,0,22433:0:0:0:0:
256,192,22546,128,0,22583:0:0:0:0:
329,192,22696,128,0,22733:0:0:0:0:
402,192,22996,128,0,23033:0:0:0:0:
36,192,23296,1,0,0:0:0:0:
329,192,23296,128,0,23333:0:0:0:0:
109,192,23333,1,0,0:0:0:0:
182,192,23371,1,0,0:0:0:0:
402,192,23746,128,0,23783:0:0:0:0:
402,192,23896,128,0,23933:0:0:0:0:
475,192,24346,128,0,24383:0:0:0:0:
475,192,24496,128,0,24571:0:0:0:0:
402,192,25096,1,0,0:0:0:0:
36,192,25096,1,0,0:0:0:0:
182,192,25096,1,0,0:0:0:0:
182,192,25396,128,0,25433:0:0:0:0:
256,192,25546,128,0,25583:0:0:0:0:
475,192,25696,1,0,0:0:0:0:
36,192,25696,1,0,0:0:0:0:
109,192,25696,1,0,0:0:0:0:
329,192,25696,128,0,25733:0:0:0:0:
182,192,26146,128,0,26183:0:0:0:0:
182,192,26296,128,0,26333:0:0:0:0:
182,192,27196,128,0,27233:0:0:0:0:
329,192,27346,128,0,27383:0:0:0:0:
182,192,27496,128,0,27533:0:0:0:0:
109,192,27796,128,0,27833:0:0:0:0:
36,192,28096,128,0,28133:0:0:0:0:
329,192,28096,1,0,0:0:0:0:
402,192,28133,1,0,0:0:0:0:
475,192,28171,1,0,0:0:0:0:
329,192,28546,128,0,28583:0:0:0:0:
329,192,28696,128,0,28733:0:0:0:0:
329,192,29596,128,0,29633:0:0:0:0:
475,192,29746,128,0,29783:0:0:0:0:
36,192,29896,1,0,0:0:0:0:
182,192,29896,1,0,0:0:0:0:
256,192,30196,128,0,30233:0:0:0:0:
109,192,30496,128,0,30533:0:0:0:0:
329,192,30496,1,0,0:0:0:0:
402,192,30533,1,0,0:0:0:0:
475,192,30571,1,0,0:0:0:0:
182,192,30946,128,0,30983:0:0:0:0:
182,192,31109,128,0,31151:0:0:0:0:
36,192,31769,1,0,0:0:0:0:
182,192,31813,1,0,0:0:0:0:
329,192,31858,1,0,0:0:0:0:
475,192,31902,1,0,0:0:0:0:
256,192,32126,128,0,32170:0:0:0:0:
329,192,32304,128,0,32349:0:0:0:0:
402,192,32483,128,0,32533:0:0:0:0:
182,192,32483,1,0,0:0:0:0:
36,192,32483,1,0,0:0:0:0:
475,192,32883,128,0,32933:0:0:0:0:
36,192,33283,1,0,0:0:0:0:
475,192,33283,128,0,33350:0:0:0:0:
256,192,33952,128,0,34007:0:0:0:0:
256,192,34171,128,0,38767:0:0:0:0:
36,192,34171,1,0,0:0:0:0:
475,192,34171,1,0,0:0:0:0:
36,192,36198,128,0,38767:0:0:0:0:
109,192,36238,128,0,38767:0:0:0:0:
329,192,36278,128,0,38767:0:0:0:0:
475,192,36318,128,0,38767:0:0:0:0:
402,192,38767,1,0,0:0:0:0:
329,192,38967,1,0,0:0:0:0:
182,192,39136,1,0,0:0:0:0:
109,192,39278,1,0,0:0:0:0:
329,192,39421,1,0,0:0:0:0:
256,192,39554,1,0,0:0:0:0:
182,192,39683,1,0,0:0:0:0:
36,192,39812,1,0,0:0:0:0:
475,192,39942,1,0,0:0:0:0:
329,192,40063,1,0,0:0:0:0:
182,192,40224,1,0,0:0:0:0:
36,192,40646,1,0,0:0:0:0:
36,192,41167,128,0,41357:0:0:0:0:
182,192,41167,128,0,41547:0:0:0:0:
402,192,41167,128,0,41643:0:0:0:0:
475,192,41167,128,0,42214:0:0:0:0:
109,192,41167,128,0,41452:0:0:0:0:
329,192,41167,1,0,0:0:0:0:
329,192,41262,128,0,41738:0:0:0:0:
256,192,41357,128,0,41833:0:0:0:0:
36,192,41452,128,0,41928:0:0:0:0:
109,192,41547,128,0,42024:0:0:0:0:
182,192,41643,128,0,42119:0:0:0:0:
402,192,41738,128,0,42309:0:0:0:0:
329,192,41833,128,0,42405:0:0:0:0:
256,192,41928,128,0,42214:0:0:0:0:
36,192,42024,128,0,42500:0:0:0:0:
109,192,42119,128,0,42595:0:0:0:0:
182,192,42214,128,0,42690:0:0:0:0:
256,192,42309,128,0,43547:0:0:0:0:
475,192,42309,128,0,42786:0:0:0:0:
402,192,42405,128,0,42881:0:0:0:0:
329,192,42500,128,0,42976:0:0:0:0:
36,192,42595,128,0,43071:0:0:0:0:
109,192,42690,128,0,43167:0:0:0:0:
182,192,42786,128,0,43262:0:0:0:0:
475,192,42881,128,0,43357:0:0:0:0:
402,192,42976,128,0,45605:0:0:0:0:
329,192,43071,128,0,43452:0:0:0:0:
36,192,43167,128,0,43643:0:0:0:0:
109,192,43262,128,0,43738:0:0:0:0:
182,192,43357,128,0,43833:0:0:0:0:
475,192,43452,128,0,43928:0:0:0:0:
329,192,43547,128,0,44024:0:0:0:0:
256,192,43643,128,0,44119:0:0:0:0:
36,192,43738,128,0,44214:0:0:0:0:
109,192,43833,128,0,44309:0:0:0:0:
182,192,43928,128,0,44405:0:0:0:0:
475,192,44024,128,0,44500:0:0:0:0:
329,192,44119,128,0,44582:0:0:0:0:
256,192,44214,128,0,44675:0:0:0:0:
36,192,44309,128,0,44768:0:0:0:0:
109,192,44405,128,0,44861:0:0:0:0:
182,192,44500,128,0,44954:0:0:0:0:
475,192,44582,128,0,45047:0:0:0:0:
329,192,44675,128,0,45140:0:0:0:0:
256,192,44768,128,0,45233:0:0:0:0:
36,192,44861,128,0,45326:0:0:0:0:
109,192,44954,128,0,45419:0:0:0:0:
182,192,45047,128,0,45512:0:0:0:0:
475,192,45140,128,0,45605:0:0:0:0:
329,192,45233,128,0,45698:0:0:0:0:
256,192,45326,128,0,46867:0:0:0:0:
36,192,45419,128,0,45605:0:0:0:0:
109,192,45512,128,0,45878:0:0:0:0:
182,192,45605,128,0,45788:0:0:0:0:
36,192,45698,128,0,47486:0:0:0:0:
402,192,45698,128,0,46148:0:0:0:0:
475,192,45698,128,0,46688:0:0:0:0:
329,192,45788,128,0,46058:0:0:0:0:
182,192,45878,128,0,45968:0:0:0:0:
109,192,45968,128,0,46418:0:0:0:0:
182,192,46058,128,0,46328:0:0:0:0:
329,192,46148,128,0,46238:0:0:0:0:
402,192,46238,128,0,46779:0:0:0:0:
329,192,46328,128,0,46598:0:0:0:0:
182,192,46418,128,0,46508:0:0:0:0:
109,192,46508,128,0,46955:0:0:0:0:
182,192,46598,128,0,47044:0:0:0:0:
329,192,46688,128,0,47132:0:0:0:0:
475,192,46779,128,0,47752:0:0:0:0:
402,192,46867,128,0,47221:0:0:0:0:
256,192,46955,128,0,47309:0:0:0:0:
109,192,47044,128,0,47398:0:0:0:0:
182,192,47132,128,0,47575:0:0:0:0:
329,192,47221,128,0,47663:0:0:0:0:
402,192,47309,128,0,47840:0:0:0:0:
256,192,47398,128,0,47926:0:0:0:0:
109,192,47486,128,0,48622:0:0:0:0:
36,192,47575,128,0,48013:0:0:0:0:
182,192,47663,128,0,48100:0:0:0:0:
329,192,47752,128,0,48187:0:0:0:0:
475,192,47840,128,0,48274:0:0:0:0:
402,192,47926,128,0,48361:0:0:0:0:
256,192,48013,128,0,48448:0:0:0:0:
36,192,48100,128,0,48535:0:0:0:0:
182,192,48187,128,0,48709:0:0:0:0:
329,192,48274,128,0,48883:0:0:0:0:
475,192,48361,128,0,48796:0:0:0:0:
402,192,48448,128,0,49314:0:0:0:0:
256,192,48535,128,0,48969:0:0:0:0:
36,192,48622,128,0,49572:0:0:0:0:
109,192,48709,128,0,49055:0:0:0:0:
182,192,48796,128,0,49141:0:0:0:0:
475,192,48883,128,0,49831:0:0:0:0:
329,192,48969,128,0,49227:0:0:0:0:
256,192,49055,128,0,49400:0:0:0:0:
109,192,49141,128,0,49486:0:0:0:0:
182,192,49227,128,0,49831:0:0:0:0:
329,192,49314,128,0,49831:0:0:0:0:
402,192,49400,128,0,49831:0:0:0:0:
256,192,49486,128,0,49745:0:0:0:0:
109,192,49572,128,0,49658:0:0:0:0:
36,192,49658,128,0,49831:0:0:0:0:
109,192,49745,128,0,49831:0:0:0:0:
256,192,49831,1,0,0:0:0:0:
182,192,49917,1,0,0:0:0:0:
329,192,49917,1,0,0:0:0:0:
402,192,49917,1,0,0:0:0:0:
36,192,49917,128,0,51455:0:0:0:0:
475,192,49917,1,0,0:0:0:0:
329,192,50045,1,0,0:0:0:0:
329,192,50173,1,0,0:0:0:0:
329,192,50301,1,0,0:0:0:0:
329,192,50429,1,0,0:0:0:0:
256,192,50686,1,0,0:0:0:0:
182,192,50942,1,0,0:0:0:0:
109,192,50942,1,0,0:0:0:0:
329,192,50942,1,0,0:0:0:0:
402,192,50942,1,0,0:0:0:0:
475,192,50942,1,0,0:0:0:0:
329,192,51070,1,0,0:0:0:0:
329,192,51199,1,0,0:0:0:0:
256,192,51455,128,0,51968:0:0:0:0:
36,192,51711,1,0,0:0:0:0:
182,192,51711,1,0,0:0:0:0:
329,192,51711,1,0,0:0:0:0:
475,192,51711,1,0,0:0:0:0:
109,192,51711,1,0,0:0:0:0:
402,192,51840,1,0,0:0:0:0:
475,192,51968,128,0,53506:0:0:0:0:
182,192,51968,1,0,0:0:0:0:
36,192,51968,1,0,0:0:0:0:
329,192,51968,1,0,0:0:0:0:
182,192,52096,1,0,0:0:0:0:
182,192,52224,1,0,0:0:0:0:
182,192,52352,1,0,0:0:0:0:
36,192,52481,1,0,0:0:0:0:
109,192,52481,1,0,0:0:0:0:
256,192,52481,1,0,0:0:0:0:
329,192,52481,1,0,0:0:0:0:
402,192,52481,1,0,0:0:0:0:
36,192,52609,1,0,0:0:0:0:
36,192,52737,1,0,0:0:0:0:
36,192,52865,1,0,0:0:0:0:
256,192,52993,1,0,0:0:0:0:
182,192,52993,1,0,0:0:0:0:
109,192,52993,1,0,0:0:0:0:
402,192,52993,1,0,0:0:0:0:
402,192,53122,1,0,0:0:0:0:
182,192,53250,1,0,0:0:0:0:
182,192,53378,1,0,0:0:0:0:
402,192,53506,128,0,53634:0:0:0:0:
109,192,53506,1,0,0:0:0:0:
256,192,53506,1,0,0:0:0:0:
36,192,53506,1,0,0:0:0:0:
329,192,53634,128,0,54019:0:0:0:0:
256,192,54019,128,0,55558:0:0:0:0:
402,192,54019,1,0,0:0:0:0:
475,192,54019,1,0,0:0:0:0:
36,192,54019,1,0,0:0:0:0:
109,192,54019,1,0,0:0:0:0:
109,192,54147,1,0,0:0:0:0:
109,192,54275,1,0,0:0:0:0:
109,192,54404,1,0,0:0:0:0:
36,192,54532,1,0,0:0:0:0:
329,192,54532,1,0,0:0:0:0:
475,192,54532,1,0,0:0:0:0:
182,192,54532,1,0,0:0:0:0:
402,192,54532,1,0,0:0:0:0:
329,192,54788,1,0,0:0:0:0:
36,192,55045,1,0,0:0:0:0:
402,192,55045,1,0,0:0:0:0:
475,192,55045,1,0,0:0:0:0:
109,192,55045,1,0,0:0:0:0:
109,192,55173,1,0,0:0:0:0:
109,192,55301,1,0,0:0:0:0:
109,192,55429,1,0,0:0:0:0:
329,192,55558,128,0,55814:0:0:0:0:
256,192,55814,128,0,56070:0:0:0:0:
109,192,55814,1,0,0:0:0:0:
36,192,55814,1,0,0:0:0:0:
475,192,55814,1,0,0:0:0:0:
402,192,55814,1,0,0:0:0:0:
182,192,56070,128,0,56840:0:0:0:0:
36,192,56070,1,0,0:0:0:0:
402,192,56070,1,0,0:0:0:0:
475,192,56070,1,0,0:0:0:0:
329,192,56070,1,0,0:0:0:0:
329,192,56199,1,0,0:0:0:0:
329,192,56327,1,0,0:0:0:0:
329,192,56455,1,0,0:0:0:0:
36,192,56583,1,0,0:0:0:0:
109,192,56583,1,0,0:0:0:0:
402,192,56583,1,0,0:0:0:0:
475,192,56583,1,0,0:0:0:0:
256,192,56583,1,0,0:0:0:0:
256,192,56711,1,0,0:0:0:0:
36,192,56840,1,0,0:0:0:0:
109,192,56840,1,0,0:0:0:0:
329,192,56840,1,0,0:0:0:0:
402,192,56840,1,0,0:0:0:0:
475,192,56840,1,0,0:0:0:0:
256,192,56968,1,0,0:0:0:0:
182,192,57096,1,0,0:0:0:0:
109,192,57096,1,0,0:0:0:0:
36,192,57096,1,0,0:0:0:0:
329,192,57096,1,0,0:0:0:0:
475,192,57096,1,0,0:0:0:0:
329,192,57224,1,0,0:0:0:0:
329,192,57352,1,0,0:0:0:0:
329,192,57481,1,0,0:0:0:0:
402,192,57609,128,0,57865:0:0:0:0:
36,192,57609,1,0,0:0:0:0:
182,192,57609,1,0,0:0:0:0:
475,192,57609,1,0,0:0:0:0:
109,192,57609,1,0,0:0:0:0:
256,192,57865,128,0,58122:0:0:0:0:
36,192,58122,128,0,59660:0:0:0:0:
109,192,58122,1,0,0:0:0:0:
182,192,58122,1,0,0:0:0:0:
402,192,58122,1,0,0:0:0:0:
475,192,58122,1,0,0:0:0:0:
329,192,58122,1,0,0:0:0:0:
329,192,58250,1,0,0:0:0:0:
329,192,58378,1,0,0:0:0:0:
329,192,58506,1,0,0:0:0:0:
182,192,58634,1,0,0:0:0:0:
329,192,58634,1,0,0:0:0:0:
182,192,58891,1,0,0:0:0:0:
109,192,59147,1,0,0:0:0:0:
256,192,59147,1,0,0:0:0:0:
329,192,59147,1,0,0:0:0:0:
402,192,59147,1,0,0:0:0:0:
475,192,59147,1,0,0:0:0:0:
329,192,59275,1,0,0:0:0:0:
182,192,59404,1,0,0:0:0:0:
182,192,59532,1,0,0:0:0:0:
256,192,59660,128,0,59916:0:0:0:0:
109,192,59660,1,0,0:0:0:0:
475,192,59916,128,0,60173:0:0:0:0:
36,192,59916,1,0,0:0:0:0:
182,192,59916,1,0,0:0:0:0:
402,192,59916,1,0,0:0:0:0:
329,192,59916,1,0,0:0:0:0:
182,192,60045,1,0,0:0:0:0:
256,192,60173,128,0,61199:0:0:0:0:
329,192,60173,1,0,0:0:0:0:
109,192,60173,1,0,0:0:0:0:
36,192,60173,1,0,0:0:0:0:
329,192,60301,1,0,0:0:0:0:
109,192,60429,1,0,0:0:0:0:
109,192,60558,1,0,0:0:0:0:
402,192,60686,1,0,0:0:0:0:
475,192,60686,1,0,0:0:0:0:
182,192,60686,1,0,0:0:0:0:
36,192,60686,1,0,0:0:0:0:
329,192,60686,1,0,0:0:0:0:
329,192,60814,1,0,0:0:0:0:
329,192,60942,1,0,0:0:0:0:
329,192,61070,1,0,0:0:0:0:
475,192,61199,1,0,0:0:0:0:
182,192,61199,1,0,0:0:0:0:
402,192,61199,1,0,0:0:0:0:
36,192,61199,128,0,61968:0:0:0:0:
109,192,61199,1,0,0:0:0:0:
475,192,61327,1,0,0:0:0:0:
475,192,61455,1,0,0:0:0:0:
182,192,61711,1,0,0:0:0:0:
109,192,61711,1,0,0:0:0:0:
329,192,61711,128,0,61797:0:0:0:0:
475,192,61797,128,0,61882:0:0:0:0:
256,192,61882,128,0,61968:0:0:0:0:
402,192,61968,128,0,62053:0:0:0:0:
182,192,62053,128,0,62139:0:0:0:0:
329,192,62139,128,0,62224:0:0:0:0:
475,192,62224,128,0,64275:0:0:0:0:
36,192,62224,1,0,0:0:0:0:
109,192,62224,1,0,0:0:0:0:
256,192,62224,1,0,0:0:0:0:
402,192,62224,1,0,0:0:0:0:
109,192,62352,1,0,0:0:0:0:
109,192,62481,1,0,0:0:0:0:
109,192,62609,1,0,0:0:0:0:
36,192,62737,1,0,0:0:0:0:
329,192,62737,1,0,0:0:0:0:
402,192,62737,1,0,0:0:0:0:
182,192,62737,128,0,62801:0:0:0:0:
329,192,62993,1,0,0:0:0:0:
36,192,63250,1,0,0:0:0:0:
109,192,63250,1,0,0:0:0:0:
182,192,63250,1,0,0:0:0:0:
402,192,63250,1,0,0:0:0:0:
256,192,63250,128,0,63314:0:0:0:0:
402,192,63506,1,0,0:0:0:0:
402,192,63763,128,0,63848:0:0:0:0:
256,192,63848,128,0,63934:0:0:0:0:
109,192,63934,128,0,64019:0:0:0:0:
36,192,64019,1,0,0:0:0:0:
402,192,64019,1,0,0:0:0:0:
329,192,64019,128,0,64105:0:0:0:0:
182,192,64105,128,0,64190:0:0:0:0:
36,192,64190,128,0,64275:0:0:0:0:
256,192,64275,128,0,65301:0:0:0:0:
402,192,64275,1,0,0:0:0:0:
109,192,64275,1,0,0:0:0:0:
329,192,64275,1,0,0:0:0:0:
329,192,64404,1,0,0:0:0:0:
329,192,64532,1,0,0:0:0:0:
329,192,64660,1,0,0:0:0:0:
182,192,64788,1,0,0:0:0:0:
475,192,64788,1,0,0:0:0:0:
402,192,64788,1,0,0:0:0:0:
36,192,64788,1,0,0:0:0:0:
182,192,64916,1,0,0:0:0:0:
109,192,65045,1,0,0:0:0:0:
475,192,65045,1,0,0:0:0:0:
36,192,65045,1,0,0:0:0:0:
329,192,65045,1,0,0:0:0:0:
329,192,65173,1,0,0:0:0:0:
475,192,65301,128,0,66263:0:0:0:0:
182,192,65301,128,0,66006:0:0:0:0:
402,192,65301,1,0,0:0:0:0:
36,192,65301,1,0,0:0:0:0:
109,192,65558,128,0,66006:0:0:0:0:
36,192,65814,128,0,66006:0:0:0:0:
36,192,66070,128,0,66263:0:0:0:0:
109,192,66070,128,0,66263:0:0:0:0:
182,192,66070,128,0,66263:0:0:0:0:
329,192,66070,128,0,66263:0:0:0:0:
36,192,66327,1,0,0:0:0:0:
109,192,66327,1,0,0:0:0:0:
182,192,66327,1,0,0:0:0:0:
329,192,66327,1,0,0:0:0:0:
475,192,66327,1,0,0:0:0:0:
329,192,66455,1,0,0:0:0:0:
475,192,66455,1,0,0:0:0:0:
182,192,66455,1,0,0:0:0:0:
109,192,66455,1,0,0:0:0:0:
36,192,66455,1,0,0:0:0:0:
36,192,66711,1,0,0:0:0:0:
182,192,66711,1,0,0:0:0:0:
475,192,66711,1,0,0:0:0:0:
109,192,66711,1,0,0:0:0:0:
329,192,66711,1,0,0:0:0:0:
36,192,66840,1,0,0:0:0:0:
182,192,66840,1,0,0:0:0:0:
475,192,66840,1,0,0:0:0:0:
329,192,66840,1,0,0:0:0:0:
109,192,66840,1,0,0:0:0:0:
109,192,67096,1,0,0:0:0:0:
329,192,67096,1,0,0:0:0:0:
475,192,67096,1,0,0:0:0:0:
36,192,67096,1,0,0:0:0:0:
182,192,67096,1,0,0:0:0:0:
329,192,67224,1,0,0:0:0:0:
109,192,67224,1,0,0:0:0:0:
475,192,67224,1,0,0:0:0:0:
36,192,67224,1,0,0:0:0:0:
182,192,67224,1,0,0:0:0:0:
256,192,67352,1,0,0:0:0:0:
402,192,67352,1,0,0:0:0:0:
475,192,67352,1,0,0:0:0:0:
182,192,67438,1,0,0:0:0:0:
329,192,67438,1,0,0:0:0:0:
109,192,67523,1,0,0:0:0:0:
256,192,67523,1,0,0:0:0:0:
182,192,67609,1,0,0:0:0:0:
36,192,67609,1,0,0:0:0:0:
329,192,67694,1,0,0:0:0:0:
109,192,67694,1,0,0:0:0:0:
402,192,67780,1,0,0:0:0:0:
182,192,67780,1,0,0:0:0:0:
256,192,67865,1,0,0:0:0:0:
475,192,67865,1,0,0:0:0:0:
182,192,67951,1,0,0:0:0:0:
402,192,67951,1,0,0:0:0:0:
109,192,68036,1,0,0:0:0:0:
329,192,68036,1,0,0:0:0:0:
36,192,68122,1,0,0:0:0:0:
256,192,68122,1,0,0:0:0:0:
109,192,68207,1,0,0:0:0:0:
329,192,68207,1,0,0:0:0:0:
182,192,68293,1,0,0:0:0:0:
402,192,68293,1,0,0:0:0:0:
329,192,68378,1,0,0:0:0:0:
475,192,68378,1,0,0:0:0:0:
109,192,68378,1,0,0:0:0:0:
256,192,68378,1,0,0:0:0:0:
36,192,68378,1,0,0:0:0:0:
36,192,68506,1,0,0:0:0:0:
109,192,68506,1,0,0:0:0:0:
329,192,68506,1,0,0:0:0:0:
256,192,68506,1,0,0:0:0:0:
475,192,68506,1,0,0:0:0:0:
329,192,68763,1,0,0:0:0:0:
256,192,68763,1,0,0:0:0:0:
475,192,68763,1,0,0:0:0:0:
109,192,68763,1,0,0:0:0:0:
36,192,68763,1,0,0:0:0:0:
475,192,68891,1,0,0:0:0:0:
256,192,68891,1,0,0:0:0:0:
329,192,68891,1,0,0:0:0:0:
109,192,68891,1,0,0:0:0:0:
36,192,68891,1,0,0:0:0:0:
329,192,69147,1,0,0:0:0:0:
256,192,69147,1,0,0:0:0:0:
475,192,69147,1,0,0:0:0:0:
109,192,69147,1,0,0:0:0:0:
36,192,69147,1,0,0:0:0:0:
475,192,69275,1,0,0:0:0:0:
256,192,69275,1,0,0:0:0:0:
329,192,69275,1,0,0:0:0:0:
109,192,69275,1,0,0:0:0:0:
36,192,69275,1,0,0:0:0:0:
402,192,69404,1,0,0:0:0:0:
109,192,69404,1,0,0:0:0:0:
36,192,69404,1,0,0:0:0:0:
329,192,69489,1,0,0:0:0:0:
182,192,69489,1,0,0:0:0:0:
402,192,69575,1,0,0:0:0:0:
109,192,69575,1,0,0:0:0:0:
475,192,69660,1,0,0:0:0:0:
182,192,69660,1,0,0:0:0:0:
329,192,69746,1,0,0:0:0:0:
36,192,69746,1,0,0:0:0:0:
109,192,69831,1,0,0:0:0:0:
402,192,69831,1,0,0:0:0:0:
182,192,69916,1,0,0:0:0:0:
329,192,69916,1,0,0:0:0:0:
475,192,70002,1,0,0:0:0:0:
256,192,70002,1,0,0:0:0:0:
402,192,70087,1,0,0:0:0:0:
109,192,70087,1,0,0:0:0:0:
329,192,70173,1,0,0:0:0:0:
36,192,70173,1,0,0:0:0:0:
256,192,70258,1,0,0:0:0:0:
109,192,70258,1,0,0:0:0:0:
182,192,70344,1,0,0:0:0:0:
329,192,70344,1,0,0:0:0:0:
256,192,70429,1,0,0:0:0:0:
109,192,70429,1,0,0:0:0:0:
36,192,70429,1,0,0:0:0:0:
402,192,70429,1,0,0:0:0:0:
475,192,70429,1,0,0:0:0:0:
256,192,70558,1,0,0:0:0:0:
109,192,70558,1,0,0:0:0:0:
36,192,70558,1,0,0:0:0:0:
402,192,70558,1,0,0:0:0:0:
475,192,70558,1,0,0:0:0:0:
402,192,70814,1,0,0:0:0:0:
475,192,70814,1,0,0:0:0:0:
256,192,70814,1,0,0:0:0:0:
109,192,70814,1,0,0:0:0:0:
36,192,70814,1,0,0:0:0:0:
475,192,70942,1,0,0:0:0:0:
402,192,70942,1,0,0:0:0:0:
256,192,70942,1,0,0:0:0:0:
109,192,70942,1,0,0:0:0:0:
36,192,70942,1,0,0:0:0:0:
256,192,71199,1,0,0:0:0:0:
402,192,71199,1,0,0:0:0:0:
475,192,71199,1,0,0:0:0:0:
36,192,71199,1,0,0:0:0:0:
109,192,71199,1,0,0:0:0:0:
475,192,71327,1,0,0:0:0:0:
402,192,71327,1,0,0:0:0:0:
109,192,71327,1,0,0:0:0:0:
36,192,71327,1,0,0:0:0:0:
256,192,71327,1,0,0:0:0:0:
182,192,71455,1,0,0:0:0:0:
329,192,71455,1,0,0:0:0:0:
475,192,71455,1,0,0:0:0:0:
109,192,71540,1,0,0:0:0:0:
256,192,71540,1,0,0:0:0:0:
329,192,71626,1,0,0:0:0:0:
475,192,71626,1,0,0:0:0:0:
256,192,71711,1,0,0:0:0:0:
402,192,71711,1,0,0:0:0:0:
182,192,71797,1,0,0:0:0:0:
36,192,71797,1,0,0:0:0:0:
109,192,71882,1,0,0:0:0:0:
256,192,71882,1,0,0:0:0:0:
182,192,71968,1,0,0:0:0:0:
329,192,71968,1,0,0:0:0:0:
109,192,72053,1,0,0:0:0:0:
256,192,72053,1,0,0:0:0:0:
329,192,72139,1,0,0:0:0:0:
475,192,72139,1,0,0:0:0:0:
256,192,72224,1,0,0:0:0:0:
402,192,72224,1,0,0:0:0:0:
109,192,72310,1,0,0:0:0:0:
329,192,72310,1,0,0:0:0:0:
182,192,72395,1,0,0:0:0:0:
402,192,72395,1,0,0:0:0:0:
36,192,72481,1,0,0:0:0:0:
109,192,72481,1,0,0:0:0:0:
256,192,72481,1,0,0:0:0:0:
329,192,72481,1,0,0:0:0:0:
475,192,72481,1,0,0:0:0:0:
329,192,72609,1,0,0:0:0:0:
256,192,72609,1,0,0:0:0:0:
109,192,72609,1,0,0:0:0:0:
36,192,72609,1,0,0:0:0:0:
475,192,72609,1,0,0:0:0:0:
329,192,72865,1,0,0:0:0:0:
256,192,72865,1,0,0:0:0:0:
109,192,72865,1,0,0:0:0:0:
36,192,72865,1,0,0:0:0:0:
475,192,72865,1,0,0:0:0:0:
109,192,72993,1,0,0:0:0:0:
36,192,72993,1,0,0:0:0:0:
329,192,72993,1,0,0:0:0:0:
256,192,72993,1,0,0:0:0:0:
475,192,72993,1,0,0:0:0:0:
36,192,73250,1,0,0:0:0:0:
109,192,73250,1,0,0:0:0:0:
256,192,73250,1,0,0:0:0:0:
329,192,73250,1,0,0:0:0:0:
475,192,73250,1,0,0:0:0:0:
329,192,73378,1,0,0:0:0:0:
475,192,73378,1,0,0:0:0:0:
256,192,73378,1,0,0:0:0:0:
109,192,73378,1,0,0:0:0:0:
36,192,73378,1,0,0:0:0:0:
36,192,73634,1,0,0:0:0:0:
109,192,73634,1,0,0:0:0:0:
256,192,73634,1,0,0:0:0:0:
402,192,73634,1,0,0:0:0:0:
475,192,73634,1,0,0:0:0:0:
402,192,73763,1,0,0:0:0:0:
475,192,73763,1,0,0:0:0:0:
256,192,73763,1,0,0:0:0:0:
109,192,73763,1,0,0:0:0:0:
36,192,73763,1,0,0:0:0:0:
36,192,74019,1,0,0:0:0:0:
109,192,74019,1,0,0:0:0:0:
402,192,74019,1,0,0:0:0:0:
475,192,74019,1,0,0:0:0:0:
256,192,74019,1,0,0:0:0:0:
329,192,74083,1,0,0:0:0:0:
182,192,74083,1,0,0:0:0:0:
36,192,74147,1,0,0:0:0:0:
109,192,74147,1,0,0:0:0:0:
256,192,74211,1,0,0:0:0:0:
475,192,74211,1,0,0:0:0:0:
402,192,74211,1,0,0:0:0:0:
182,192,74340,1,0,0:0:0:0:
36,192,74340,1,0,0:0:0:0:
109,192,74340,1,0,0:0:0:0:
329,192,74404,1,0,0:0:0:0:
402,192,74404,1,0,0:0:0:0:
475,192,74404,1,0,0:0:0:0:
36,192,74532,1,0,0:0:0:0:
109,192,74532,1,0,0:0:0:0:
475,192,74532,1,0,0:0:0:0:
182,192,74532,1,0,0:0:0:0:
329,192,74532,1,0,0:0:0:0:
402,192,74532,1,0,0:0:0:0:
36,192,74660,1,0,0:0:0:0:
182,192,74660,1,0,0:0:0:0:
256,192,74660,1,0,0:0:0:0:
402,192,74660,1,0,0:0:0:0:
109,192,74788,1,0,0:0:0:0:
256,192,74788,1,0,0:0:0:0:
329,192,74788,1,0,0:0:0:0:
475,192,74788,1,0,0:0:0:0:
182,192,74916,1,0,0:0:0:0:
36,192,74916,1,0,0:0:0:0:
329,192,74916,1,0,0:0:0:0:
402,192,74916,1,0,0:0:0:0:
109,192,75045,1,0,0:0:0:0:
182,192,75045,1,0,0:0:0:0:
256,192,75045,1,0,0:0:0:0:
475,192,75045,1,0,0:0:0:0:
36,192,75173,1,0,0:0:0:0:
109,192,75173,1,0,0:0:0:0:
256,192,75173,1,0,0:0:0:0:
402,192,75173,1,0,0:0:0:0:
329,192,75301,1,0,0:0:0:0:
182,192,75301,1,0,0:0:0:0:
36,192,75301,1,0,0:0:0:0:
402,192,75301,1,0,0:0:0:0:
329,192,75429,1,0,0:0:0:0:
475,192,75429,1,0,0:0:0:0:
256,192,75429,1,0,0:0:0:0:
109,192,75429,1,0,0:0:0:0:
36,192,75558,1,0,0:0:0:0:
109,192,75558,1,0,0:0:0:0:
256,192,75558,1,0,0:0:0:0:
475,192,75558,1,0,0:0:0:0:
182,192,75686,1,0,0:0:0:0:
36,192,75686,1,0,0:0:0:0:
329,192,75686,1,0,0:0:0:0:
402,192,75686,1,0,0:0:0:0:
109,192,75814,1,0,0:0:0:0:
256,192,75814,1,0,0:0:0:0:
329,192,75814,1,0,0:0:0:0:
475,192,75814,1,0,0:0:0:0:
402,192,75942,1,0,0:0:0:0:
182,192,75942,1,0,0:0:0:0:
256,192,75942,1,0,0:0:0:0:
36,192,75942,1,0,0:0:0:0:
36,192,76070,1,0,0:0:0:0:
109,192,76070,1,0,0:0:0:0:
329,192,76070,1,0,0:0:0:0:
475,192,76070,1,0,0:0:0:0:
256,192,76156,1,0,0:0:0:0:
182,192,76199,1,0,0:0:0:0:
109,192,76199,1,0,0:0:0:0:
402,192,76199,1,0,0:0:0:0:
329,192,76241,1,0,0:0:0:0:
256,192,76327,1,0,0:0:0:0:
36,192,76327,1,0,0:0:0:0:
182,192,76327,1,0,0:0:0:0:
475,192,76327,1,0,0:0:0:0:
329,192,76412,1,0,0:0:0:0:
109,192,76455,1,0,0:0:0:0:
36,192,76455,1,0,0:0:0:0:
402,192,76455,1,0,0:0:0:0:
475,192,76455,1,0,0:0:0:0:
182,192,76498,1,0,0:0:0:0:
256,192,76583,1,0,0:0:0:0:
329,192,76583,1,0,0:0:0:0:
109,192,76583,1,0,0:0:0:0:
402,192,76583,1,0,0:0:0:0:
182,192,76669,1,0,0:0:0:0:
36,192,76669,1,0,0:0:0:0:
475,192,76711,1,0,0:0:0:0:
329,192,76711,1,0,0:0:0:0:
109,192,76754,1,0,0:0:0:0:
256,192,76754,1,0,0:0:0:0:
182,192,76840,1,0,0:0:0:0:
402,192,76840,1,0,0:0:0:0:
36,192,76840,1,0,0:0:0:0:
329,192,76925,1,0,0:0:0:0:
475,192,76925,1,0,0:0:0:0:
256,192,76968,1,0,0:0:0:0:
109,192,76968,1,0,0:0:0:0:
402,192,77011,1,0,0:0:0:0:
182,192,77011,1,0,0:0:0:0:
36,192,77096,1,0,0:0:0:0:
329,192,77096,1,0,0:0:0:0:
475,192,77096,1,0,0:0:0:0:
109,192,77181,1,0,0:0:0:0:
182,192,77181,1,0,0:0:0:0:
256,192,77224,1,0,0:0:0:0:
402,192,77224,1,0,0:0:0:0:
329,192,77267,1,0,0:0:0:0:
36,192,77267,1,0,0:0:0:0:
182,192,77352,1,0,0:0:0:0:
109,192,77352,1,0,0:0:0:0:
475,192,77352,1,0,0:0:0:0:
402,192,77438,1,0,0:0:0:0:
329,192,77438,1,0,0:0:0:0:
36,192,77481,1,0,0:0:0:0:
182,192,77481,1,0,0:0:0:0:
256,192,77523,1,0,0:0:0:0:
109,192,77523,1,0,0:0:0:0:
329,192,77609,1,0,0:0:0:0:
475,192,77609,1,0,0:0:0:0:
402,192,77609,1,0,0:0:0:0:
36,192,77694,1,0,0:0:0:0:
109,192,77694,1,0,0:0:0:0:
182,192,77737,1,0,0:0:0:0:
402,192,77737,1,0,0:0:0:0:
256,192,77780,1,0,0:0:0:0:
329,192,77780,1,0,0:0:0:0:
36,192,77865,1,0,0:0:0:0:
475,192,77865,1,0,0:0:0:0:
109,192,77865,1,0,0:0:0:0:
402,192,77951,1,0,0:0:0:0:
256,192,77951,1,0,0:0:0:0:
182,192,77993,1,0,0:0:0:0:
36,192,77993,1,0,0:0:0:0:
329,192,78036,1,0,0:0:0:0:
475,192,78036,1,0,0:0:0:0:
109,192,78122,1,0,0:0:0:0:
256,192,78122,1,0,0:0:0:0:
402,192,78122,1,0,0:0:0:0:
36,192,78207,1,0,0:0:0:0:
182,192,78250,1,0,0:0:0:0:
475,192,78250,1,0,0:0:0:0:
256,192,78250,1,0,0:0:0:0:
329,192,78293,1,0,0:0:0:0:
182,192,78378,1,0,0:0:0:0:
402,192,78378,1,0,0:0:0:0:
109,192,78378,1,0,0:0:0:0:
475,192,78378,1,0,0:0:0:0:
36,192,78464,1,0,0:0:0:0:
256,192,78506,1,0,0:0:0:0:
329,192,78506,1,0,0:0:0:0:
402,192,78506,1,0,0:0:0:0:
182,192,78549,1,0,0:0:0:0:
109,192,78634,1,0,0:0:0:0:
36,192,78634,1,0,0:0:0:0:
475,192,78634,1,0,0:0:0:0:
329,192,78699,1,0,0:0:0:0:
402,192,78699,1,0,0:0:0:0:
256,192,78763,1,0,0:0:0:0:
182,192,78763,1,0,0:0:0:0:
36,192,78763,1,0,0:0:0:0:
402,192,78827,1,0,0:0:0:0:
475,192,78827,1,0,0:0:0:0:
329,192,78891,1,0,0:0:0:0:
182,192,78891,1,0,0:0:0:0:
109,192,78891,1,0,0:0:0:0:
402,192,78955,1,0,0:0:0:0:
475,192,78955,1,0,0:0:0:0:
36,192,79019,1,0,0:0:0:0:
109,192,79019,1,0,0:0:0:0:
256,192,79019,1,0,0:0:0:0:
329,192,79083,1,0,0:0:0:0:
402,192,79083,1,0,0:0:0:0:
182,192,79147,1,0,0:0:0:0:
109,192,79147,1,0,0:0:0:0:
36,192,79147,1,0,0:0:0:0:
256,192,79211,1,0,0:0:0:0:
329,192,79211,1,0,0:0:0:0:
402,192,79275,1,0,0:0:0:0:
475,192,79275,1,0,0:0:0:0:
109,192,79275,1,0,0:0:0:0:
182,192,79340,1,0,0:0:0:0:
256,192,79340,1,0,0:0:0:0:
329,192,79404,1,0,0:0:0:0:
402,192,79404,1,0,0:0:0:0:
475,192,79404,1,0,0:0:0:0:
36,192,79404,1,0,0:0:0:0:
36,192,79660,1,0,0:0:0:0:
109,192,79660,1,0,0:0:0:0:
475,192,79660,1,0,0:0:0:0:
182,192,79724,1,0,0:0:0:0:
256,192,79724,1,0,0:0:0:0:
329,192,79788,1,0,0:0:0:0:
402,192,79788,1,0,0:0:0:0:
36,192,79788,1,0,0:0:0:0:
109,192,79852,1,0,0:0:0:0:
182,192,79852,1,0,0:0:0:0:
256,192,79916,1,0,0:0:0:0:
402,192,79916,1,0,0:0:0:0:
475,192,79916,1,0,0:0:0:0:
109,192,79981,1,0,0:0:0:0:
36,192,79981,1,0,0:0:0:0:
256,192,80045,1,0,0:0:0:0:
475,192,80045,1,0,0:0:0:0:
402,192,80045,1,0,0:0:0:0:
182,192,80109,1,0,0:0:0:0:
109,192,80109,1,0,0:0:0:0:
36,192,80173,1,0,0:0:0:0:
329,192,80173,1,0,0:0:0:0:
475,192,80173,1,0,0:0:0:0:
256,192,80237,1,0,0:0:0:0:
182,192,80237,1,0,0:0:0:0:
109,192,80301,1,0,0:0:0:0:
36,192,80301,1,0,0:0:0:0:
402,192,80301,1,0,0:0:0:0:
256,192,80365,1,0,0:0:0:0:
329,192,80365,1,0,0:0:0:0:
182,192,80429,1,0,0:0:0:0:
475,192,80429,1,0,0:0:0:0:
109,192,80429,1,0,0:0:0:0:
36,192,80429,1,0,0:0:0:0:
329,192,80686,1,0,0:0:0:0:
402,192,80686,1,0,0:0:0:0:
475,192,80686,1,0,0:0:0:0:
182,192,80750,1,0,0:0:0:0:
109,192,80750,1,0,0:0:0:0:
36,192,80750,1,0,0:0:0:0:
256,192,80814,1,0,0:0:0:0:
329,192,80814,1,0,0:0:0:0:
402,192,80814,1,0,0:0:0:0:
182,192,80878,1,0,0:0:0:0:
109,192,80878,1,0,0:0:0:0:
36,192,80878,1,0,0:0:0:0:
329,192,80942,1,0,0:0:0:0:
402,192,80942,1,0,0:0:0:0:
475,192,80942,1,0,0:0:0:0:
256,192,80942,1,0,0:0:0:0:
36,192,81199,1,0,0:0:0:0:
109,192,81199,1,0,0:0:0:0:
182,192,81199,1,0,0:0:0:0:
329,192,81263,1,0,0:0:0:0:
402,192,81263,1,0,0:0:0:0:
475,192,81263,1,0,0:0:0:0:
109,192,81327,1,0,0:0:0:0:
182,192,81327,1,0,0:0:0:0:
256,192,81327,1,0,0:0:0:0:
329,192,81391,1,0,0:0:0:0:
402,192,81391,1,0,0:0:0:0:
475,192,81391,1,0,0:0:0:0:
182,192,81455,1,0,0:0:0:0:
256,192,81455,1,0,0:0:0:0:
109,192,81455,1,0,0:0:0:0:
36,192,81455,1,0,0:0:0:0:
109,192,81711,1,0,0:0:0:0:
402,192,81711,1,0,0:0:0:0:
475,192,81711,1,0,0:0:0:0:
182,192,81711,1,0,0:0:0:0:
256,192,81711,1,0,0:0:0:0:
182,192,81840,1,0,0:0:0:0:
109,192,81840,1,0,0:0:0:0:
256,192,81840,1,0,0:0:0:0:
475,192,81904,1,0,0:0:0:0:
402,192,81904,1,0,0:0:0:0:
329,192,81904,1,0,0:0:0:0:
182,192,82032,1,0,0:0:0:0:
36,192,82032,1,0,0:0:0:0:
109,192,82032,1,0,0:0:0:0:
256,192,82096,1,0,0:0:0:0:
329,192,82096,1,0,0:0:0:0:
402,192,82096,1,0,0:0:0:0:
36,192,82224,1,0,0:0:0:0:
182,192,82224,1,0,0:0:0:0:
329,192,82224,1,0,0:0:0:0:
109,192,82224,1,0,0:0:0:0:
402,192,82224,1,0,0:0:0:0:
36,192,82352,1,0,0:0:0:0:
109,192,82352,1,0,0:0:0:0:
182,192,82352,1,0,0:0:0:0:
256,192,82416,1,0,0:0:0:0:
329,192,82416,1,0,0:0:0:0:
402,192,82416,1,0,0:0:0:0:
109,192,82545,1,0,0:0:0:0:
182,192,82545,1,0,0:0:0:0:
256,192,82545,1,0,0:0:0:0:
329,192,82609,1,0,0:0:0:0:
402,192,82609,1,0,0:0:0:0:
475,192,82609,1,0,0:0:0:0:
329,192,82737,1,0,0:0:0:0:
402,192,82737,1,0,0:0:0:0:
475,192,82737,1,0,0:0:0:0:
109,192,82737,1,0,0:0:0:0:
36,192,82737,1,0,0:0:0:0:
182,192,82737,1,0,0:0:0:0:
182,192,82822,1,0,0:0:0:0:
256,192,82908,1,0,0:0:0:0:
329,192,82993,1,0,0:0:0:0:
329,192,83079,1,0,0:0:0:0:
256,192,83164,1,0,0:0:0:0:
109,192,83250,1,0,0:0:0:0:
182,192,83335,1,0,0:0:0:0:
109,192,83421,1,0,0:0:0:0:
402,192,83506,1,0,0:0:0:0:
329,192,83592,1,0,0:0:0:0:
402,192,83677,1,0,0:0:0:0:
36,192,83763,1,0,0:0:0:0:
182,192,83848,1,0,0:0:0:0:
329,192,83934,1,0,0:0:0:0:
475,192,84019,1,0,0:0:0:0:
329,192,84105,1,0,0:0:0:0:
182,192,84190,1,0,0:0:0:0:
36,192,84275,128,0,84660:0:0:0:0:
109,192,84275,128,0,84660:0:0:0:0:
402,192,84275,128,0,84660:0:0:0:0:
475,192,84275,128,0,84660:0:0:0:0:
256,192,84275,128,0,84660:0:0:0:0:
36,192,84788,1,0,0:0:0:0:
109,192,84788,1,0,0:0:0:0:
402,192,84788,1,0,0:0:0:0:
475,192,84788,1,0,0:0:0:0:
256,192,84788,1,0,0:0:0:0:
329,192,84916,1,0,0:0:0:0:
256,192,84949,1,0,0:0:0:0:
182,192,84981,1,0,0:0:0:0:
109,192,85013,1,0,0:0:0:0:
36,192,85045,1,0,0:0:0:0:
402,192,85045,1,0,0:0:0:0:
475,192,85045,1,0,0:0:0:0:
329,192,85109,1,0,0:0:0:0:
402,192,85173,1,0,0:0:0:0:
475,192,85173,1,0,0:0:0:0:
182,192,85173,1,0,0:0:0:0:
256,192,85237,1,0,0:0:0:0:
329,192,85301,1,0,0:0:0:0:
36,192,85301,1,0,0:0:0:0:
109,192,85301,1,0,0:0:0:0:
475,192,85301,1,0,0:0:0:0:
36,192,85429,1,0,0:0:0:0:
109,192,85429,1,0,0:0:0:0:
329,192,85429,1,0,0:0:0:0:
182,192,85558,1,0,0:0:0:0:
256,192,85558,1,0,0:0:0:0:
402,192,85558,1,0,0:0:0:0:
402,192,85686,1,0,0:0:0:0:
256,192,85686,1,0,0:0:0:0:
182,192,85686,1,0,0:0:0:0:
36,192,85814,1,0,0:0:0:0:
475,192,85814,1,0,0:0:0:0:
329,192,85814,1,0,0:0:0:0:
329,192,85942,1,0,0:0:0:0:
36,192,85942,1,0,0:0:0:0:
475,192,85942,1,0,0:0:0:0:
182,192,86070,1,0,0:0:0:0:
256,192,86070,1,0,0:0:0:0:
402,192,86070,1,0,0:0:0:0:
109,192,86199,1,0,0:0:0:0:
182,192,86199,1,0,0:0:0:0:
329,192,86199,1,0,0:0:0:0:
36,192,86327,1,0,0:0:0:0:
109,192,86327,1,0,0:0:0:0:
256,192,86327,1,0,0:0:0:0:
402,192,86327,1,0,0:0:0:0:
475,192,86327,1,0,0:0:0:0:
256,192,86455,1,0,0:0:0:0:
402,192,86455,1,0,0:0:0:0:
475,192,86455,1,0,0:0:0:0:
182,192,86583,1,0,0:0:0:0:
36,192,86583,1,0,0:0:0:0:
329,192,86583,1,0,0:0:0:0:
256,192,86647,1,0,0:0:0:0:
402,192,86647,1,0,0:0:0:0:
475,192,86647,1,0,0:0:0:0:
109,192,86711,1,0,0:0:0:0:
182,192,86711,1,0,0:0:0:0:
329,192,86711,1,0,0:0:0:0:
256,192,86775,1,0,0:0:0:0:
36,192,86775,1,0,0:0:0:0:
402,192,86775,1,0,0:0:0:0:
109,192,86840,1,0,0:0:0:0:
329,192,86840,1,0,0:0:0:0:
475,192,86840,1,0,0:0:0:0:
182,192,86904,1,0,0:0:0:0:
256,192,86968,1,0,0:0:0:0:
402,192,86968,1,0,0:0:0:0:
36,192,86968,1,0,0:0:0:0:
109,192,87032,1,0,0:0:0:0:
182,192,87096,1,0,0:0:0:0:
329,192,87096,1,0,0:0:0:0:
475,192,87096,1,0,0:0:0:0:
36,192,87160,1,0,0:0:0:0:
109,192,87224,1,0,0:0:0:0:
256,192,87224,1,0,0:0:0:0:
402,192,87224,1,0,0:0:0:0:
182,192,87352,1,0,0:0:0:0:
329,192,87352,1,0,0:0:0:0:
475,192,87352,1,0,0:0:0:0:
36,192,87352,1,0,0:0:0:0:
182,192,87481,1,0,0:0:0:0:
329,192,87481,1,0,0:0:0:0:
475,192,87481,1,0,0:0:0:0:
109,192,87609,1,0,0:0:0:0:
256,192,87609,1,0,0:0:0:0:
402,192,87609,1,0,0:0:0:0:
109,192,87737,1,0,0:0:0:0:
256,192,87737,1,0,0:0:0:0:
402,192,87737,1,0,0:0:0:0:
182,192,87801,1,0,0:0:0:0:
329,192,87801,1,0,0:0:0:0:
475,192,87865,1,0,0:0:0:0:
402,192,87865,1,0,0:0:0:0:
36,192,87865,1,0,0:0:0:0:
109,192,87897,1,0,0:0:0:0:
182,192,87929,1,0,0:0:0:0:
256,192,87961,1,0,0:0:0:0:
402,192,87993,1,0,0:0:0:0:
475,192,87993,1,0,0:0:0:0:
329,192,87993,1,0,0:0:0:0:
109,192,88058,1,0,0:0:0:0:
36,192,88058,1,0,0:0:0:0:
182,192,88058,1,0,0:0:0:0:
256,192,88122,1,0,0:0:0:0:
329,192,88122,1,0,0:0:0:0:
402,192,88122,1,0,0:0:0:0:
182,192,88186,1,0,0:0:0:0:
109,192,88186,1,0,0:0:0:0:
36,192,88186,1,0,0:0:0:0:
329,192,88250,1,0,0:0:0:0:
402,192,88250,1,0,0:0:0:0:
475,192,88250,1,0,0:0:0:0:
256,192,88314,1,0,0:0:0:0:
182,192,88314,1,0,0:0:0:0:
109,192,88314,1,0,0:0:0:0:
36,192,88378,1,0,0:0:0:0:
402,192,88378,1,0,0:0:0:0:
475,192,88378,1,0,0:0:0:0:
109,192,88506,1,0,0:0:0:0:
182,192,88506,1,0,0:0:0:0:
256,192,88506,1,0,0:0:0:0:
329,192,88570,1,0,0:0:0:0:
402,192,88570,1,0,0:0:0:0:
475,192,88570,1,0,0:0:0:0:
36,192,88699,1,0,0:0:0:0:
182,192,88699,1,0,0:0:0:0:
109,192,88699,1,0,0:0:0:0:
329,192,88763,1,0,0:0:0:0:
402,192,88763,1,0,0:0:0:0:
475,192,88763,1,0,0:0:0:0:
256,192,88827,1,0,0:0:0:0:
182,192,88891,1,0,0:0:0:0:
36,192,88891,1,0,0:0:0:0:
109,192,88891,1,0,0:0:0:0:
402,192,88891,1,0,0:0:0:0:
475,192,88891,1,0,0:0:0:0:
329,192,89019,1,0,0:0:0:0:
475,192,89019,1,0,0:0:0:0:
109,192,89019,1,0,0:0:0:0:
256,192,89019,1,0,0:0:0:0:
36,192,89147,1,0,0:0:0:0:
256,192,89147,1,0,0:0:0:0:
402,192,89147,1,0,0:0:0:0:
182,192,89147,1,0,0:0:0:0:
109,192,89275,1,0,0:0:0:0:
182,192,89275,1,0,0:0:0:0:
329,192,89275,1,0,0:0:0:0:
475,192,89275,1,0,0:0:0:0:
36,192,89404,1,0,0:0:0:0:
109,192,89404,1,0,0:0:0:0:
256,192,89404,1,0,0:0:0:0:
36,192,89532,1,0,0:0:0:0:
109,192,89532,1,0,0:0:0:0:
256,192,89532,1,0,0:0:0:0:
182,192,89660,1,0,0:0:0:0:
329,192,89660,1,0,0:0:0:0:
402,192,89660,1,0,0:0:0:0:
182,192,89788,1,0,0:0:0:0:
402,192,89788,1,0,0:0:0:0:
329,192,89788,1,0,0:0:0:0:
109,192,89852,1,0,0:0:0:0:
36,192,89852,1,0,0:0:0:0:
256,192,89852,1,0,0:0:0:0:
475,192,89916,1,0,0:0:0:0:
329,192,89916,1,0,0:0:0:0:
402,192,89916,1,0,0:0:0:0:
182,192,89981,1,0,0:0:0:0:
36,192,89981,1,0,0:0:0:0:
256,192,90045,1,0,0:0:0:0:
109,192,90045,1,0,0:0:0:0:
475,192,90045,1,0,0:0:0:0:
182,192,90109,1,0,0:0:0:0:
329,192,90109,1,0,0:0:0:0:
402,192,90173,1,0,0:0:0:0:
256,192,90173,1,0,0:0:0:0:
36,192,90173,1,0,0:0:0:0:
182,192,90301,1,0,0:0:0:0:
109,192,90301,1,0,0:0:0:0:
329,192,90301,1,0,0:0:0:0:
256,192,90429,1,0,0:0:0:0:
182,192,90429,1,0,0:0:0:0:
402,192,90429,1,0,0:0:0:0:
329,192,90558,1,0,0:0:0:0:
475,192,90558,1,0,0:0:0:0:
256,192,90558,1,0,0:0:0:0:
109,192,90622,1,0,0:0:0:0:
256,192,90686,1,0,0:0:0:0:
329,192,90686,1,0,0:0:0:0:
475,192,90686,1,0,0:0:0:0:
109,192,90750,1,0,0:0:0:0:
182,192,90814,1,0,0:0:0:0:
402,192,90814,1,0,0:0:0:0:
329,192,90814,1,0,0:0:0:0:
36,192,90942,1,0,0:0:0:0:
109,192,90942,1,0,0:0:0:0:
256,192,90942,1,0,0:0:0:0:
402,192,90942,1,0,0:0:0:0:
475,192,90942,1,0,0:0:0:0:
36,192,91070,1,0,0:0:0:0:
109,192,91070,1,0,0:0:0:0:
256,192,91070,1,0,0:0:0:0:
329,192,91134,1,0,0:0:0:0:
402,192,91134,1,0,0:0:0:0:
475,192,91134,1,0,0:0:0:0:
329,192,91263,1,0,0:0:0:0:
402,192,91263,1,0,0:0:0:0:
475,192,91263,1,0,0:0:0:0:
256,192,91327,1,0,0:0:0:0:
109,192,91327,1,0,0:0:0:0:
36,192,91327,1,0,0:0:0:0:
36,192,91455,1,0,0:0:0:0:
109,192,91455,1,0,0:0:0:0:
182,192,91455,1,0,0:0:0:0:
402,192,91455,1,0,0:0:0:0:
475,192,91455,1,0,0:0:0:0:
402,192,91583,1,0,0:0:0:0:
475,192,91583,1,0,0:0:0:0:
256,192,91583,1,0,0:0:0:0:
109,192,91647,1,0,0:0:0:0:
36,192,91647,1,0,0:0:0:0:
182,192,91647,1,0,0:0:0:0:
36,192,91775,1,0,0:0:0:0:
109,192,91775,1,0,0:0:0:0:
182,192,91775,1,0,0:0:0:0:
256,192,91840,1,0,0:0:0:0:
402,192,91840,1,0,0:0:0:0:
475,192,91840,1,0,0:0:0:0:
182,192,91968,1,0,0:0:0:0:
36,192,91968,1,0,0:0:0:0:
329,192,91968,1,0,0:0:0:0:
256,192,92032,1,0,0:0:0:0:
402,192,92032,1,0,0:0:0:0:
475,192,92032,1,0,0:0:0:0:
182,192,92096,1,0,0:0:0:0:
109,192,92096,1,0,0:0:0:0:
329,192,92096,1,0,0:0:0:0:
256,192,92160,1,0,0:0:0:0:
36,192,92160,1,0,0:0:0:0:
475,192,92160,1,0,0:0:0:0:
402,192,92224,1,0,0:0:0:0:
329,192,92224,1,0,0:0:0:0:
109,192,92224,1,0,0:0:0:0:
36,192,92352,1,0,0:0:0:0:
182,192,92352,1,0,0:0:0:0:
256,192,92384,1,0,0:0:0:0:
329,192,92416,1,0,0:0:0:0:
402,192,92449,1,0,0:0:0:0:
475,192,92481,1,0,0:0:0:0:
109,192,92481,1,0,0:0:0:0:
36,192,92609,1,0,0:0:0:0:
182,192,92609,1,0,0:0:0:0:
256,192,92641,1,0,0:0:0:0:
329,192,92673,1,0,0:0:0:0:
402,192,92705,1,0,0:0:0:0:
475,192,92737,1,0,0:0:0:0:
109,192,92737,1,0,0:0:0:0:
182,192,92801,1,0,0:0:0:0:
329,192,92865,1,0,0:0:0:0:
182,192,92929,1,0,0:0:0:0:
36,192,92993,1,0,0:0:0:0:
109,192,92993,1,0,0:0:0:0:
256,192,92993,1,0,0:0:0:0:
402,192,92993,1,0,0:0:0:0:
475,192,92993,1,0,0:0:0:0:
36,192,93122,1,0,0:0:0:0:
109,192,93122,1,0,0:0:0:0:
256,192,93122,1,0,0:0:0:0:
402,192,93186,1,0,0:0:0:0:
475,192,93186,1,0,0:0:0:0:
329,192,93186,1,0,0:0:0:0:
109,192,93250,1,0,0:0:0:0:
36,192,93250,1,0,0:0:0:0:
182,192,93250,1,0,0:0:0:0:
402,192,93378,1,0,0:0:0:0:
475,192,93378,1,0,0:0:0:0:
256,192,93378,1,0,0:0:0:0:
109,192,93442,1,0,0:0:0:0:
182,192,93442,1,0,0:0:0:0:
36,192,93442,1,0,0:0:0:0:
402,192,93506,1,0,0:0:0:0:
475,192,93506,1,0,0:0:0:0:
329,192,93506,1,0,0:0:0:0:
36,192,93634,1,0,0:0:0:0:
109,192,93634,1,0,0:0:0:0:
256,192,93634,1,0,0:0:0:0:
402,192,93677,1,0,0:0:0:0:
475,192,93677,1,0,0:0:0:0:
182,192,93720,1,0,0:0:0:0:
329,192,93720,1,0,0:0:0:0:
36,192,93763,1,0,0:0:0:0:
109,192,93763,1,0,0:0:0:0:
256,192,93805,1,0,0:0:0:0:
475,192,93805,1,0,0:0:0:0:
402,192,93848,1,0,0:0:0:0:
182,192,93848,1,0,0:0:0:0:
109,192,93891,1,0,0:0:0:0:
36,192,93891,1,0,0:0:0:0:
329,192,93891,1,0,0:0:0:0:
256,192,93955,1,0,0:0:0:0:
475,192,93955,1,0,0:0:0:0:
402,192,93955,1,0,0:0:0:0:
329,192,94019,1,0,0:0:0:0:
36,192,94019,1,0,0:0:0:0:
109,192,94019,1,0,0:0:0:0:
182,192,94083,1,0,0:0:0:0:
256,192,94147,1,0,0:0:0:0:
402,192,94147,1,0,0:0:0:0:
475,192,94147,1,0,0:0:0:0:
109,192,94211,1,0,0:0:0:0:
329,192,94275,1,0,0:0:0:0:
182,192,94275,1,0,0:0:0:0:
36,192,94275,1,0,0:0:0:0:
475,192,94340,1,0,0:0:0:0:
256,192,94404,1,0,0:0:0:0:
109,192,94404,1,0,0:0:0:0:
402,192,94404,1,0,0:0:0:0:
182,192,94468,1,0,0:0:0:0:
329,192,94532,1,0,0:0:0:0:
475,192,94532,1,0,0:0:0:0:
36,192,94532,1,0,0:0:0:0:
36,192,94660,1,0,0:0:0:0:
329,192,94660,1,0,0:0:0:0:
475,192,94660,1,0,0:0:0:0:
256,192,94788,1,0,0:0:0:0:
402,192,94788,1,0,0:0:0:0:
182,192,94788,1,0,0:0:0:0:
109,192,94852,1,0,0:0:0:0:
36,192,94852,1,0,0:0:0:0:
329,192,94852,1,0,0:0:0:0:
402,192,94916,1,0,0:0:0:0:
475,192,94916,1,0,0:0:0:0:
182,192,94916,1,0,0:0:0:0:
256,192,94981,1,0,0:0:0:0:
329,192,94981,1,0,0:0:0:0:
36,192,94981,1,0,0:0:0:0:
109,192,95045,1,0,0:0:0:0:
182,192,95045,1,0,0:0:0:0:
475,192,95045,1,0,0:0:0:0:
402,192,95077,1,0,0:0:0:0:
329,192,95109,1,0,0:0:0:0:
256,192,95141,1,0,0:0:0:0:
36,192,95173,1,0,0:0:0:0:
109,192,95173,1,0,0:0:0:0:
182,192,95173,1,0,0:0:0:0:
402,192,95237,1,0,0:0:0:0:
475,192,95237,1,0,0:0:0:0:
329,192,95237,1,0,0:0:0:0:
36,192,95301,1,0,0:0:0:0:
256,192,95301,1,0,0:0:0:0:
109,192,95301,1,0,0:0:0:0:
182,192,95429,1,0,0:0:0:0:
329,192,95429,1,0,0:0:0:0:
475,192,95429,1,0,0:0:0:0:
109,192,95493,1,0,0:0:0:0:
256,192,95558,1,0,0:0:0:0:
182,192,95622,1,0,0:0:0:0:
36,192,95622,1,0,0:0:0:0:
329,192,95686,1,0,0:0:0:0:
402,192,95686,1,0,0:0:0:0:
475,192,95686,1,0,0:0:0:0:
109,192,95750,1,0,0:0:0:0:
256,192,95814,1,0,0:0:0:0:
182,192,95878,1,0,0:0:0:0:
36,192,95878,1,0,0:0:0:0:
329,192,95942,1,0,0:0:0:0:
402,192,95942,1,0,0:0:0:0:
475,192,95942,1,0,0:0:0:0:
109,192,96006,1,0,0:0:0:0:
329,192,96070,1,0,0:0:0:0:
402,192,96070,1,0,0:0:0:0:
475,192,96070,1,0,0:0:0:0:
182,192,96134,1,0,0:0:0:0:
36,192,96199,1,0,0:0:0:0:
475,192,96199,1,0,0:0:0:0:
402,192,96231,1,0,0:0:0:0:
329,192,96263,1,0,0:0:0:0:
256,192,96295,1,0,0:0:0:0:
182,192,96327,1,0,0:0:0:0:
109,192,96327,1,0,0:0:0:0:
402,192,96391,1,0,0:0:0:0:
475,192,96391,1,0,0:0:0:0:
36,192,96455,1,0,0:0:0:0:
109,192,96455,1,0,0:0:0:0:
256,192,96455,1,0,0:0:0:0:
182,192,96519,1,0,0:0:0:0:
329,192,96519,1,0,0:0:0:0:
402,192,96583,1,0,0:0:0:0:
475,192,96583,1,0,0:0:0:0:
36,192,96647,1,0,0:0:0:0:
109,192,96647,1,0,0:0:0:0:
256,192,96647,1,0,0:0:0:0:
182,192,96711,1,0,0:0:0:0:
329,192,96711,1,0,0:0:0:0:
402,192,96775,1,0,0:0:0:0:
475,192,96775,1,0,0:0:0:0:
36,192,96840,1,0,0:0:0:0:
109,192,96840,1,0,0:0:0:0:
256,192,96840,1,0,0:0:0:0:
329,192,96904,1,0,0:0:0:0:
182,192,96968,1,0,0:0:0:0:
402,192,96968,1,0,0:0:0:0:
475,192,96968,1,0,0:0:0:0:
109,192,97032,1,0,0:0:0:0:
36,192,97096,1,0,0:0:0:0:
329,192,97096,1,0,0:0:0:0:
256,192,97096,1,0,0:0:0:0:
402,192,97160,1,0,0:0:0:0:
475,192,97160,1,0,0:0:0:0:
182,192,97224,1,0,0:0:0:0:
109,192,97224,1,0,0:0:0:0:
256,192,97224,1,0,0:0:0:0:
329,192,97288,1,0,0:0:0:0:
402,192,97288,1,0,0:0:0:0:
182,192,97352,1,0,0:0:0:0:
36,192,97352,1,0,0:0:0:0:
109,192,97352,1,0,0:0:0:0:
475,192,97416,1,0,0:0:0:0:
329,192,97416,1,0,0:0:0:0:
256,192,97481,1,0,0:0:0:0:
36,192,97481,1,0,0:0:0:0:
109,192,97481,1,0,0:0:0:0:
402,192,97545,1,0,0:0:0:0:
475,192,97545,1,0,0:0:0:0:
36,192,97609,1,0,0:0:0:0:
182,192,97609,1,0,0:0:0:0:
256,192,97609,1,0,0:0:0:0:
329,192,97673,1,0,0:0:0:0:
402,192,97673,1,0,0:0:0:0:
475,192,97737,1,0,0:0:0:0:
109,192,97737,1,0,0:0:0:0:
182,192,97737,1,0,0:0:0:0:
329,192,97801,1,0,0:0:0:0:
256,192,97801,1,0,0:0:0:0:
402,192,97865,1,0,0:0:0:0:
475,192,97865,1,0,0:0:0:0:
36,192,97865,1,0,0:0:0:0:
109,192,97865,1,0,0:0:0:0:
329,192,98122,1,0,0:0:0:0:
475,192,98122,1,0,0:0:0:0:
256,192,98122,1,0,0:0:0:0:
109,192,98186,1,0,0:0:0:0:
36,192,98186,1,0,0:0:0:0:
402,192,98250,1,0,0:0:0:0:
329,192,98250,1,0,0:0:0:0:
256,192,98250,1,0,0:0:0:0:
182,192,98314,1,0,0:0:0:0:
109,192,98314,1,0,0:0:0:0:
329,192,98378,1,0,0:0:0:0:
402,192,98378,1,0,0:0:0:0:
475,192,98378,1,0,0:0:0:0:
256,192,98442,1,0,0:0:0:0:
182,192,98442,1,0,0:0:0:0:
109,192,98506,1,0,0:0:0:0:
36,192,98506,1,0,0:0:0:0:
475,192,98506,1,0,0:0:0:0:
402,192,98570,1,0,0:0:0:0:
329,192,98570,1,0,0:0:0:0:
182,192,98634,1,0,0:0:0:0:
109,192,98634,1,0,0:0:0:0:
256,192,98634,1,0,0:0:0:0:
329,192,98699,1,0,0:0:0:0:
402,192,98699,1,0,0:0:0:0:
36,192,98763,1,0,0:0:0:0:
109,192,98763,1,0,0:0:0:0:
182,192,98763,1,0,0:0:0:0:
256,192,98827,1,0,0:0:0:0:
329,192,98827,1,0,0:0:0:0:
109,192,98891,1,0,0:0:0:0:
36,192,98891,1,0,0:0:0:0:
402,192,98891,1,0,0:0:0:0:
475,192,98891,1,0,0:0:0:0:
182,192,99019,5,0,0:0:0:0:
256,192,99019,1,0,0:0:0:0:
329,192,99019,1,0,0:0:0:0:
36,192,99147,1,0,0:0:0:0:
402,192,99147,1,0,0:0:0:0:
475,192,99147,1,0,0:0:0:0:
109,192,99147,1,0,0:0:0:0:
36,192,99275,1,0,0:0:0:0:
109,192,99275,1,0,0:0:0:0:
329,192,99275,1,0,0:0:0:0:
402,192,99340,1,0,0:0:0:0:
475,192,99340,1,0,0:0:0:0:
182,192,99340,1,0,0:0:0:0:
182,192,99468,1,0,0:0:0:0:
402,192,99468,1,0,0:0:0:0:
475,192,99468,1,0,0:0:0:0:
329,192,99532,1,0,0:0:0:0:
109,192,99532,1,0,0:0:0:0:
36,192,99532,1,0,0:0:0:0:
36,192,99660,1,0,0:0:0:0:
109,192,99660,1,0,0:0:0:0:
256,192,99660,1,0,0:0:0:0:
402,192,99660,1,0,0:0:0:0:
475,192,99660,1,0,0:0:0:0:
182,192,99788,1,0,0:0:0:0:
109,192,99788,1,0,0:0:0:0:
475,192,99788,1,0,0:0:0:0:
402,192,99788,1,0,0:0:0:0:
36,192,99852,1,0,0:0:0:0:
329,192,99852,1,0,0:0:0:0:
329,192,99981,1,0,0:0:0:0:
36,192,99981,1,0,0:0:0:0:
402,192,100045,1,0,0:0:0:0:
475,192,100045,1,0,0:0:0:0:
109,192,100045,1,0,0:0:0:0:
182,192,100045,1,0,0:0:0:0:
109,192,100173,128,0,100750:0:0:0:0:
36,192,100173,128,0,100493:0:0:0:0:
475,192,100173,128,0,100622:0:0:0:0:
402,192,100173,128,0,100750:0:0:0:0:
182,192,100173,1,0,0:0:0:0:
329,192,100173,1,0,0:0:0:0:
182,192,100301,128,0,101006:0:0:0:0:
329,192,100429,128,0,101006:0:0:0:0:
36,192,100558,128,0,101070:0:0:0:0:
475,192,100686,128,0,101070:0:0:0:0:
109,192,100814,128,0,101070:0:0:0:0:
402,192,100814,128,0,101070:0:0:0:0:
182,192,101070,1,0,0:0:0:0:
329,192,101070,1,0,0:0:0:0:
402,192,101199,1,0,0:0:0:0:
475,192,101199,1,0,0:0:0:0:
36,192,101199,1,0,0:0:0:0:
109,192,101199,1,0,0:0:0:0:
256,192,101199,1,0,0:0:0:0:
182,192,101263,1,0,0:0:0:0:
329,192,101327,1,0,0:0:0:0:
36,192,101327,1,0,0:0:0:0:
256,192,101391,1,0,0:0:0:0:
109,192,101455,1,0,0:0:0:0:
182,192,101455,1,0,0:0:0:0:
402,192,101455,1,0,0:0:0:0:
475,192,101455,1,0,0:0:0:0:
329,192,101519,1,0,0:0:0:0:
36,192,101583,1,0,0:0:0:0:
256,192,101583,1,0,0:0:0:0:
182,192,101647,1,0,0:0:0:0:
109,192,101711,1,0,0:0:0:0:
402,192,101711,1,0,0:0:0:0:
475,192,101711,1,0,0:0:0:0:
329,192,101711,1,0,0:0:0:0:
182,192,101775,1,0,0:0:0:0:
36,192,101840,1,0,0:0:0:0:
256,192,101840,1,0,0:0:0:0:
109,192,101904,1,0,0:0:0:0:
182,192,101968,1,0,0:0:0:0:
329,192,101968,1,0,0:0:0:0:
475,192,101968,1,0,0:0:0:0:
402,192,101968,1,0,0:0:0:0:
256,192,102032,1,0,0:0:0:0:
36,192,102096,1,0,0:0:0:0:
109,192,102096,1,0,0:0:0:0:
329,192,102160,1,0,0:0:0:0:
402,192,102224,1,0,0:0:0:0:
475,192,102224,1,0,0:0:0:0:
182,192,102224,1,0,0:0:0:0:
36,192,102224,1,0,0:0:0:0:
256,192,102288,1,0,0:0:0:0:
109,192,102352,1,0,0:0:0:0:
329,192,102352,1,0,0:0:0:0:
182,192,102416,1,0,0:0:0:0:
256,192,102481,1,0,0:0:0:0:
402,192,102481,1,0,0:0:0:0:
475,192,102481,1,0,0:0:0:0:
36,192,102481,1,0,0:0:0:0:
109,192,102545,1,0,0:0:0:0:
182,192,102609,1,0,0:0:0:0:
329,192,102609,1,0,0:0:0:0:
402,192,102673,1,0,0:0:0:0:
475,192,102737,1,0,0:0:0:0:
256,192,102737,1,0,0:0:0:0:
109,192,102737,1,0,0:0:0:0:
36,192,102737,1,0,0:0:0:0:
329,192,102801,1,0,0:0:0:0:
182,192,102865,1,0,0:0:0:0:
402,192,102865,1,0,0:0:0:0:
109,192,102929,1,0,0:0:0:0:
36,192,102993,1,0,0:0:0:0:
256,192,102993,1,0,0:0:0:0:
329,192,102993,1,0,0:0:0:0:
475,192,102993,1,0,0:0:0:0:
182,192,103058,1,0,0:0:0:0:
402,192,103122,1,0,0:0:0:0:
329,192,103122,1,0,0:0:0:0:
36,192,103186,1,0,0:0:0:0:
109,192,103250,1,0,0:0:0:0:
256,192,103250,1,0,0:0:0:0:
402,192,103250,1,0,0:0:0:0:
475,192,103250,1,0,0:0:0:0:
182,192,103314,1,0,0:0:0:0:
329,192,103378,1,0,0:0:0:0:
36,192,103378,1,0,0:0:0:0:
109,192,103442,1,0,0:0:0:0:
182,192,103506,1,0,0:0:0:0:
256,192,103506,1,0,0:0:0:0:
402,192,103506,1,0,0:0:0:0:
475,192,103506,1,0,0:0:0:0:
109,192,103570,1,0,0:0:0:0:
36,192,103634,1,0,0:0:0:0:
329,192,103634,1,0,0:0:0:0:
256,192,103699,1,0,0:0:0:0:
182,192,103763,1,0,0:0:0:0:
109,192,103763,1,0,0:0:0:0:
402,192,103763,1,0,0:0:0:0:
475,192,103763,1,0,0:0:0:0:
329,192,103827,1,0,0:0:0:0:
256,192,103891,1,0,0:0:0:0:
182,192,103891,1,0,0:0:0:0:
109,192,103955,1,0,0:0:0:0:
36,192,104019,1,0,0:0:0:0:
402,192,104019,1,0,0:0:0:0:
329,192,104019,1,0,0:0:0:0:
475,192,104019,1,0,0:0:0:0:
182,192,104083,1,0,0:0:0:0:
256,192,104147,1,0,0:0:0:0:
109,192,104147,1,0,0:0:0:0:
329,192,104211,1,0,0:0:0:0:
182,192,104275,1,0,0:0:0:0:
36,192,104275,1,0,0:0:0:0:
402,192,104275,1,0,0:0:0:0:
475,192,104275,1,0,0:0:0:0:
329,192,104340,1,0,0:0:0:0:
256,192,104404,1,0,0:0:0:0:
109,192,104404,1,0,0:0:0:0:
402,192,104468,1,0,0:0:0:0:
329,192,104532,1,0,0:0:0:0:
182,192,104532,1,0,0:0:0:0:
36,192,104532,1,0,0:0:0:0:
475,192,104532,1,0,0:0:0:0:
256,192,104596,1,0,0:0:0:0:
109,192,104660,1,0,0:0:0:0:
402,192,104660,1,0,0:0:0:0:
182,192,104724,1,0,0:0:0:0:
329,192,104788,1,0,0:0:0:0:
256,192,104788,1,0,0:0:0:0:
36,192,104788,1,0,0:0:0:0:
475,192,104788,1,0,0:0:0:0:
182,192,104852,1,0,0:0:0:0:
109,192,104916,1,0,0:0:0:0:
329,192,104916,1,0,0:0:0:0:
402,192,104981,1,0,0:0:0:0:
256,192,105045,1,0,0:0:0:0:
182,192,105045,1,0,0:0:0:0:
36,192,105045,1,0,0:0:0:0:
475,192,105045,1,0,0:0:0:0:
329,192,105109,1,0,0:0:0:0:
109,192,105173,1,0,0:0:0:0:
402,192,105173,1,0,0:0:0:0:
182,192,105237,1,0,0:0:0:0:
36,192,105301,1,0,0:0:0:0:
256,192,105301,1,0,0:0:0:0:
329,192,105301,1,0,0:0:0:0:
475,192,105301,1,0,0:0:0:0:
109,192,105365,1,0,0:0:0:0:
182,192,105429,1,0,0:0:0:0:
402,192,105429,1,0,0:0:0:0:
329,192,105493,1,0,0:0:0:0:
475,192,105558,1,0,0:0:0:0:
256,192,105558,1,0,0:0:0:0:
109,192,105558,1,0,0:0:0:0:
36,192,105558,1,0,0:0:0:0:
182,192,105622,1,0,0:0:0:0:
402,192,105686,1,0,0:0:0:0:
329,192,105686,1,0,0:0:0:0:
109,192,105750,1,0,0:0:0:0:
36,192,105814,1,0,0:0:0:0:
182,192,105814,1,0,0:0:0:0:
256,192,105814,1,0,0:0:0:0:
475,192,105814,1,0,0:0:0:0:
329,192,105878,1,0,0:0:0:0:
402,192,105942,1,0,0:0:0:0:
109,192,105942,1,0,0:0:0:0:
182,192,106006,1,0,0:0:0:0:
256,192,106070,1,0,0:0:0:0:
36,192,106070,1,0,0:0:0:0:
329,192,106070,1,0,0:0:0:0:
475,192,106070,1,0,0:0:0:0:
109,192,106134,1,0,0:0:0:0:
182,192,106199,1,0,0:0:0:0:
402,192,106199,1,0,0:0:0:0:
475,192,106263,1,0,0:0:0:0:
329,192,106327,1,0,0:0:0:0:
256,192,106327,1,0,0:0:0:0:
36,192,106327,1,0,0:0:0:0:
109,192,106327,1,0,0:0:0:0:
402,192,106391,1,0,0:0:0:0:
182,192,106455,1,0,0:0:0:0:
36,192,106455,1,0,0:0:0:0:
256,192,106519,1,0,0:0:0:0:
329,192,106583,1,0,0:0:0:0:
475,192,106583,1,0,0:0:0:0:
402,192,106583,1,0,0:0:0:0:
109,192,106583,1,0,0:0:0:0:
182,192,106647,1,0,0:0:0:0:
36,192,106711,1,0,0:0:0:0:
256,192,106711,1,0,0:0:0:0:
402,192,106775,1,0,0:0:0:0:
329,192,106840,1,0,0:0:0:0:
182,192,106840,1,0,0:0:0:0:
109,192,106840,1,0,0:0:0:0:
475,192,106840,1,0,0:0:0:0:
256,192,106904,1,0,0:0:0:0:
36,192,106968,1,0,0:0:0:0:
402,192,106968,1,0,0:0:0:0:
182,192,107032,1,0,0:0:0:0:
329,192,107096,1,0,0:0:0:0:
256,192,107096,1,0,0:0:0:0:
109,192,107096,1,0,0:0:0:0:
475,192,107096,1,0,0:0:0:0:
36,192,107160,1,0,0:0:0:0:
182,192,107224,1,0,0:0:0:0:
329,192,107224,1,0,0:0:0:0:
109,192,107288,1,0,0:0:0:0:
36,192,107352,1,0,0:0:0:0:
256,192,107352,1,0,0:0:0:0:
402,192,107352,1,0,0:0:0:0:
475,192,107352,1,0,0:0:0:0:
182,192,107416,1,0,0:0:0:0:
329,192,107481,1,0,0:0:0:0:
109,192,107481,1,0,0:0:0:0:
475,192,107545,1,0,0:0:0:0:
256,192,107609,1,0,0:0:0:0:
402,192,107609,1,0,0:0:0:0:
182,192,107609,1,0,0:0:0:0:
36,192,107609,1,0,0:0:0:0:
329,192,107673,1,0,0:0:0:0:
109,192,107737,1,0,0:0:0:0:
256,192,107737,1,0,0:0:0:0:
402,192,107801,1,0,0:0:0:0:
182,192,107865,1,0,0:0:0:0:
36,192,107865,1,0,0:0:0:0:
329,192,107865,1,0,0:0:0:0:
475,192,107865,1,0,0:0:0:0:
256,192,107929,1,0,0:0:0:0:
109,192,107993,1,0,0:0:0:0:
182,192,107993,1,0,0:0:0:0:
329,192,108058,1,0,0:0:0:0:
402,192,108122,1,0,0:0:0:0:
475,192,108122,1,0,0:0:0:0:
256,192,108122,1,0,0:0:0:0:
36,192,108122,1,0,0:0:0:0:
109,192,108186,1,0,0:0:0:0:
182,192,108250,1,0,0:0:0:0:
329,192,108250,1,0,0:0:0:0:
402,192,108314,1,0,0:0:0:0:
256,192,108378,1,0,0:0:0:0:
109,192,108378,1,0,0:0:0:0:
36,192,108378,1,0,0:0:0:0:
475,192,108378,1,0,0:0:0:0:
36,192,108506,1,0,0:0:0:0:
109,192,108506,1,0,0:0:0:0:
256,192,108506,1,0,0:0:0:0:
475,192,108506,1,0,0:0:0:0:
329,192,108570,1,0,0:0:0:0:
182,192,108634,1,0,0:0:0:0:
329,192,108699,1,0,0:0:0:0:
109,192,108763,1,0,0:0:0:0:
36,192,108763,1,0,0:0:0:0:
475,192,108763,1,0,0:0:0:0:
256,192,108763,1,0,0:0:0:0:
329,192,108891,1,0,0:0:0:0:
402,192,108891,1,0,0:0:0:0:
475,192,108891,1,0,0:0:0:0:
36,192,108955,1,0,0:0:0:0:
109,192,108955,1,0,0:0:0:0:
256,192,108955,1,0,0:0:0:0:
182,192,109019,1,0,0:0:0:0:
402,192,109019,1,0,0:0:0:0:
475,192,109019,1,0,0:0:0:0:
329,192,109083,1,0,0:0:0:0:
109,192,109083,1,0,0:0:0:0:
36,192,109083,1,0,0:0:0:0:
256,192,109147,1,0,0:0:0:0:
402,192,109147,1,0,0:0:0:0:
475,192,109147,1,0,0:0:0:0:
182,192,109147,1,0,0:0:0:0:
36,192,109404,128,0,110365:0:0:0:0:
109,192,109404,1,0,0:0:0:0:
475,192,109404,1,0,0:0:0:0:
402,192,109404,1,0,0:0:0:0:
182,192,109404,1,0,0:0:0:0:
256,192,109468,1,0,0:0:0:0:
329,192,109532,1,0,0:0:0:0:
109,192,109532,1,0,0:0:0:0:
182,192,109596,1,0,0:0:0:0:
402,192,109660,1,0,0:0:0:0:
475,192,109660,1,0,0:0:0:0:
256,192,109660,1,0,0:0:0:0:
109,192,109724,1,0,0:0:0:0:
329,192,109788,1,0,0:0:0:0:
182,192,109788,1,0,0:0:0:0:
402,192,109852,1,0,0:0:0:0:
109,192,109916,1,0,0:0:0:0:
475,192,109916,1,0,0:0:0:0:
256,192,109916,1,0,0:0:0:0:
402,192,109981,1,0,0:0:0:0:
329,192,110045,1,0,0:0:0:0:
182,192,110045,1,0,0:0:0:0:
109,192,110109,1,0,0:0:0:0:
475,192,110173,1,0,0:0:0:0:
402,192,110173,1,0,0:0:0:0:
256,192,110173,1,0,0:0:0:0:
182,192,110237,1,0,0:0:0:0:
329,192,110301,1,0,0:0:0:0:
109,192,110301,1,0,0:0:0:0:
402,192,110365,1,0,0:0:0:0:
475,192,110429,128,0,111391:0:0:0:0:
36,192,110429,1,0,0:0:0:0:
256,192,110429,1,0,0:0:0:0:
182,192,110429,1,0,0:0:0:0:
329,192,110493,1,0,0:0:0:0:
109,192,110558,1,0,0:0:0:0:
402,192,110558,1,0,0:0:0:0:
182,192,110622,1,0,0:0:0:0:
329,192,110686,1,0,0:0:0:0:
256,192,110686,1,0,0:0:0:0:
36,192,110686,1,0,0:0:0:0:
109,192,110750,1,0,0:0:0:0:
182,192,110814,1,0,0:0:0:0:
402,192,110814,1,0,0:0:0:0:
329,192,110878,1,0,0:0:0:0:
256,192,110942,128,0,111391:0:0:0:0:
36,192,110942,1,0,0:0:0:0:
109,192,110942,1,0,0:0:0:0:
402,192,111006,1,0,0:0:0:0:
182,192,111070,1,0,0:0:0:0:
329,192,111070,1,0,0:0:0:0:
36,192,111134,1,0,0:0:0:0:
109,192,111199,1,0,0:0:0:0:
402,192,111199,1,0,0:0:0:0:
182,192,111263,1,0,0:0:0:0:
329,192,111327,1,0,0:0:0:0:
36,192,111327,1,0,0:0:0:0:
402,192,111391,1,0,0:0:0:0:
36,192,111455,128,0,113442:0:0:0:0:
475,192,111455,1,0,0:0:0:0:
109,192,111455,1,0,0:0:0:0:
256,192,111455,1,0,0:0:0:0:
182,192,111519,1,0,0:0:0:0:
329,192,111583,1,0,0:0:0:0:
402,192,111583,1,0,0:0:0:0:
256,192,111647,1,0,0:0:0:0:
402,192,111711,1,0,0:0:0:0:
475,192,111711,1,0,0:0:0:0:
109,192,111711,1,0,0:0:0:0:
329,192,111775,1,0,0:0:0:0:
256,192,111840,1,0,0:0:0:0:
182,192,111840,1,0,0:0:0:0:
402,192,111904,1,0,0:0:0:0:
475,192,111968,1,0,0:0:0:0:
109,192,111968,1,0,0:0:0:0:
329,192,111968,1,0,0:0:0:0:
182,192,112032,1,0,0:0:0:0:
256,192,112096,1,0,0:0:0:0:
402,192,112096,1,0,0:0:0:0:
329,192,112160,1,0,0:0:0:0:
475,192,112224,1,0,0:0:0:0:
182,192,112224,1,0,0:0:0:0:
109,192,112224,1,0,0:0:0:0:
402,192,112288,1,0,0:0:0:0:
256,192,112352,1,0,0:0:0:0:
329,192,112352,1,0,0:0:0:0:
109,192,112416,1,0,0:0:0:0:
475,192,112481,1,0,0:0:0:0:
182,192,112481,1,0,0:0:0:0:
402,192,112481,1,0,0:0:0:0:
256,192,112545,1,0,0:0:0:0:
329,192,112609,1,0,0:0:0:0:
109,192,112609,1,0,0:0:0:0:
402,192,112673,1,0,0:0:0:0:
475,192,112737,1,0,0:0:0:0:
182,192,112737,1,0,0:0:0:0:
256,192,112737,1,0,0:0:0:0:
402,192,112801,1,0,0:0:0:0:
329,192,112865,1,0,0:0:0:0:
109,192,112865,1,0,0:0:0:0:
182,192,112929,1,0,0:0:0:0:
475,192,112993,128,0,113442:0:0:0:0:
402,192,112993,1,0,0:0:0:0:
256,192,112993,1,0,0:0:0:0:
329,192,113058,1,0,0:0:0:0:
182,192,113122,1,0,0:0:0:0:
256,192,113186,1,0,0:0:0:0:
402,192,113250,1,0,0:0:0:0:
109,192,113250,1,0,0:0:0:0:
329,192,113314,1,0,0:0:0:0:
256,192,113378,1,0,0:0:0:0:
182,192,113442,1,0,0:0:0:0:
109,192,113506,1,0,0:0:0:0:
36,192,113506,1,0,0:0:0:0:
402,192,113506,1,0,0:0:0:0:
475,192,113506,1,0,0:0:0:0:
182,192,113634,1,0,0:0:0:0:
36,192,113634,1,0,0:0:0:0:
256,192,113634,1,0,0:0:0:0:
402,192,113634,1,0,0:0:0:0:
109,192,113763,1,0,0:0:0:0:
256,192,113763,1,0,0:0:0:0:
329,192,113763,1,0,0:0:0:0:
475,192,113763,1,0,0:0:0:0:
36,192,113891,1,0,0:0:0:0:
109,192,113891,1,0,0:0:0:0:
182,192,113891,1,0,0:0:0:0:
402,192,113891,1,0,0:0:0:0:
329,192,114019,1,0,0:0:0:0:
475,192,114019,1,0,0:0:0:0:
256,192,114019,1,0,0:0:0:0:
36,192,114019,1,0,0:0:0:0:
329,192,114147,1,0,0:0:0:0:
182,192,114147,1,0,0:0:0:0:
109,192,114147,1,0,0:0:0:0:
402,192,114147,1,0,0:0:0:0:
256,192,114275,1,0,0:0:0:0:
182,192,114275,1,0,0:0:0:0:
109,192,114275,1,0,0:0:0:0:
475,192,114340,1,0,0:0:0:0:
329,192,114340,1,0,0:0:0:0:
402,192,114340,1,0,0:0:0:0:
109,192,114404,1,0,0:0:0:0:
182,192,114404,1,0,0:0:0:0:
36,192,114404,1,0,0:0:0:0:
256,192,114468,1,0,0:0:0:0:
329,192,114468,1,0,0:0:0:0:
402,192,114468,1,0,0:0:0:0:
475,192,114532,1,0,0:0:0:0:
36,192,114532,1,0,0:0:0:0:
182,192,114532,1,0,0:0:0:0:
109,192,114532,1,0,0:0:0:0:
256,192,114660,1,0,0:0:0:0:
402,192,114660,1,0,0:0:0:0:
36,192,114660,1,0,0:0:0:0:
329,192,114660,1,0,0:0:0:0:
109,192,114788,1,0,0:0:0:0:
182,192,114788,1,0,0:0:0:0:
329,192,114788,1,0,0:0:0:0:
475,192,114788,1,0,0:0:0:0:
256,192,114916,1,0,0:0:0:0:
402,192,114916,1,0,0:0:0:0:
36,192,114916,1,0,0:0:0:0:
182,192,114916,1,0,0:0:0:0:
109,192,115045,1,0,0:0:0:0:
256,192,115045,1,0,0:0:0:0:
329,192,115045,1,0,0:0:0:0:
475,192,115045,1,0,0:0:0:0:
182,192,115173,1,0,0:0:0:0:
36,192,115173,1,0,0:0:0:0:
329,192,115173,1,0,0:0:0:0:
402,192,115173,1,0,0:0:0:0:
256,192,115301,1,0,0:0:0:0:
402,192,115301,1,0,0:0:0:0:
475,192,115301,1,0,0:0:0:0:
36,192,115365,1,0,0:0:0:0:
109,192,115365,1,0,0:0:0:0:
182,192,115365,1,0,0:0:0:0:
329,192,115429,1,0,0:0:0:0:
402,192,115429,1,0,0:0:0:0:
475,192,115429,1,0,0:0:0:0:
256,192,115493,1,0,0:0:0:0:
109,192,115493,1,0,0:0:0:0:
36,192,115493,1,0,0:0:0:0:
329,192,115558,1,0,0:0:0:0:
402,192,115558,1,0,0:0:0:0:
475,192,115558,1,0,0:0:0:0:
182,192,115622,1,0,0:0:0:0:
109,192,115622,1,0,0:0:0:0:
36,192,115622,1,0,0:0:0:0:
329,192,115686,1,0,0:0:0:0:
402,192,115686,1,0,0:0:0:0:
475,192,115686,1,0,0:0:0:0:
182,192,115750,1,0,0:0:0:0:
109,192,115750,1,0,0:0:0:0:
36,192,115750,1,0,0:0:0:0:
329,192,115814,1,0,0:0:0:0:
402,192,115814,1,0,0:0:0:0:
475,192,115814,1,0,0:0:0:0:
36,192,116070,1,0,0:0:0:0:
109,192,116070,1,0,0:0:0:0:
182,192,116070,1,0,0:0:0:0:
329,192,116134,1,0,0:0:0:0:
402,192,116134,1,0,0:0:0:0:
475,192,116134,1,0,0:0:0:0:
182,192,116199,1,0,0:0:0:0:
109,192,116199,1,0,0:0:0:0:
36,192,116199,1,0,0:0:0:0:
402,192,116263,1,0,0:0:0:0:
475,192,116263,1,0,0:0:0:0:
329,192,116263,1,0,0:0:0:0:
182,192,116327,1,0,0:0:0:0:
109,192,116327,1,0,0:0:0:0:
36,192,116327,1,0,0:0:0:0:
36,192,116583,128,0,117545:0:0:0:0:
256,192,116583,128,0,117545:0:0:0:0:
475,192,116583,128,0,117545:0:0:0:0:
109,192,116583,128,0,117545:0:0:0:0:
402,192,116583,128,0,117545:0:0:0:0:
36,192,117609,128,0,117673:0:0:0:0:
109,192,117609,128,0,117673:0:0:0:0:
256,192,117609,128,0,117673:0:0:0:0:
402,192,117609,128,0,117673:0:0:0:0:
475,192,117609,128,0,117673:0:0:0:0:
36,192,117865,1,0,0:0:0:0:
109,192,117865,1,0,0:0:0:0:
256,192,117865,1,0,0:0:0:0:
402,192,117865,1,0,0:0:0:0:
475,192,117865,1,0,0:0:0:0:
182,192,117993,128,0,118058:0:0:0:0:
329,192,117993,128,0,118058:0:0:0:0:
402,192,117993,128,0,118058:0:0:0:0:
475,192,117993,128,0,118058:0:0:0:0:
329,192,118122,128,0,118186:0:0:0:0:
402,192,118122,128,0,118186:0:0:0:0:
182,192,118122,128,0,118186:0:0:0:0:
475,192,118122,128,0,118186:0:0:0:0:
36,192,118186,1,0,0:0:0:0:
109,192,118250,1,0,0:0:0:0:
256,192,118250,1,0,0:0:0:0:
329,192,118314,1,0,0:0:0:0:
182,192,118378,1,0,0:0:0:0:
36,192,118378,1,0,0:0:0:0:
402,192,118378,1,0,0:0:0:0:
475,192,118378,1,0,0:0:0:0:
256,192,118442,1,0,0:0:0:0:
109,192,118506,1,0,0:0:0:0:
329,192,118506,1,0,0:0:0:0:
256,192,118570,1,0,0:0:0:0:
182,192,118634,1,0,0:0:0:0:
36,192,118634,1,0,0:0:0:0:
402,192,118634,1,0,0:0:0:0:
475,192,118634,1,0,0:0:0:0:
329,192,118699,1,0,0:0:0:0:
109,192,118763,1,0,0:0:0:0:
256,192,118763,1,0,0:0:0:0:
402,192,118827,1,0,0:0:0:0:
36,192,118891,128,0,118955:0:0:0:0:
182,192,118891,128,0,118955:0:0:0:0:
475,192,118891,128,0,118955:0:0:0:0:
329,192,118891,128,0,118955:0:0:0:0:
109,192,119019,128,0,119083:0:0:0:0:
256,192,119019,128,0,119083:0:0:0:0:
475,192,119019,128,0,119083:0:0:0:0:
182,192,119147,128,0,119211:0:0:0:0:
329,192,119147,128,0,119211:0:0:0:0:
475,192,119147,128,0,119211:0:0:0:0:
36,192,119211,1,0,0:0:0:0:
109,192,119275,1,0,0:0:0:0:
256,192,119275,1,0,0:0:0:0:
402,192,119340,1,0,0:0:0:0:
329,192,119404,128,0,119468:0:0:0:0:
475,192,119404,128,0,119468:0:0:0:0:
36,192,119404,128,0,119468:0:0:0:0:
182,192,119404,128,0,119468:0:0:0:0:
256,192,119468,1,0,0:0:0:0:
402,192,119532,1,0,0:0:0:0:
109,192,119532,1,0,0:0:0:0:
182,192,119596,1,0,0:0:0:0:
329,192,119660,128,0,119724:0:0:0:0:
475,192,119660,128,0,119724:0:0:0:0:
256,192,119660,128,0,119724:0:0:0:0:
36,192,119660,128,0,119724:0:0:0:0:
109,192,119724,1,0,0:0:0:0:
182,192,119788,1,0,0:0:0:0:
402,192,119788,1,0,0:0:0:0:
36,192,119852,1,0,0:0:0:0:
109,192,119916,1,0,0:0:0:0:
256,192,119916,1,0,0:0:0:0:
475,192,119916,1,0,0:0:0:0:
329,192,119916,1,0,0:0:0:0:
402,192,119981,1,0,0:0:0:0:
36,192,120045,128,0,120109:0:0:0:0:
182,192,120045,128,0,120109:0:0:0:0:
329,192,120045,128,0,120109:0:0:0:0:
109,192,120045,128,0,120109:0:0:0:0:
36,192,120173,128,0,120237:0:0:0:0:
182,192,120173,128,0,120237:0:0:0:0:
329,192,120173,128,0,120237:0:0:0:0:
109,192,120173,128,0,120237:0:0:0:0:
475,192,120237,1,0,0:0:0:0:
256,192,120301,1,0,0:0:0:0:
402,192,120301,1,0,0:0:0:0:
182,192,120365,1,0,0:0:0:0:
109,192,120429,1,0,0:0:0:0:
36,192,120429,1,0,0:0:0:0:
329,192,120429,1,0,0:0:0:0:
475,192,120429,1,0,0:0:0:0:
256,192,120493,1,0,0:0:0:0:
402,192,120558,1,0,0:0:0:0:
329,192,120558,1,0,0:0:0:0:
182,192,120622,1,0,0:0:0:0:
256,192,120686,1,0,0:0:0:0:
109,192,120686,1,0,0:0:0:0:
36,192,120686,1,0,0:0:0:0:
475,192,120686,1,0,0:0:0:0:
402,192,120750,1,0,0:0:0:0:
329,192,120814,1,0,0:0:0:0:
182,192,120814,1,0,0:0:0:0:
109,192,120878,1,0,0:0:0:0:
36,192,120942,128,0,121006:0:0:0:0:
256,192,120942,128,0,121006:0:0:0:0:
402,192,120942,128,0,121006:0:0:0:0:
475,192,120942,128,0,121006:0:0:0:0:
109,192,121070,128,0,121134:0:0:0:0:
182,192,121070,128,0,121134:0:0:0:0:
329,192,121070,128,0,121134:0:0:0:0:
402,192,121070,128,0,121134:0:0:0:0:
256,192,121199,128,0,121263:0:0:0:0:
402,192,121199,128,0,121263:0:0:0:0:
475,192,121199,128,0,121263:0:0:0:0:
109,192,121199,128,0,121263:0:0:0:0:
36,192,121263,1,0,0:0:0:0:
182,192,121327,1,0,0:0:0:0:
329,192,121327,1,0,0:0:0:0:
109,192,121391,1,0,0:0:0:0:
36,192,121455,128,0,121519:0:0:0:0:
256,192,121455,128,0,121519:0:0:0:0:
402,192,121455,128,0,121519:0:0:0:0:
475,192,121455,128,0,121519:0:0:0:0:
182,192,121519,1,0,0:0:0:0:
109,192,121583,1,0,0:0:0:0:
329,192,121583,1,0,0:0:0:0:
402,192,121647,1,0,0:0:0:0:
36,192,121711,128,0,121775:0:0:0:0:
182,192,121711,128,0,121775:0:0:0:0:
256,192,121711,128,0,121775:0:0:0:0:
475,192,121711,128,0,121775:0:0:0:0:
402,192,121775,1,0,0:0:0:0:
329,192,121840,1,0,0:0:0:0:
109,192,121840,1,0,0:0:0:0:
182,192,121904,1,0,0:0:0:0:
256,192,121968,1,0,0:0:0:0:
402,192,121968,1,0,0:0:0:0:
475,192,121968,1,0,0:0:0:0:
36,192,121968,1,0,0:0:0:0:
109,192,122032,1,0,0:0:0:0:
182,192,122096,128,0,122160:0:0:0:0:
256,192,122096,128,0,122160:0:0:0:0:
402,192,122096,128,0,122160:0:0:0:0:
475,192,122096,128,0,122160:0:0:0:0:
182,192,122224,128,0,122288:0:0:0:0:
256,192,122224,128,0,122288:0:0:0:0:
402,192,122224,128,0,122288:0:0:0:0:
475,192,122224,128,0,122288:0:0:0:0:
109,192,122288,1,0,0:0:0:0:
36,192,122352,1,0,0:0:0:0:
329,192,122352,1,0,0:0:0:0:
256,192,122416,1,0,0:0:0:0:
182,192,122481,1,0,0:0:0:0:
109,192,122481,1,0,0:0:0:0:
402,192,122481,1,0,0:0:0:0:
475,192,122481,1,0,0:0:0:0:
329,192,122545,1,0,0:0:0:0:
256,192,122609,1,0,0:0:0:0:
109,192,122609,1,0,0:0:0:0:
402,192,122673,1,0,0:0:0:0:
182,192,122737,1,0,0:0:0:0:
36,192,122737,1,0,0:0:0:0:
329,192,122737,1,0,0:0:0:0:
475,192,122737,1,0,0:0:0:0:
109,192,122801,1,0,0:0:0:0:
256,192,122865,1,0,0:0:0:0:
402,192,122865,1,0,0:0:0:0:
182,192,122929,1,0,0:0:0:0:
36,192,122993,128,0,123058:0:0:0:0:
109,192,122993,128,0,123058:0:0:0:0:
329,192,122993,128,0,123058:0:0:0:0:
475,192,122993,128,0,123058:0:0:0:0:
182,192,123122,128,0,123186:0:0:0:0:
329,192,123122,128,0,123186:0:0:0:0:
475,192,123122,128,0,123186:0:0:0:0:
109,192,123122,128,0,123186:0:0:0:0:
329,192,123250,128,0,123314:0:0:0:0:
475,192,123250,128,0,123314:0:0:0:0:
256,192,123250,128,0,123314:0:0:0:0:
182,192,123250,128,0,123314:0:0:0:0:
36,192,123314,1,0,0:0:0:0:
402,192,123378,1,0,0:0:0:0:
109,192,123378,1,0,0:0:0:0:
329,192,123442,1,0,0:0:0:0:
36,192,123506,128,0,123570:0:0:0:0:
182,192,123506,128,0,123570:0:0:0:0:
256,192,123506,128,0,123570:0:0:0:0:
475,192,123506,128,0,123570:0:0:0:0:
402,192,123570,1,0,0:0:0:0:
329,192,123634,1,0,0:0:0:0:
109,192,123634,1,0,0:0:0:0:
182,192,123699,1,0,0:0:0:0:
36,192,123763,128,0,123827:0:0:0:0:
256,192,123763,128,0,123827:0:0:0:0:
402,192,123763,128,0,123827:0:0:0:0:
475,192,123763,128,0,123827:0:0:0:0:
109,192,123827,1,0,0:0:0:0:
182,192,123891,1,0,0:0:0:0:
329,192,123891,1,0,0:0:0:0:
109,192,123955,1,0,0:0:0:0:
36,192,124019,1,0,0:0:0:0:
256,192,124019,1,0,0:0:0:0:
402,192,124019,1,0,0:0:0:0:
475,192,124019,1,0,0:0:0:0:
182,192,124083,1,0,0:0:0:0:
109,192,124147,128,0,124211:0:0:0:0:
36,192,124147,128,0,124211:0:0:0:0:
329,192,124147,128,0,124211:0:0:0:0:
475,192,124147,128,0,124211:0:0:0:0:
475,192,124275,128,0,124340:0:0:0:0:
329,192,124275,128,0,124340:0:0:0:0:
109,192,124275,128,0,124340:0:0:0:0:
36,192,124275,128,0,124340:0:0:0:0:
36,192,124404,1,0,0:0:0:0:
109,192,124404,1,0,0:0:0:0:
329,192,124404,1,0,0:0:0:0:
475,192,124404,1,0,0:0:0:0:
182,192,124468,1,0,0:0:0:0:
36,192,124532,1,0,0:0:0:0:
329,192,124532,1,0,0:0:0:0:
475,192,124532,1,0,0:0:0:0:
109,192,124532,1,0,0:0:0:0:
182,192,124596,1,0,0:0:0:0:
36,192,124660,128,0,124724:0:0:0:0:
256,192,124660,128,0,124724:0:0:0:0:
402,192,124660,128,0,124724:0:0:0:0:
475,192,124660,128,0,124724:0:0:0:0:
475,192,124788,128,0,124852:0:0:0:0:
402,192,124788,128,0,124852:0:0:0:0:
256,192,124788,128,0,124852:0:0:0:0:
36,192,124788,128,0,124852:0:0:0:0:
109,192,124852,1,0,0:0:0:0:
182,192,124916,1,0,0:0:0:0:
329,192,124916,1,0,0:0:0:0:
402,192,124981,1,0,0:0:0:0:
36,192,125045,1,0,0:0:0:0:
109,192,125045,1,0,0:0:0:0:
256,192,125045,1,0,0:0:0:0:
475,192,125045,1,0,0:0:0:0:
109,192,125173,1,0,0:0:0:0:
182,192,125173,1,0,0:0:0:0:
329,192,125173,1,0,0:0:0:0:
475,192,125173,1,0,0:0:0:0:
109,192,125429,1,0,0:0:0:0:
329,192,125429,1,0,0:0:0:0:
475,192,125429,1,0,0:0:0:0:
182,192,125429,1,0,0:0:0:0:
182,192,125558,128,0,125622:0:0:0:0:
36,192,125558,128,0,125622:0:0:0:0:
256,192,125558,128,0,125622:0:0:0:0:
402,192,125558,128,0,125622:0:0:0:0:
109,192,125686,128,0,125750:0:0:0:0:
182,192,125686,128,0,125750:0:0:0:0:
329,192,125686,128,0,125750:0:0:0:0:
475,192,125686,128,0,125750:0:0:0:0:
402,192,125814,128,0,125878:0:0:0:0:
475,192,125814,128,0,125878:0:0:0:0:
256,192,125814,128,0,125878:0:0:0:0:
36,192,125814,128,0,125878:0:0:0:0:
109,192,125878,1,0,0:0:0:0:
182,192,125942,1,0,0:0:0:0:
329,192,125942,1,0,0:0:0:0:
109,192,126006,1,0,0:0:0:0:
36,192,126070,1,0,0:0:0:0:
256,192,126070,1,0,0:0:0:0:
402,192,126070,1,0,0:0:0:0:
475,192,126070,1,0,0:0:0:0:
329,192,126134,1,0,0:0:0:0:
182,192,126199,128,0,126263:0:0:0:0:
109,192,126199,128,0,126263:0:0:0:0:
402,192,126199,128,0,126263:0:0:0:0:
475,192,126199,128,0,126263:0:0:0:0:
475,192,126327,128,0,126391:0:0:0:0:
402,192,126327,128,0,126391:0:0:0:0:
182,192,126327,128,0,126391:0:0:0:0:
109,192,126327,128,0,126391:0:0:0:0:
256,192,126391,1,0,0:0:0:0:
329,192,126455,1,0,0:0:0:0:
36,192,126455,1,0,0:0:0:0:
109,192,126519,1,0,0:0:0:0:
182,192,126583,1,0,0:0:0:0:
402,192,126583,1,0,0:0:0:0:
475,192,126583,1,0,0:0:0:0:
256,192,126583,1,0,0:0:0:0:
36,192,126647,1,0,0:0:0:0:
109,192,126711,1,0,0:0:0:0:
329,192,126711,1,0,0:0:0:0:
256,192,126775,1,0,0:0:0:0:
182,192,126840,1,0,0:0:0:0:
36,192,126840,1,0,0:0:0:0:
402,192,126840,1,0,0:0:0:0:
475,192,126840,1,0,0:0:0:0:
329,192,126904,1,0,0:0:0:0:
109,192,126968,1,0,0:0:0:0:
256,192,126968,1,0,0:0:0:0:
402,192,127032,1,0,0:0:0:0:
36,192,127096,128,0,127160:0:0:0:0:
182,192,127096,128,0,127160:0:0:0:0:
329,192,127096,128,0,127160:0:0:0:0:
475,192,127096,128,0,127160:0:0:0:0:
475,192,127224,128,0,127288:0:0:0:0:
402,192,127224,128,0,127288:0:0:0:0:
256,192,127224,128,0,127288:0:0:0:0:
109,192,127224,128,0,127288:0:0:0:0:
36,192,127352,128,0,127416:0:0:0:0:
182,192,127352,128,0,127416:0:0:0:0:
329,192,127352,128,0,127416:0:0:0:0:
475,192,127352,128,0,127416:0:0:0:0:
109,192,127416,1,0,0:0:0:0:
182,192,127481,1,0,0:0:0:0:
329,192,127481,1,0,0:0:0:0:
402,192,127545,1,0,0:0:0:0:
36,192,127609,128,0,127673:0:0:0:0:
109,192,127609,128,0,127673:0:0:0:0:
256,192,127609,128,0,127673:0:0:0:0:
475,192,127609,128,0,127673:0:0:0:0:
329,192,127673,1,0,0:0:0:0:
402,192,127737,1,0,0:0:0:0:
109,192,127737,1,0,0:0:0:0:
182,192,127801,1,0,0:0:0:0:
36,192,127865,128,0,127929:0:0:0:0:
256,192,127865,128,0,127929:0:0:0:0:
329,192,127865,128,0,127929:0:0:0:0:
475,192,127865,128,0,127929:0:0:0:0:
109,192,127929,1,0,0:0:0:0:
182,192,127993,1,0,0:0:0:0:
329,192,127993,1,0,0:0:0:0:
402,192,128058,1,0,0:0:0:0:
475,192,128122,1,0,0:0:0:0:
256,192,128122,1,0,0:0:0:0:
109,192,128122,1,0,0:0:0:0:
36,192,128122,1,0,0:0:0:0:
329,192,128186,1,0,0:0:0:0:
36,192,128250,128,0,128314:0:0:0:0:
182,192,128250,128,0,128314:0:0:0:0:
402,192,128250,128,0,128314:0:0:0:0:
256,192,128250,128,0,128314:0:0:0:0:
256,192,128378,128,0,128442:0:0:0:0:
182,192,128378,128,0,128442:0:0:0:0:
36,192,128378,128,0,128442:0:0:0:0:
402,192,128378,128,0,128442:0:0:0:0:
475,192,128442,1,0,0:0:0:0:
329,192,128506,1,0,0:0:0:0:
109,192,128506,1,0,0:0:0:0:
182,192,128570,1,0,0:0:0:0:
256,192,128634,1,0,0:0:0:0:
402,192,128634,1,0,0:0:0:0:
475,192,128634,1,0,0:0:0:0:
36,192,128634,1,0,0:0:0:0:
109,192,128699,1,0,0:0:0:0:
329,192,128763,5,0,0:0:0:0:
475,192,128763,1,0,0:0:0:0:
182,192,128827,1,0,0:0:0:0:
109,192,128891,1,0,0:0:0:0:
36,192,128891,1,0,0:0:0:0:
256,192,128891,1,0,0:0:0:0:
402,192,128891,1,0,0:0:0:0:
475,192,128955,1,0,0:0:0:0:
329,192,129019,1,0,0:0:0:0:
182,192,129019,1,0,0:0:0:0:
36,192,129083,1,0,0:0:0:0:
109,192,129147,128,0,129211:0:0:0:0:
256,192,129147,128,0,129211:0:0:0:0:
402,192,129147,128,0,129211:0:0:0:0:
475,192,129147,128,0,129211:0:0:0:0:
182,192,129275,128,0,129340:0:0:0:0:
402,192,129275,128,0,129340:0:0:0:0:
475,192,129275,128,0,129340:0:0:0:0:
36,192,129275,128,0,129340:0:0:0:0:
109,192,129404,128,0,129468:0:0:0:0:
256,192,129404,128,0,129468:0:0:0:0:
402,192,129404,128,0,129468:0:0:0:0:
475,192,129404,128,0,129468:0:0:0:0:
182,192,129468,1,0,0:0:0:0:
329,192,129532,1,0,0:0:0:0:
36,192,129532,1,0,0:0:0:0:
109,192,129596,1,0,0:0:0:0:
182,192,129660,128,0,129724:0:0:0:0:
256,192,129660,128,0,129724:0:0:0:0:
402,192,129660,128,0,129724:0:0:0:0:
475,192,129660,128,0,129724:0:0:0:0:
36,192,129724,1,0,0:0:0:0:
256,192,129788,1,0,0:0:0:0:
182,192,129788,1,0,0:0:0:0:
329,192,129852,1,0,0:0:0:0:
36,192,129916,5,0,0:0:0:0:
109,192,129916,1,0,0:0:0:0:
402,192,129916,1,0,0:0:0:0:
475,192,129916,1,0,0:0:0:0:
182,192,129916,1,0,0:0:0:0:
36,192,130045,1,0,0:0:0:0:
109,192,130045,1,0,0:0:0:0:
402,192,130045,1,0,0:0:0:0:
475,192,130045,1,0,0:0:0:0:
182,192,130045,1,0,0:0:0:0:
256,192,130301,1,0,0:0:0:0:
402,192,130301,1,0,0:0:0:0:
475,192,130301,1,0,0:0:0:0:
109,192,130301,1,0,0:0:0:0:
36,192,130301,1,0,0:0:0:0:
256,192,130429,1,0,0:0:0:0:
402,192,130429,1,0,0:0:0:0:
475,192,130429,1,0,0:0:0:0:
109,192,130429,1,0,0:0:0:0:
36,192,130429,1,0,0:0:0:0:
36,192,130686,1,0,0:0:0:0:
182,192,130686,1,0,0:0:0:0:
329,192,130686,1,0,0:0:0:0:
475,192,130686,1,0,0:0:0:0:
402,192,130686,1,0,0:0:0:0:
475,192,130814,1,0,0:0:0:0:
329,192,130814,1,0,0:0:0:0:
182,192,130814,1,0,0:0:0:0:
36,192,130814,1,0,0:0:0:0:
402,192,130814,1,0,0:0:0:0:
36,192,131070,1,0,0:0:0:0:
109,192,131070,1,0,0:0:0:0:
402,192,131070,1,0,0:0:0:0:
475,192,131070,1,0,0:0:0:0:
182,192,131070,1,0,0:0:0:0:
475,192,131199,1,0,0:0:0:0:
402,192,131199,1,0,0:0:0:0:
109,192,131199,1,0,0:0:0:0:
36,192,131199,1,0,0:0:0:0:
182,192,131199,1,0,0:0:0:0:
329,192,131455,1,0,0:0:0:0:
475,192,131455,1,0,0:0:0:0:
36,192,131455,1,0,0:0:0:0:
256,192,131455,1,0,0:0:0:0:
109,192,131455,1,0,0:0:0:0:
329,192,131583,1,0,0:0:0:0:
475,192,131583,1,0,0:0:0:0:
36,192,131583,1,0,0:0:0:0:
256,192,131583,1,0,0:0:0:0:
109,192,131583,1,0,0:0:0:0:
182,192,131840,1,0,0:0:0:0:
36,192,131840,1,0,0:0:0:0:
329,192,131840,1,0,0:0:0:0:
402,192,131840,1,0,0:0:0:0:
475,192,131840,1,0,0:0:0:0:
36,192,131968,1,0,0:0:0:0:
182,192,131968,1,0,0:0:0:0:
329,192,132032,1,0,0:0:0:0:
182,192,132096,1,0,0:0:0:0:
329,192,132160,1,0,0:0:0:0:
182,192,132224,1,0,0:0:0:0:
475,192,132352,1,0,0:0:0:0:
329,192,132352,1,0,0:0:0:0:
182,192,132416,1,0,0:0:0:0:
329,192,132481,1,0,0:0:0:0:
182,192,132545,1,0,0:0:0:0:
329,192,132609,1,0,0:0:0:0:
36,192,132737,1,0,0:0:0:0:
109,192,132737,1,0,0:0:0:0:
329,192,132801,1,0,0:0:0:0:
402,192,132801,1,0,0:0:0:0:
36,192,132865,1,0,0:0:0:0:
109,192,132865,1,0,0:0:0:0:
329,192,132929,1,0,0:0:0:0:
402,192,132929,1,0,0:0:0:0:
182,192,132993,1,0,0:0:0:0:
256,192,132993,1,0,0:0:0:0:
402,192,133058,1,0,0:0:0:0:
475,192,133058,1,0,0:0:0:0:
109,192,133122,1,0,0:0:0:0:
182,192,133122,1,0,0:0:0:0:
329,192,133186,1,0,0:0:0:0:
402,192,133186,1,0,0:0:0:0:
109,192,133250,1,0,0:0:0:0:
36,192,133250,1,0,0:0:0:0:
329,192,133314,1,0,0:0:0:0:
256,192,133314,1,0,0:0:0:0:
402,192,133378,1,0,0:0:0:0:
475,192,133378,1,0,0:0:0:0:
182,192,133442,1,0,0:0:0:0:
256,192,133442,1,0,0:0:0:0:
36,192,133506,128,0,134019:0:0:0:0:
109,192,133506,1,0,0:0:0:0:
329,192,133506,1,0,0:0:0:0:
402,192,133506,1,0,0:0:0:0:
475,192,133506,1,0,0:0:0:0:
109,192,134019,1,0,0:0:0:0:
182,192,134019,1,0,0:0:0:0:
329,192,134019,1,0,0:0:0:0:
256,192,134019,1,0,0:0:0:0:
402,192,134019,1,0,0:0:0:0:
475,192,134019,1,0,0:0:0:0:
256,192,135045,1,0,0:0:0:0:
182,192,135045,1,0,0:0:0:0:
402,192,135045,1,0,0:0:0:0:
475,192,135045,1,0,0:0:0:0:
36,192,135814,1,0,0:0:0:0:
109,192,135814,1,0,0:0:0:0:
256,192,135814,1,0,0:0:0:0:
402,192,135814,1,0,0:0:0:0:
475,192,135814,1,0,0:0:0:0:
182,192,135814,1,0,0:0:0:0:
36,192,136583,1,0,0:0:0:0:
109,192,136583,1,0,0:0:0:0:
182,192,136583,1,0,0:0:0:0:
256,192,136583,1,0,0:0:0:0:
402,192,136583,1,0,0:0:0:0:
475,192,136583,1,0,0:0:0:0:
182,192,137096,1,0,0:0:0:0:
256,192,137096,1,0,0:0:0:0:
402,192,137096,1,0,0:0:0:0:
475,192,137096,1,0,0:0:0:0:
256,192,137609,1,0,0:0:0:0:
402,192,137609,1,0,0:0:0:0:
475,192,137609,1,0,0:0:0:0:
182,192,137609,1,0,0:0:0:0:
36,192,138122,1,0,0:0:0:0:
109,192,138122,1,0,0:0:0:0:
182,192,138122,1,0,0:0:0:0:
329,192,138122,1,0,0:0:0:0:
402,192,138122,1,0,0:0:0:0:
475,192,138122,1,0,0:0:0:0:
36,192,138634,1,0,0:0:0:0:
109,192,138634,1,0,0:0:0:0:
329,192,138634,1,0,0:0:0:0:
402,192,138634,1,0,0:0:0:0:
475,192,138634,1,0,0:0:0:0:
182,192,138634,1,0,0:0:0:0:
256,192,139147,1,0,0:0:0:0:
402,192,139147,1,0,0:0:0:0:
475,192,139147,1,0,0:0:0:0:
109,192,139147,1,0,0:0:0:0:
36,192,139916,1,0,0:0:0:0:
109,192,139916,1,0,0:0:0:0:
182,192,139916,1,0,0:0:0:0:
256,192,139916,1,0,0:0:0:0:
402,192,139916,1,0,0:0:0:0:
475,192,139916,1,0,0:0:0:0:
36,192,140686,1,0,0:0:0:0:
109,192,140686,1,0,0:0:0:0:
182,192,140686,1,0,0:0:0:0:
256,192,140686,1,0,0:0:0:0:
402,192,140686,1,0,0:0:0:0:
475,192,140686,1,0,0:0:0:0:
182,192,141199,1,0,0:0:0:0:
256,192,141199,1,0,0:0:0:0:
402,192,141199,1,0,0:0:0:0:
475,192,141199,1,0,0:0:0:0:
36,192,141711,128,0,142139:0:0:0:0:
475,192,141711,128,0,142139:0:0:0:0:
36,192,142224,1,0,0:0:0:0:
475,192,142224,128,0,142652:0:0:0:0:
182,192,142224,1,0,0:0:0:0:
402,192,142310,128,0,142566:0:0:0:0:
329,192,142395,128,0,142481:0:0:0:0:
256,192,142481,128,0,142908:0:0:0:0:
36,192,142481,1,0,0:0:0:0:
182,192,142481,1,0,0:0:0:0:
329,192,142566,128,0,142822:0:0:0:0:
402,192,142652,128,0,142737:0:0:0:0:
475,192,142737,128,0,143164:0:0:0:0:
36,192,142737,1,0,0:0:0:0:
182,192,142737,1,0,0:0:0:0:
402,192,142822,128,0,143079:0:0:0:0:
329,192,142908,128,0,142993:0:0:0:0:
256,192,142993,128,0,143421:0:0:0:0:
36,192,142993,1,0,0:0:0:0:
182,192,142993,1,0,0:0:0:0:
329,192,143079,128,0,143335:0:0:0:0:
402,192,143164,128,0,143250:0:0:0:0:
475,192,143250,128,0,143677:0:0:0:0:
182,192,143250,1,0,0:0:0:0:
36,192,143250,1,0,0:0:0:0:
402,192,143335,128,0,143592:0:0:0:0:
329,192,143421,128,0,143506:0:0:0:0:
36,192,143506,1,0,0:0:0:0:
182,192,143506,1,0,0:0:0:0:
256,192,143506,128,0,143677:0:0:0:0:
329,192,143592,128,0,143848:0:0:0:0:
402,192,143677,128,0,143763:0:0:0:0:
475,192,143763,128,0,143934:0:0:0:0:
256,192,143763,128,0,143934:0:0:0:0:
36,192,143763,1,0,0:0:0:0:
402,192,143848,128,0,144019:0:0:0:0:
182,192,143848,128,0,144019:0:0:0:0:
329,192,143934,128,0,144105:0:0:0:0:
109,192,143934,128,0,144105:0:0:0:0:
256,192,144019,128,0,144190:0:0:0:0:
36,192,144019,128,0,144190:0:0:0:0:
475,192,144019,1,0,0:0:0:0:
402,192,144105,1,0,0:0:0:0:
182,192,144105,128,0,144275:0:0:0:0:
329,192,144190,1,0,0:0:0:0:
109,192,144190,128,0,144361:0:0:0:0:
475,192,144275,1,0,0:0:0:0:
256,192,144275,128,0,144703:0:0:0:0:
36,192,144275,128,0,144446:0:0:0:0:
182,192,144361,128,0,144617:0:0:0:0:
109,192,144446,128,0,144532:0:0:0:0:
329,192,144532,1,0,0:0:0:0:
475,192,144532,1,0,0:0:0:0:
36,192,144532,128,0,144959:0:0:0:0:
109,192,144617,128,0,144874:0:0:0:0:
182,192,144703,128,0,144788:0:0:0:0:
329,192,144788,1,0,0:0:0:0:
475,192,144788,1,0,0:0:0:0:
256,192,144788,128,0,145216:0:0:0:0:
182,192,144874,128,0,145130:0:0:0:0:
109,192,144959,128,0,145045:0:0:0:0:
329,192,145045,1,0,0:0:0:0:
475,192,145045,1,0,0:0:0:0:
36,192,145045,128,0,145472:0:0:0:0:
109,192,145130,128,0,145387:0:0:0:0:
182,192,145216,128,0,145301:0:0:0:0:
329,192,145301,1,0,0:0:0:0:
475,192,145301,1,0,0:0:0:0:
256,192,145301,128,0,145728:0:0:0:0:
182,192,145387,128,0,145643:0:0:0:0:
109,192,145472,128,0,145558:0:0:0:0:
329,192,145558,1,0,0:0:0:0:
475,192,145558,1,0,0:0:0:0:
36,192,145558,128,0,145728:0:0:0:0:
109,192,145643,128,0,145814:0:0:0:0:
182,192,145728,128,0,145899:0:0:0:0:
475,192,145814,1,0,0:0:0:0:
256,192,145814,128,0,145985:0:0:0:0:
329,192,145899,128,0,146070:0:0:0:0:
109,192,145899,128,0,146070:0:0:0:0:
402,192,145985,128,0,146156:0:0:0:0:
182,192,145985,128,0,146156:0:0:0:0:
36,192,146070,1,0,0:0:0:0:
256,192,146070,128,0,146241:0:0:0:0:
475,192,146070,128,0,146241:0:0:0:0:
109,192,146156,1,0,0:0:0:0:
329,192,146156,128,0,146327:0:0:0:0:
182,192,146241,1,0,0:0:0:0:
402,192,146241,128,0,146327:0:0:0:0:
256,192,146327,1,0,0:0:0:0:
475,192,146327,128,0,146754:0:0:0:0:
402,192,146412,128,0,146840:0:0:0:0:
329,192,146498,128,0,146925:0:0:0:0:
36,192,146583,128,0,147011:0:0:0:0:
256,192,146583,1,0,0:0:0:0:
109,192,146669,128,0,147096:0:0:0:0:
182,192,146754,128,0,147181:0:0:0:0:
475,192,146840,128,0,147267:0:0:0:0:
256,192,146840,1,0,0:0:0:0:
402,192,146925,128,0,147352:0:0:0:0:
329,192,147011,128,0,147438:0:0:0:0:
36,192,147096,128,0,147523:0:0:0:0:
256,192,147096,1,0,0:0:0:0:
109,192,147181,128,0,147609:0:0:0:0:
182,192,147267,128,0,147694:0:0:0:0:
475,192,147352,128,0,147780:0:0:0:0:
256,192,147352,1,0,0:0:0:0:
402,192,147438,128,0,147865:0:0:0:0:
329,192,147523,128,0,147951:0:0:0:0:
36,192,147609,128,0,148036:0:0:0:0:
256,192,147609,1,0,0:0:0:0:
109,192,147694,128,0,147951:0:0:0:0:
182,192,147780,128,0,147865:0:0:0:0:
475,192,147865,128,0,148293:0:0:0:0:
256,192,147865,128,0,148036:0:0:0:0:
402,192,147951,128,0,148207:0:0:0:0:
182,192,147951,128,0,148207:0:0:0:0:
329,192,148036,128,0,148122:0:0:0:0:
109,192,148036,128,0,148122:0:0:0:0:
36,192,148122,128,0,148378:0:0:0:0:
256,192,148122,128,0,148293:0:0:0:0:
109,192,148207,128,0,148378:0:0:0:0:
329,192,148207,128,0,148378:0:0:0:0:
182,192,148293,128,0,148378:0:0:0:0:
402,192,148293,128,0,148378:0:0:0:0:
475,192,148378,128,0,148464:0:0:0:0:
256,192,148378,1,0,0:0:0:0:
109,192,148464,128,0,148891:0:0:0:0:
36,192,148549,128,0,148976:0:0:0:0:
329,192,148634,128,0,149062:0:0:0:0:
256,192,148634,1,0,0:0:0:0:
402,192,148720,128,0,149147:0:0:0:0:
475,192,148805,128,0,149233:0:0:0:0:
182,192,148891,128,0,149318:0:0:0:0:
256,192,148891,1,0,0:0:0:0:
109,192,148976,128,0,149404:0:0:0:0:
36,192,149062,128,0,149489:0:0:0:0:
329,192,149147,128,0,149575:0:0:0:0:
256,192,149147,1,0,0:0:0:0:
402,192,149233,128,0,149660:0:0:0:0:
475,192,149318,128,0,149746:0:0:0:0:
182,192,149404,128,0,150002:0:0:0:0:
256,192,149404,1,0,0:0:0:0:
109,192,149489,128,0,149916:0:0:0:0:
36,192,149575,128,0,149831:0:0:0:0:
329,192,149660,128,0,149916:0:0:0:0:
256,192,149660,1,0,0:0:0:0:
402,192,149746,128,0,150002:0:0:0:0:
475,192,149831,128,0,150087:0:0:0:0:
36,192,149916,128,0,150087:0:0:0:0:
256,192,149916,128,0,150087:0:0:0:0:
109,192,150002,128,0,150173:0:0:0:0:
329,192,150002,128,0,150173:0:0:0:0:
182,192,150087,128,0,150258:0:0:0:0:
402,192,150087,128,0,150258:0:0:0:0:
256,192,150173,128,0,150344:0:0:0:0:
36,192,150173,128,0,150258:0:0:0:0:
475,192,150173,128,0,150344:0:0:0:0:
329,192,150258,128,0,150429:0:0:0:0:
109,192,150258,128,0,150344:0:0:0:0:
182,192,150344,128,0,150429:0:0:0:0:
402,192,150344,128,0,150429:0:0:0:0:
256,192,150429,1,0,0:0:0:0:
475,192,150429,1,0,0:0:0:0:
36,192,150429,1,0,0:0:0:0:
402,192,150515,1,0,0:0:0:0:
109,192,150558,1,0,0:0:0:0:
182,192,150558,1,0,0:0:0:0:
329,192,150600,1,0,0:0:0:0:
475,192,150686,1,0,0:0:0:0:
36,192,150686,1,0,0:0:0:0:
256,192,150686,1,0,0:0:0:0:
109,192,150771,1,0,0:0:0:0:
329,192,150814,1,0,0:0:0:0:
402,192,150814,1,0,0:0:0:0:
182,192,150857,1,0,0:0:0:0:
475,192,150942,1,0,0:0:0:0:
256,192,150942,1,0,0:0:0:0:
36,192,150942,1,0,0:0:0:0:
402,192,151028,1,0,0:0:0:0:
109,192,151070,1,0,0:0:0:0:
182,192,151070,1,0,0:0:0:0:
329,192,151113,1,0,0:0:0:0:
36,192,151199,1,0,0:0:0:0:
256,192,151199,1,0,0:0:0:0:
475,192,151199,1,0,0:0:0:0:
109,192,151284,1,0,0:0:0:0:
329,192,151327,1,0,0:0:0:0:
475,192,151327,1,0,0:0:0:0:
182,192,151369,1,0,0:0:0:0:
256,192,151455,1,0,0:0:0:0:
475,192,151455,1,0,0:0:0:0:
36,192,151455,1,0,0:0:0:0:
402,192,151455,1,0,0:0:0:0:
182,192,151540,1,0,0:0:0:0:
329,192,151583,1,0,0:0:0:0:
402,192,151583,1,0,0:0:0:0:
109,192,151626,1,0,0:0:0:0:
256,192,151711,1,0,0:0:0:0:
36,192,151711,1,0,0:0:0:0:
475,192,151711,1,0,0:0:0:0:
329,192,151797,1,0,0:0:0:0:
109,192,151840,1,0,0:0:0:0:
182,192,151840,1,0,0:0:0:0:
402,192,151882,1,0,0:0:0:0:
256,192,151968,1,0,0:0:0:0:
36,192,151968,1,0,0:0:0:0:
475,192,151968,1,0,0:0:0:0:
182,192,152053,1,0,0:0:0:0:
329,192,152096,1,0,0:0:0:0:
402,192,152096,1,0,0:0:0:0:
109,192,152139,1,0,0:0:0:0:
256,192,152224,1,0,0:0:0:0:
36,192,152224,1,0,0:0:0:0:
475,192,152224,1,0,0:0:0:0:
109,192,152288,1,0,0:0:0:0:
329,192,152310,1,0,0:0:0:0:
182,192,152352,1,0,0:0:0:0:
402,192,152395,1,0,0:0:0:0:
256,192,152416,1,0,0:0:0:0:
36,192,152481,1,0,0:0:0:0:
109,192,152481,1,0,0:0:0:0:
329,192,152481,1,0,0:0:0:0:
475,192,152481,1,0,0:0:0:0:
256,192,152566,1,0,0:0:0:0:
329,192,152609,1,0,0:0:0:0:
475,192,152609,1,0,0:0:0:0:
182,192,152652,1,0,0:0:0:0:
109,192,152737,1,0,0:0:0:0:
36,192,152737,1,0,0:0:0:0:
256,192,152737,1,0,0:0:0:0:
402,192,152737,1,0,0:0:0:0:
329,192,152822,1,0,0:0:0:0:
36,192,152865,1,0,0:0:0:0:
109,192,152865,1,0,0:0:0:0:
402,192,152908,1,0,0:0:0:0:
475,192,152993,1,0,0:0:0:0:
182,192,152993,1,0,0:0:0:0:
329,192,152993,1,0,0:0:0:0:
256,192,152993,1,0,0:0:0:0:
109,192,153079,1,0,0:0:0:0:
182,192,153122,1,0,0:0:0:0:
329,192,153122,1,0,0:0:0:0:
36,192,153164,1,0,0:0:0:0:
256,192,153250,1,0,0:0:0:0:
475,192,153250,1,0,0:0:0:0:
109,192,153250,1,0,0:0:0:0:
402,192,153250,1,0,0:0:0:0:
329,192,153335,1,0,0:0:0:0:
109,192,153378,1,0,0:0:0:0:
475,192,153378,1,0,0:0:0:0:
182,192,153378,1,0,0:0:0:0:
402,192,153421,1,0,0:0:0:0:
36,192,153506,1,0,0:0:0:0:
256,192,153506,1,0,0:0:0:0:
182,192,153506,1,0,0:0:0:0:
329,192,153506,1,0,0:0:0:0:
475,192,153592,1,0,0:0:0:0:
36,192,153634,1,0,0:0:0:0:
109,192,153634,1,0,0:0:0:0:
402,192,153677,1,0,0:0:0:0:
182,192,153699,1,0,0:0:0:0:
329,192,153763,1,0,0:0:0:0:
256,192,153763,1,0,0:0:0:0:
475,192,153763,1,0,0:0:0:0:
109,192,153848,1,0,0:0:0:0:
329,192,153891,1,0,0:0:0:0:
402,192,153891,1,0,0:0:0:0:
182,192,153934,1,0,0:0:0:0:
256,192,154019,1,0,0:0:0:0:
36,192,154019,1,0,0:0:0:0:
475,192,154019,1,0,0:0:0:0:
402,192,154019,1,0,0:0:0:0:
329,192,154083,1,0,0:0:0:0:
182,192,154105,1,0,0:0:0:0:
475,192,154147,1,0,0:0:0:0:
109,192,154190,1,0,0:0:0:0:
402,192,154211,1,0,0:0:0:0:
36,192,154275,1,0,0:0:0:0:
182,192,154275,1,0,0:0:0:0:
329,192,154275,1,0,0:0:0:0:
256,192,154340,1,0,0:0:0:0:
109,192,154361,1,0,0:0:0:0:
475,192,154404,1,0,0:0:0:0:
182,192,154446,1,0,0:0:0:0:
402,192,154468,1,0,0:0:0:0:
36,192,154532,1,0,0:0:0:0:
109,192,154532,1,0,0:0:0:0:
256,192,154532,1,0,0:0:0:0:
329,192,154532,1,0,0:0:0:0:
402,192,154596,1,0,0:0:0:0:
475,192,154596,1,0,0:0:0:0:
36,192,154660,1,0,0:0:0:0:
182,192,154660,1,0,0:0:0:0:
256,192,154660,1,0,0:0:0:0:
329,192,154724,1,0,0:0:0:0:
402,192,154724,1,0,0:0:0:0:
109,192,154788,1,0,0:0:0:0:
36,192,154788,1,0,0:0:0:0:
475,192,154788,1,0,0:0:0:0:
182,192,154788,1,0,0:0:0:0:
256,192,154852,1,0,0:0:0:0:
329,192,154852,1,0,0:0:0:0:
402,192,154916,1,0,0:0:0:0:
36,192,154916,1,0,0:0:0:0:
109,192,154916,1,0,0:0:0:0:
182,192,154981,1,0,0:0:0:0:
256,192,154981,1,0,0:0:0:0:
329,192,155045,1,0,0:0:0:0:
475,192,155045,1,0,0:0:0:0:
402,192,155045,1,0,0:0:0:0:
36,192,155045,1,0,0:0:0:0:
109,192,155109,1,0,0:0:0:0:
182,192,155109,1,0,0:0:0:0:
256,192,155173,1,0,0:0:0:0:
329,192,155173,1,0,0:0:0:0:
475,192,155173,1,0,0:0:0:0:
36,192,155237,1,0,0:0:0:0:
109,192,155237,1,0,0:0:0:0:
182,192,155301,1,0,0:0:0:0:
256,192,155301,1,0,0:0:0:0:
402,192,155301,1,0,0:0:0:0:
475,192,155301,1,0,0:0:0:0:
329,192,155301,1,0,0:0:0:0:
256,192,155558,1,0,0:0:0:0:
182,192,155558,1,0,0:0:0:0:
402,192,155558,1,0,0:0:0:0:
475,192,155558,1,0,0:0:0:0:
109,192,155622,1,0,0:0:0:0:
36,192,155622,1,0,0:0:0:0:
256,192,155686,1,0,0:0:0:0:
329,192,155686,1,0,0:0:0:0:
402,192,155686,1,0,0:0:0:0:
182,192,155750,1,0,0:0:0:0:
109,192,155750,1,0,0:0:0:0:
36,192,155814,1,0,0:0:0:0:
329,192,155814,1,0,0:0:0:0:
402,192,155814,1,0,0:0:0:0:
475,192,155814,1,0,0:0:0:0:
256,192,155878,1,0,0:0:0:0:
182,192,155878,1,0,0:0:0:0:
109,192,155942,1,0,0:0:0:0:
36,192,155942,1,0,0:0:0:0:
475,192,155942,1,0,0:0:0:0:
402,192,156006,1,0,0:0:0:0:
329,192,156006,1,0,0:0:0:0:
256,192,156070,1,0,0:0:0:0:
182,192,156070,1,0,0:0:0:0:
109,192,156070,1,0,0:0:0:0:
36,192,156070,1,0,0:0:0:0:
402,192,156134,1,0,0:0:0:0:
475,192,156134,1,0,0:0:0:0:
109,192,156199,1,0,0:0:0:0:
182,192,156199,1,0,0:0:0:0:
256,192,156199,1,0,0:0:0:0:
329,192,156263,1,0,0:0:0:0:
402,192,156263,1,0,0:0:0:0:
36,192,156327,1,0,0:0:0:0:
182,192,156327,1,0,0:0:0:0:
109,192,156327,1,0,0:0:0:0:
475,192,156327,1,0,0:0:0:0:
256,192,156327,1,0,0:0:0:0:
329,192,156583,1,0,0:0:0:0:
402,192,156583,1,0,0:0:0:0:
475,192,156583,1,0,0:0:0:0:
182,192,156647,1,0,0:0:0:0:
109,192,156647,1,0,0:0:0:0:
36,192,156647,1,0,0:0:0:0:
256,192,156711,1,0,0:0:0:0:
329,192,156711,1,0,0:0:0:0:
402,192,156711,1,0,0:0:0:0:
182,192,156775,1,0,0:0:0:0:
109,192,156775,1,0,0:0:0:0:
36,192,156775,1,0,0:0:0:0:
256,192,156840,1,0,0:0:0:0:
329,192,156840,1,0,0:0:0:0:
402,192,156840,1,0,0:0:0:0:
475,192,156840,1,0,0:0:0:0:
36,192,157096,1,0,0:0:0:0:
109,192,157096,1,0,0:0:0:0:
182,192,157096,1,0,0:0:0:0:
329,192,157160,1,0,0:0:0:0:
402,192,157160,1,0,0:0:0:0:
475,192,157160,1,0,0:0:0:0:
256,192,157224,1,0,0:0:0:0:
182,192,157224,1,0,0:0:0:0:
109,192,157224,1,0,0:0:0:0:
329,192,157288,1,0,0:0:0:0:
402,192,157288,1,0,0:0:0:0:
475,192,157288,1,0,0:0:0:0:
182,192,157352,1,0,0:0:0:0:
109,192,157352,1,0,0:0:0:0:
36,192,157352,1,0,0:0:0:0:
256,192,157352,1,0,0:0:0:0:
109,192,157609,1,0,0:0:0:0:
402,192,157609,1,0,0:0:0:0:
475,192,157609,1,0,0:0:0:0:
182,192,157609,1,0,0:0:0:0:
256,192,157609,1,0,0:0:0:0:
182,192,157737,1,0,0:0:0:0:
109,192,157737,1,0,0:0:0:0:
256,192,157737,1,0,0:0:0:0:
475,192,157801,1,0,0:0:0:0:
402,192,157801,1,0,0:0:0:0:
329,192,157801,1,0,0:0:0:0:
182,192,157929,1,0,0:0:0:0:
36,192,157929,1,0,0:0:0:0:
109,192,157929,1,0,0:0:0:0:
256,192,157993,1,0,0:0:0:0:
329,192,157993,1,0,0:0:0:0:
402,192,157993,1,0,0:0:0:0:
36,192,158122,1,0,0:0:0:0:
182,192,158122,1,0,0:0:0:0:
329,192,158122,1,0,0:0:0:0:
109,192,158122,1,0,0:0:0:0:
402,192,158122,1,0,0:0:0:0:
36,192,158250,1,0,0:0:0:0:
109,192,158250,1,0,0:0:0:0:
182,192,158250,1,0,0:0:0:0:
256,192,158314,1,0,0:0:0:0:
329,192,158314,1,0,0:0:0:0:
402,192,158314,1,0,0:0:0:0:
109,192,158442,1,0,0:0:0:0:
182,192,158442,1,0,0:0:0:0:
256,192,158442,1,0,0:0:0:0:
329,192,158506,1,0,0:0:0:0:
402,192,158506,1,0,0:0:0:0:
475,192,158506,1,0,0:0:0:0:
402,192,158634,1,0,0:0:0:0:
475,192,158634,1,0,0:0:0:0:
109,192,158634,1,0,0:0:0:0:
36,192,158634,1,0,0:0:0:0:
182,192,158634,1,0,0:0:0:0:
329,192,158699,1,0,0:0:0:0:
182,192,158763,1,0,0:0:0:0:
329,192,158827,1,0,0:0:0:0:
182,192,158891,1,0,0:0:0:0:
329,192,158955,1,0,0:0:0:0:
182,192,159019,1,0,0:0:0:0:
329,192,159083,1,0,0:0:0:0:
182,192,159147,1,0,0:0:0:0:
329,192,159211,1,0,0:0:0:0:
182,192,159275,1,0,0:0:0:0:
329,192,159340,1,0,0:0:0:0:
182,192,159404,1,0,0:0:0:0:
329,192,159468,1,0,0:0:0:0:
182,192,159532,1,0,0:0:0:0:
329,192,159596,1,0,0:0:0:0:
182,192,159660,1,0,0:0:0:0:
329,192,159724,1,0,0:0:0:0:
182,192,159788,1,0,0:0:0:0:
329,192,159852,1,0,0:0:0:0:
182,192,159916,1,0,0:0:0:0:
329,192,159981,1,0,0:0:0:0:
182,192,160045,1,0,0:0:0:0:
329,192,160109,1,0,0:0:0:0:
182,192,160173,1,0,0:0:0:0:
329,192,160237,1,0,0:0:0:0:
182,192,160301,1,0,0:0:0:0:
329,192,160365,1,0,0:0:0:0:
182,192,160429,1,0,0:0:0:0:
329,192,160493,1,0,0:0:0:0:
182,192,160558,1,0,0:0:0:0:
329,192,160622,1,0,0:0:0:0:
109,192,160686,1,0,0:0:0:0:
182,192,160686,1,0,0:0:0:0:
402,192,160750,1,0,0:0:0:0:
329,192,160750,1,0,0:0:0:0:
109,192,160814,1,0,0:0:0:0:
182,192,160814,1,0,0:0:0:0:
329,192,160878,1,0,0:0:0:0:
402,192,160878,1,0,0:0:0:0:
109,192,160942,1,0,0:0:0:0:
182,192,160942,1,0,0:0:0:0:
402,192,161006,1,0,0:0:0:0:
329,192,161006,1,0,0:0:0:0:
109,192,161070,1,0,0:0:0:0:
182,192,161070,1,0,0:0:0:0:
329,192,161134,1,0,0:0:0:0:
402,192,161134,1,0,0:0:0:0:
109,192,161199,1,0,0:0:0:0:
182,192,161199,1,0,0:0:0:0:
329,192,161263,1,0,0:0:0:0:
402,192,161263,1,0,0:0:0:0:
182,192,161327,1,0,0:0:0:0:
109,192,161327,1,0,0:0:0:0:
329,192,161391,1,0,0:0:0:0:
402,192,161391,1,0,0:0:0:0:
109,192,161455,1,0,0:0:0:0:
182,192,161455,1,0,0:0:0:0:
329,192,161519,1,0,0:0:0:0:
402,192,161519,1,0,0:0:0:0:
182,192,161583,1,0,0:0:0:0:
109,192,161583,1,0,0:0:0:0:
402,192,161647,1,0,0:0:0:0:
329,192,161647,1,0,0:0:0:0:
182,192,161711,1,0,0:0:0:0:
109,192,161711,1,0,0:0:0:0:
36,192,161711,1,0,0:0:0:0:
329,192,161775,1,0,0:0:0:0:
402,192,161775,1,0,0:0:0:0:
475,192,161775,1,0,0:0:0:0:
36,192,161840,1,0,0:0:0:0:
109,192,161840,1,0,0:0:0:0:
182,192,161840,1,0,0:0:0:0:
475,192,161904,1,0,0:0:0:0:
329,192,161904,1,0,0:0:0:0:
402,192,161904,1,0,0:0:0:0:
182,192,161968,1,0,0:0:0:0:
109,192,161968,1,0,0:0:0:0:
36,192,161968,1,0,0:0:0:0:
329,192,162032,1,0,0:0:0:0:
402,192,162032,1,0,0:0:0:0:
475,192,162032,1,0,0:0:0:0:
36,192,162096,1,0,0:0:0:0:
182,192,162096,1,0,0:0:0:0:
109,192,162096,1,0,0:0:0:0:
329,192,162160,1,0,0:0:0:0:
402,192,162160,1,0,0:0:0:0:
475,192,162160,1,0,0:0:0:0:
182,192,162224,1,0,0:0:0:0:
109,192,162224,1,0,0:0:0:0:
36,192,162224,1,0,0:0:0:0:
256,192,162224,1,0,0:0:0:0:
329,192,162416,1,0,0:0:0:0:
402,192,162416,1,0,0:0:0:0:
475,192,162416,1,0,0:0:0:0:
36,192,162416,1,0,0:0:0:0:
182,192,162416,1,0,0:0:0:0:
256,192,162416,1,0,0:0:0:0:
109,192,162609,1,0,0:0:0:0:
36,192,162609,1,0,0:0:0:0:
256,192,162609,1,0,0:0:0:0:
402,192,162609,1,0,0:0:0:0:
475,192,162609,1,0,0:0:0:0:
329,192,162609,1,0,0:0:0:0:
36,192,162737,5,0,0:0:0:0:
109,192,162737,1,0,0:0:0:0:
182,192,162737,1,0,0:0:0:0:
329,192,162737,1,0,0:0:0:0:
402,192,162737,1,0,0:0:0:0:
475,192,162737,1,0,0:0:0:0:
36,192,162865,1,0,0:0:0:0:
182,192,162865,1,0,0:0:0:0:
109,192,162865,1,0,0:0:0:0:
402,192,162865,1,0,0:0:0:0:
475,192,162865,1,0,0:0:0:0:
329,192,162865,1,0,0:0:0:0:
402,192,162993,1,0,0:0:0:0:
475,192,162993,1,0,0:0:0:0:
36,192,162993,128,0,163186:0:0:0:0:
182,192,162993,128,0,163186:0:0:0:0:
329,192,163058,1,0,0:0:0:0:
402,192,163122,1,0,0:0:0:0:
475,192,163122,1,0,0:0:0:0:
329,192,163186,1,0,0:0:0:0:
36,192,163250,128,0,163378:0:0:0:0:
182,192,163250,128,0,163378:0:0:0:0:
402,192,163250,128,0,163378:0:0:0:0:
475,192,163250,128,0,163378:0:0:0:0:
256,192,163250,128,0,163378:0:0:0:0:
475,192,163506,128,0,163634:0:0:0:0:
256,192,163506,128,0,163570:0:0:0:0:
36,192,163506,128,0,163634:0:0:0:0:
402,192,163570,128,0,163699:0:0:0:0:
182,192,163570,128,0,163634:0:0:0:0:
329,192,163634,128,0,163763:0:0:0:0:
109,192,163634,128,0,163699:0:0:0:0:
256,192,163699,128,0,163827:0:0:0:0:
36,192,163699,128,0,163763:0:0:0:0:
475,192,163763,128,0,163955:0:0:0:0:
182,192,163763,128,0,163891:0:0:0:0:
402,192,163827,128,0,163891:0:0:0:0:
36,192,163891,128,0,164083:0:0:0:0:
329,192,163891,128,0,163955:0:0:0:0:
109,192,163955,128,0,164147:0:0:0:0:
256,192,163955,128,0,164019:0:0:0:0:
475,192,164019,1,0,0:0:0:0:
182,192,164019,128,0,164211:0:0:0:0:
402,192,164019,128,0,164083:0:0:0:0:
329,192,164083,128,0,164147:0:0:0:0:
402,192,164147,128,0,164211:0:0:0:0:
36,192,164147,128,0,164211:0:0:0:0:
256,192,164147,1,0,0:0:0:0:
475,192,164211,128,0,164275:0:0:0:0:
109,192,164211,128,0,164275:0:0:0:0:
256,192,164275,128,0,164468:0:0:0:0:
182,192,164275,128,0,164340:0:0:0:0:
329,192,164318,128,0,164404:0:0:0:0:
36,192,164340,128,0,164468:0:0:0:0:
402,192,164361,128,0,164446:0:0:0:0:
475,192,164404,128,0,164489:0:0:0:0:
109,192,164404,128,0,164532:0:0:0:0:
182,192,164468,128,0,164596:0:0:0:0:
256,192,164532,128,0,164617:0:0:0:0:
36,192,164532,128,0,164660:0:0:0:0:
329,192,164575,128,0,164660:0:0:0:0:
402,192,164617,128,0,164703:0:0:0:0:
475,192,164660,128,0,164724:0:0:0:0:
109,192,164660,128,0,164746:0:0:0:0:
182,192,164703,128,0,164788:0:0:0:0:
256,192,164746,128,0,164831:0:0:0:0:
329,192,164788,128,0,164874:0:0:0:0:
402,192,164788,1,0,0:0:0:0:
36,192,164788,128,0,165045:0:0:0:0:
109,192,164852,128,0,164981:0:0:0:0:
182,192,164916,1,0,0:0:0:0:
475,192,164916,128,0,165002:0:0:0:0:
402,192,164959,128,0,165045:0:0:0:0:
329,192,165002,128,0,165087:0:0:0:0:
182,192,165045,128,0,165130:0:0:0:0:
256,192,165045,128,0,165216:0:0:0:0:
109,192,165087,128,0,165173:0:0:0:0:
475,192,165087,128,0,165216:0:0:0:0:
36,192,165130,128,0,165216:0:0:0:0:
402,192,165130,128,0,165216:0:0:0:0:
329,192,165173,128,0,165216:0:0:0:0:
182,192,165216,1,0,0:0:0:0:
109,192,165258,1,0,0:0:0:0:
475,192,165301,1,0,0:0:0:0:
402,192,165301,1,0,0:0:0:0:
329,192,165301,128,0,165387:0:0:0:0:
36,192,165301,128,0,165493:0:0:0:0:
256,192,165344,128,0,165429:0:0:0:0:
182,192,165387,128,0,165472:0:0:0:0:
109,192,165429,128,0,165515:0:0:0:0:
475,192,165429,128,0,165525:0:0:0:0:
402,192,165461,128,0,165558:0:0:0:0:
329,192,165493,128,0,165590:0:0:0:0:
256,192,165525,128,0,165622:0:0:0:0:
182,192,165558,128,0,165654:0:0:0:0:
36,192,165558,128,0,165686:0:0:0:0:
402,192,165622,128,0,165750:0:0:0:0:
329,192,165686,128,0,165750:0:0:0:0:
109,192,165686,1,0,0:0:0:0:
182,192,165750,1,0,0:0:0:0:
36,192,165814,128,0,165985:0:0:0:0:
475,192,165814,128,0,165942:0:0:0:0:
402,192,165814,128,0,165899:0:0:0:0:
256,192,165814,128,0,165857:0:0:0:0:
109,192,165857,128,0,165985:0:0:0:0:
182,192,165899,128,0,165985:0:0:0:0:
329,192,165942,128,0,166028:0:0:0:0:
402,192,165985,128,0,166070:0:0:0:0:
256,192,166006,1,0,0:0:0:0:
475,192,166028,128,0,166113:0:0:0:0:
36,192,166070,128,0,166199:0:0:0:0:
109,192,166070,128,0,166156:0:0:0:0:
182,192,166070,128,0,166113:0:0:0:0:
329,192,166113,128,0,166241:0:0:0:0:
402,192,166156,128,0,166241:0:0:0:0:
475,192,166199,128,0,166241:0:0:0:0:
182,192,166199,128,0,166369:0:0:0:0:
109,192,166241,128,0,166369:0:0:0:0:
36,192,166284,128,0,166369:0:0:0:0:
402,192,166327,1,0,0:0:0:0:
475,192,166327,128,0,166519:0:0:0:0:
329,192,166327,1,0,0:0:0:0:
256,192,166391,1,0,0:0:0:0:
36,192,166455,128,0,166626:0:0:0:0:
109,192,166455,128,0,166583:0:0:0:0:
182,192,166455,128,0,166540:0:0:0:0:
402,192,166498,128,0,166583:0:0:0:0:
329,192,166540,128,0,166626:0:0:0:0:
256,192,166583,128,0,166669:0:0:0:0:
182,192,166626,128,0,166711:0:0:0:0:
475,192,166626,128,0,166754:0:0:0:0:
109,192,166669,128,0,166754:0:0:0:0:
402,192,166669,128,0,166754:0:0:0:0:
329,192,166711,128,0,166754:0:0:0:0:
36,192,166711,128,0,166754:0:0:0:0:
36,192,166840,128,0,167011:0:0:0:0:
475,192,166840,128,0,167011:0:0:0:0:
109,192,166840,128,0,166925:0:0:0:0:
256,192,166840,128,0,166925:0:0:0:0:
402,192,166840,128,0,166925:0:0:0:0:
182,192,166925,128,0,167011:0:0:0:0:
329,192,166925,128,0,167011:0:0:0:0:
256,192,167011,128,0,167096:0:0:0:0:
402,192,167011,128,0,167096:0:0:0:0:
475,192,167096,128,0,167267:0:0:0:0:
36,192,167096,128,0,167267:0:0:0:0:
109,192,167096,128,0,167181:0:0:0:0:
329,192,167096,128,0,167181:0:0:0:0:
182,192,167181,128,0,167267:0:0:0:0:
402,192,167181,128,0,167267:0:0:0:0:
329,192,167267,128,0,167352:0:0:0:0:
109,192,167267,128,0,167352:0:0:0:0:
36,192,167352,128,0,167523:0:0:0:0:
475,192,167352,128,0,167523:0:0:0:0:
182,192,167352,128,0,167438:0:0:0:0:
256,192,167352,128,0,167438:0:0:0:0:
329,192,167438,128,0,167523:0:0:0:0:
109,192,167438,128,0,167523:0:0:0:0:
182,192,167523,128,0,167609:0:0:0:0:
402,192,167523,128,0,167609:0:0:0:0:
36,192,167609,128,0,167780:0:0:0:0:
475,192,167609,128,0,167780:0:0:0:0:
256,192,167609,128,0,167694:0:0:0:0:
329,192,167609,128,0,167694:0:0:0:0:
182,192,167694,128,0,167780:0:0:0:0:
109,192,167694,128,0,167780:0:0:0:0:
256,192,167780,128,0,167865:0:0:0:0:
402,192,167780,128,0,167865:0:0:0:0:
475,192,167865,128,0,168036:0:0:0:0:
36,192,167865,128,0,168036:0:0:0:0:
329,192,167865,128,0,167951:0:0:0:0:
109,192,167865,128,0,167951:0:0:0:0:
182,192,167951,128,0,168036:0:0:0:0:
402,192,167951,128,0,168036:0:0:0:0:
329,192,168036,128,0,168122:0:0:0:0:
109,192,168036,128,0,168122:0:0:0:0:
36,192,168122,128,0,168293:0:0:0:0:
475,192,168122,128,0,168293:0:0:0:0:
182,192,168122,128,0,168207:0:0:0:0:
256,192,168122,128,0,168207:0:0:0:0:
109,192,168207,128,0,168293:0:0:0:0:
329,192,168207,128,0,168293:0:0:0:0:
402,192,168293,128,0,168378:0:0:0:0:
182,192,168293,128,0,168378:0:0:0:0:
36,192,168378,128,0,168549:0:0:0:0:
475,192,168378,128,0,168549:0:0:0:0:
256,192,168378,128,0,168464:0:0:0:0:
109,192,168378,128,0,168464:0:0:0:0:
182,192,168464,128,0,168549:0:0:0:0:
329,192,168464,128,0,168549:0:0:0:0:
402,192,168549,128,0,168634:0:0:0:0:
256,192,168549,128,0,168634:0:0:0:0:
36,192,168634,128,0,168805:0:0:0:0:
475,192,168634,128,0,168805:0:0:0:0:
109,192,168634,128,0,168720:0:0:0:0:
329,192,168634,128,0,168720:0:0:0:0:
182,192,168720,128,0,168805:0:0:0:0:
402,192,168720,128,0,168805:0:0:0:0:
109,192,168805,128,0,168891:0:0:0:0:
329,192,168805,128,0,168891:0:0:0:0:
182,192,168891,1,0,0:0:0:0:
402,192,168891,1,0,0:0:0:0:
475,192,168891,1,0,0:0:0:0:
329,192,168976,1,0,0:0:0:0:
109,192,168976,1,0,0:0:0:0:
36,192,168976,1,0,0:0:0:0:
182,192,169062,1,0,0:0:0:0:
402,192,169062,1,0,0:0:0:0:
475,192,169062,1,0,0:0:0:0:
109,192,169147,1,0,0:0:0:0:
36,192,169147,1,0,0:0:0:0:
329,192,169147,1,0,0:0:0:0:
256,192,169233,1,0,0:0:0:0:
182,192,169318,1,0,0:0:0:0:
109,192,169318,1,0,0:0:0:0:
36,192,169318,1,0,0:0:0:0:
402,192,169404,1,0,0:0:0:0:
329,192,169404,1,0,0:0:0:0:
475,192,169404,1,0,0:0:0:0:
109,192,169489,1,0,0:0:0:0:
36,192,169489,1,0,0:0:0:0:
182,192,169489,1,0,0:0:0:0:
329,192,169575,1,0,0:0:0:0:
402,192,169575,1,0,0:0:0:0:
475,192,169575,1,0,0:0:0:0:
109,192,169660,1,0,0:0:0:0:
36,192,169660,1,0,0:0:0:0:
182,192,169660,1,0,0:0:0:0:
256,192,169746,1,0,0:0:0:0:
402,192,169831,1,0,0:0:0:0:
475,192,169831,1,0,0:0:0:0:
182,192,169831,1,0,0:0:0:0:
109,192,169916,1,0,0:0:0:0:
36,192,169916,1,0,0:0:0:0:
329,192,169916,1,0,0:0:0:0:
256,192,169916,1,0,0:0:0:0:
109,192,170087,1,0,0:0:0:0:
36,192,170087,1,0,0:0:0:0:
329,192,170087,1,0,0:0:0:0:
256,192,170087,1,0,0:0:0:0:
109,192,170258,1,0,0:0:0:0:
36,192,170258,1,0,0:0:0:0:
329,192,170258,1,0,0:0:0:0:
256,192,170258,1,0,0:0:0:0:
182,192,170429,1,0,0:0:0:0:
475,192,170429,1,0,0:0:0:0:
402,192,170429,1,0,0:0:0:0:
256,192,170429,1,0,0:0:0:0:
475,192,170600,1,0,0:0:0:0:
182,192,170600,1,0,0:0:0:0:
402,192,170600,1,0,0:0:0:0:
256,192,170600,1,0,0:0:0:0:
402,192,170771,1,0,0:0:0:0:
475,192,170771,1,0,0:0:0:0:
182,192,170771,1,0,0:0:0:0:
256,192,170771,1,0,0:0:0:0:
36,192,170857,1,0,0:0:0:0:
109,192,170857,1,0,0:0:0:0:
329,192,170857,1,0,0:0:0:0:
182,192,170942,1,0,0:0:0:0:
256,192,170942,1,0,0:0:0:0:
402,192,170942,1,0,0:0:0:0:
475,192,170942,1,0,0:0:0:0:
256,192,171070,1,0,0:0:0:0:
36,192,171199,1,0,0:0:0:0:
329,192,171199,1,0,0:0:0:0:
402,192,171199,1,0,0:0:0:0:
475,192,171199,1,0,0:0:0:0:
109,192,171199,1,0,0:0:0:0:
182,192,171263,1,0,0:0:0:0:
109,192,171327,1,0,0:0:0:0:
36,192,171327,1,0,0:0:0:0:
182,192,171391,1,0,0:0:0:0:
256,192,171455,128,0,171583:0:0:0:0:
475,192,171455,128,0,171583:0:0:0:0:
36,192,171455,128,0,171583:0:0:0:0:
109,192,171455,128,0,171583:0:0:0:0:
402,192,171455,128,0,171583:0:0:0:0:
36,192,171711,128,0,171840:0:0:0:0:
256,192,171711,128,0,171791:0:0:0:0:
475,192,171711,128,0,171840:0:0:0:0:
329,192,171775,128,0,171872:0:0:0:0:
109,192,171775,128,0,171904:0:0:0:0:
182,192,171840,128,0,171968:0:0:0:0:
402,192,171840,128,0,171936:0:0:0:0:
256,192,171904,128,0,172032:0:0:0:0:
475,192,171904,128,0,172000:0:0:0:0:
36,192,171968,128,0,172160:0:0:0:0:
329,192,171968,128,0,172096:0:0:0:0:
109,192,172032,128,0,172096:0:0:0:0:
475,192,172096,128,0,172224:0:0:0:0:
182,192,172096,128,0,172160:0:0:0:0:
402,192,172160,128,0,172288:0:0:0:0:
256,192,172160,128,0,172224:0:0:0:0:
329,192,172224,128,0,172352:0:0:0:0:
36,192,172224,1,0,0:0:0:0:
109,192,172224,128,0,172288:0:0:0:0:
182,192,172288,128,0,172384:0:0:0:0:
109,192,172352,128,0,172449:0:0:0:0:
475,192,172352,128,0,172416:0:0:0:0:
256,192,172352,1,0,0:0:0:0:
36,192,172416,128,0,172513:0:0:0:0:
402,192,172416,128,0,172481:0:0:0:0:
256,192,172481,128,0,172630:0:0:0:0:
329,192,172481,128,0,172545:0:0:0:0:
182,192,172523,128,0,172673:0:0:0:0:
475,192,172545,128,0,172673:0:0:0:0:
109,192,172566,128,0,172716:0:0:0:0:
36,192,172609,128,0,172758:0:0:0:0:
402,192,172609,128,0,172737:0:0:0:0:
329,192,172673,128,0,172801:0:0:0:0:
256,192,172737,128,0,172822:0:0:0:0:
475,192,172737,128,0,172908:0:0:0:0:
182,192,172780,128,0,172865:0:0:0:0:
109,192,172822,128,0,172908:0:0:0:0:
36,192,172865,128,0,173025:0:0:0:0:
402,192,172865,128,0,172972:0:0:0:0:
329,192,172908,128,0,173015:0:0:0:0:
256,192,172951,128,0,173122:0:0:0:0:
182,192,172993,128,0,173079:0:0:0:0:
475,192,172993,128,0,173250:0:0:0:0:
109,192,172993,128,0,173058:0:0:0:0:
402,192,173058,128,0,173186:0:0:0:0:
329,192,173122,1,0,0:0:0:0:
36,192,173122,128,0,173207:0:0:0:0:
109,192,173164,128,0,173250:0:0:0:0:
182,192,173207,128,0,173293:0:0:0:0:
329,192,173250,128,0,173335:0:0:0:0:
256,192,173250,128,0,173399:0:0:0:0:
402,192,173293,128,0,173378:0:0:0:0:
36,192,173293,128,0,173421:0:0:0:0:
475,192,173335,128,0,173421:0:0:0:0:
109,192,173335,128,0,173421:0:0:0:0:
182,192,173378,128,0,173421:0:0:0:0:
329,192,173421,128,0,173506:0:0:0:0:
402,192,173464,128,0,173549:0:0:0:0:
36,192,173506,1,0,0:0:0:0:
109,192,173506,1,0,0:0:0:0:
182,192,173506,128,0,173592:0:0:0:0:
475,192,173506,128,0,173699:0:0:0:0:
256,192,173549,128,0,173634:0:0:0:0:
329,192,173592,128,0,173677:0:0:0:0:
402,192,173634,128,0,173720:0:0:0:0:
36,192,173634,128,0,173731:0:0:0:0:
109,192,173666,128,0,173763:0:0:0:0:
182,192,173699,128,0,173795:0:0:0:0:
256,192,173731,128,0,173827:0:0:0:0:
329,192,173763,128,0,173859:0:0:0:0:
475,192,173763,128,0,173891:0:0:0:0:
109,192,173827,128,0,173923:0:0:0:0:
182,192,173891,128,0,173955:0:0:0:0:
402,192,173891,128,0,173955:0:0:0:0:
329,192,173955,128,0,174019:0:0:0:0:
475,192,174019,128,0,174190:0:0:0:0:
36,192,174019,128,0,174147:0:0:0:0:
109,192,174019,128,0,174105:0:0:0:0:
256,192,174019,128,0,174083:0:0:0:0:
402,192,174062,128,0,174190:0:0:0:0:
329,192,174105,128,0,174190:0:0:0:0:
182,192,174147,128,0,174233:0:0:0:0:
109,192,174190,128,0,174275:0:0:0:0:
256,192,174211,1,0,0:0:0:0:
36,192,174233,128,0,174318:0:0:0:0:
475,192,174275,128,0,174404:0:0:0:0:
402,192,174275,128,0,174361:0:0:0:0:
329,192,174275,128,0,174318:0:0:0:0:
182,192,174318,128,0,174446:0:0:0:0:
109,192,174361,128,0,174446:0:0:0:0:
36,192,174404,128,0,174446:0:0:0:0:
329,192,174404,128,0,174575:0:0:0:0:
402,192,174446,128,0,174575:0:0:0:0:
475,192,174489,128,0,174575:0:0:0:0:
36,192,174532,128,0,174724:0:0:0:0:
109,192,174532,128,0,174596:0:0:0:0:
182,192,174532,128,0,174660:0:0:0:0:
256,192,174596,128,0,174692:0:0:0:0:
475,192,174660,128,0,174831:0:0:0:0:
402,192,174660,128,0,174788:0:0:0:0:
329,192,174660,128,0,174746:0:0:0:0:
109,192,174703,128,0,174788:0:0:0:0:
182,192,174746,128,0,174831:0:0:0:0:
256,192,174788,128,0,174874:0:0:0:0:
329,192,174831,128,0,174916:0:0:0:0:
36,192,174831,128,0,174959:0:0:0:0:
402,192,174874,128,0,174959:0:0:0:0:
109,192,174874,128,0,174959:0:0:0:0:
182,192,174916,128,0,174959:0:0:0:0:
475,192,174916,128,0,174959:0:0:0:0:
36,192,175045,128,0,175216:0:0:0:0:
475,192,175045,128,0,175216:0:0:0:0:
109,192,175045,128,0,175216:0:0:0:0:
256,192,175045,128,0,175130:0:0:0:0:
402,192,175045,128,0,175130:0:0:0:0:
182,192,175130,128,0,175301:0:0:0:0:
329,192,175130,128,0,175216:0:0:0:0:
256,192,175216,128,0,175472:0:0:0:0:
402,192,175216,128,0,175301:0:0:0:0:
475,192,175301,128,0,175472:0:0:0:0:
36,192,175301,128,0,175472:0:0:0:0:
109,192,175301,128,0,175387:0:0:0:0:
329,192,175301,128,0,175387:0:0:0:0:
182,192,175387,128,0,175472:0:0:0:0:
402,192,175387,128,0,175643:0:0:0:0:
329,192,175472,128,0,175558:0:0:0:0:
109,192,175472,128,0,175558:0:0:0:0:
36,192,175558,128,0,175728:0:0:0:0:
475,192,175558,128,0,175728:0:0:0:0:
182,192,175558,128,0,175643:0:0:0:0:
256,192,175558,128,0,175728:0:0:0:0:
329,192,175643,128,0,175728:0:0:0:0:
109,192,175643,128,0,175814:0:0:0:0:
182,192,175728,128,0,175814:0:0:0:0:
402,192,175728,128,0,175899:0:0:0:0:
36,192,175814,128,0,175985:0:0:0:0:
475,192,175814,128,0,175985:0:0:0:0:
256,192,175814,128,0,175899:0:0:0:0:
329,192,175814,128,0,175985:0:0:0:0:
182,192,175899,128,0,176070:0:0:0:0:
109,192,175899,128,0,175985:0:0:0:0:
256,192,175985,128,0,176241:0:0:0:0:
402,192,175985,128,0,176070:0:0:0:0:
475,192,176070,128,0,176241:0:0:0:0:
36,192,176070,128,0,176241:0:0:0:0:
329,192,176070,128,0,176156:0:0:0:0:
109,192,176070,128,0,176156:0:0:0:0:
182,192,176156,128,0,176241:0:0:0:0:
402,192,176156,128,0,176412:0:0:0:0:
329,192,176241,128,0,176327:0:0:0:0:
109,192,176241,128,0,176327:0:0:0:0:
36,192,176327,128,0,176498:0:0:0:0:
475,192,176327,128,0,176498:0:0:0:0:
182,192,176327,128,0,176412:0:0:0:0:
256,192,176327,128,0,176498:0:0:0:0:
109,192,176412,128,0,176498:0:0:0:0:
329,192,176412,128,0,176583:0:0:0:0:
402,192,176498,128,0,176669:0:0:0:0:
182,192,176498,128,0,176583:0:0:0:0:
36,192,176583,128,0,176669:0:0:0:0:
475,192,176583,128,0,176669:0:0:0:0:
256,192,176583,128,0,176669:0:0:0:0:
109,192,176583,128,0,176669:0:0:0:0:
182,192,176669,128,0,176754:0:0:0:0:
329,192,176669,128,0,176754:0:0:0:0:
256,192,176754,128,0,176840:0:0:0:0:
109,192,176754,128,0,176840:0:0:0:0:
36,192,176754,128,0,176840:0:0:0:0:
402,192,176754,128,0,176840:0:0:0:0:
475,192,176754,128,0,176840:0:0:0:0:
182,192,176840,128,0,176925:0:0:0:0:
329,192,176840,128,0,176925:0:0:0:0:
109,192,176925,128,0,177011:0:0:0:0:
36,192,176925,128,0,177011:0:0:0:0:
402,192,176925,128,0,177011:0:0:0:0:
475,192,176925,128,0,177011:0:0:0:0:
256,192,176925,128,0,177096:0:0:0:0:
182,192,177011,128,0,177096:0:0:0:0:
329,192,177011,128,0,177096:0:0:0:0:
36,192,177096,1,0,0:0:0:0:
475,192,177096,1,0,0:0:0:0:
109,192,177096,1,0,0:0:0:0:
402,192,177139,1,0,0:0:0:0:
329,192,177181,1,0,0:0:0:0:
256,192,177224,1,0,0:0:0:0:
182,192,177267,1,0,0:0:0:0:
109,192,177310,1,0,0:0:0:0:
36,192,177352,1,0,0:0:0:0:
109,192,177395,1,0,0:0:0:0:
182,192,177438,1,0,0:0:0:0:
256,192,177481,1,0,0:0:0:0:
329,192,177523,1,0,0:0:0:0:
402,192,177566,1,0,0:0:0:0:
475,192,177609,1,0,0:0:0:0:
402,192,177652,1,0,0:0:0:0:
329,192,177694,1,0,0:0:0:0:
256,192,177737,1,0,0:0:0:0:
182,192,177780,1,0,0:0:0:0:
109,192,177822,1,0,0:0:0:0:
36,192,177865,1,0,0:0:0:0:
109,192,177908,1,0,0:0:0:0:
182,192,177951,1,0,0:0:0:0:
256,192,177993,1,0,0:0:0:0:
329,192,178036,1,0,0:0:0:0:
402,192,178079,1,0,0:0:0:0:
475,192,178122,1,0,0:0:0:0:
36,192,178122,1,0,0:0:0:0:
109,192,178164,1,0,0:0:0:0:
182,192,178207,1,0,0:0:0:0:
256,192,178250,1,0,0:0:0:0:
329,192,178293,1,0,0:0:0:0:
402,192,178335,1,0,0:0:0:0:
109,192,178378,1,0,0:0:0:0:
182,192,178421,1,0,0:0:0:0:
256,192,178464,1,0,0:0:0:0:
329,192,178506,1,0,0:0:0:0:
402,192,178549,1,0,0:0:0:0:
475,192,178592,1,0,0:0:0:0:
182,192,178634,1,0,0:0:0:0:
36,192,178634,1,0,0:0:0:0:
182,192,178720,1,0,0:0:0:0:
36,192,178720,1,0,0:0:0:0:
36,192,178805,1,0,0:0:0:0:
182,192,178805,1,0,0:0:0:0:
329,192,178891,1,0,0:0:0:0:
475,192,178891,1,0,0:0:0:0:
475,192,178976,1,0,0:0:0:0:
329,192,178976,1,0,0:0:0:0:
329,192,179062,1,0,0:0:0:0:
475,192,179062,1,0,0:0:0:0:
182,192,179147,1,0,0:0:0:0:
402,192,179147,1,0,0:0:0:0:
256,192,179147,1,0,0:0:0:0:
109,192,179147,1,0,0:0:0:0:
36,192,179147,1,0,0:0:0:0:
109,192,179275,1,0,0:0:0:0:
329,192,179275,1,0,0:0:0:0:
475,192,179275,1,0,0:0:0:0:
256,192,179404,1,0,0:0:0:0:
402,192,179404,1,0,0:0:0:0:
182,192,179404,1,0,0:0:0:0:
36,192,179404,1,0,0:0:0:0:
329,192,179532,1,0,0:0:0:0:
475,192,179532,1,0,0:0:0:0:
182,192,179532,1,0,0:0:0:0:
36,192,179660,1,0,0:0:0:0:
475,192,179660,1,0,0:0:0:0:
256,192,179660,1,0,0:0:0:0:
109,192,179660,1,0,0:0:0:0:
402,192,179660,1,0,0:0:0:0:
402,192,179788,1,0,0:0:0:0:
182,192,179788,1,0,0:0:0:0:
36,192,179788,1,0,0:0:0:0:
475,192,179916,1,0,0:0:0:0:
329,192,179916,1,0,0:0:0:0:
256,192,179916,1,0,0:0:0:0:
109,192,179916,1,0,0:0:0:0:
36,192,180045,1,0,0:0:0:0:
329,192,180045,1,0,0:0:0:0:
182,192,180045,1,0,0:0:0:0:
256,192,180173,1,0,0:0:0:0:
36,192,180173,1,0,0:0:0:0:
109,192,180173,1,0,0:0:0:0:
402,192,180173,1,0,0:0:0:0:
475,192,180173,1,0,0:0:0:0:
109,192,180301,1,0,0:0:0:0:
329,192,180301,1,0,0:0:0:0:
182,192,180301,1,0,0:0:0:0:
36,192,180429,1,0,0:0:0:0:
182,192,180429,1,0,0:0:0:0:
402,192,180429,1,0,0:0:0:0:
475,192,180429,1,0,0:0:0:0:
402,192,180558,1,0,0:0:0:0:
109,192,180558,1,0,0:0:0:0:
256,192,180558,1,0,0:0:0:0:
182,192,180686,1,0,0:0:0:0:
36,192,180686,1,0,0:0:0:0:
329,192,180686,1,0,0:0:0:0:
475,192,180686,1,0,0:0:0:0:
402,192,180686,1,0,0:0:0:0:
182,192,180814,1,0,0:0:0:0:
36,192,180814,1,0,0:0:0:0:
329,192,180814,1,0,0:0:0:0:
402,192,180942,1,0,0:0:0:0:
475,192,180942,1,0,0:0:0:0:
109,192,180942,1,0,0:0:0:0:
256,192,180942,1,0,0:0:0:0:
36,192,181070,1,0,0:0:0:0:
182,192,181070,1,0,0:0:0:0:
256,192,181070,1,0,0:0:0:0:
36,192,181199,1,0,0:0:0:0:
182,192,181199,1,0,0:0:0:0:
329,192,181199,1,0,0:0:0:0:
402,192,181199,1,0,0:0:0:0:
475,192,181199,1,0,0:0:0:0:
109,192,181327,1,0,0:0:0:0:
256,192,181327,1,0,0:0:0:0:
402,192,181327,1,0,0:0:0:0:
182,192,181455,1,0,0:0:0:0:
329,192,181455,1,0,0:0:0:0:
402,192,181455,1,0,0:0:0:0:
475,192,181455,1,0,0:0:0:0:
182,192,181583,1,0,0:0:0:0:
329,192,181583,1,0,0:0:0:0:
36,192,181583,1,0,0:0:0:0:
109,192,181711,1,0,0:0:0:0:
36,192,181711,1,0,0:0:0:0:
256,192,181711,1,0,0:0:0:0:
402,192,181711,1,0,0:0:0:0:
475,192,181711,1,0,0:0:0:0:
329,192,181840,1,0,0:0:0:0:
182,192,181840,1,0,0:0:0:0:
109,192,181840,1,0,0:0:0:0:
256,192,181968,1,0,0:0:0:0:
402,192,181968,1,0,0:0:0:0:
475,192,181968,1,0,0:0:0:0:
36,192,181968,1,0,0:0:0:0:
329,192,182096,1,0,0:0:0:0:
182,192,182096,1,0,0:0:0:0:
402,192,182096,1,0,0:0:0:0:
36,192,182224,1,0,0:0:0:0:
109,192,182224,1,0,0:0:0:0:
256,192,182224,1,0,0:0:0:0:
329,192,182224,1,0,0:0:0:0:
475,192,182224,1,0,0:0:0:0:
109,192,182352,1,0,0:0:0:0:
182,192,182352,1,0,0:0:0:0:
402,192,182352,1,0,0:0:0:0:
256,192,182481,1,0,0:0:0:0:
36,192,182481,1,0,0:0:0:0:
329,192,182481,1,0,0:0:0:0:
475,192,182481,1,0,0:0:0:0:
182,192,182609,1,0,0:0:0:0:
329,192,182609,1,0,0:0:0:0:
109,192,182609,1,0,0:0:0:0:
36,192,182737,1,0,0:0:0:0:
109,192,182737,1,0,0:0:0:0:
256,192,182737,1,0,0:0:0:0:
402,192,182737,1,0,0:0:0:0:
475,192,182737,1,0,0:0:0:0:
182,192,182865,1,0,0:0:0:0:
329,192,182865,1,0,0:0:0:0:
402,192,182865,1,0,0:0:0:0:
36,192,182993,1,0,0:0:0:0:
256,192,182993,1,0,0:0:0:0:
475,192,182993,1,0,0:0:0:0:
109,192,182993,1,0,0:0:0:0:
256,192,183122,1,0,0:0:0:0:
402,192,183122,1,0,0:0:0:0:
182,192,183122,1,0,0:0:0:0:
36,192,183250,1,0,0:0:0:0:
109,192,183250,1,0,0:0:0:0:
182,192,183250,1,0,0:0:0:0:
329,192,183250,1,0,0:0:0:0:
475,192,183250,1,0,0:0:0:0:
256,192,183314,1,0,0:0:0:0:
402,192,183314,1,0,0:0:0:0:
329,192,183378,1,0,0:0:0:0:
182,192,183378,1,0,0:0:0:0:
109,192,183442,1,0,0:0:0:0:
256,192,183442,1,0,0:0:0:0:
182,192,183506,1,0,0:0:0:0:
36,192,183506,1,0,0:0:0:0:
475,192,183506,1,0,0:0:0:0:
329,192,183570,1,0,0:0:0:0:
109,192,183570,1,0,0:0:0:0:
256,192,183634,1,0,0:0:0:0:
402,192,183634,1,0,0:0:0:0:
182,192,183699,1,0,0:0:0:0:
475,192,183699,1,0,0:0:0:0:
329,192,183763,1,0,0:0:0:0:
36,192,183763,1,0,0:0:0:0:
109,192,183763,1,0,0:0:0:0:
256,192,183763,1,0,0:0:0:0:
402,192,183827,1,0,0:0:0:0:
182,192,183827,1,0,0:0:0:0:
256,192,183891,1,0,0:0:0:0:
36,192,183891,1,0,0:0:0:0:
109,192,183955,1,0,0:0:0:0:
329,192,183955,1,0,0:0:0:0:
182,192,184019,1,0,0:0:0:0:
402,192,184019,1,0,0:0:0:0:
475,192,184019,1,0,0:0:0:0:
256,192,184083,1,0,0:0:0:0:
329,192,184083,1,0,0:0:0:0:
109,192,184147,1,0,0:0:0:0:
402,192,184147,1,0,0:0:0:0:
182,192,184211,1,0,0:0:0:0:
329,192,184211,1,0,0:0:0:0:
256,192,184275,1,0,0:0:0:0:
36,192,184275,1,0,0:0:0:0:
475,192,184275,1,0,0:0:0:0:
109,192,184275,1,0,0:0:0:0:
402,192,184340,1,0,0:0:0:0:
182,192,184340,1,0,0:0:0:0:
329,192,184404,1,0,0:0:0:0:
36,192,184404,1,0,0:0:0:0:
109,192,184468,1,0,0:0:0:0:
256,192,184468,1,0,0:0:0:0:
182,192,184532,1,0,0:0:0:0:
402,192,184532,1,0,0:0:0:0:
475,192,184532,1,0,0:0:0:0:
36,192,184596,1,0,0:0:0:0:
256,192,184596,1,0,0:0:0:0:
109,192,184660,1,0,0:0:0:0:
329,192,184660,1,0,0:0:0:0:
182,192,184724,1,0,0:0:0:0:
402,192,184724,1,0,0:0:0:0:
475,192,184788,1,0,0:0:0:0:
256,192,184788,1,0,0:0:0:0:
36,192,184788,1,0,0:0:0:0:
109,192,184788,1,0,0:0:0:0:
329,192,184852,1,0,0:0:0:0:
402,192,184852,1,0,0:0:0:0:
182,192,184916,1,0,0:0:0:0:
256,192,184916,1,0,0:0:0:0:
109,192,184981,1,0,0:0:0:0:
36,192,184981,1,0,0:0:0:0:
329,192,185045,1,0,0:0:0:0:
402,192,185045,1,0,0:0:0:0:
475,192,185045,1,0,0:0:0:0:
109,192,185109,1,0,0:0:0:0:
256,192,185109,1,0,0:0:0:0:
182,192,185173,1,0,0:0:0:0:
329,192,185173,1,0,0:0:0:0:
256,192,185237,1,0,0:0:0:0:
402,192,185237,1,0,0:0:0:0:
329,192,185301,1,0,0:0:0:0:
475,192,185301,1,0,0:0:0:0:
36,192,185301,1,0,0:0:0:0:
109,192,185301,1,0,0:0:0:0:
402,192,185365,1,0,0:0:0:0:
182,192,185365,1,0,0:0:0:0:
109,192,185429,1,0,0:0:0:0:
329,192,185429,1,0,0:0:0:0:
256,192,185493,1,0,0:0:0:0:
36,192,185493,1,0,0:0:0:0:
182,192,185558,1,0,0:0:0:0:
402,192,185558,1,0,0:0:0:0:
475,192,185558,1,0,0:0:0:0:
329,192,185622,1,0,0:0:0:0:
256,192,185622,1,0,0:0:0:0:
36,192,185686,1,0,0:0:0:0:
109,192,185686,1,0,0:0:0:0:
329,192,185750,1,0,0:0:0:0:
402,192,185750,1,0,0:0:0:0:
256,192,185814,1,0,0:0:0:0:
475,192,185814,1,0,0:0:0:0:
182,192,185814,1,0,0:0:0:0:
36,192,185814,1,0,0:0:0:0:
109,192,185878,1,0,0:0:0:0:
329,192,185878,1,0,0:0:0:0:
182,192,185942,1,0,0:0:0:0:
402,192,185942,1,0,0:0:0:0:
109,192,186006,1,0,0:0:0:0:
329,192,186006,1,0,0:0:0:0:
256,192,186070,1,0,0:0:0:0:
36,192,186070,1,0,0:0:0:0:
475,192,186070,1,0,0:0:0:0:
182,192,186134,1,0,0:0:0:0:
109,192,186134,1,0,0:0:0:0:
256,192,186199,1,0,0:0:0:0:
402,192,186199,1,0,0:0:0:0:
329,192,186263,1,0,0:0:0:0:
475,192,186263,1,0,0:0:0:0:
402,192,186327,1,0,0:0:0:0:
182,192,186327,1,0,0:0:0:0:
109,192,186327,1,0,0:0:0:0:
36,192,186327,1,0,0:0:0:0:
256,192,186391,1,0,0:0:0:0:
329,192,186455,1,0,0:0:0:0:
402,192,186455,1,0,0:0:0:0:
475,192,186455,1,0,0:0:0:0:
182,192,186519,1,0,0:0:0:0:
109,192,186519,1,0,0:0:0:0:
36,192,186519,1,0,0:0:0:0:
329,192,186583,1,0,0:0:0:0:
402,192,186583,1,0,0:0:0:0:
475,192,186583,1,0,0:0:0:0:
256,192,186583,1,0,0:0:0:0:
182,192,186647,1,0,0:0:0:0:
109,192,186647,1,0,0:0:0:0:
36,192,186647,1,0,0:0:0:0:
329,192,186711,1,0,0:0:0:0:
402,192,186711,1,0,0:0:0:0:
475,192,186711,1,0,0:0:0:0:
256,192,186775,1,0,0:0:0:0:
182,192,186840,1,0,0:0:0:0:
109,192,186840,1,0,0:0:0:0:
36,192,186840,1,0,0:0:0:0:
329,192,186904,1,0,0:0:0:0:
402,192,186904,1,0,0:0:0:0:
475,192,186904,1,0,0:0:0:0:
36,192,186968,1,0,0:0:0:0:
109,192,186968,1,0,0:0:0:0:
182,192,186968,1,0,0:0:0:0:
329,192,187032,1,0,0:0:0:0:
402,192,187032,1,0,0:0:0:0:
475,192,187032,1,0,0:0:0:0:
36,192,187096,1,0,0:0:0:0:
109,192,187096,1,0,0:0:0:0:
182,192,187096,1,0,0:0:0:0:
256,192,187096,1,0,0:0:0:0:
36,192,187352,1,0,0:0:0:0:
109,192,187352,1,0,0:0:0:0:
256,192,187352,1,0,0:0:0:0:
402,192,187352,1,0,0:0:0:0:
475,192,187352,1,0,0:0:0:0:
182,192,187481,1,0,0:0:0:0:
329,192,187481,1,0,0:0:0:0:
402,192,187481,1,0,0:0:0:0:
256,192,187609,1,0,0:0:0:0:
109,192,187609,1,0,0:0:0:0:
36,192,187609,1,0,0:0:0:0:
475,192,187609,1,0,0:0:0:0:
329,192,187737,1,0,0:0:0:0:
182,192,187737,1,0,0:0:0:0:
109,192,187737,1,0,0:0:0:0:
36,192,187865,1,0,0:0:0:0:
182,192,187865,1,0,0:0:0:0:
256,192,187865,1,0,0:0:0:0:
402,192,187865,1,0,0:0:0:0:
475,192,187865,1,0,0:0:0:0:
256,192,187993,1,0,0:0:0:0:
402,192,187993,1,0,0:0:0:0:
109,192,187993,1,0,0:0:0:0:
182,192,188122,1,0,0:0:0:0:
36,192,188122,1,0,0:0:0:0:
329,192,188122,1,0,0:0:0:0:
475,192,188122,1,0,0:0:0:0:
182,192,188250,1,0,0:0:0:0:
256,192,188250,1,0,0:0:0:0:
402,192,188250,1,0,0:0:0:0:
329,192,188378,128,0,189147:0:0:0:0:
109,192,188378,128,0,189147:0:0:0:0:
36,192,188378,128,0,189340:0:0:0:0:
475,192,188378,128,0,188699:0:0:0:0:
402,192,188378,128,0,188699:0:0:0:0:
182,192,188378,128,0,189147:0:0:0:0:
402,192,188763,128,0,189340:0:0:0:0:
475,192,188763,128,0,189340:0:0:0:0:
329,192,189211,128,0,189340:0:0:0:0:
182,192,189211,128,0,189340:0:0:0:0:
109,192,189211,128,0,189340:0:0:0:0:
36,192,189404,1,0,0:0:0:0:
109,192,189404,1,0,0:0:0:0:
256,192,189404,1,0,0:0:0:0:
402,192,189404,1,0,0:0:0:0:
475,192,189404,1,0,0:0:0:0:
182,192,189532,1,0,0:0:0:0:
329,192,189532,1,0,0:0:0:0:
402,192,189532,1,0,0:0:0:0:
109,192,189660,1,0,0:0:0:0:
36,192,189660,1,0,0:0:0:0:
256,192,189660,1,0,0:0:0:0:
329,192,189660,1,0,0:0:0:0:
475,192,189660,1,0,0:0:0:0:
109,192,189788,1,0,0:0:0:0:
182,192,189788,1,0,0:0:0:0:
402,192,189788,1,0,0:0:0:0:
256,192,189916,1,0,0:0:0:0:
36,192,189916,1,0,0:0:0:0:
182,192,189916,1,0,0:0:0:0:
329,192,189916,1,0,0:0:0:0:
475,192,189916,1,0,0:0:0:0:
402,192,190045,1,0,0:0:0:0:
329,192,190045,1,0,0:0:0:0:
109,192,190045,1,0,0:0:0:0:
182,192,190173,1,0,0:0:0:0:
36,192,190173,1,0,0:0:0:0:
256,192,190173,1,0,0:0:0:0:
475,192,190173,1,0,0:0:0:0:
402,192,190301,1,0,0:0:0:0:
182,192,190301,1,0,0:0:0:0:
329,192,190301,1,0,0:0:0:0:
36,192,190429,1,0,0:0:0:0:
256,192,190429,1,0,0:0:0:0:
475,192,190429,1,0,0:0:0:0:
329,192,190429,1,0,0:0:0:0:
109,192,190429,1,0,0:0:0:0:
109,192,190558,128,0,190622:0:0:0:0:
329,192,190558,128,0,190622:0:0:0:0:
402,192,190750,128,0,191134:0:0:0:0:
256,192,190750,128,0,191199:0:0:0:0:
329,192,190750,128,0,191166:0:0:0:0:
182,192,190814,128,0,191231:0:0:0:0:
36,192,190814,128,0,191295:0:0:0:0:
109,192,190814,128,0,191263:0:0:0:0:
475,192,191199,128,0,191391:0:0:0:0:
329,192,191263,128,0,191391:0:0:0:0:
182,192,191327,128,0,191391:0:0:0:0:
36,192,191391,1,0,0:0:0:0:
402,192,191455,1,0,0:0:0:0:
475,192,191455,1,0,0:0:0:0:
256,192,191455,1,0,0:0:0:0:
329,192,191455,1,0,0:0:0:0:
109,192,191519,1,0,0:0:0:0:
182,192,191519,1,0,0:0:0:0:
256,192,191583,1,0,0:0:0:0:
402,192,191583,1,0,0:0:0:0:
329,192,191647,1,0,0:0:0:0:
36,192,191647,1,0,0:0:0:0:
109,192,191711,1,0,0:0:0:0:
256,192,191711,1,0,0:0:0:0:
475,192,191711,1,0,0:0:0:0:
182,192,191775,1,0,0:0:0:0:
402,192,191775,1,0,0:0:0:0:
329,192,191840,1,0,0:0:0:0:
36,192,191840,1,0,0:0:0:0:
402,192,191904,1,0,0:0:0:0:
109,192,191904,1,0,0:0:0:0:
256,192,191968,1,0,0:0:0:0:
182,192,191968,1,0,0:0:0:0:
475,192,191968,1,0,0:0:0:0:
36,192,191968,1,0,0:0:0:0:
329,192,192032,1,0,0:0:0:0:
402,192,192032,1,0,0:0:0:0:
109,192,192096,1,0,0:0:0:0:
256,192,192096,1,0,0:0:0:0:
182,192,192160,1,0,0:0:0:0:
475,192,192160,1,0,0:0:0:0:
402,192,192224,1,0,0:0:0:0:
329,192,192224,1,0,0:0:0:0:
36,192,192224,1,0,0:0:0:0:
109,192,192288,1,0,0:0:0:0:
256,192,192288,1,0,0:0:0:0:
182,192,192352,1,0,0:0:0:0:
329,192,192352,1,0,0:0:0:0:
256,192,192416,1,0,0:0:0:0:
402,192,192416,1,0,0:0:0:0:
475,192,192481,1,0,0:0:0:0:
36,192,192481,1,0,0:0:0:0:
109,192,192481,1,0,0:0:0:0:
182,192,192481,1,0,0:0:0:0:
329,192,192545,1,0,0:0:0:0:
402,192,192545,1,0,0:0:0:0:
256,192,192609,1,0,0:0:0:0:
36,192,192609,1,0,0:0:0:0:
109,192,192673,1,0,0:0:0:0:
402,192,192673,1,0,0:0:0:0:
182,192,192737,1,0,0:0:0:0:
329,192,192737,1,0,0:0:0:0:
475,192,192737,1,0,0:0:0:0:
256,192,192801,1,0,0:0:0:0:
109,192,192801,1,0,0:0:0:0:
36,192,192865,1,0,0:0:0:0:
329,192,192865,1,0,0:0:0:0:
402,192,192929,1,0,0:0:0:0:
182,192,192929,1,0,0:0:0:0:
256,192,192993,1,0,0:0:0:0:
475,192,192993,1,0,0:0:0:0:
109,192,192993,1,0,0:0:0:0:
36,192,192993,1,0,0:0:0:0:
329,192,193058,1,0,0:0:0:0:
182,192,193058,1,0,0:0:0:0:
402,192,193122,1,0,0:0:0:0:
109,192,193122,1,0,0:0:0:0:
182,192,193186,1,0,0:0:0:0:
329,192,193186,1,0,0:0:0:0:
256,192,193250,1,0,0:0:0:0:
36,192,193250,1,0,0:0:0:0:
475,192,193250,1,0,0:0:0:0:
109,192,193314,1,0,0:0:0:0:
402,192,193314,1,0,0:0:0:0:
329,192,193378,1,0,0:0:0:0:
182,192,193378,1,0,0:0:0:0:
256,192,193442,1,0,0:0:0:0:
36,192,193506,1,0,0:0:0:0:
182,192,193506,1,0,0:0:0:0:
402,192,193506,1,0,0:0:0:0:
475,192,193506,1,0,0:0:0:0:
329,192,193506,1,0,0:0:0:0:
182,192,193699,1,0,0:0:0:0:
402,192,193699,1,0,0:0:0:0:
475,192,193699,1,0,0:0:0:0:
36,192,193699,1,0,0:0:0:0:
329,192,193699,1,0,0:0:0:0:
402,192,193891,1,0,0:0:0:0:
182,192,193891,1,0,0:0:0:0:
36,192,193891,1,0,0:0:0:0:
475,192,193891,1,0,0:0:0:0:
329,192,193891,1,0,0:0:0:0:
256,192,194019,1,0,0:0:0:0:
109,192,194019,1,0,0:0:0:0:
36,192,194019,1,0,0:0:0:0:
329,192,194019,1,0,0:0:0:0:
475,192,194019,1,0,0:0:0:0:
329,192,194211,1,0,0:0:0:0:
475,192,194211,1,0,0:0:0:0:
109,192,194211,1,0,0:0:0:0:
36,192,194211,1,0,0:0:0:0:
256,192,194211,1,0,0:0:0:0:
109,192,194404,1,0,0:0:0:0:
36,192,194404,1,0,0:0:0:0:
256,192,194404,1,0,0:0:0:0:
329,192,194404,1,0,0:0:0:0:
475,192,194404,1,0,0:0:0:0:
475,192,194532,1,0,0:0:0:0:
402,192,194532,1,0,0:0:0:0:
256,192,194532,1,0,0:0:0:0:
109,192,194532,1,0,0:0:0:0:
36,192,194532,1,0,0:0:0:0:
36,192,194660,1,0,0:0:0:0:
109,192,194660,1,0,0:0:0:0:
329,192,194660,1,0,0:0:0:0:
402,192,194724,1,0,0:0:0:0:
182,192,194724,1,0,0:0:0:0:
475,192,194724,1,0,0:0:0:0:
36,192,194852,1,0,0:0:0:0:
109,192,194852,1,0,0:0:0:0:
182,192,194852,1,0,0:0:0:0:
402,192,194916,1,0,0:0:0:0:
475,192,194916,1,0,0:0:0:0:
329,192,194916,1,0,0:0:0:0:
36,192,195045,128,0,195493:0:0:0:0:
109,192,195045,128,0,195493:0:0:0:0:
329,192,195045,128,0,195493:0:0:0:0:
402,192,195045,128,0,195493:0:0:0:0:
475,192,195045,128,0,195493:0:0:0:0:
182,192,195045,128,0,195493:0:0:0:0:
475,192,195558,1,0,0:0:0:0:
402,192,195558,1,0,0:0:0:0:
329,192,195558,1,0,0:0:0:0:
109,192,195558,1,0,0:0:0:0:
36,192,195558,1,0,0:0:0:0:
182,192,195558,1,0,0:0:0:0:
182,192,203763,5,0,0:0:0:0:
36,192,203763,128,0,205814:0:0:0:0:
475,192,203763,128,0,203934:0:0:0:0:
256,192,203763,1,0,0:0:0:0:
109,192,203763,1,0,0:0:0:0:
402,192,203848,128,0,204019:0:0:0:0:
329,192,203934,128,0,204105:0:0:0:0:
109,192,204019,128,0,204190:0:0:0:0:
182,192,204105,128,0,204275:0:0:0:0:
256,192,204190,128,0,204361:0:0:0:0:
475,192,204275,128,0,204446:0:0:0:0:
402,192,204361,128,0,204532:0:0:0:0:
329,192,204446,128,0,204617:0:0:0:0:
109,192,204532,128,0,204703:0:0:0:0:
182,192,204617,128,0,204788:0:0:0:0:
256,192,204703,128,0,204874:0:0:0:0:
402,192,204788,1,0,0:0:0:0:
475,192,204788,128,0,204959:0:0:0:0:
329,192,204788,1,0,0:0:0:0:
402,192,204874,128,0,205045:0:0:0:0:
329,192,204959,128,0,205130:0:0:0:0:
109,192,205045,128,0,205216:0:0:0:0:
182,192,205130,128,0,205301:0:0:0:0:
256,192,205216,128,0,205387:0:0:0:0:
475,192,205301,128,0,205472:0:0:0:0:
402,192,205387,128,0,205472:0:0:0:0:
329,192,205472,128,0,205558:0:0:0:0:
109,192,205558,1,0,0:0:0:0:
182,192,205558,1,0,0:0:0:0:
402,192,205558,1,0,0:0:0:0:
475,192,205558,1,0,0:0:0:0:
256,192,205558,128,0,205728:0:0:0:0:
329,192,205643,128,0,205814:0:0:0:0:
402,192,205728,128,0,205899:0:0:0:0:
475,192,205814,128,0,207780:0:0:0:0:
182,192,205814,128,0,205985:0:0:0:0:
109,192,205899,128,0,206070:0:0:0:0:
36,192,205985,128,0,206156:0:0:0:0:
256,192,206070,128,0,206241:0:0:0:0:
329,192,206156,128,0,206327:0:0:0:0:
402,192,206241,128,0,206412:0:0:0:0:
36,192,206327,1,0,0:0:0:0:
109,192,206327,1,0,0:0:0:0:
182,192,206327,128,0,206498:0:0:0:0:
109,192,206412,128,0,206583:0:0:0:0:
36,192,206498,128,0,206669:0:0:0:0:
256,192,206583,128,0,206754:0:0:0:0:
329,192,206669,128,0,206754:0:0:0:0:
402,192,206754,1,0,0:0:0:0:
36,192,206840,1,0,0:0:0:0:
256,192,206840,1,0,0:0:0:0:
329,192,206840,1,0,0:0:0:0:
182,192,206840,128,0,207011:0:0:0:0:
109,192,206925,128,0,207096:0:0:0:0:
36,192,207011,128,0,207181:0:0:0:0:
256,192,207096,128,0,207267:0:0:0:0:
329,192,207181,128,0,207352:0:0:0:0:
402,192,207267,128,0,207438:0:0:0:0:
182,192,207352,128,0,207523:0:0:0:0:
109,192,207438,128,0,207609:0:0:0:0:
36,192,207523,128,0,207694:0:0:0:0:
256,192,207609,128,0,207780:0:0:0:0:
329,192,207694,128,0,207780:0:0:0:0:
402,192,207780,1,0,0:0:0:0:
329,192,207865,128,0,209916:0:0:0:0:
256,192,207865,1,0,0:0:0:0:
182,192,207865,1,0,0:0:0:0:
109,192,207865,1,0,0:0:0:0:
36,192,207865,1,0,0:0:0:0:
475,192,207865,128,0,207951:0:0:0:0:
402,192,207951,128,0,208122:0:0:0:0:
475,192,208036,128,0,208207:0:0:0:0:
36,192,208122,128,0,208293:0:0:0:0:
109,192,208207,128,0,208378:0:0:0:0:
182,192,208293,128,0,208464:0:0:0:0:
256,192,208378,1,0,0:0:0:0:
402,192,208378,1,0,0:0:0:0:
475,192,208378,128,0,208549:0:0:0:0:
256,192,208464,128,0,208634:0:0:0:0:
402,192,208549,128,0,208720:0:0:0:0:
36,192,208634,128,0,208805:0:0:0:0:
109,192,208720,128,0,208805:0:0:0:0:
182,192,208805,1,0,0:0:0:0:
36,192,208891,1,0,0:0:0:0:
109,192,208891,1,0,0:0:0:0:
402,192,208891,1,0,0:0:0:0:
475,192,208891,128,0,209062:0:0:0:0:
256,192,208976,128,0,209147:0:0:0:0:
402,192,209062,128,0,209233:0:0:0:0:
36,192,209147,128,0,209318:0:0:0:0:
109,192,209233,128,0,209404:0:0:0:0:
182,192,209318,128,0,209489:0:0:0:0:
475,192,209404,128,0,209575:0:0:0:0:
256,192,209489,128,0,209660:0:0:0:0:
402,192,209575,128,0,209746:0:0:0:0:
109,192,209660,1,0,0:0:0:0:
182,192,209660,1,0,0:0:0:0:
36,192,209660,128,0,209831:0:0:0:0:
109,192,209746,128,0,209916:0:0:0:0:
182,192,209831,128,0,210002:0:0:0:0:
256,192,209916,128,0,210686:0:0:0:0:
402,192,209916,1,0,0:0:0:0:
475,192,209916,1,0,0:0:0:0:
36,192,209916,128,0,210087:0:0:0:0:
109,192,210002,128,0,210173:0:0:0:0:
182,192,210087,128,0,210258:0:0:0:0:
475,192,210173,128,0,210344:0:0:0:0:
402,192,210258,128,0,210429:0:0:0:0:
329,192,210344,128,0,210515:0:0:0:0:
109,192,210429,1,0,0:0:0:0:
182,192,210429,1,0,0:0:0:0:
36,192,210429,128,0,210600:0:0:0:0:
109,192,210515,128,0,210686:0:0:0:0:
182,192,210600,128,0,210771:0:0:0:0:
329,192,210686,128,0,210857:0:0:0:0:
256,192,210771,128,0,210942:0:0:0:0:
402,192,210814,1,0,0:0:0:0:
475,192,210814,1,0,0:0:0:0:
182,192,210857,128,0,211028:0:0:0:0:
402,192,210942,1,0,0:0:0:0:
475,192,210942,1,0,0:0:0:0:
36,192,210942,128,0,211113:0:0:0:0:
329,192,210942,1,0,0:0:0:0:
109,192,211028,128,0,211199:0:0:0:0:
182,192,211113,128,0,211284:0:0:0:0:
329,192,211199,128,0,211369:0:0:0:0:
402,192,211284,128,0,211455:0:0:0:0:
475,192,211369,128,0,211540:0:0:0:0:
329,192,211455,128,0,211711:0:0:0:0:
182,192,211455,128,0,211626:0:0:0:0:
109,192,211540,128,0,211711:0:0:0:0:
36,192,211626,128,0,211797:0:0:0:0:
182,192,211711,128,0,211968:0:0:0:0:
475,192,211711,128,0,211882:0:0:0:0:
402,192,211797,128,0,211882:0:0:0:0:
329,192,211882,1,0,0:0:0:0:
36,192,211968,128,0,213506:0:0:0:0:
109,192,211968,1,0,0:0:0:0:
256,192,211968,1,0,0:0:0:0:
475,192,211968,1,0,0:0:0:0:
402,192,211968,1,0,0:0:0:0:
182,192,212053,1,0,0:0:0:0:
475,192,212096,1,0,0:0:0:0:
329,192,212139,1,0,0:0:0:0:
256,192,212224,1,0,0:0:0:0:
475,192,212224,1,0,0:0:0:0:
402,192,212310,128,0,212352:0:0:0:0:
182,192,212395,1,0,0:0:0:0:
329,192,212481,128,0,212523:0:0:0:0:
256,192,212566,1,0,0:0:0:0:
109,192,212652,1,0,0:0:0:0:
256,192,212737,1,0,0:0:0:0:
402,192,212822,128,0,212865:0:0:0:0:
182,192,212908,1,0,0:0:0:0:
256,192,212993,1,0,0:0:0:0:
475,192,212993,1,0,0:0:0:0:
329,192,212993,128,0,213036:0:0:0:0:
109,192,213079,1,0,0:0:0:0:
329,192,213164,1,0,0:0:0:0:
182,192,213250,1,0,0:0:0:0:
402,192,213335,1,0,0:0:0:0:
256,192,213421,1,0,0:0:0:0:
182,192,213506,128,0,213763:0:0:0:0:
475,192,213506,128,0,213592:0:0:0:0:
402,192,213592,128,0,213677:0:0:0:0:
475,192,213677,128,0,213763:0:0:0:0:
329,192,213763,128,0,214019:0:0:0:0:
402,192,213763,128,0,213848:0:0:0:0:
36,192,213763,1,0,0:0:0:0:
109,192,213763,1,0,0:0:0:0:
256,192,213763,1,0,0:0:0:0:
475,192,213848,128,0,213934:0:0:0:0:
109,192,213891,1,0,0:0:0:0:
402,192,213934,128,0,214019:0:0:0:0:
182,192,214019,1,0,0:0:0:0:
475,192,214019,1,0,0:0:0:0:
256,192,214019,128,0,215045:0:0:0:0:
36,192,214019,128,0,214318:0:0:0:0:
109,192,214105,128,0,214318:0:0:0:0:
182,192,214190,128,0,214318:0:0:0:0:
329,192,214275,128,0,214318:0:0:0:0:
402,192,214361,1,0,0:0:0:0:
36,192,214404,1,0,0:0:0:0:
109,192,214404,1,0,0:0:0:0:
182,192,214404,1,0,0:0:0:0:
475,192,214446,128,0,214746:0:0:0:0:
109,192,214532,1,0,0:0:0:0:
36,192,214532,1,0,0:0:0:0:
182,192,214532,1,0,0:0:0:0:
402,192,214532,128,0,214746:0:0:0:0:
329,192,214617,128,0,214746:0:0:0:0:
182,192,214703,128,0,214746:0:0:0:0:
109,192,214788,1,0,0:0:0:0:
36,192,214874,1,0,0:0:0:0:
329,192,214916,1,0,0:0:0:0:
402,192,214916,1,0,0:0:0:0:
475,192,214916,1,0,0:0:0:0:
109,192,214959,1,0,0:0:0:0:
475,192,215045,1,0,0:0:0:0:
402,192,215045,1,0,0:0:0:0:
329,192,215045,1,0,0:0:0:0:
182,192,215045,1,0,0:0:0:0:
256,192,215130,1,0,0:0:0:0:
182,192,215216,1,0,0:0:0:0:
329,192,215301,1,0,0:0:0:0:
109,192,215387,1,0,0:0:0:0:
402,192,215429,1,0,0:0:0:0:
475,192,215429,1,0,0:0:0:0:
256,192,215429,1,0,0:0:0:0:
182,192,215472,1,0,0:0:0:0:
36,192,215558,128,0,215728:0:0:0:0:
256,192,215558,1,0,0:0:0:0:
402,192,215558,1,0,0:0:0:0:
475,192,215558,1,0,0:0:0:0:
109,192,215643,128,0,215814:0:0:0:0:
329,192,215643,1,0,0:0:0:0:
182,192,215728,128,0,215899:0:0:0:0:
402,192,215728,1,0,0:0:0:0:
256,192,215814,128,0,215985:0:0:0:0:
475,192,215814,1,0,0:0:0:0:
329,192,215899,128,0,216070:0:0:0:0:
36,192,215899,1,0,0:0:0:0:
402,192,215985,128,0,216156:0:0:0:0:
109,192,215985,1,0,0:0:0:0:
475,192,216070,128,0,218122:0:0:0:0:
182,192,216070,128,0,216156:0:0:0:0:
36,192,216156,128,0,216241:0:0:0:0:
182,192,216241,128,0,216327:0:0:0:0:
256,192,216327,128,0,216412:0:0:0:0:
329,192,216412,128,0,216498:0:0:0:0:
36,192,216455,1,0,0:0:0:0:
109,192,216455,1,0,0:0:0:0:
182,192,216455,1,0,0:0:0:0:
402,192,216498,128,0,216583:0:0:0:0:
182,192,216583,1,0,0:0:0:0:
36,192,216583,1,0,0:0:0:0:
109,192,216583,1,0,0:0:0:0:
329,192,216583,128,0,216669:0:0:0:0:
256,192,216669,128,0,216754:0:0:0:0:
182,192,216754,128,0,216840:0:0:0:0:
36,192,216840,128,0,216925:0:0:0:0:
109,192,216925,128,0,217011:0:0:0:0:
182,192,216968,1,0,0:0:0:0:
256,192,216968,1,0,0:0:0:0:
329,192,216968,1,0,0:0:0:0:
182,192,217096,1,0,0:0:0:0:
256,192,217096,1,0,0:0:0:0:
329,192,217096,1,0,0:0:0:0:
402,192,217181,128,0,217267:0:0:0:0:
329,192,217267,128,0,217352:0:0:0:0:
182,192,217352,128,0,217438:0:0:0:0:
109,192,217438,128,0,217523:0:0:0:0:
256,192,217481,1,0,0:0:0:0:
329,192,217481,1,0,0:0:0:0:
402,192,217481,1,0,0:0:0:0:
36,192,217523,128,0,217609:0:0:0:0:
402,192,217609,1,0,0:0:0:0:
329,192,217609,1,0,0:0:0:0:
256,192,217609,1,0,0:0:0:0:
109,192,217609,128,0,217694:0:0:0:0:
182,192,217694,128,0,217780:0:0:0:0:
109,192,217780,128,0,217865:0:0:0:0:
256,192,217865,1,0,0:0:0:0:
182,192,217865,1,0,0:0:0:0:
329,192,217865,1,0,0:0:0:0:
36,192,217865,128,0,217951:0:0:0:0:
402,192,217951,128,0,218036:0:0:0:0:
329,192,218036,128,0,218122:0:0:0:0:
36,192,218122,128,0,220045:0:0:0:0:
109,192,218122,1,0,0:0:0:0:
182,192,218122,1,0,0:0:0:0:
256,192,218122,1,0,0:0:0:0:
402,192,218207,128,0,218293:0:0:0:0:
329,192,218293,128,0,218378:0:0:0:0:
475,192,218378,128,0,218464:0:0:0:0:
402,192,218464,128,0,218549:0:0:0:0:
109,192,218506,1,0,0:0:0:0:
182,192,218506,1,0,0:0:0:0:
256,192,218506,1,0,0:0:0:0:
475,192,218549,128,0,218634:0:0:0:0:
182,192,218634,1,0,0:0:0:0:
109,192,218634,1,0,0:0:0:0:
256,192,218634,1,0,0:0:0:0:
329,192,218634,1,0,0:0:0:0:
402,192,218720,128,0,218805:0:0:0:0:
329,192,218805,128,0,218891:0:0:0:0:
256,192,218891,128,0,218976:0:0:0:0:
182,192,218976,128,0,219062:0:0:0:0:
329,192,219019,1,0,0:0:0:0:
402,192,219019,1,0,0:0:0:0:
475,192,219019,1,0,0:0:0:0:
109,192,219062,128,0,219147:0:0:0:0:
329,192,219147,1,0,0:0:0:0:
402,192,219147,1,0,0:0:0:0:
475,192,219147,1,0,0:0:0:0:
182,192,219147,1,0,0:0:0:0:
256,192,219233,1,0,0:0:0:0:
109,192,219275,1,0,0:0:0:0:
402,192,219318,1,0,0:0:0:0:
182,192,219361,1,0,0:0:0:0:
475,192,219404,1,0,0:0:0:0:
329,192,219446,1,0,0:0:0:0:
109,192,219489,1,0,0:0:0:0:
256,192,219532,1,0,0:0:0:0:
402,192,219575,1,0,0:0:0:0:
182,192,219617,1,0,0:0:0:0:
329,192,219660,1,0,0:0:0:0:
475,192,219703,1,0,0:0:0:0:
256,192,219746,1,0,0:0:0:0:
109,192,219788,1,0,0:0:0:0:
402,192,219831,1,0,0:0:0:0:
182,192,219874,1,0,0:0:0:0:
329,192,219916,1,0,0:0:0:0:
475,192,219959,1,0,0:0:0:0:
256,192,220002,1,0,0:0:0:0:
402,192,220045,1,0,0:0:0:0:
182,192,220087,1,0,0:0:0:0:
329,192,220130,1,0,0:0:0:0:
36,192,220173,1,0,0:0:0:0:
109,192,220173,1,0,0:0:0:0:
256,192,220173,1,0,0:0:0:0:
402,192,220173,1,0,0:0:0:0:
475,192,220173,1,0,0:0:0:0:
402,192,220301,1,0,0:0:0:0:
475,192,220301,1,0,0:0:0:0:
256,192,220301,1,0,0:0:0:0:
109,192,220301,1,0,0:0:0:0:
36,192,220301,1,0,0:0:0:0:
36,192,220558,1,0,0:0:0:0:
256,192,220558,1,0,0:0:0:0:
475,192,220558,1,0,0:0:0:0:
109,192,220558,1,0,0:0:0:0:
402,192,220558,1,0,0:0:0:0:
36,192,220686,1,0,0:0:0:0:
256,192,220686,1,0,0:0:0:0:
475,192,220686,1,0,0:0:0:0:
402,192,220686,1,0,0:0:0:0:
109,192,220686,1,0,0:0:0:0:
109,192,220942,1,0,0:0:0:0:
402,192,220942,1,0,0:0:0:0:
475,192,220942,1,0,0:0:0:0:
36,192,220942,1,0,0:0:0:0:
256,192,220942,1,0,0:0:0:0:
402,192,221070,1,0,0:0:0:0:
109,192,221070,1,0,0:0:0:0:
475,192,221070,1,0,0:0:0:0:
36,192,221070,1,0,0:0:0:0:
256,192,221070,1,0,0:0:0:0:
182,192,221199,1,0,0:0:0:0:
329,192,221199,1,0,0:0:0:0:
475,192,221199,1,0,0:0:0:0:
109,192,221284,1,0,0:0:0:0:
402,192,221284,1,0,0:0:0:0:
182,192,221369,1,0,0:0:0:0:
329,192,221369,1,0,0:0:0:0:
256,192,221455,1,0,0:0:0:0:
36,192,221455,1,0,0:0:0:0:
329,192,221540,1,0,0:0:0:0:
109,192,221540,1,0,0:0:0:0:
402,192,221626,1,0,0:0:0:0:
182,192,221626,1,0,0:0:0:0:
256,192,221711,1,0,0:0:0:0:
475,192,221711,1,0,0:0:0:0:
182,192,221797,1,0,0:0:0:0:
402,192,221797,1,0,0:0:0:0:
109,192,221882,1,0,0:0:0:0:
329,192,221882,1,0,0:0:0:0:
36,192,221968,1,0,0:0:0:0:
256,192,221968,1,0,0:0:0:0:
182,192,222053,1,0,0:0:0:0:
402,192,222053,1,0,0:0:0:0:
109,192,222139,1,0,0:0:0:0:
329,192,222139,1,0,0:0:0:0:
182,192,222224,1,0,0:0:0:0:
36,192,222224,1,0,0:0:0:0:
402,192,222224,1,0,0:0:0:0:
256,192,222224,1,0,0:0:0:0:
475,192,222224,1,0,0:0:0:0:
475,192,222352,1,0,0:0:0:0:
402,192,222352,1,0,0:0:0:0:
182,192,222352,1,0,0:0:0:0:
256,192,222352,1,0,0:0:0:0:
36,192,222352,1,0,0:0:0:0:
182,192,222609,1,0,0:0:0:0:
256,192,222609,1,0,0:0:0:0:
36,192,222609,1,0,0:0:0:0:
402,192,222609,1,0,0:0:0:0:
475,192,222609,1,0,0:0:0:0:
36,192,222737,1,0,0:0:0:0:
256,192,222737,1,0,0:0:0:0:
182,192,222737,1,0,0:0:0:0:
402,192,222737,1,0,0:0:0:0:
475,192,222737,1,0,0:0:0:0:
182,192,222993,1,0,0:0:0:0:
256,192,222993,1,0,0:0:0:0:
36,192,222993,1,0,0:0:0:0:
402,192,222993,1,0,0:0:0:0:
475,192,222993,1,0,0:0:0:0:
36,192,223122,1,0,0:0:0:0:
256,192,223122,1,0,0:0:0:0:
182,192,223122,1,0,0:0:0:0:
402,192,223122,1,0,0:0:0:0:
475,192,223122,1,0,0:0:0:0:
109,192,223250,1,0,0:0:0:0:
402,192,223250,1,0,0:0:0:0:
475,192,223250,1,0,0:0:0:0:
182,192,223335,1,0,0:0:0:0:
329,192,223335,1,0,0:0:0:0:
109,192,223421,1,0,0:0:0:0:
402,192,223421,1,0,0:0:0:0:
36,192,223506,1,0,0:0:0:0:
329,192,223506,1,0,0:0:0:0:
182,192,223592,1,0,0:0:0:0:
475,192,223592,1,0,0:0:0:0:
402,192,223677,1,0,0:0:0:0:
109,192,223677,1,0,0:0:0:0:
329,192,223763,1,0,0:0:0:0:
182,192,223763,1,0,0:0:0:0:
36,192,223848,1,0,0:0:0:0:
256,192,223848,1,0,0:0:0:0:
109,192,223934,1,0,0:0:0:0:
402,192,223934,1,0,0:0:0:0:
182,192,224019,1,0,0:0:0:0:
475,192,224019,1,0,0:0:0:0:
256,192,224105,1,0,0:0:0:0:
402,192,224105,1,0,0:0:0:0:
329,192,224190,1,0,0:0:0:0:
182,192,224190,1,0,0:0:0:0:
256,192,224275,1,0,0:0:0:0:
109,192,224275,1,0,0:0:0:0:
36,192,224275,1,0,0:0:0:0:
402,192,224275,1,0,0:0:0:0:
475,192,224275,1,0,0:0:0:0:
256,192,224404,1,0,0:0:0:0:
109,192,224404,1,0,0:0:0:0:
36,192,224404,1,0,0:0:0:0:
402,192,224404,1,0,0:0:0:0:
475,192,224404,1,0,0:0:0:0:
402,192,224660,1,0,0:0:0:0:
475,192,224660,1,0,0:0:0:0:
256,192,224660,1,0,0:0:0:0:
109,192,224660,1,0,0:0:0:0:
36,192,224660,1,0,0:0:0:0:
36,192,224788,1,0,0:0:0:0:
109,192,224788,1,0,0:0:0:0:
256,192,224788,1,0,0:0:0:0:
402,192,224788,1,0,0:0:0:0:
475,192,224788,1,0,0:0:0:0:
256,192,225045,1,0,0:0:0:0:
109,192,225045,1,0,0:0:0:0:
36,192,225045,1,0,0:0:0:0:
475,192,225045,1,0,0:0:0:0:
402,192,225045,1,0,0:0:0:0:
36,192,225173,1,0,0:0:0:0:
109,192,225173,1,0,0:0:0:0:
402,192,225173,1,0,0:0:0:0:
475,192,225173,1,0,0:0:0:0:
256,192,225173,1,0,0:0:0:0:
329,192,225301,1,0,0:0:0:0:
182,192,225301,1,0,0:0:0:0:
36,192,225301,1,0,0:0:0:0:
402,192,225387,1,0,0:0:0:0:
256,192,225387,1,0,0:0:0:0:
182,192,225472,1,0,0:0:0:0:
36,192,225472,1,0,0:0:0:0:
256,192,225558,1,0,0:0:0:0:
109,192,225558,1,0,0:0:0:0:
329,192,225643,1,0,0:0:0:0:
475,192,225643,1,0,0:0:0:0:
402,192,225728,1,0,0:0:0:0:
256,192,225728,1,0,0:0:0:0:
329,192,225814,1,0,0:0:0:0:
182,192,225814,1,0,0:0:0:0:
402,192,225899,1,0,0:0:0:0:
256,192,225899,1,0,0:0:0:0:
182,192,225985,1,0,0:0:0:0:
36,192,225985,1,0,0:0:0:0:
256,192,226070,1,0,0:0:0:0:
109,192,226070,1,0,0:0:0:0:
402,192,226156,1,0,0:0:0:0:
182,192,226156,1,0,0:0:0:0:
329,192,226241,1,0,0:0:0:0:
109,192,226241,1,0,0:0:0:0:
475,192,226327,1,0,0:0:0:0:
402,192,226327,1,0,0:0:0:0:
256,192,226327,1,0,0:0:0:0:
182,192,226327,1,0,0:0:0:0:
36,192,226327,1,0,0:0:0:0:
182,192,226455,1,0,0:0:0:0:
256,192,226455,1,0,0:0:0:0:
402,192,226455,1,0,0:0:0:0:
475,192,226455,1,0,0:0:0:0:
36,192,226455,1,0,0:0:0:0:
182,192,226711,1,0,0:0:0:0:
256,192,226711,1,0,0:0:0:0:
402,192,226711,1,0,0:0:0:0:
475,192,226711,1,0,0:0:0:0:
36,192,226711,1,0,0:0:0:0:
402,192,226840,1,0,0:0:0:0:
475,192,226840,1,0,0:0:0:0:
182,192,226840,1,0,0:0:0:0:
256,192,226840,1,0,0:0:0:0:
36,192,226840,1,0,0:0:0:0:
475,192,227096,1,0,0:0:0:0:
402,192,227096,1,0,0:0:0:0:
256,192,227096,1,0,0:0:0:0:
182,192,227096,1,0,0:0:0:0:
36,192,227096,1,0,0:0:0:0:
182,192,227224,1,0,0:0:0:0:
36,192,227224,1,0,0:0:0:0:
256,192,227224,1,0,0:0:0:0:
402,192,227224,1,0,0:0:0:0:
475,192,227224,1,0,0:0:0:0:
36,192,227481,1,0,0:0:0:0:
109,192,227481,1,0,0:0:0:0:
256,192,227481,1,0,0:0:0:0:
402,192,227481,1,0,0:0:0:0:
475,192,227481,1,0,0:0:0:0:
402,192,227609,1,0,0:0:0:0:
475,192,227609,1,0,0:0:0:0:
256,192,227609,1,0,0:0:0:0:
109,192,227609,1,0,0:0:0:0:
36,192,227609,1,0,0:0:0:0:
36,192,227865,1,0,0:0:0:0:
109,192,227865,1,0,0:0:0:0:
402,192,227865,1,0,0:0:0:0:
475,192,227865,1,0,0:0:0:0:
256,192,227865,1,0,0:0:0:0:
36,192,227993,1,0,0:0:0:0:
109,192,227993,1,0,0:0:0:0:
329,192,227993,1,0,0:0:0:0:
475,192,228058,1,0,0:0:0:0:
402,192,228058,1,0,0:0:0:0:
182,192,228058,1,0,0:0:0:0:
182,192,228186,1,0,0:0:0:0:
36,192,228186,1,0,0:0:0:0:
109,192,228186,1,0,0:0:0:0:
329,192,228250,1,0,0:0:0:0:
402,192,228250,1,0,0:0:0:0:
475,192,228250,1,0,0:0:0:0:
36,192,228378,1,0,0:0:0:0:
109,192,228378,1,0,0:0:0:0:
475,192,228378,1,0,0:0:0:0:
182,192,228378,1,0,0:0:0:0:
329,192,228378,1,0,0:0:0:0:
402,192,228378,1,0,0:0:0:0:
36,192,228506,1,0,0:0:0:0:
182,192,228506,1,0,0:0:0:0:
256,192,228506,1,0,0:0:0:0:
402,192,228506,1,0,0:0:0:0:
109,192,228634,1,0,0:0:0:0:
256,192,228634,1,0,0:0:0:0:
329,192,228634,1,0,0:0:0:0:
475,192,228634,1,0,0:0:0:0:
182,192,228763,1,0,0:0:0:0:
36,192,228763,1,0,0:0:0:0:
475,192,228763,1,0,0:0:0:0:
329,192,228763,1,0,0:0:0:0:
109,192,228891,1,0,0:0:0:0:
402,192,228891,1,0,0:0:0:0:
256,192,228891,1,0,0:0:0:0:
475,192,228891,1,0,0:0:0:0:
36,192,229019,1,0,0:0:0:0:
182,192,229019,1,0,0:0:0:0:
329,192,229019,1,0,0:0:0:0:
402,192,229019,1,0,0:0:0:0:
329,192,229147,1,0,0:0:0:0:
256,192,229147,1,0,0:0:0:0:
109,192,229147,1,0,0:0:0:0:
475,192,229147,1,0,0:0:0:0:
256,192,229275,1,0,0:0:0:0:
402,192,229275,1,0,0:0:0:0:
182,192,229275,1,0,0:0:0:0:
36,192,229275,1,0,0:0:0:0:
329,192,229404,1,0,0:0:0:0:
109,192,229404,1,0,0:0:0:0:
182,192,229404,1,0,0:0:0:0:
475,192,229404,1,0,0:0:0:0:
182,192,229532,1,0,0:0:0:0:
36,192,229532,1,0,0:0:0:0:
256,192,229532,1,0,0:0:0:0:
402,192,229532,1,0,0:0:0:0:
109,192,229660,1,0,0:0:0:0:
256,192,229660,1,0,0:0:0:0:
329,192,229660,1,0,0:0:0:0:
475,192,229660,1,0,0:0:0:0:
402,192,229788,1,0,0:0:0:0:
182,192,229788,1,0,0:0:0:0:
329,192,229788,1,0,0:0:0:0:
36,192,229788,1,0,0:0:0:0:
256,192,229916,1,0,0:0:0:0:
109,192,229916,1,0,0:0:0:0:
36,192,229916,1,0,0:0:0:0:
475,192,229916,1,0,0:0:0:0:
329,192,230002,1,0,0:0:0:0:
182,192,230045,1,0,0:0:0:0:
109,192,230045,1,0,0:0:0:0:
402,192,230045,1,0,0:0:0:0:
256,192,230087,1,0,0:0:0:0:
329,192,230173,1,0,0:0:0:0:
36,192,230173,1,0,0:0:0:0:
182,192,230173,1,0,0:0:0:0:
475,192,230173,1,0,0:0:0:0:
256,192,230258,1,0,0:0:0:0:
109,192,230301,1,0,0:0:0:0:
36,192,230301,1,0,0:0:0:0:
402,192,230301,1,0,0:0:0:0:
475,192,230301,1,0,0:0:0:0:
182,192,230344,1,0,0:0:0:0:
256,192,230429,1,0,0:0:0:0:
36,192,230429,1,0,0:0:0:0:
402,192,230429,1,0,0:0:0:0:
109,192,230429,1,0,0:0:0:0:
329,192,230515,1,0,0:0:0:0:
475,192,230515,1,0,0:0:0:0:
36,192,230558,1,0,0:0:0:0:
182,192,230558,1,0,0:0:0:0:
402,192,230600,1,0,0:0:0:0:
256,192,230600,1,0,0:0:0:0:
329,192,230686,1,0,0:0:0:0:
109,192,230686,1,0,0:0:0:0:
475,192,230686,1,0,0:0:0:0:
182,192,230771,1,0,0:0:0:0:
36,192,230771,1,0,0:0:0:0:
256,192,230814,1,0,0:0:0:0:
402,192,230814,1,0,0:0:0:0:
109,192,230857,1,0,0:0:0:0:
329,192,230857,1,0,0:0:0:0:
475,192,230942,1,0,0:0:0:0:
182,192,230942,1,0,0:0:0:0:
36,192,230942,1,0,0:0:0:0:
402,192,231028,1,0,0:0:0:0:
329,192,231028,1,0,0:0:0:0:
256,192,231070,1,0,0:0:0:0:
109,192,231070,1,0,0:0:0:0:
182,192,231113,1,0,0:0:0:0:
475,192,231113,1,0,0:0:0:0:
329,192,231199,1,0,0:0:0:0:
402,192,231199,1,0,0:0:0:0:
36,192,231199,1,0,0:0:0:0:
109,192,231284,1,0,0:0:0:0:
182,192,231284,1,0,0:0:0:0:
475,192,231327,1,0,0:0:0:0:
329,192,231327,1,0,0:0:0:0:
256,192,231369,1,0,0:0:0:0:
402,192,231369,1,0,0:0:0:0:
182,192,231455,1,0,0:0:0:0:
36,192,231455,1,0,0:0:0:0:
109,192,231455,1,0,0:0:0:0:
475,192,231540,1,0,0:0:0:0:
402,192,231540,1,0,0:0:0:0:
329,192,231583,1,0,0:0:0:0:
109,192,231583,1,0,0:0:0:0:
256,192,231626,1,0,0:0:0:0:
182,192,231626,1,0,0:0:0:0:
475,192,231711,1,0,0:0:0:0:
36,192,231711,1,0,0:0:0:0:
402,192,231711,1,0,0:0:0:0:
109,192,231797,1,0,0:0:0:0:
256,192,231797,1,0,0:0:0:0:
329,192,231840,1,0,0:0:0:0:
475,192,231840,1,0,0:0:0:0:
182,192,231882,1,0,0:0:0:0:
36,192,231882,1,0,0:0:0:0:
402,192,231968,1,0,0:0:0:0:
256,192,231968,1,0,0:0:0:0:
109,192,231968,1,0,0:0:0:0:
475,192,232053,1,0,0:0:0:0:
329,192,232096,1,0,0:0:0:0:
36,192,232096,1,0,0:0:0:0:
256,192,232096,1,0,0:0:0:0:
182,192,232139,1,0,0:0:0:0:
329,192,232224,1,0,0:0:0:0:
109,192,232224,1,0,0:0:0:0:
402,192,232224,1,0,0:0:0:0:
36,192,232224,1,0,0:0:0:0:
475,192,232310,1,0,0:0:0:0:
256,192,232352,1,0,0:0:0:0:
182,192,232352,1,0,0:0:0:0:
109,192,232352,1,0,0:0:0:0:
329,192,232395,1,0,0:0:0:0:
402,192,232481,1,0,0:0:0:0:
475,192,232481,1,0,0:0:0:0:
36,192,232481,1,0,0:0:0:0:
182,192,232545,1,0,0:0:0:0:
109,192,232545,1,0,0:0:0:0:
256,192,232609,1,0,0:0:0:0:
329,192,232609,1,0,0:0:0:0:
475,192,232609,1,0,0:0:0:0:
109,192,232673,1,0,0:0:0:0:
36,192,232673,1,0,0:0:0:0:
182,192,232737,1,0,0:0:0:0:
329,192,232737,1,0,0:0:0:0:
402,192,232737,1,0,0:0:0:0:
109,192,232801,1,0,0:0:0:0:
36,192,232801,1,0,0:0:0:0:
475,192,232865,1,0,0:0:0:0:
402,192,232865,1,0,0:0:0:0:
256,192,232865,1,0,0:0:0:0:
182,192,232929,1,0,0:0:0:0:
109,192,232929,1,0,0:0:0:0:
329,192,232993,1,0,0:0:0:0:
402,192,232993,1,0,0:0:0:0:
475,192,232993,1,0,0:0:0:0:
256,192,233058,1,0,0:0:0:0:
182,192,233058,1,0,0:0:0:0:
109,192,233122,1,0,0:0:0:0:
36,192,233122,1,0,0:0:0:0:
402,192,233122,1,0,0:0:0:0:
329,192,233186,1,0,0:0:0:0:
256,192,233186,1,0,0:0:0:0:
182,192,233250,1,0,0:0:0:0:
109,192,233250,1,0,0:0:0:0:
36,192,233250,1,0,0:0:0:0:
475,192,233250,1,0,0:0:0:0:
475,192,233506,1,0,0:0:0:0:
402,192,233506,1,0,0:0:0:0:
36,192,233506,1,0,0:0:0:0:
329,192,233570,1,0,0:0:0:0:
256,192,233570,1,0,0:0:0:0:
182,192,233634,1,0,0:0:0:0:
109,192,233634,1,0,0:0:0:0:
475,192,233634,1,0,0:0:0:0:
402,192,233699,1,0,0:0:0:0:
329,192,233699,1,0,0:0:0:0:
256,192,233763,1,0,0:0:0:0:
109,192,233763,1,0,0:0:0:0:
36,192,233763,1,0,0:0:0:0:
402,192,233827,1,0,0:0:0:0:
475,192,233827,1,0,0:0:0:0:
256,192,233891,1,0,0:0:0:0:
36,192,233891,1,0,0:0:0:0:
109,192,233891,1,0,0:0:0:0:
329,192,233955,1,0,0:0:0:0:
402,192,233955,1,0,0:0:0:0:
475,192,234019,1,0,0:0:0:0:
182,192,234019,1,0,0:0:0:0:
36,192,234019,1,0,0:0:0:0:
256,192,234083,1,0,0:0:0:0:
329,192,234083,1,0,0:0:0:0:
402,192,234147,1,0,0:0:0:0:
475,192,234147,1,0,0:0:0:0:
109,192,234147,1,0,0:0:0:0:
256,192,234211,1,0,0:0:0:0:
182,192,234211,1,0,0:0:0:0:
329,192,234275,1,0,0:0:0:0:
36,192,234275,1,0,0:0:0:0:
402,192,234275,1,0,0:0:0:0:
475,192,234275,1,0,0:0:0:0:
182,192,234532,1,0,0:0:0:0:
109,192,234532,1,0,0:0:0:0:
36,192,234532,1,0,0:0:0:0:
329,192,234596,1,0,0:0:0:0:
402,192,234596,1,0,0:0:0:0:
475,192,234596,1,0,0:0:0:0:
256,192,234660,1,0,0:0:0:0:
182,192,234660,1,0,0:0:0:0:
109,192,234660,1,0,0:0:0:0:
329,192,234724,1,0,0:0:0:0:
402,192,234724,1,0,0:0:0:0:
475,192,234724,1,0,0:0:0:0:
182,192,234788,1,0,0:0:0:0:
109,192,234788,1,0,0:0:0:0:
36,192,234788,1,0,0:0:0:0:
256,192,234788,1,0,0:0:0:0:
475,192,235045,1,0,0:0:0:0:
402,192,235045,1,0,0:0:0:0:
329,192,235045,1,0,0:0:0:0:
182,192,235109,1,0,0:0:0:0:
109,192,235109,1,0,0:0:0:0:
36,192,235109,1,0,0:0:0:0:
402,192,235173,1,0,0:0:0:0:
329,192,235173,1,0,0:0:0:0:
256,192,235173,1,0,0:0:0:0:
182,192,235237,1,0,0:0:0:0:
109,192,235237,1,0,0:0:0:0:
36,192,235237,1,0,0:0:0:0:
329,192,235301,1,0,0:0:0:0:
256,192,235301,1,0,0:0:0:0:
402,192,235301,1,0,0:0:0:0:
475,192,235301,1,0,0:0:0:0:
402,192,235558,1,0,0:0:0:0:
109,192,235558,1,0,0:0:0:0:
36,192,235558,1,0,0:0:0:0:
329,192,235558,1,0,0:0:0:0:
256,192,235558,1,0,0:0:0:0:
329,192,235686,1,0,0:0:0:0:
402,192,235686,1,0,0:0:0:0:
256,192,235686,1,0,0:0:0:0:
36,192,235750,1,0,0:0:0:0:
109,192,235750,1,0,0:0:0:0:
182,192,235750,1,0,0:0:0:0:
329,192,235878,1,0,0:0:0:0:
475,192,235878,1,0,0:0:0:0:
402,192,235878,1,0,0:0:0:0:
256,192,235942,1,0,0:0:0:0:
182,192,235942,1,0,0:0:0:0:
109,192,235942,1,0,0:0:0:0:
475,192,236070,1,0,0:0:0:0:
329,192,236070,1,0,0:0:0:0:
182,192,236070,1,0,0:0:0:0:
402,192,236070,1,0,0:0:0:0:
109,192,236070,1,0,0:0:0:0:
475,192,236199,1,0,0:0:0:0:
402,192,236199,1,0,0:0:0:0:
329,192,236199,1,0,0:0:0:0:
256,192,236263,1,0,0:0:0:0:
182,192,236263,1,0,0:0:0:0:
109,192,236263,1,0,0:0:0:0:
402,192,236391,1,0,0:0:0:0:
329,192,236391,1,0,0:0:0:0:
256,192,236391,1,0,0:0:0:0:
182,192,236455,1,0,0:0:0:0:
109,192,236455,1,0,0:0:0:0:
36,192,236455,1,0,0:0:0:0:
329,192,236583,1,0,0:0:0:0:
36,192,236583,128,0,237780:0:0:0:0:
109,192,236583,128,0,237267:0:0:0:0:
182,192,236583,128,0,236754:0:0:0:0:
402,192,236583,128,0,237011:0:0:0:0:
475,192,236583,128,0,237523:0:0:0:0:
329,192,236669,128,0,237096:0:0:0:0:
256,192,236754,1,0,0:0:0:0:
182,192,236840,1,0,0:0:0:0:
182,192,236925,128,0,237352:0:0:0:0:
256,192,237011,128,0,238036:0:0:0:0:
402,192,237096,128,0,237181:0:0:0:0:
329,192,237181,128,0,237609:0:0:0:0:
402,192,237267,128,0,238036:0:0:0:0:
109,192,237352,128,0,237438:0:0:0:0:
182,192,237438,128,0,237694:0:0:0:0:
109,192,237523,128,0,238036:0:0:0:0:
475,192,237609,128,0,238036:0:0:0:0:
329,192,237694,128,0,237951:0:0:0:0:
182,192,237780,128,0,237865:0:0:0:0:
36,192,237865,128,0,238036:0:0:0:0:
182,192,237951,128,0,238036:0:0:0:0:
329,192,238036,1,0,0:0:0:0:
36,192,238122,128,0,238570:0:0:0:0:
109,192,238122,128,0,238570:0:0:0:0:
402,192,238122,128,0,238570:0:0:0:0:
475,192,238122,128,0,238570:0:0:0:0:
256,192,238122,128,0,238570:0:0:0:0:
36,192,238634,1,0,0:0:0:0:
109,192,238634,1,0,0:0:0:0:
402,192,238634,1,0,0:0:0:0:
475,192,238634,1,0,0:0:0:0:
256,192,238634,1,0,0:0:0:0:
182,192,238699,1,0,0:0:0:0:
329,192,238763,1,0,0:0:0:0:
182,192,238827,1,0,0:0:0:0:
402,192,238891,1,0,0:0:0:0:
109,192,238955,1,0,0:0:0:0:
402,192,239019,1,0,0:0:0:0:
182,192,239083,1,0,0:0:0:0:
329,192,239147,1,0,0:0:0:0:
182,192,239211,1,0,0:0:0:0:
402,192,239275,1,0,0:0:0:0:
109,192,239340,1,0,0:0:0:0:
402,192,239404,1,0,0:0:0:0:
182,192,239468,1,0,0:0:0:0:
329,192,239532,1,0,0:0:0:0:
182,192,239596,1,0,0:0:0:0:
402,192,239660,1,0,0:0:0:0:
402,192,239724,1,0,0:0:0:0:
109,192,239788,1,0,0:0:0:0:
109,192,239852,1,0,0:0:0:0:
329,192,239916,1,0,0:0:0:0:
329,192,239981,1,0,0:0:0:0:
182,192,240045,1,0,0:0:0:0:
182,192,240109,1,0,0:0:0:0:
475,192,240173,1,0,0:0:0:0:
475,192,240237,1,0,0:0:0:0:
36,192,240301,1,0,0:0:0:0:
36,192,240365,1,0,0:0:0:0:
402,192,240429,1,0,0:0:0:0:
402,192,240493,1,0,0:0:0:0:
109,192,240558,1,0,0:0:0:0:
109,192,240622,1,0,0:0:0:0:
329,192,240686,1,0,0:0:0:0:
475,192,240686,1,0,0:0:0:0:
475,192,240750,1,0,0:0:0:0:
329,192,240750,1,0,0:0:0:0:
36,192,240814,1,0,0:0:0:0:
182,192,240814,1,0,0:0:0:0:
182,192,240878,1,0,0:0:0:0:
36,192,240878,1,0,0:0:0:0:
329,192,240942,1,0,0:0:0:0:
402,192,240942,1,0,0:0:0:0:
402,192,241006,1,0,0:0:0:0:
329,192,241006,1,0,0:0:0:0:
109,192,241070,1,0,0:0:0:0:
182,192,241070,1,0,0:0:0:0:
182,192,241134,1,0,0:0:0:0:
109,192,241134,1,0,0:0:0:0:
402,192,241199,1,0,0:0:0:0:
475,192,241199,1,0,0:0:0:0:
402,192,241263,1,0,0:0:0:0:
475,192,241263,1,0,0:0:0:0:
36,192,241327,1,0,0:0:0:0:
109,192,241327,1,0,0:0:0:0:
109,192,241391,1,0,0:0:0:0:
36,192,241391,1,0,0:0:0:0:
329,192,241455,1,0,0:0:0:0:
402,192,241455,1,0,0:0:0:0:
329,192,241519,1,0,0:0:0:0:
402,192,241519,1,0,0:0:0:0:
182,192,241583,1,0,0:0:0:0:
109,192,241583,1,0,0:0:0:0:
109,192,241647,1,0,0:0:0:0:
182,192,241647,1,0,0:0:0:0:
329,192,241711,1,0,0:0:0:0:
402,192,241711,1,0,0:0:0:0:
475,192,241711,1,0,0:0:0:0:
36,192,241775,1,0,0:0:0:0:
109,192,241775,1,0,0:0:0:0:
182,192,241775,1,0,0:0:0:0:
329,192,241840,1,0,0:0:0:0:
402,192,241840,1,0,0:0:0:0:
475,192,241840,1,0,0:0:0:0:
182,192,241904,1,0,0:0:0:0:
109,192,241904,1,0,0:0:0:0:
36,192,241904,1,0,0:0:0:0:
329,192,241968,1,0,0:0:0:0:
402,192,241968,1,0,0:0:0:0:
475,192,241968,1,0,0:0:0:0:
182,192,242032,1,0,0:0:0:0:
109,192,242032,1,0,0:0:0:0:
36,192,242032,1,0,0:0:0:0:
329,192,242096,1,0,0:0:0:0:
402,192,242096,1,0,0:0:0:0:
475,192,242096,1,0,0:0:0:0:
182,192,242160,1,0,0:0:0:0:
109,192,242160,1,0,0:0:0:0:
36,192,242160,1,0,0:0:0:0:
329,192,242224,1,0,0:0:0:0:
402,192,242224,1,0,0:0:0:0:
475,192,242224,1,0,0:0:0:0:
256,192,242224,1,0,0:0:0:0:
109,192,242416,1,0,0:0:0:0:
182,192,242416,1,0,0:0:0:0:
329,192,242416,1,0,0:0:0:0:
402,192,242416,1,0,0:0:0:0:
475,192,242416,1,0,0:0:0:0:
36,192,242609,1,0,0:0:0:0:
109,192,242609,1,0,0:0:0:0:
256,192,242609,1,0,0:0:0:0:
402,192,242609,1,0,0:0:0:0:
475,192,242609,1,0,0:0:0:0:
36,192,242737,1,0,0:0:0:0:
475,192,242737,1,0,0:0:0:0:
109,192,242737,128,0,242865:0:0:0:0:
402,192,242737,128,0,242865:0:0:0:0:
182,192,242865,128,0,242993:0:0:0:0:
329,192,242865,128,0,242993:0:0:0:0:
36,192,242993,1,0,0:0:0:0:
256,192,242993,128,0,243122:0:0:0:0:
109,192,243058,1,0,0:0:0:0:
329,192,243058,128,0,243186:0:0:0:0:
182,192,243122,1,0,0:0:0:0:
402,192,243122,128,0,243250:0:0:0:0:
475,192,243186,128,0,243314:0:0:0:0:
329,192,243250,1,0,0:0:0:0:
256,192,243250,1,0,0:0:0:0:
36,192,243250,128,0,243378:0:0:0:0:
109,192,243250,128,0,243378:0:0:0:0:
402,192,243314,1,0,0:0:0:0:
475,192,243378,1,0,0:0:0:0:
329,192,243442,1,0,0:0:0:0:
109,192,243442,128,0,243570:0:0:0:0:
182,192,243442,128,0,243570:0:0:0:0:
402,192,243506,1,0,0:0:0:0:
329,192,243570,1,0,0:0:0:0:
475,192,243634,1,0,0:0:0:0:
109,192,243634,128,0,243699:0:0:0:0:
36,192,243634,128,0,243699:0:0:0:0:
36,192,243763,1,0,0:0:0:0:
109,192,243763,1,0,0:0:0:0:
182,192,243763,128,0,243891:0:0:0:0:
329,192,243763,128,0,243891:0:0:0:0:
256,192,243891,128,0,244019:0:0:0:0:
402,192,243891,128,0,244019:0:0:0:0:
475,192,244019,1,0,0:0:0:0:
182,192,244019,1,0,0:0:0:0:
36,192,244019,128,0,244147:0:0:0:0:
256,192,244083,1,0,0:0:0:0:
109,192,244083,128,0,244211:0:0:0:0:
329,192,244147,1,0,0:0:0:0:
182,192,244147,128,0,244275:0:0:0:0:
402,192,244211,1,0,0:0:0:0:
256,192,244211,128,0,244340:0:0:0:0:
36,192,244275,1,0,0:0:0:0:
329,192,244275,128,0,244404:0:0:0:0:
475,192,244275,128,0,244404:0:0:0:0:
109,192,244340,1,0,0:0:0:0:
182,192,244404,1,0,0:0:0:0:
256,192,244468,1,0,0:0:0:0:
402,192,244468,128,0,244596:0:0:0:0:
475,192,244468,128,0,244596:0:0:0:0:
109,192,244532,1,0,0:0:0:0:
182,192,244596,1,0,0:0:0:0:
256,192,244660,1,0,0:0:0:0:
36,192,244660,128,0,244724:0:0:0:0:
475,192,244660,128,0,244724:0:0:0:0:
109,192,244788,1,0,0:0:0:0:
36,192,244788,128,0,244916:0:0:0:0:
402,192,244788,1,0,0:0:0:0:
475,192,244788,128,0,244916:0:0:0:0:
256,192,244916,128,0,245045:0:0:0:0:
182,192,244916,128,0,245045:0:0:0:0:
475,192,245045,1,0,0:0:0:0:
402,192,245045,1,0,0:0:0:0:
36,192,245045,128,0,245173:0:0:0:0:
329,192,245109,1,0,0:0:0:0:
109,192,245109,128,0,245237:0:0:0:0:
182,192,245173,1,0,0:0:0:0:
402,192,245173,128,0,245301:0:0:0:0:
256,192,245237,1,0,0:0:0:0:
475,192,245237,128,0,245365:0:0:0:0:
329,192,245301,1,0,0:0:0:0:
109,192,245301,128,0,245429:0:0:0:0:
36,192,245301,128,0,245429:0:0:0:0:
256,192,245365,1,0,0:0:0:0:
182,192,245429,1,0,0:0:0:0:
109,192,245493,1,0,0:0:0:0:
402,192,245493,128,0,245622:0:0:0:0:
475,192,245493,128,0,245622:0:0:0:0:
329,192,245558,1,0,0:0:0:0:
256,192,245622,1,0,0:0:0:0:
182,192,245686,1,0,0:0:0:0:
36,192,245686,128,0,245750:0:0:0:0:
475,192,245686,128,0,245750:0:0:0:0:
182,192,245814,1,0,0:0:0:0:
256,192,245814,1,0,0:0:0:0:
36,192,245814,128,0,245942:0:0:0:0:
329,192,245814,128,0,245942:0:0:0:0:
109,192,245942,128,0,246070:0:0:0:0:
402,192,245942,128,0,246070:0:0:0:0:
475,192,246070,1,0,0:0:0:0:
256,192,246070,1,0,0:0:0:0:
36,192,246070,128,0,246199:0:0:0:0:
329,192,246134,1,0,0:0:0:0:
109,192,246134,128,0,246263:0:0:0:0:
402,192,246199,1,0,0:0:0:0:
182,192,246199,128,0,246327:0:0:0:0:
36,192,246263,1,0,0:0:0:0:
256,192,246263,128,0,246391:0:0:0:0:
109,192,246327,1,0,0:0:0:0:
329,192,246327,128,0,246455:0:0:0:0:
475,192,246327,128,0,246455:0:0:0:0:
182,192,246391,1,0,0:0:0:0:
256,192,246455,1,0,0:0:0:0:
329,192,246519,1,0,0:0:0:0:
36,192,246519,128,0,246647:0:0:0:0:
109,192,246519,128,0,246647:0:0:0:0:
182,192,246583,1,0,0:0:0:0:
256,192,246647,1,0,0:0:0:0:
109,192,246711,1,0,0:0:0:0:
329,192,246711,128,0,246775:0:0:0:0:
475,192,246711,128,0,246775:0:0:0:0:
36,192,246840,1,0,0:0:0:0:
475,192,246840,128,0,246968:0:0:0:0:
329,192,246840,1,0,0:0:0:0:
256,192,246840,128,0,246968:0:0:0:0:
182,192,246968,128,0,247096:0:0:0:0:
109,192,246968,128,0,247096:0:0:0:0:
36,192,247096,1,0,0:0:0:0:
475,192,247096,1,0,0:0:0:0:
402,192,247096,128,0,247224:0:0:0:0:
182,192,247160,1,0,0:0:0:0:
329,192,247160,128,0,247288:0:0:0:0:
109,192,247224,1,0,0:0:0:0:
256,192,247224,128,0,247352:0:0:0:0:
36,192,247288,1,0,0:0:0:0:
182,192,247288,128,0,247416:0:0:0:0:
475,192,247352,1,0,0:0:0:0:
109,192,247352,128,0,247481:0:0:0:0:
402,192,247352,128,0,247481:0:0:0:0:
329,192,247416,1,0,0:0:0:0:
182,192,247481,1,0,0:0:0:0:
475,192,247545,1,0,0:0:0:0:
109,192,247545,128,0,247673:0:0:0:0:
36,192,247545,128,0,247673:0:0:0:0:
402,192,247609,1,0,0:0:0:0:
329,192,247673,1,0,0:0:0:0:
182,192,247737,1,0,0:0:0:0:
256,192,247737,128,0,247801:0:0:0:0:
475,192,247737,128,0,247801:0:0:0:0:
36,192,247865,1,0,0:0:0:0:
329,192,247865,1,0,0:0:0:0:
402,192,247865,128,0,247993:0:0:0:0:
109,192,247865,128,0,247993:0:0:0:0:
182,192,247993,128,0,248122:0:0:0:0:
256,192,247993,128,0,248122:0:0:0:0:
36,192,248122,1,0,0:0:0:0:
109,192,248122,1,0,0:0:0:0:
475,192,248122,128,0,248250:0:0:0:0:
182,192,248186,1,0,0:0:0:0:
402,192,248186,128,0,248314:0:0:0:0:
109,192,248250,1,0,0:0:0:0:
329,192,248250,128,0,248378:0:0:0:0:
182,192,248314,1,0,0:0:0:0:
256,192,248314,128,0,248442:0:0:0:0:
475,192,248378,1,0,0:0:0:0:
36,192,248378,128,0,248506:0:0:0:0:
402,192,248378,128,0,248506:0:0:0:0:
109,192,248442,1,0,0:0:0:0:
182,192,248506,1,0,0:0:0:0:
329,192,248570,128,0,248699:0:0:0:0:
475,192,248570,1,0,0:0:0:0:
256,192,248570,128,0,248699:0:0:0:0:
109,192,248634,1,0,0:0:0:0:
182,192,248699,1,0,0:0:0:0:
402,192,248763,128,0,248827:0:0:0:0:
475,192,248763,128,0,248827:0:0:0:0:
256,192,248763,1,0,0:0:0:0:
329,192,248891,1,0,0:0:0:0:
36,192,248891,1,0,0:0:0:0:
402,192,248891,128,0,249019:0:0:0:0:
475,192,248891,128,0,249019:0:0:0:0:
256,192,249019,128,0,249147:0:0:0:0:
109,192,249019,128,0,249147:0:0:0:0:
402,192,249147,1,0,0:0:0:0:
475,192,249147,1,0,0:0:0:0:
182,192,249147,128,0,249275:0:0:0:0:
36,192,249211,1,0,0:0:0:0:
256,192,249211,128,0,249340:0:0:0:0:
109,192,249275,1,0,0:0:0:0:
329,192,249275,128,0,249404:0:0:0:0:
182,192,249340,1,0,0:0:0:0:
402,192,249340,128,0,249468:0:0:0:0:
256,192,249404,1,0,0:0:0:0:
475,192,249404,128,0,249532:0:0:0:0:
36,192,249404,128,0,249532:0:0:0:0:
182,192,249468,1,0,0:0:0:0:
109,192,249532,1,0,0:0:0:0:
402,192,249596,1,0,0:0:0:0:
256,192,249596,128,0,249724:0:0:0:0:
329,192,249596,128,0,249724:0:0:0:0:
36,192,249660,1,0,0:0:0:0:
109,192,249724,1,0,0:0:0:0:
475,192,249788,1,0,0:0:0:0:
329,192,249788,128,0,249852:0:0:0:0:
402,192,249788,128,0,249852:0:0:0:0:
475,192,249916,1,0,0:0:0:0:
402,192,249916,128,0,249981:0:0:0:0:
329,192,249916,128,0,249981:0:0:0:0:
36,192,249916,1,0,0:0:0:0:
182,192,249981,128,0,250045:0:0:0:0:
109,192,249981,128,0,250045:0:0:0:0:
256,192,250045,1,0,0:0:0:0:
36,192,250109,128,0,250173:0:0:0:0:
182,192,250109,128,0,250173:0:0:0:0:
475,192,250173,128,0,250301:0:0:0:0:
329,192,250173,128,0,250237:0:0:0:0:
109,192,250237,128,0,250301:0:0:0:0:
36,192,250301,128,0,250429:0:0:0:0:
402,192,250301,128,0,250365:0:0:0:0:
256,192,250365,128,0,250429:0:0:0:0:
475,192,250429,128,0,250686:0:0:0:0:
329,192,250429,128,0,250558:0:0:0:0:
182,192,250493,128,0,250558:0:0:0:0:
256,192,250558,128,0,250686:0:0:0:0:
109,192,250622,128,0,250686:0:0:0:0:
36,192,250686,128,0,250942:0:0:0:0:
402,192,250686,128,0,250814:0:0:0:0:
182,192,250750,128,0,250814:0:0:0:0:
329,192,250814,128,0,250942:0:0:0:0:
109,192,250878,128,0,250942:0:0:0:0:
256,192,250942,128,0,251006:0:0:0:0:
182,192,250942,128,0,251006:0:0:0:0:
402,192,250942,128,0,251006:0:0:0:0:
475,192,250942,128,0,251006:0:0:0:0:
402,192,251070,128,0,251134:0:0:0:0:
329,192,251070,128,0,251134:0:0:0:0:
182,192,251070,128,0,251134:0:0:0:0:
109,192,251070,128,0,251134:0:0:0:0:
36,192,251199,128,0,251327:0:0:0:0:
475,192,251199,128,0,251455:0:0:0:0:
256,192,251199,128,0,251263:0:0:0:0:
109,192,251263,128,0,251391:0:0:0:0:
329,192,251263,128,0,251327:0:0:0:0:
182,192,251327,128,0,251455:0:0:0:0:
402,192,251327,128,0,251391:0:0:0:0:
256,192,251391,128,0,251519:0:0:0:0:
329,192,251391,128,0,251455:0:0:0:0:
36,192,251455,128,0,251904:0:0:0:0:
109,192,251455,1,0,0:0:0:0:
402,192,251455,1,0,0:0:0:0:
329,192,251583,128,0,251711:0:0:0:0:
109,192,251647,128,0,251904:0:0:0:0:
402,192,251647,128,0,251775:0:0:0:0:
475,192,251711,128,0,251840:0:0:0:0:
256,192,251711,128,0,251775:0:0:0:0:
329,192,251775,128,0,251840:0:0:0:0:
182,192,251840,128,0,251904:0:0:0:0:
402,192,251840,128,0,251904:0:0:0:0:
475,192,251904,128,0,251968:0:0:0:0:
329,192,251968,128,0,252032:0:0:0:0:
182,192,251968,128,0,252032:0:0:0:0:
109,192,251968,128,0,252032:0:0:0:0:
402,192,251968,128,0,252032:0:0:0:0:
36,192,252096,128,0,252160:0:0:0:0:
109,192,252096,128,0,252160:0:0:0:0:
256,192,252096,128,0,252160:0:0:0:0:
329,192,252096,128,0,252160:0:0:0:0:
36,192,252224,128,0,252481:0:0:0:0:
182,192,252224,128,0,252352:0:0:0:0:
402,192,252224,128,0,252288:0:0:0:0:
256,192,252288,128,0,252416:0:0:0:0:
475,192,252288,128,0,252352:0:0:0:0:
329,192,252352,128,0,252481:0:0:0:0:
109,192,252352,128,0,252416:0:0:0:0:
402,192,252416,128,0,252545:0:0:0:0:
182,192,252416,128,0,252481:0:0:0:0:
475,192,252481,128,0,252929:0:0:0:0:
109,192,252481,1,0,0:0:0:0:
256,192,252481,1,0,0:0:0:0:
182,192,252609,128,0,252801:0:0:0:0:
329,192,252673,128,0,252929:0:0:0:0:
109,192,252673,128,0,252737:0:0:0:0:
36,192,252737,128,0,252929:0:0:0:0:
402,192,252737,128,0,252801:0:0:0:0:
109,192,252801,128,0,252929:0:0:0:0:
182,192,252865,128,0,252929:0:0:0:0:
256,192,252865,128,0,252929:0:0:0:0:
182,192,252993,128,0,253058:0:0:0:0:
329,192,252993,128,0,253058:0:0:0:0:
402,192,252993,128,0,253058:0:0:0:0:
475,192,252993,128,0,253058:0:0:0:0:
256,192,253122,128,0,253186:0:0:0:0:
109,192,253122,128,0,253186:0:0:0:0:
36,192,253122,128,0,253186:0:0:0:0:
402,192,253122,128,0,253186:0:0:0:0:
475,192,253250,128,0,253378:0:0:0:0:
36,192,253250,128,0,253506:0:0:0:0:
182,192,253250,128,0,253314:0:0:0:0:
402,192,253314,128,0,253442:0:0:0:0:
109,192,253314,128,0,253378:0:0:0:0:
329,192,253378,128,0,253506:0:0:0:0:
182,192,253378,128,0,253442:0:0:0:0:
256,192,253442,128,0,253570:0:0:0:0:
109,192,253442,128,0,253506:0:0:0:0:
182,192,253506,128,0,253955:0:0:0:0:
402,192,253506,1,0,0:0:0:0:
475,192,253506,1,0,0:0:0:0:
329,192,253634,128,0,253763:0:0:0:0:
475,192,253699,128,0,253955:0:0:0:0:
256,192,253699,128,0,253827:0:0:0:0:
109,192,253763,128,0,253891:0:0:0:0:
329,192,253827,128,0,253955:0:0:0:0:
402,192,253891,128,0,253955:0:0:0:0:
256,192,253891,128,0,253955:0:0:0:0:
109,192,253955,1,0,0:0:0:0:
182,192,254019,128,0,254083:0:0:0:0:
329,192,254019,128,0,254083:0:0:0:0:
402,192,254019,128,0,254083:0:0:0:0:
475,192,254019,128,0,254083:0:0:0:0:
36,192,254147,128,0,254211:0:0:0:0:
109,192,254147,128,0,254211:0:0:0:0:
256,192,254147,128,0,254211:0:0:0:0:
329,192,254147,128,0,254211:0:0:0:0:
109,192,254275,128,0,254404:0:0:0:0:
475,192,254275,128,0,254532:0:0:0:0:
256,192,254275,128,0,254340:0:0:0:0:
329,192,254340,128,0,254404:0:0:0:0:
182,192,254340,128,0,254468:0:0:0:0:
402,192,254404,128,0,254468:0:0:0:0:
256,192,254404,128,0,254532:0:0:0:0:
36,192,254468,128,0,254532:0:0:0:0:
329,192,254468,128,0,254596:0:0:0:0:
402,192,254532,128,0,254981:0:0:0:0:
109,192,254532,1,0,0:0:0:0:
182,192,254532,1,0,0:0:0:0:
182,192,254660,128,0,254788:0:0:0:0:
256,192,254724,128,0,254852:0:0:0:0:
36,192,254724,128,0,254981:0:0:0:0:
329,192,254788,128,0,254916:0:0:0:0:
109,192,254852,128,0,254981:0:0:0:0:
256,192,254916,128,0,254981:0:0:0:0:
182,192,254916,128,0,254981:0:0:0:0:
475,192,254981,1,0,0:0:0:0:
182,192,255045,128,0,255109:0:0:0:0:
329,192,255045,128,0,255109:0:0:0:0:
109,192,255045,128,0,255109:0:0:0:0:
402,192,255045,128,0,255109:0:0:0:0:
36,192,255173,128,0,255237:0:0:0:0:
329,192,255173,128,0,255237:0:0:0:0:
109,192,255173,128,0,255237:0:0:0:0:
256,192,255173,128,0,255237:0:0:0:0:
182,192,255301,128,0,255429:0:0:0:0:
256,192,255301,128,0,255365:0:0:0:0:
402,192,255301,128,0,255558:0:0:0:0:
109,192,255365,128,0,255493:0:0:0:0:
329,192,255365,128,0,255429:0:0:0:0:
256,192,255429,128,0,255558:0:0:0:0:
475,192,255429,128,0,255493:0:0:0:0:
329,192,255493,128,0,255622:0:0:0:0:
36,192,255493,128,0,255558:0:0:0:0:
109,192,255558,1,0,0:0:0:0:
182,192,255558,1,0,0:0:0:0:
475,192,255558,128,0,256006:0:0:0:0:
402,192,255686,128,0,255814:0:0:0:0:
36,192,255750,128,0,256006:0:0:0:0:
329,192,255750,128,0,255878:0:0:0:0:
256,192,255814,128,0,255942:0:0:0:0:
109,192,255878,128,0,256006:0:0:0:0:
402,192,255942,128,0,256006:0:0:0:0:
182,192,255942,128,0,256006:0:0:0:0:
256,192,256006,1,0,0:0:0:0:
36,192,256070,128,0,256134:0:0:0:0:
402,192,256070,128,0,256134:0:0:0:0:
475,192,256070,128,0,256134:0:0:0:0:
329,192,256070,128,0,256134:0:0:0:0:
402,192,256199,128,0,256263:0:0:0:0:
182,192,256199,128,0,256263:0:0:0:0:
109,192,256199,128,0,256263:0:0:0:0:
329,192,256199,128,0,256263:0:0:0:0:
36,192,256327,128,0,256583:0:0:0:0:
256,192,256327,128,0,256391:0:0:0:0:
109,192,256327,128,0,256455:0:0:0:0:
329,192,256391,128,0,256455:0:0:0:0:
182,192,256391,128,0,256519:0:0:0:0:
402,192,256455,128,0,256519:0:0:0:0:
256,192,256455,128,0,256583:0:0:0:0:
475,192,256519,128,0,256583:0:0:0:0:
329,192,256519,128,0,256647:0:0:0:0:
402,192,256583,128,0,257032:0:0:0:0:
182,192,256583,1,0,0:0:0:0:
109,192,256583,1,0,0:0:0:0:
36,192,256711,128,0,256840:0:0:0:0:
109,192,256775,128,0,256904:0:0:0:0:
475,192,256775,128,0,257032:0:0:0:0:
182,192,256840,128,0,256968:0:0:0:0:
329,192,256904,128,0,257032:0:0:0:0:
36,192,256968,128,0,257032:0:0:0:0:
256,192,256968,128,0,257032:0:0:0:0:
109,192,257032,1,0,0:0:0:0:
36,192,257096,1,0,0:0:0:0:
182,192,257096,1,0,0:0:0:0:
256,192,257096,1,0,0:0:0:0:
402,192,257096,1,0,0:0:0:0:
475,192,257096,1,0,0:0:0:0:
36,192,257224,1,0,0:0:0:0:
109,192,257224,1,0,0:0:0:0:
329,192,257224,1,0,0:0:0:0:
402,192,257224,1,0,0:0:0:0:
182,192,257224,1,0,0:0:0:0:
36,192,257481,1,0,0:0:0:0:
109,192,257481,1,0,0:0:0:0:
256,192,257481,1,0,0:0:0:0:
329,192,257481,1,0,0:0:0:0:
182,192,257545,1,0,0:0:0:0:
329,192,257545,1,0,0:0:0:0:
402,192,257545,1,0,0:0:0:0:
109,192,257609,1,0,0:0:0:0:
36,192,257609,1,0,0:0:0:0:
402,192,257609,1,0,0:0:0:0:
475,192,257609,1,0,0:0:0:0:
182,192,257737,1,0,0:0:0:0:
256,192,257737,1,0,0:0:0:0:
109,192,257737,1,0,0:0:0:0:
329,192,257801,1,0,0:0:0:0:
402,192,257801,1,0,0:0:0:0:
475,192,257801,1,0,0:0:0:0:
36,192,257929,1,0,0:0:0:0:
109,192,257929,1,0,0:0:0:0:
182,192,257929,1,0,0:0:0:0:
256,192,257993,1,0,0:0:0:0:
402,192,257993,1,0,0:0:0:0:
475,192,257993,1,0,0:0:0:0:
329,192,258122,1,0,0:0:0:0:
475,192,258122,1,0,0:0:0:0:
402,192,258122,1,0,0:0:0:0:
36,192,258122,1,0,0:0:0:0:
109,192,258122,1,0,0:0:0:0:
182,192,258186,1,0,0:0:0:0:
256,192,258250,1,0,0:0:0:0:
329,192,258314,1,0,0:0:0:0:
109,192,258314,1,0,0:0:0:0:
36,192,258314,1,0,0:0:0:0:
402,192,258314,1,0,0:0:0:0:
182,192,258378,1,0,0:0:0:0:
256,192,258442,1,0,0:0:0:0:
329,192,258506,1,0,0:0:0:0:
402,192,258506,1,0,0:0:0:0:
475,192,258506,1,0,0:0:0:0:
109,192,258506,1,0,0:0:0:0:
329,192,258634,128,0,258763:0:0:0:0:
36,192,258634,128,0,259083:0:0:0:0:
475,192,258699,128,0,259083:0:0:0:0:
256,192,258763,128,0,258891:0:0:0:0:
402,192,258827,128,0,259083:0:0:0:0:
182,192,258891,128,0,259019:0:0:0:0:
329,192,258955,128,0,259083:0:0:0:0:
109,192,259019,128,0,259147:0:0:0:0:
256,192,259083,128,0,259147:0:0:0:0:
36,192,259147,1,0,0:0:0:0:
182,192,259147,1,0,0:0:0:0:
329,192,259147,1,0,0:0:0:0:
402,192,259147,1,0,0:0:0:0:
475,192,259147,1,0,0:0:0:0:
36,192,259275,1,0,0:0:0:0:
256,192,259275,128,0,259596:0:0:0:0:
109,192,259275,128,0,259468:0:0:0:0:
329,192,259404,1,0,0:0:0:0:
402,192,259404,1,0,0:0:0:0:
475,192,259404,128,0,259596:0:0:0:0:
182,192,259532,128,0,259596:0:0:0:0:
109,192,259532,128,0,259596:0:0:0:0:
36,192,259532,128,0,259596:0:0:0:0:
256,192,259660,1,0,0:0:0:0:
402,192,259660,1,0,0:0:0:0:
475,192,259660,128,0,259852:0:0:0:0:
182,192,259788,1,0,0:0:0:0:
329,192,259788,1,0,0:0:0:0:
109,192,259788,128,0,259981:0:0:0:0:
475,192,259916,1,0,0:0:0:0:
402,192,259916,1,0,0:0:0:0:
256,192,259916,128,0,260109:0:0:0:0:
36,192,260045,128,0,260237:0:0:0:0:
109,192,260045,128,0,260109:0:0:0:0:
329,192,260045,128,0,260109:0:0:0:0:
182,192,260173,1,0,0:0:0:0:
256,192,260173,1,0,0:0:0:0:
475,192,260173,1,0,0:0:0:0:
402,192,260173,128,0,260365:0:0:0:0:
36,192,260301,1,0,0:0:0:0:
256,192,260301,1,0,0:0:0:0:
109,192,260301,128,0,260493:0:0:0:0:
182,192,260429,1,0,0:0:0:0:
402,192,260429,1,0,0:0:0:0:
329,192,260429,128,0,260622:0:0:0:0:
109,192,260558,128,0,260622:0:0:0:0:
256,192,260558,128,0,260622:0:0:0:0:
475,192,260558,128,0,260622:0:0:0:0:
36,192,260686,1,0,0:0:0:0:
329,192,260686,1,0,0:0:0:0:
182,192,260686,128,0,260878:0:0:0:0:
256,192,260814,1,0,0:0:0:0:
402,192,260814,1,0,0:0:0:0:
475,192,260814,128,0,261006:0:0:0:0:
109,192,260942,1,0,0:0:0:0:
182,192,260942,1,0,0:0:0:0:
329,192,260942,128,0,261134:0:0:0:0:
256,192,261070,128,0,261263:0:0:0:0:
402,192,261070,128,0,261134:0:0:0:0:
475,192,261070,128,0,261134:0:0:0:0:
36,192,261199,1,0,0:0:0:0:
329,192,261199,1,0,0:0:0:0:
475,192,261199,1,0,0:0:0:0:
182,192,261199,128,0,261391:0:0:0:0:
109,192,261327,1,0,0:0:0:0:
402,192,261327,1,0,0:0:0:0:
256,192,261327,128,0,261519:0:0:0:0:
182,192,261455,1,0,0:0:0:0:
475,192,261455,1,0,0:0:0:0:
329,192,261455,128,0,261647:0:0:0:0:
36,192,261583,128,0,261775:0:0:0:0:
109,192,261583,128,0,261647:0:0:0:0:
256,192,261583,128,0,261647:0:0:0:0:
329,192,261711,1,0,0:0:0:0:
475,192,261711,1,0,0:0:0:0:
402,192,261711,128,0,261904:0:0:0:0:
182,192,261840,1,0,0:0:0:0:
36,192,261840,1,0,0:0:0:0:
256,192,261840,128,0,262032:0:0:0:0:
109,192,261968,1,0,0:0:0:0:
402,192,261968,1,0,0:0:0:0:
475,192,261968,128,0,262160:0:0:0:0:
36,192,262096,128,0,262288:0:0:0:0:
256,192,262096,128,0,262160:0:0:0:0:
329,192,262096,128,0,262160:0:0:0:0:
256,192,262224,1,0,0:0:0:0:
329,192,262224,1,0,0:0:0:0:
475,192,262224,1,0,0:0:0:0:
402,192,262224,128,0,262416:0:0:0:0:
109,192,262352,128,0,262545:0:0:0:0:
182,192,262352,1,0,0:0:0:0:
36,192,262352,1,0,0:0:0:0:
256,192,262481,1,0,0:0:0:0:
402,192,262481,1,0,0:0:0:0:
475,192,262481,128,0,262673:0:0:0:0:
329,192,262609,128,0,262801:0:0:0:0:
36,192,262609,128,0,262673:0:0:0:0:
109,192,262609,128,0,262673:0:0:0:0:
402,192,262737,1,0,0:0:0:0:
475,192,262737,1,0,0:0:0:0:
182,192,262737,128,0,262929:0:0:0:0:
109,192,262865,1,0,0:0:0:0:
329,192,262865,1,0,0:0:0:0:
256,192,262865,128,0,263058:0:0:0:0:
475,192,262993,1,0,0:0:0:0:
182,192,262993,1,0,0:0:0:0:
402,192,262993,128,0,263186:0:0:0:0:
256,192,263122,1,0,0:0:0:0:
109,192,263122,128,0,263186:0:0:0:0:
36,192,263122,128,0,263186:0:0:0:0:
329,192,263250,1,0,0:0:0:0:
402,192,263250,1,0,0:0:0:0:
475,192,263250,1,0,0:0:0:0:
182,192,263250,1,0,0:0:0:0:
36,192,263314,1,0,0:0:0:0:
182,192,263378,1,0,0:0:0:0:
36,192,263442,1,0,0:0:0:0:
402,192,263506,1,0,0:0:0:0:
475,192,263506,1,0,0:0:0:0:
256,192,263506,1,0,0:0:0:0:
109,192,263506,1,0,0:0:0:0:
329,192,263570,1,0,0:0:0:0:
182,192,263634,1,0,0:0:0:0:
329,192,263699,1,0,0:0:0:0:
36,192,263763,1,0,0:0:0:0:
109,192,263763,1,0,0:0:0:0:
256,192,263763,1,0,0:0:0:0:
475,192,263763,1,0,0:0:0:0:
402,192,263827,1,0,0:0:0:0:
182,192,263891,1,0,0:0:0:0:
402,192,263955,1,0,0:0:0:0:
36,192,264019,1,0,0:0:0:0:
475,192,264019,1,0,0:0:0:0:
182,192,264019,1,0,0:0:0:0:
256,192,264019,1,0,0:0:0:0:
329,192,264083,1,0,0:0:0:0:
109,192,264147,1,0,0:0:0:0:
329,192,264211,1,0,0:0:0:0:
182,192,264275,1,0,0:0:0:0:
36,192,264275,1,0,0:0:0:0:
402,192,264275,1,0,0:0:0:0:
475,192,264275,1,0,0:0:0:0:
256,192,264340,1,0,0:0:0:0:
109,192,264404,1,0,0:0:0:0:
256,192,264468,1,0,0:0:0:0:
36,192,264532,1,0,0:0:0:0:
329,192,264532,1,0,0:0:0:0:
475,192,264532,1,0,0:0:0:0:
402,192,264532,1,0,0:0:0:0:
182,192,264596,1,0,0:0:0:0:
329,192,264660,1,0,0:0:0:0:
182,192,264724,1,0,0:0:0:0:
109,192,264788,1,0,0:0:0:0:
36,192,264788,1,0,0:0:0:0:
256,192,264788,1,0,0:0:0:0:
475,192,264788,1,0,0:0:0:0:
402,192,264852,1,0,0:0:0:0:
256,192,264916,1,0,0:0:0:0:
402,192,264981,1,0,0:0:0:0:
36,192,265045,1,0,0:0:0:0:
475,192,265045,1,0,0:0:0:0:
109,192,265045,1,0,0:0:0:0:
182,192,265045,1,0,0:0:0:0:
329,192,265109,1,0,0:0:0:0:
182,192,265173,1,0,0:0:0:0:
329,192,265237,1,0,0:0:0:0:
36,192,265301,1,0,0:0:0:0:
402,192,265301,1,0,0:0:0:0:
475,192,265301,1,0,0:0:0:0:
256,192,265301,1,0,0:0:0:0:
109,192,265365,1,0,0:0:0:0:
256,192,265429,1,0,0:0:0:0:
109,192,265493,1,0,0:0:0:0:
329,192,265558,1,0,0:0:0:0:
256,192,265558,1,0,0:0:0:0:
36,192,265558,1,0,0:0:0:0:
182,192,265558,1,0,0:0:0:0:
475,192,265622,1,0,0:0:0:0:
329,192,265686,1,0,0:0:0:0:
475,192,265750,1,0,0:0:0:0:
109,192,265814,1,0,0:0:0:0:
402,192,265814,1,0,0:0:0:0:
182,192,265814,1,0,0:0:0:0:
36,192,265814,1,0,0:0:0:0:
256,192,265878,1,0,0:0:0:0:
109,192,265942,1,0,0:0:0:0:
256,192,266006,1,0,0:0:0:0:
475,192,266070,1,0,0:0:0:0:
36,192,266070,1,0,0:0:0:0:
182,192,266070,1,0,0:0:0:0:
402,192,266070,1,0,0:0:0:0:
329,192,266134,1,0,0:0:0:0:
475,192,266199,1,0,0:0:0:0:
402,192,266263,1,0,0:0:0:0:
36,192,266327,128,0,266391:0:0:0:0:
109,192,266327,128,0,266391:0:0:0:0:
182,192,266327,128,0,266391:0:0:0:0:
329,192,266327,1,0,0:0:0:0:
256,192,266391,1,0,0:0:0:0:
182,192,266455,1,0,0:0:0:0:
109,192,266455,1,0,0:0:0:0:
329,192,266519,128,0,266583:0:0:0:0:
402,192,266519,128,0,266583:0:0:0:0:
475,192,266519,128,0,266583:0:0:0:0:
36,192,266583,1,0,0:0:0:0:
402,192,266647,1,0,0:0:0:0:
329,192,266647,1,0,0:0:0:0:
109,192,266711,128,0,266775:0:0:0:0:
182,192,266711,128,0,266775:0:0:0:0:
256,192,266711,128,0,266775:0:0:0:0:
36,192,266840,128,0,267288:0:0:0:0:
329,192,266840,128,0,267096:0:0:0:0:
109,192,266840,1,0,0:0:0:0:
182,192,266840,1,0,0:0:0:0:
475,192,266904,128,0,267288:0:0:0:0:
256,192,266968,128,0,267224:0:0:0:0:
402,192,267032,128,0,267288:0:0:0:0:
182,192,267096,128,0,267288:0:0:0:0:
329,192,267160,128,0,267288:0:0:0:0:
109,192,267224,128,0,267288:0:0:0:0:
256,192,267288,128,0,267352:0:0:0:0:
36,192,267352,128,0,267416:0:0:0:0:
109,192,267352,128,0,267416:0:0:0:0:
182,192,267352,128,0,267416:0:0:0:0:
402,192,267352,128,0,267416:0:0:0:0:
475,192,267352,128,0,267416:0:0:0:0:
109,192,267481,128,0,267673:0:0:0:0:
256,192,267481,128,0,267545:0:0:0:0:
402,192,267481,128,0,267545:0:0:0:0:
36,192,267481,128,0,267673:0:0:0:0:
182,192,267609,1,0,0:0:0:0:
329,192,267609,1,0,0:0:0:0:
475,192,267609,1,0,0:0:0:0:
256,192,267737,1,0,0:0:0:0:
36,192,267737,1,0,0:0:0:0:
109,192,267801,1,0,0:0:0:0:
402,192,267865,1,0,0:0:0:0:
475,192,267865,1,0,0:0:0:0:
182,192,267865,128,0,267993:0:0:0:0:
329,192,267865,128,0,267993:0:0:0:0:
402,192,267993,1,0,0:0:0:0:
475,192,267993,1,0,0:0:0:0:
256,192,268058,128,0,268186:0:0:0:0:
109,192,268058,128,0,268186:0:0:0:0:
402,192,268122,1,0,0:0:0:0:
475,192,268122,1,0,0:0:0:0:
402,192,268250,1,0,0:0:0:0:
475,192,268250,1,0,0:0:0:0:
36,192,268250,128,0,268314:0:0:0:0:
182,192,268250,128,0,268314:0:0:0:0:
36,192,268378,128,0,268442:0:0:0:0:
182,192,268378,128,0,268442:0:0:0:0:
256,192,268378,128,0,268442:0:0:0:0:
329,192,268378,128,0,268442:0:0:0:0:
402,192,268506,128,0,268699:0:0:0:0:
475,192,268506,128,0,268699:0:0:0:0:
256,192,268506,128,0,268570:0:0:0:0:
109,192,268506,128,0,268570:0:0:0:0:
329,192,268634,1,0,0:0:0:0:
182,192,268634,1,0,0:0:0:0:
36,192,268634,1,0,0:0:0:0:
256,192,268763,1,0,0:0:0:0:
475,192,268763,1,0,0:0:0:0:
402,192,268827,1,0,0:0:0:0:
109,192,268891,1,0,0:0:0:0:
36,192,268891,1,0,0:0:0:0:
182,192,268891,128,0,269019:0:0:0:0:
329,192,268891,128,0,269019:0:0:0:0:
109,192,269019,1,0,0:0:0:0:
36,192,269019,1,0,0:0:0:0:
402,192,269083,128,0,269211:0:0:0:0:
475,192,269083,128,0,269211:0:0:0:0:
36,192,269147,1,0,0:0:0:0:
109,192,269147,1,0,0:0:0:0:
109,192,269275,1,0,0:0:0:0:
36,192,269275,1,0,0:0:0:0:
329,192,269275,128,0,269340:0:0:0:0:
256,192,269275,128,0,269340:0:0:0:0:
475,192,269404,128,0,269468:0:0:0:0:
182,192,269404,128,0,269468:0:0:0:0:
256,192,269404,128,0,269468:0:0:0:0:
402,192,269404,128,0,269468:0:0:0:0:
475,192,269532,128,0,269724:0:0:0:0:
329,192,269532,128,0,269596:0:0:0:0:
109,192,269532,128,0,269596:0:0:0:0:
36,192,269532,128,0,269596:0:0:0:0:
256,192,269660,1,0,0:0:0:0:
182,192,269660,1,0,0:0:0:0:
329,192,269660,1,0,0:0:0:0:
36,192,269788,1,0,0:0:0:0:
475,192,269788,1,0,0:0:0:0:
109,192,269852,1,0,0:0:0:0:
329,192,269916,1,0,0:0:0:0:
402,192,269916,1,0,0:0:0:0:
182,192,269916,128,0,270045:0:0:0:0:
256,192,269916,128,0,270045:0:0:0:0:
402,192,270045,1,0,0:0:0:0:
329,192,270045,1,0,0:0:0:0:
182,192,270109,128,0,270237:0:0:0:0:
36,192,270109,128,0,270237:0:0:0:0:
329,192,270173,1,0,0:0:0:0:
402,192,270173,1,0,0:0:0:0:
402,192,270301,1,0,0:0:0:0:
329,192,270301,1,0,0:0:0:0:
109,192,270301,128,0,270365:0:0:0:0:
182,192,270301,128,0,270365:0:0:0:0:
109,192,270429,128,0,270493:0:0:0:0:
182,192,270429,128,0,270493:0:0:0:0:
256,192,270429,128,0,270493:0:0:0:0:
475,192,270429,128,0,270493:0:0:0:0:
36,192,270558,128,0,270750:0:0:0:0:
402,192,270558,128,0,270622:0:0:0:0:
329,192,270558,128,0,270622:0:0:0:0:
256,192,270558,128,0,270622:0:0:0:0:
182,192,270686,1,0,0:0:0:0:
109,192,270686,1,0,0:0:0:0:
475,192,270686,1,0,0:0:0:0:
36,192,270814,1,0,0:0:0:0:
256,192,270814,1,0,0:0:0:0:
329,192,270878,1,0,0:0:0:0:
109,192,270942,1,0,0:0:0:0:
182,192,270942,1,0,0:0:0:0:
402,192,270942,128,0,271070:0:0:0:0:
475,192,270942,128,0,271070:0:0:0:0:
109,192,271070,1,0,0:0:0:0:
182,192,271070,1,0,0:0:0:0:
402,192,271134,128,0,271263:0:0:0:0:
329,192,271134,128,0,271263:0:0:0:0:
182,192,271199,1,0,0:0:0:0:
109,192,271199,1,0,0:0:0:0:
109,192,271327,1,0,0:0:0:0:
182,192,271327,1,0,0:0:0:0:
402,192,271327,128,0,271391:0:0:0:0:
475,192,271327,128,0,271391:0:0:0:0:
256,192,271455,1,0,0:0:0:0:
329,192,271455,1,0,0:0:0:0:
402,192,271455,1,0,0:0:0:0:
475,192,271455,1,0,0:0:0:0:
36,192,271519,1,0,0:0:0:0:
109,192,271519,1,0,0:0:0:0:
182,192,271583,1,0,0:0:0:0:
329,192,271583,1,0,0:0:0:0:
402,192,271583,1,0,0:0:0:0:
109,192,271647,1,0,0:0:0:0:
36,192,271647,1,0,0:0:0:0:
256,192,271711,1,0,0:0:0:0:
329,192,271711,1,0,0:0:0:0:
475,192,271711,1,0,0:0:0:0:
182,192,271775,1,0,0:0:0:0:
109,192,271775,1,0,0:0:0:0:
402,192,271840,1,0,0:0:0:0:
36,192,271840,1,0,0:0:0:0:
475,192,271840,1,0,0:0:0:0:
329,192,271904,1,0,0:0:0:0:
256,192,271904,1,0,0:0:0:0:
182,192,271968,1,0,0:0:0:0:
109,192,271968,1,0,0:0:0:0:
36,192,271968,1,0,0:0:0:0:
329,192,272032,1,0,0:0:0:0:
402,192,272032,1,0,0:0:0:0:
475,192,272096,1,0,0:0:0:0:
109,192,272096,1,0,0:0:0:0:
182,192,272096,1,0,0:0:0:0:
256,192,272160,1,0,0:0:0:0:
329,192,272160,1,0,0:0:0:0:
402,192,272224,1,0,0:0:0:0:
475,192,272224,1,0,0:0:0:0:
36,192,272224,1,0,0:0:0:0:
329,192,272481,1,0,0:0:0:0:
402,192,272481,1,0,0:0:0:0:
475,192,272481,1,0,0:0:0:0:
256,192,272481,1,0,0:0:0:0:
182,192,272545,1,0,0:0:0:0:
109,192,272545,1,0,0:0:0:0:
36,192,272545,1,0,0:0:0:0:
256,192,272609,1,0,0:0:0:0:
329,192,272609,1,0,0:0:0:0:
402,192,272609,1,0,0:0:0:0:
182,192,272673,1,0,0:0:0:0:
109,192,272673,1,0,0:0:0:0:
36,192,272673,1,0,0:0:0:0:
329,192,272737,1,0,0:0:0:0:
402,192,272737,1,0,0:0:0:0:
475,192,272737,1,0,0:0:0:0:
256,192,272801,1,0,0:0:0:0:
182,192,272801,1,0,0:0:0:0:
109,192,272801,1,0,0:0:0:0:
329,192,272865,1,0,0:0:0:0:
402,192,272865,1,0,0:0:0:0:
475,192,272865,1,0,0:0:0:0:
109,192,272929,1,0,0:0:0:0:
36,192,272929,1,0,0:0:0:0:
182,192,272929,1,0,0:0:0:0:
329,192,272993,1,0,0:0:0:0:
402,192,272993,1,0,0:0:0:0:
256,192,272993,1,0,0:0:0:0:
182,192,273058,1,0,0:0:0:0:
109,192,273058,1,0,0:0:0:0:
36,192,273058,1,0,0:0:0:0:
329,192,273122,1,0,0:0:0:0:
402,192,273122,1,0,0:0:0:0:
475,192,273122,1,0,0:0:0:0:
109,192,273186,1,0,0:0:0:0:
182,192,273186,1,0,0:0:0:0:
256,192,273186,1,0,0:0:0:0:
329,192,273250,1,0,0:0:0:0:
402,192,273250,1,0,0:0:0:0:
475,192,273250,1,0,0:0:0:0:
109,192,273378,1,0,0:0:0:0:
182,192,273378,1,0,0:0:0:0:
36,192,273378,1,0,0:0:0:0:
256,192,273378,1,0,0:0:0:0:
256,192,273506,1,0,0:0:0:0:
109,192,273506,1,0,0:0:0:0:
36,192,273506,1,0,0:0:0:0:
182,192,273506,1,0,0:0:0:0:
329,192,273891,128,0,273955:0:0:0:0:
329,192,274019,128,0,274083:0:0:0:0:
475,192,274404,128,0,274468:0:0:0:0:
475,192,274532,128,0,274596:0:0:0:0:
182,192,274532,128,0,274724:0:0:0:0:
36,192,274596,128,0,274788:0:0:0:0:
256,192,274660,128,0,274852:0:0:0:0:
109,192,274724,128,0,274916:0:0:0:0:
329,192,274788,128,0,274981:0:0:0:0:
182,192,274852,128,0,275045:0:0:0:0:
402,192,274916,128,0,275109:0:0:0:0:
256,192,274981,128,0,275173:0:0:0:0:
475,192,275045,128,0,275237:0:0:0:0:
329,192,275109,128,0,275301:0:0:0:0:
109,192,275173,128,0,275365:0:0:0:0:
256,192,275237,128,0,275429:0:0:0:0:
36,192,275301,128,0,275493:0:0:0:0:
182,192,275365,128,0,275493:0:0:0:0:
329,192,275429,128,0,275493:0:0:0:0:
256,192,275493,1,0,0:0:0:0:
36,192,275558,128,0,275622:0:0:0:0:
109,192,275558,128,0,275622:0:0:0:0:
402,192,275558,128,0,275622:0:0:0:0:
475,192,275558,128,0,275622:0:0:0:0:
36,192,275814,5,0,0:0:0:0:
182,192,275814,1,0,0:0:0:0:
329,192,275814,1,0,0:0:0:0:
475,192,275814,1,0,0:0:0:0:
402,192,275814,1,0,0:0:0:0:
182,192,275942,1,0,0:0:0:0:
329,192,275942,1,0,0:0:0:0:
402,192,275942,1,0,0:0:0:0:
475,192,275942,1,0,0:0:0:0:
256,192,276070,1,0,0:0:0:0:
109,192,276070,1,0,0:0:0:0:
36,192,276070,1,0,0:0:0:0:
402,192,276070,1,0,0:0:0:0:
402,192,276199,1,0,0:0:0:0:
256,192,276199,1,0,0:0:0:0:
109,192,276199,1,0,0:0:0:0:
36,192,276199,1,0,0:0:0:0:
182,192,276327,1,0,0:0:0:0:
329,192,276327,1,0,0:0:0:0:
475,192,276327,1,0,0:0:0:0:
109,192,276327,1,0,0:0:0:0:
109,192,276455,1,0,0:0:0:0:
182,192,276455,1,0,0:0:0:0:
329,192,276455,1,0,0:0:0:0:
475,192,276455,1,0,0:0:0:0:
36,192,276583,1,0,0:0:0:0:
256,192,276583,1,0,0:0:0:0:
182,192,276583,1,0,0:0:0:0:
402,192,276583,1,0,0:0:0:0:
329,192,276647,1,0,0:0:0:0:
475,192,276647,1,0,0:0:0:0:
109,192,276711,1,0,0:0:0:0:
256,192,276711,1,0,0:0:0:0:
402,192,276775,1,0,0:0:0:0:
329,192,276840,1,0,0:0:0:0:
182,192,276840,1,0,0:0:0:0:
36,192,276840,1,0,0:0:0:0:
475,192,276904,1,0,0:0:0:0:
256,192,276904,1,0,0:0:0:0:
109,192,276968,1,0,0:0:0:0:
329,192,276968,1,0,0:0:0:0:
182,192,277032,1,0,0:0:0:0:
402,192,277032,1,0,0:0:0:0:
256,192,277096,1,0,0:0:0:0:
36,192,277096,1,0,0:0:0:0:
475,192,277096,1,0,0:0:0:0:
182,192,277160,1,0,0:0:0:0:
329,192,277160,1,0,0:0:0:0:
109,192,277224,1,0,0:0:0:0:
256,192,277224,1,0,0:0:0:0:
402,192,277288,1,0,0:0:0:0:
329,192,277288,1,0,0:0:0:0:
182,192,277352,1,0,0:0:0:0:
36,192,277352,1,0,0:0:0:0:
475,192,277352,1,0,0:0:0:0:
256,192,277416,1,0,0:0:0:0:
109,192,277416,1,0,0:0:0:0:
402,192,277481,1,0,0:0:0:0:
182,192,277481,1,0,0:0:0:0:
329,192,277545,1,0,0:0:0:0:
36,192,277545,1,0,0:0:0:0:
256,192,277609,1,0,0:0:0:0:
475,192,277609,1,0,0:0:0:0:
109,192,277609,1,0,0:0:0:0:
402,192,277673,1,0,0:0:0:0:
329,192,277673,1,0,0:0:0:0:
182,192,277737,1,0,0:0:0:0:
36,192,277737,1,0,0:0:0:0:
109,192,277801,1,0,0:0:0:0:
256,192,277801,1,0,0:0:0:0:
329,192,277865,1,0,0:0:0:0:
475,192,277865,1,0,0:0:0:0:
182,192,277865,1,0,0:0:0:0:
402,192,277929,1,0,0:0:0:0:
256,192,277929,1,0,0:0:0:0:
36,192,277993,1,0,0:0:0:0:
329,192,277993,1,0,0:0:0:0:
182,192,278058,1,0,0:0:0:0:
109,192,278058,1,0,0:0:0:0:
256,192,278122,1,0,0:0:0:0:
402,192,278122,1,0,0:0:0:0:
475,192,278122,1,0,0:0:0:0:
36,192,278186,1,0,0:0:0:0:
109,192,278186,1,0,0:0:0:0:
182,192,278250,1,0,0:0:0:0:
329,192,278250,1,0,0:0:0:0:
402,192,278314,1,0,0:0:0:0:
256,192,278314,1,0,0:0:0:0:
329,192,278378,1,0,0:0:0:0:
475,192,278378,1,0,0:0:0:0:
36,192,278378,1,0,0:0:0:0:
109,192,278442,1,0,0:0:0:0:
182,192,278442,1,0,0:0:0:0:
256,192,278506,1,0,0:0:0:0:
402,192,278506,1,0,0:0:0:0:
109,192,278570,1,0,0:0:0:0:
329,192,278570,1,0,0:0:0:0:
36,192,278634,1,0,0:0:0:0:
475,192,278634,1,0,0:0:0:0:
182,192,278634,1,0,0:0:0:0:
402,192,278699,1,0,0:0:0:0:
256,192,278699,1,0,0:0:0:0:
182,192,278763,1,0,0:0:0:0:
329,192,278763,1,0,0:0:0:0:
256,192,278827,1,0,0:0:0:0:
109,192,278827,1,0,0:0:0:0:
36,192,278891,1,0,0:0:0:0:
182,192,278891,1,0,0:0:0:0:
475,192,278891,1,0,0:0:0:0:
402,192,278955,1,0,0:0:0:0:
329,192,278955,1,0,0:0:0:0:
256,192,279019,1,0,0:0:0:0:
109,192,279019,1,0,0:0:0:0:
402,192,279083,1,0,0:0:0:0:
182,192,279083,1,0,0:0:0:0:
329,192,279147,1,0,0:0:0:0:
36,192,279147,1,0,0:0:0:0:
475,192,279147,1,0,0:0:0:0:
109,192,279147,1,0,0:0:0:0:
256,192,279211,1,0,0:0:0:0:
182,192,279275,1,0,0:0:0:0:
109,192,279340,1,0,0:0:0:0:
36,192,279340,1,0,0:0:0:0:
402,192,279340,1,0,0:0:0:0:
475,192,279340,1,0,0:0:0:0:
329,192,279404,1,0,0:0:0:0:
182,192,279468,1,0,0:0:0:0:
36,192,279532,1,0,0:0:0:0:
109,192,279532,1,0,0:0:0:0:
402,192,279532,1,0,0:0:0:0:
475,192,279532,1,0,0:0:0:0:
329,192,279596,1,0,0:0:0:0:
109,192,279660,1,0,0:0:0:0:
36,192,279660,1,0,0:0:0:0:
475,192,279660,1,0,0:0:0:0:
402,192,279660,1,0,0:0:0:0:
182,192,279724,1,0,0:0:0:0:
256,192,279788,1,0,0:0:0:0:
329,192,279852,1,0,0:0:0:0:
402,192,279916,1,0,0:0:0:0:
475,192,279916,1,0,0:0:0:0:
36,192,279916,1,0,0:0:0:0:
109,192,279916,1,0,0:0:0:0:
182,192,279981,1,0,0:0:0:0:
329,192,280045,1,0,0:0:0:0:
182,192,280109,1,0,0:0:0:0:
36,192,280173,1,0,0:0:0:0:
109,192,280173,1,0,0:0:0:0:
256,192,280173,1,0,0:0:0:0:
402,192,280173,1,0,0:0:0:0:
475,192,280173,1,0,0:0:0:0:
182,192,280237,1,0,0:0:0:0:
329,192,280237,1,0,0:0:0:0:
402,192,280301,1,0,0:0:0:0:
256,192,280301,1,0,0:0:0:0:
109,192,280365,1,0,0:0:0:0:
329,192,280365,1,0,0:0:0:0:
182,192,280429,1,0,0:0:0:0:
36,192,280429,1,0,0:0:0:0:
475,192,280429,1,0,0:0:0:0:
402,192,280493,1,0,0:0:0:0:
256,192,280493,1,0,0:0:0:0:
109,192,280558,1,0,0:0:0:0:
329,192,280558,1,0,0:0:0:0:
182,192,280622,1,0,0:0:0:0:
402,192,280622,1,0,0:0:0:0:
475,192,280686,1,0,0:0:0:0:
256,192,280686,1,0,0:0:0:0:
36,192,280686,1,0,0:0:0:0:
329,192,280750,1,0,0:0:0:0:
182,192,280750,1,0,0:0:0:0:
109,192,280814,1,0,0:0:0:0:
402,192,280814,1,0,0:0:0:0:
329,192,280878,1,0,0:0:0:0:
36,192,280878,1,0,0:0:0:0:
109,192,280942,1,0,0:0:0:0:
256,192,280942,1,0,0:0:0:0:
475,192,280942,1,0,0:0:0:0:
402,192,281006,1,0,0:0:0:0:
182,192,281006,1,0,0:0:0:0:
329,192,281070,1,0,0:0:0:0:
256,192,281070,1,0,0:0:0:0:
109,192,281134,1,0,0:0:0:0:
402,192,281134,1,0,0:0:0:0:
182,192,281199,1,0,0:0:0:0:
36,192,281199,1,0,0:0:0:0:
475,192,281199,1,0,0:0:0:0:
329,192,281263,1,0,0:0:0:0:
256,192,281263,1,0,0:0:0:0:
109,192,281327,1,0,0:0:0:0:
402,192,281327,1,0,0:0:0:0:
182,192,281391,1,0,0:0:0:0:
36,192,281391,1,0,0:0:0:0:
109,192,281455,1,0,0:0:0:0:
256,192,281455,1,0,0:0:0:0:
475,192,281455,1,0,0:0:0:0:
329,192,281519,1,0,0:0:0:0:
402,192,281519,1,0,0:0:0:0:
36,192,281583,1,0,0:0:0:0:
256,192,281583,1,0,0:0:0:0:
182,192,281647,1,0,0:0:0:0:
402,192,281647,1,0,0:0:0:0:
475,192,281711,1,0,0:0:0:0:
329,192,281711,1,0,0:0:0:0:
109,192,281711,1,0,0:0:0:0:
36,192,281775,1,0,0:0:0:0:
256,192,281775,1,0,0:0:0:0:
402,192,281840,1,0,0:0:0:0:
109,192,281840,1,0,0:0:0:0:
182,192,281904,1,0,0:0:0:0:
329,192,281904,1,0,0:0:0:0:
256,192,281968,1,0,0:0:0:0:
36,192,281968,1,0,0:0:0:0:
475,192,281968,1,0,0:0:0:0:
109,192,282032,1,0,0:0:0:0:
329,192,282032,1,0,0:0:0:0:
402,192,282096,1,0,0:0:0:0:
182,192,282096,1,0,0:0:0:0:
256,192,282160,1,0,0:0:0:0:
109,192,282160,1,0,0:0:0:0:
36,192,282224,1,0,0:0:0:0:
329,192,282224,1,0,0:0:0:0:
475,192,282224,1,0,0:0:0:0:
182,192,282288,1,0,0:0:0:0:
402,192,282288,1,0,0:0:0:0:
329,192,282352,1,0,0:0:0:0:
109,192,282352,1,0,0:0:0:0:
256,192,282416,1,0,0:0:0:0:
475,192,282416,1,0,0:0:0:0:
402,192,282481,1,0,0:0:0:0:
182,192,282481,1,0,0:0:0:0:
36,192,282481,1,0,0:0:0:0:
329,192,282545,1,0,0:0:0:0:
109,192,282545,1,0,0:0:0:0:
182,192,282609,1,0,0:0:0:0:
402,192,282609,1,0,0:0:0:0:
256,192,282673,1,0,0:0:0:0:
36,192,282737,1,0,0:0:0:0:
109,192,282737,1,0,0:0:0:0:
329,192,282737,1,0,0:0:0:0:
475,192,282737,1,0,0:0:0:0:
182,192,282801,1,0,0:0:0:0:
256,192,282865,1,0,0:0:0:0:
329,192,282929,1,0,0:0:0:0:
475,192,282929,1,0,0:0:0:0:
36,192,282929,1,0,0:0:0:0:
109,192,282929,1,0,0:0:0:0:
182,192,282993,1,0,0:0:0:0:
256,192,283058,1,0,0:0:0:0:
329,192,283122,1,0,0:0:0:0:
475,192,283122,1,0,0:0:0:0:
36,192,283122,1,0,0:0:0:0:
109,192,283122,1,0,0:0:0:0:
182,192,283186,1,0,0:0:0:0:
256,192,283250,1,0,0:0:0:0:
329,192,283314,1,0,0:0:0:0:
475,192,283314,1,0,0:0:0:0:
36,192,283314,1,0,0:0:0:0:
109,192,283314,1,0,0:0:0:0:
182,192,283378,1,0,0:0:0:0:
256,192,283442,1,0,0:0:0:0:
329,192,283506,1,0,0:0:0:0:
402,192,283506,1,0,0:0:0:0:
475,192,283506,1,0,0:0:0:0:
36,192,283506,1,0,0:0:0:0:
109,192,283506,1,0,0:0:0:0:
402,192,283763,1,0,0:0:0:0:
475,192,283763,1,0,0:0:0:0:
329,192,283763,1,0,0:0:0:0:
182,192,283827,1,0,0:0:0:0:
109,192,283827,1,0,0:0:0:0:
36,192,283827,1,0,0:0:0:0:
329,192,283891,1,0,0:0:0:0:
402,192,283891,1,0,0:0:0:0:
475,192,283891,1,0,0:0:0:0:
182,192,283955,1,0,0:0:0:0:
109,192,283955,1,0,0:0:0:0:
36,192,283955,1,0,0:0:0:0:
329,192,284019,1,0,0:0:0:0:
402,192,284019,1,0,0:0:0:0:
475,192,284019,1,0,0:0:0:0:
182,192,284083,1,0,0:0:0:0:
109,192,284083,1,0,0:0:0:0:
36,192,284083,1,0,0:0:0:0:
329,192,284147,1,0,0:0:0:0:
402,192,284147,1,0,0:0:0:0:
475,192,284147,1,0,0:0:0:0:
182,192,284211,1,0,0:0:0:0:
109,192,284211,1,0,0:0:0:0:
36,192,284211,1,0,0:0:0:0:
329,192,284275,1,0,0:0:0:0:
402,192,284275,1,0,0:0:0:0:
475,192,284275,1,0,0:0:0:0:
182,192,284340,1,0,0:0:0:0:
109,192,284340,1,0,0:0:0:0:
36,192,284340,1,0,0:0:0:0:
329,192,284404,1,0,0:0:0:0:
402,192,284404,1,0,0:0:0:0:
475,192,284404,1,0,0:0:0:0:
182,192,284468,1,0,0:0:0:0:
109,192,284468,1,0,0:0:0:0:
36,192,284468,1,0,0:0:0:0:
329,192,284532,1,0,0:0:0:0:
402,192,284532,1,0,0:0:0:0:
475,192,284532,1,0,0:0:0:0:
182,192,284596,1,0,0:0:0:0:
109,192,284596,1,0,0:0:0:0:
36,192,284596,1,0,0:0:0:0:
329,192,284660,1,0,0:0:0:0:
402,192,284660,1,0,0:0:0:0:
475,192,284660,1,0,0:0:0:0:
182,192,284724,1,0,0:0:0:0:
109,192,284724,1,0,0:0:0:0:
36,192,284724,1,0,0:0:0:0:
402,192,284788,1,0,0:0:0:0:
475,192,284788,1,0,0:0:0:0:
329,192,284788,1,0,0:0:0:0:
256,192,284852,1,0,0:0:0:0:
182,192,284916,1,0,0:0:0:0:
109,192,284981,1,0,0:0:0:0:
36,192,285045,1,0,0:0:0:0:
475,192,285045,1,0,0:0:0:0:
402,192,285045,1,0,0:0:0:0:
256,192,285045,1,0,0:0:0:0:
182,192,285109,1,0,0:0:0:0:
329,192,285109,1,0,0:0:0:0:
256,192,285173,1,0,0:0:0:0:
402,192,285173,1,0,0:0:0:0:
109,192,285237,1,0,0:0:0:0:
329,192,285237,1,0,0:0:0:0:
182,192,285301,1,0,0:0:0:0:
475,192,285301,1,0,0:0:0:0:
36,192,285301,1,0,0:0:0:0:
256,192,285365,1,0,0:0:0:0:
329,192,285365,1,0,0:0:0:0:
402,192,285429,1,0,0:0:0:0:
109,192,285429,1,0,0:0:0:0:
182,192,285493,1,0,0:0:0:0:
329,192,285493,1,0,0:0:0:0:
256,192,285558,1,0,0:0:0:0:
36,192,285558,1,0,0:0:0:0:
475,192,285558,1,0,0:0:0:0:
402,192,285622,1,0,0:0:0:0:
182,192,285622,1,0,0:0:0:0:
109,192,285686,1,0,0:0:0:0:
329,192,285686,1,0,0:0:0:0:
256,192,285750,1,0,0:0:0:0:
36,192,285750,1,0,0:0:0:0:
182,192,285814,1,0,0:0:0:0:
402,192,285814,1,0,0:0:0:0:
475,192,285814,1,0,0:0:0:0:
109,192,285878,1,0,0:0:0:0:
329,192,285878,1,0,0:0:0:0:
182,192,285942,1,0,0:0:0:0:
402,192,285942,1,0,0:0:0:0:
256,192,286006,1,0,0:0:0:0:
36,192,286006,1,0,0:0:0:0:
109,192,286070,1,0,0:0:0:0:
329,192,286070,1,0,0:0:0:0:
475,192,286070,1,0,0:0:0:0:
256,192,286134,1,0,0:0:0:0:
402,192,286134,1,0,0:0:0:0:
182,192,286199,1,0,0:0:0:0:
329,192,286199,1,0,0:0:0:0:
109,192,286263,1,0,0:0:0:0:
256,192,286263,1,0,0:0:0:0:
36,192,286327,1,0,0:0:0:0:
182,192,286327,1,0,0:0:0:0:
475,192,286327,1,0,0:0:0:0:
402,192,286391,1,0,0:0:0:0:
329,192,286391,1,0,0:0:0:0:
109,192,286455,1,0,0:0:0:0:
256,192,286455,1,0,0:0:0:0:
402,192,286519,1,0,0:0:0:0:
182,192,286519,1,0,0:0:0:0:
256,192,286583,1,0,0:0:0:0:
475,192,286583,1,0,0:0:0:0:
36,192,286583,1,0,0:0:0:0:
109,192,286647,1,0,0:0:0:0:
329,192,286647,1,0,0:0:0:0:
402,192,286711,1,0,0:0:0:0:
256,192,286711,1,0,0:0:0:0:
182,192,286775,1,0,0:0:0:0:
475,192,286775,1,0,0:0:0:0:
329,192,286840,1,0,0:0:0:0:
109,192,286840,1,0,0:0:0:0:
36,192,286840,1,0,0:0:0:0:
256,192,286904,1,0,0:0:0:0:
402,192,286904,1,0,0:0:0:0:
182,192,286968,1,0,0:0:0:0:
329,192,286968,1,0,0:0:0:0:
109,192,287032,1,0,0:0:0:0:
256,192,287032,1,0,0:0:0:0:
182,192,287096,1,0,0:0:0:0:
402,192,287096,1,0,0:0:0:0:
475,192,287096,1,0,0:0:0:0:
329,192,287160,1,0,0:0:0:0:
36,192,287160,1,0,0:0:0:0:
109,192,287224,1,0,0:0:0:0:
256,192,287224,1,0,0:0:0:0:
402,192,287288,1,0,0:0:0:0:
475,192,287288,1,0,0:0:0:0:
329,192,287352,1,0,0:0:0:0:
182,192,287352,1,0,0:0:0:0:
36,192,287352,1,0,0:0:0:0:
402,192,287416,1,0,0:0:0:0:
475,192,287416,1,0,0:0:0:0:
109,192,287481,1,0,0:0:0:0:
256,192,287481,1,0,0:0:0:0:
329,192,287545,1,0,0:0:0:0:
182,192,287545,1,0,0:0:0:0:
256,192,287609,1,0,0:0:0:0:
402,192,287609,1,0,0:0:0:0:
475,192,287609,1,0,0:0:0:0:
36,192,287673,1,0,0:0:0:0:
109,192,287673,1,0,0:0:0:0:
182,192,287737,1,0,0:0:0:0:
329,192,287737,1,0,0:0:0:0:
109,192,287801,1,0,0:0:0:0:
256,192,287801,1,0,0:0:0:0:
402,192,287865,1,0,0:0:0:0:
475,192,287865,1,0,0:0:0:0:
182,192,287865,1,0,0:0:0:0:
329,192,287865,1,0,0:0:0:0:
36,192,287929,1,0,0:0:0:0:
109,192,287929,1,0,0:0:0:0:
329,192,287993,1,0,0:0:0:0:
402,192,287993,1,0,0:0:0:0:
256,192,287993,1,0,0:0:0:0:
36,192,288058,1,0,0:0:0:0:
182,192,288058,1,0,0:0:0:0:
256,192,288122,1,0,0:0:0:0:
475,192,288122,1,0,0:0:0:0:
402,192,288122,1,0,0:0:0:0:
109,192,288186,1,0,0:0:0:0:
36,192,288186,1,0,0:0:0:0:
182,192,288250,1,0,0:0:0:0:
256,192,288250,1,0,0:0:0:0:
329,192,288250,1,0,0:0:0:0:
475,192,288314,1,0,0:0:0:0:
402,192,288314,1,0,0:0:0:0:
36,192,288378,1,0,0:0:0:0:
109,192,288378,1,0,0:0:0:0:
182,192,288378,1,0,0:0:0:0:
256,192,288442,1,0,0:0:0:0:
329,192,288442,1,0,0:0:0:0:
36,192,288506,1,0,0:0:0:0:
402,192,288506,1,0,0:0:0:0:
475,192,288506,1,0,0:0:0:0:
182,192,288570,1,0,0:0:0:0:
256,192,288570,1,0,0:0:0:0:
329,192,288634,1,0,0:0:0:0:
402,192,288634,1,0,0:0:0:0:
475,192,288634,1,0,0:0:0:0:
109,192,288634,1,0,0:0:0:0:
36,192,288634,1,0,0:0:0:0:
36,192,288891,1,0,0:0:0:0:
402,192,288891,1,0,0:0:0:0:
475,192,288891,1,0,0:0:0:0:
329,192,288891,1,0,0:0:0:0:
256,192,288955,1,0,0:0:0:0:
182,192,288955,1,0,0:0:0:0:
109,192,289019,1,0,0:0:0:0:
36,192,289019,1,0,0:0:0:0:
475,192,289019,1,0,0:0:0:0:
329,192,289083,1,0,0:0:0:0:
402,192,289083,1,0,0:0:0:0:
182,192,289147,1,0,0:0:0:0:
109,192,289147,1,0,0:0:0:0:
256,192,289147,1,0,0:0:0:0:
402,192,289211,1,0,0:0:0:0:
475,192,289211,1,0,0:0:0:0:
182,192,289275,1,0,0:0:0:0:
109,192,289275,1,0,0:0:0:0:
36,192,289275,1,0,0:0:0:0:
256,192,289340,1,0,0:0:0:0:
329,192,289340,1,0,0:0:0:0:
36,192,289404,1,0,0:0:0:0:
402,192,289404,1,0,0:0:0:0:
475,192,289404,1,0,0:0:0:0:
109,192,289468,1,0,0:0:0:0:
182,192,289468,1,0,0:0:0:0:
256,192,289532,1,0,0:0:0:0:
329,192,289532,1,0,0:0:0:0:
402,192,289532,1,0,0:0:0:0:
36,192,289596,1,0,0:0:0:0:
109,192,289596,1,0,0:0:0:0:
402,192,289660,1,0,0:0:0:0:
475,192,289660,1,0,0:0:0:0:
182,192,289660,1,0,0:0:0:0:
329,192,289660,1,0,0:0:0:0:
256,192,289660,1,0,0:0:0:0:
182,192,289788,1,0,0:0:0:0:
256,192,289788,1,0,0:0:0:0:
402,192,289788,1,0,0:0:0:0:
475,192,289788,1,0,0:0:0:0:
329,192,289788,1,0,0:0:0:0:
36,192,289916,1,0,0:0:0:0:
109,192,289916,1,0,0:0:0:0:
256,192,289916,1,0,0:0:0:0:
36,192,290045,1,0,0:0:0:0:
109,192,290045,1,0,0:0:0:0:
329,192,290045,1,0,0:0:0:0:
182,192,290109,1,0,0:0:0:0:
402,192,290109,1,0,0:0:0:0:
475,192,290109,1,0,0:0:0:0:
109,192,290173,1,0,0:0:0:0:
329,192,290173,1,0,0:0:0:0:
256,192,290429,1,0,0:0:0:0:
402,192,290429,1,0,0:0:0:0:
475,192,290429,1,0,0:0:0:0:
182,192,290558,1,0,0:0:0:0:
402,192,290558,1,0,0:0:0:0:
475,192,290558,1,0,0:0:0:0:
109,192,290622,1,0,0:0:0:0:
36,192,290622,1,0,0:0:0:0:
329,192,290622,1,0,0:0:0:0:
402,192,290686,1,0,0:0:0:0:
182,192,290686,1,0,0:0:0:0:
36,192,290942,128,0,291199:0:0:0:0:
109,192,290942,128,0,291455:0:0:0:0:
182,192,290942,128,0,291711:0:0:0:0:
329,192,290942,128,0,291711:0:0:0:0:
402,192,290942,128,0,291455:0:0:0:0:
475,192,290942,128,0,291199:0:0:0:0:
256,192,291711,128,0,291968:0:0:0:0:
36,192,291968,1,0,0:0:0:0:
109,192,291968,1,0,0:0:0:0:
475,192,291968,1,0,0:0:0:0:
329,192,291968,1,0,0:0:0:0:
182,192,292032,1,0,0:0:0:0:
256,192,292096,1,0,0:0:0:0:
329,192,292096,1,0,0:0:0:0:
109,192,292139,1,0,0:0:0:0:
402,192,292160,1,0,0:0:0:0:
475,192,292160,1,0,0:0:0:0:
256,192,292224,1,0,0:0:0:0:
36,192,292224,1,0,0:0:0:0:
182,192,292288,1,0,0:0:0:0:
329,192,292310,1,0,0:0:0:0:
109,192,292352,1,0,0:0:0:0:
402,192,292352,1,0,0:0:0:0:
475,192,292352,1,0,0:0:0:0:
256,192,292395,1,0,0:0:0:0:
182,192,292481,1,0,0:0:0:0:
329,192,292481,1,0,0:0:0:0:
36,192,292481,1,0,0:0:0:0:
475,192,292545,1,0,0:0:0:0:
402,192,292545,1,0,0:0:0:0:
109,192,292566,1,0,0:0:0:0:
182,192,292609,1,0,0:0:0:0:
329,192,292609,1,0,0:0:0:0:
36,192,292652,1,0,0:0:0:0:
256,192,292673,1,0,0:0:0:0:
402,192,292737,1,0,0:0:0:0:
475,192,292737,1,0,0:0:0:0:
109,192,292737,1,0,0:0:0:0:
182,192,292822,1,0,0:0:0:0:
402,192,292865,1,0,0:0:0:0:
475,192,292865,1,0,0:0:0:0:
256,192,292908,1,0,0:0:0:0:
329,192,292993,1,0,0:0:0:0:
475,192,292993,1,0,0:0:0:0:
36,192,292993,1,0,0:0:0:0:
109,192,293025,1,0,0:0:0:0:
182,192,293058,1,0,0:0:0:0:
256,192,293090,1,0,0:0:0:0:
329,192,293122,1,0,0:0:0:0:
402,192,293186,1,0,0:0:0:0:
475,192,293186,1,0,0:0:0:0:
36,192,293250,1,0,0:0:0:0:
109,192,293250,1,0,0:0:0:0:
182,192,293314,1,0,0:0:0:0:
329,192,293314,1,0,0:0:0:0:
36,192,293378,1,0,0:0:0:0:
109,192,293378,1,0,0:0:0:0:
402,192,293378,1,0,0:0:0:0:
475,192,293421,1,0,0:0:0:0:
182,192,293442,1,0,0:0:0:0:
329,192,293506,1,0,0:0:0:0:
256,192,293506,1,0,0:0:0:0:
109,192,293506,1,0,0:0:0:0:
36,192,293506,1,0,0:0:0:0:
182,192,293634,1,0,0:0:0:0:
402,192,293634,1,0,0:0:0:0:
475,192,293634,1,0,0:0:0:0:
329,192,293699,1,0,0:0:0:0:
36,192,293763,1,0,0:0:0:0:
109,192,293763,1,0,0:0:0:0:
256,192,293763,1,0,0:0:0:0:
182,192,293827,1,0,0:0:0:0:
256,192,293891,1,0,0:0:0:0:
475,192,293891,1,0,0:0:0:0:
402,192,293934,1,0,0:0:0:0:
182,192,293955,1,0,0:0:0:0:
329,192,293976,1,0,0:0:0:0:
109,192,294019,1,0,0:0:0:0:
36,192,294019,1,0,0:0:0:0:
256,192,294019,1,0,0:0:0:0:
402,192,294147,1,0,0:0:0:0:
475,192,294147,1,0,0:0:0:0:
329,192,294179,1,0,0:0:0:0:
256,192,294211,1,0,0:0:0:0:
36,192,294275,1,0,0:0:0:0:
182,192,294275,1,0,0:0:0:0:
109,192,294275,1,0,0:0:0:0:
329,192,294340,1,0,0:0:0:0:
402,192,294404,1,0,0:0:0:0:
475,192,294404,1,0,0:0:0:0:
182,192,294404,1,0,0:0:0:0:
256,192,294446,1,0,0:0:0:0:
329,192,294489,1,0,0:0:0:0:
36,192,294532,1,0,0:0:0:0:
109,192,294532,1,0,0:0:0:0:
182,192,294532,1,0,0:0:0:0:
402,192,294596,1,0,0:0:0:0:
256,192,294660,1,0,0:0:0:0:
36,192,294660,1,0,0:0:0:0:
109,192,294660,1,0,0:0:0:0:
475,192,294724,1,0,0:0:0:0:
329,192,294724,1,0,0:0:0:0:
182,192,294788,1,0,0:0:0:0:
256,192,294852,1,0,0:0:0:0:
36,192,294874,1,0,0:0:0:0:
329,192,294916,1,0,0:0:0:0:
402,192,294916,1,0,0:0:0:0:
475,192,294916,1,0,0:0:0:0:
109,192,294959,1,0,0:0:0:0:
182,192,295045,1,0,0:0:0:0:
256,192,295045,1,0,0:0:0:0:
475,192,295045,1,0,0:0:0:0:
36,192,295109,1,0,0:0:0:0:
109,192,295109,1,0,0:0:0:0:
182,192,295173,1,0,0:0:0:0:
329,192,295173,1,0,0:0:0:0:
402,192,295173,1,0,0:0:0:0:
256,192,295237,1,0,0:0:0:0:
36,192,295301,1,0,0:0:0:0:
109,192,295301,1,0,0:0:0:0:
475,192,295301,1,0,0:0:0:0:
329,192,295301,1,0,0:0:0:0:
182,192,295365,1,0,0:0:0:0:
256,192,295429,1,0,0:0:0:0:
402,192,295429,1,0,0:0:0:0:
109,192,295493,1,0,0:0:0:0:
36,192,295493,1,0,0:0:0:0:
402,192,295558,128,0,296006:0:0:0:0:
475,192,295558,128,0,296006:0:0:0:0:
256,192,295686,128,0,296006:0:0:0:0:
109,192,295814,128,0,296006:0:0:0:0:
36,192,295814,128,0,296006:0:0:0:0:
109,192,296070,1,0,0:0:0:0:
475,192,296070,1,0,0:0:0:0:
256,192,296070,1,0,0:0:0:0:
36,192,296070,1,0,0:0:0:0:
402,192,296070,1,0,0:0:0:0:
329,192,296134,1,0,0:0:0:0:
36,192,296199,1,0,0:0:0:0:
182,192,296199,1,0,0:0:0:0:
256,192,296241,1,0,0:0:0:0:
475,192,296263,1,0,0:0:0:0:
402,192,296263,1,0,0:0:0:0:
329,192,296327,1,0,0:0:0:0:
109,192,296327,1,0,0:0:0:0:
182,192,296391,1,0,0:0:0:0:
256,192,296412,1,0,0:0:0:0:
36,192,296455,1,0,0:0:0:0:
475,192,296455,1,0,0:0:0:0:
402,192,296455,1,0,0:0:0:0:
109,192,296498,1,0,0:0:0:0:
36,192,296583,1,0,0:0:0:0:
329,192,296583,1,0,0:0:0:0:
182,192,296583,1,0,0:0:0:0:
475,192,296647,1,0,0:0:0:0:
402,192,296647,1,0,0:0:0:0:
256,192,296669,1,0,0:0:0:0:
109,192,296711,1,0,0:0:0:0:
182,192,296711,1,0,0:0:0:0:
36,192,296754,1,0,0:0:0:0:
329,192,296775,1,0,0:0:0:0:
402,192,296840,1,0,0:0:0:0:
475,192,296840,1,0,0:0:0:0:
256,192,296840,1,0,0:0:0:0:
182,192,296882,1,0,0:0:0:0:
36,192,296925,1,0,0:0:0:0:
402,192,296968,1,0,0:0:0:0:
475,192,296968,1,0,0:0:0:0:
109,192,296968,1,0,0:0:0:0:
329,192,297011,1,0,0:0:0:0:
402,192,297096,1,0,0:0:0:0:
36,192,297096,1,0,0:0:0:0:
475,192,297096,1,0,0:0:0:0:
109,192,297128,1,0,0:0:0:0:
182,192,297160,1,0,0:0:0:0:
256,192,297192,1,0,0:0:0:0:
329,192,297224,1,0,0:0:0:0:
402,192,297224,1,0,0:0:0:0:
475,192,297224,1,0,0:0:0:0:
109,192,297288,1,0,0:0:0:0:
256,192,297352,1,0,0:0:0:0:
36,192,297352,1,0,0:0:0:0:
329,192,297416,1,0,0:0:0:0:
109,192,297416,1,0,0:0:0:0:
182,192,297481,1,0,0:0:0:0:
402,192,297481,1,0,0:0:0:0:
475,192,297481,1,0,0:0:0:0:
36,192,297523,1,0,0:0:0:0:
329,192,297545,1,0,0:0:0:0:
109,192,297609,1,0,0:0:0:0:
475,192,297609,1,0,0:0:0:0:
402,192,297609,1,0,0:0:0:0:
256,192,297609,1,0,0:0:0:0:
329,192,297737,1,0,0:0:0:0:
182,192,297737,1,0,0:0:0:0:
36,192,297737,1,0,0:0:0:0:
402,192,297801,1,0,0:0:0:0:
109,192,297865,1,0,0:0:0:0:
475,192,297865,1,0,0:0:0:0:
256,192,297865,1,0,0:0:0:0:
329,192,297929,1,0,0:0:0:0:
182,192,297993,1,0,0:0:0:0:
36,192,297993,1,0,0:0:0:0:
475,192,298036,1,0,0:0:0:0:
256,192,298058,1,0,0:0:0:0:
402,192,298079,1,0,0:0:0:0:
329,192,298122,1,0,0:0:0:0:
109,192,298122,1,0,0:0:0:0:
36,192,298122,1,0,0:0:0:0:
182,192,298250,1,0,0:0:0:0:
475,192,298250,1,0,0:0:0:0:
402,192,298282,1,0,0:0:0:0:
329,192,298314,1,0,0:0:0:0:
36,192,298378,1,0,0:0:0:0:
109,192,298378,1,0,0:0:0:0:
256,192,298378,1,0,0:0:0:0:
182,192,298442,1,0,0:0:0:0:
109,192,298506,1,0,0:0:0:0:
36,192,298506,1,0,0:0:0:0:
475,192,298506,1,0,0:0:0:0:
402,192,298549,1,0,0:0:0:0:
329,192,298592,1,0,0:0:0:0:
182,192,298634,1,0,0:0:0:0:
36,192,298634,1,0,0:0:0:0:
256,192,298634,1,0,0:0:0:0:
475,192,298699,1,0,0:0:0:0:
402,192,298699,1,0,0:0:0:0:
329,192,298763,1,0,0:0:0:0:
109,192,298763,1,0,0:0:0:0:
256,192,298763,1,0,0:0:0:0:
402,192,298827,1,0,0:0:0:0:
182,192,298827,1,0,0:0:0:0:
256,192,298891,1,0,0:0:0:0:
182,192,298955,1,0,0:0:0:0:
109,192,298976,1,0,0:0:0:0:
475,192,299019,1,0,0:0:0:0:
36,192,299019,1,0,0:0:0:0:
402,192,299019,1,0,0:0:0:0:
329,192,299083,1,0,0:0:0:0:
256,192,299147,1,0,0:0:0:0:
475,192,299147,1,0,0:0:0:0:
182,192,299147,1,0,0:0:0:0:
36,192,299211,1,0,0:0:0:0:
402,192,299211,1,0,0:0:0:0:
329,192,299275,1,0,0:0:0:0:
182,192,299275,1,0,0:0:0:0:
109,192,299275,1,0,0:0:0:0:
256,192,299340,1,0,0:0:0:0:
475,192,299404,1,0,0:0:0:0:
402,192,299404,1,0,0:0:0:0:
36,192,299404,1,0,0:0:0:0:
182,192,299404,1,0,0:0:0:0:
329,192,299468,1,0,0:0:0:0:
256,192,299532,1,0,0:0:0:0:
109,192,299532,1,0,0:0:0:0:
402,192,299596,1,0,0:0:0:0:
475,192,299596,1,0,0:0:0:0:
36,192,299660,1,0,0:0:0:0:
329,192,299660,1,0,0:0:0:0:
109,192,299692,1,0,0:0:0:0:
182,192,299724,1,0,0:0:0:0:
256,192,299756,1,0,0:0:0:0:
329,192,299788,1,0,0:0:0:0:
402,192,299820,1,0,0:0:0:0:
475,192,299852,1,0,0:0:0:0:
36,192,299852,1,0,0:0:0:0:
109,192,299884,1,0,0:0:0:0:
182,192,299916,1,0,0:0:0:0:
329,192,299981,1,0,0:0:0:0:
402,192,299981,1,0,0:0:0:0:
36,192,300045,1,0,0:0:0:0:
109,192,300045,1,0,0:0:0:0:
256,192,300045,1,0,0:0:0:0:
36,192,300173,1,0,0:0:0:0:
109,192,300173,1,0,0:0:0:0:
256,192,300173,1,0,0:0:0:0:
402,192,300173,1,0,0:0:0:0:
475,192,300173,1,0,0:0:0:0:
329,192,300237,1,0,0:0:0:0:
402,192,300301,1,0,0:0:0:0:
182,192,300301,1,0,0:0:0:0:
256,192,300344,1,0,0:0:0:0:
109,192,300365,1,0,0:0:0:0:
36,192,300365,1,0,0:0:0:0:
329,192,300429,1,0,0:0:0:0:
475,192,300429,1,0,0:0:0:0:
256,192,300493,1,0,0:0:0:0:
182,192,300515,1,0,0:0:0:0:
402,192,300558,1,0,0:0:0:0:
109,192,300558,1,0,0:0:0:0:
36,192,300558,1,0,0:0:0:0:
329,192,300600,1,0,0:0:0:0:
256,192,300686,1,0,0:0:0:0:
182,192,300686,1,0,0:0:0:0:
475,192,300686,1,0,0:0:0:0:
36,192,300750,1,0,0:0:0:0:
109,192,300750,1,0,0:0:0:0:
329,192,300771,1,0,0:0:0:0:
402,192,300814,1,0,0:0:0:0:
182,192,300814,1,0,0:0:0:0:
475,192,300857,1,0,0:0:0:0:
256,192,300878,1,0,0:0:0:0:
109,192,300942,1,0,0:0:0:0:
36,192,300942,1,0,0:0:0:0:
329,192,300942,1,0,0:0:0:0:
182,192,301006,1,0,0:0:0:0:
475,192,301028,1,0,0:0:0:0:
109,192,301070,1,0,0:0:0:0:
36,192,301070,1,0,0:0:0:0:
402,192,301070,1,0,0:0:0:0:
256,192,301113,1,0,0:0:0:0:
109,192,301199,1,0,0:0:0:0:
36,192,301199,1,0,0:0:0:0:
475,192,301199,1,0,0:0:0:0:
329,192,301241,1,0,0:0:0:0:
402,192,301284,1,0,0:0:0:0:
256,192,301327,1,0,0:0:0:0:
182,192,301369,1,0,0:0:0:0:
36,192,301391,1,0,0:0:0:0:
475,192,301455,1,0,0:0:0:0:
402,192,301455,1,0,0:0:0:0:
109,192,301455,1,0,0:0:0:0:
329,192,301519,1,0,0:0:0:0:
182,192,301519,1,0,0:0:0:0:
475,192,301583,1,0,0:0:0:0:
402,192,301583,1,0,0:0:0:0:
36,192,301583,1,0,0:0:0:0:
109,192,301626,1,0,0:0:0:0:
329,192,301647,1,0,0:0:0:0:
182,192,301711,1,0,0:0:0:0:
256,192,301711,1,0,0:0:0:0:
402,192,301711,1,0,0:0:0:0:
475,192,301711,1,0,0:0:0:0:
256,192,301840,1,0,0:0:0:0:
109,192,301840,1,0,0:0:0:0:
36,192,301840,1,0,0:0:0:0:
329,192,301904,1,0,0:0:0:0:
475,192,301968,1,0,0:0:0:0:
402,192,301968,1,0,0:0:0:0:
182,192,301968,1,0,0:0:0:0:
256,192,302032,1,0,0:0:0:0:
329,192,302096,1,0,0:0:0:0:
36,192,302096,1,0,0:0:0:0:
109,192,302139,1,0,0:0:0:0:
402,192,302160,1,0,0:0:0:0:
182,192,302181,1,0,0:0:0:0:
36,192,302224,1,0,0:0:0:0:
475,192,302224,1,0,0:0:0:0:
256,192,302224,1,0,0:0:0:0:
329,192,302288,1,0,0:0:0:0:
109,192,302352,1,0,0:0:0:0:
36,192,302352,1,0,0:0:0:0:
402,192,302352,1,0,0:0:0:0:
182,192,302384,1,0,0:0:0:0:
256,192,302416,1,0,0:0:0:0:
475,192,302481,1,0,0:0:0:0:
329,192,302481,1,0,0:0:0:0:
402,192,302481,1,0,0:0:0:0:
182,192,302545,1,0,0:0:0:0:
109,192,302609,1,0,0:0:0:0:
36,192,302609,1,0,0:0:0:0:
329,192,302609,1,0,0:0:0:0:
256,192,302652,1,0,0:0:0:0:
182,192,302694,1,0,0:0:0:0:
475,192,302737,1,0,0:0:0:0:
402,192,302737,1,0,0:0:0:0:
109,192,302801,1,0,0:0:0:0:
329,192,302801,1,0,0:0:0:0:
256,192,302865,1,0,0:0:0:0:
475,192,302865,1,0,0:0:0:0:
402,192,302865,1,0,0:0:0:0:
36,192,302929,1,0,0:0:0:0:
182,192,302929,1,0,0:0:0:0:
329,192,302993,1,0,0:0:0:0:
256,192,303058,1,0,0:0:0:0:
475,192,303079,1,0,0:0:0:0:
182,192,303122,1,0,0:0:0:0:
109,192,303122,1,0,0:0:0:0:
36,192,303122,1,0,0:0:0:0:
402,192,303164,1,0,0:0:0:0:
329,192,303250,1,0,0:0:0:0:
256,192,303250,1,0,0:0:0:0:
182,192,303250,1,0,0:0:0:0:
475,192,303314,1,0,0:0:0:0:
402,192,303314,1,0,0:0:0:0:
329,192,303378,1,0,0:0:0:0:
109,192,303378,1,0,0:0:0:0:
36,192,303378,1,0,0:0:0:0:
256,192,303442,1,0,0:0:0:0:
475,192,303506,1,0,0:0:0:0:
402,192,303506,1,0,0:0:0:0:
36,192,303506,1,0,0:0:0:0:
109,192,303506,1,0,0:0:0:0:
182,192,303506,1,0,0:0:0:0:
329,192,303570,1,0,0:0:0:0:
256,192,303634,1,0,0:0:0:0:
182,192,303634,1,0,0:0:0:0:
109,192,303699,1,0,0:0:0:0:
36,192,303699,1,0,0:0:0:0:
475,192,303763,128,0,304190:0:0:0:0:
256,192,303763,1,0,0:0:0:0:
402,192,303805,128,0,304190:0:0:0:0:
329,192,303848,128,0,304190:0:0:0:0:
182,192,303891,128,0,304190:0:0:0:0:
109,192,303934,128,0,304190:0:0:0:0:
36,192,303976,128,0,304190:0:0:0:0:
36,192,304275,1,0,0:0:0:0:
109,192,304275,1,0,0:0:0:0:
475,192,304275,1,0,0:0:0:0:
402,192,304275,1,0,0:0:0:0:
256,192,304340,1,0,0:0:0:0:
182,192,304361,1,0,0:0:0:0:
36,192,304404,1,0,0:0:0:0:
109,192,304404,1,0,0:0:0:0:
475,192,304404,1,0,0:0:0:0:
329,192,304446,1,0,0:0:0:0:
182,192,304532,1,0,0:0:0:0:
256,192,304596,1,0,0:0:0:0:
109,192,304617,1,0,0:0:0:0:
329,192,304660,1,0,0:0:0:0:
402,192,304660,1,0,0:0:0:0:
475,192,304660,1,0,0:0:0:0:
36,192,304660,1,0,0:0:0:0:
182,192,304703,1,0,0:0:0:0:
329,192,304788,1,0,0:0:0:0:
475,192,304788,1,0,0:0:0:0:
402,192,304788,1,0,0:0:0:0:
109,192,304788,1,0,0:0:0:0:
256,192,304852,1,0,0:0:0:0:
182,192,304874,1,0,0:0:0:0:
329,192,304916,1,0,0:0:0:0:
402,192,304959,1,0,0:0:0:0:
36,192,305045,1,0,0:0:0:0:
109,192,305045,1,0,0:0:0:0:
182,192,305045,1,0,0:0:0:0:
256,192,305045,1,0,0:0:0:0:
329,192,305109,1,0,0:0:0:0:
475,192,305130,1,0,0:0:0:0:
182,192,305173,1,0,0:0:0:0:
36,192,305173,1,0,0:0:0:0:
109,192,305173,1,0,0:0:0:0:
402,192,305216,1,0,0:0:0:0:
256,192,305237,1,0,0:0:0:0:
182,192,305301,1,0,0:0:0:0:
36,192,305365,1,0,0:0:0:0:
256,192,305387,1,0,0:0:0:0:
329,192,305429,1,0,0:0:0:0:
402,192,305429,1,0,0:0:0:0:
475,192,305429,1,0,0:0:0:0:
109,192,305472,1,0,0:0:0:0:
475,192,305558,1,0,0:0:0:0:
402,192,305558,1,0,0:0:0:0:
329,192,305558,1,0,0:0:0:0:
182,192,305558,1,0,0:0:0:0:
36,192,305622,1,0,0:0:0:0:
109,192,305643,1,0,0:0:0:0:
256,192,305686,1,0,0:0:0:0:
402,192,305728,1,0,0:0:0:0:
182,192,305814,1,0,0:0:0:0:
109,192,305814,1,0,0:0:0:0:
36,192,305814,1,0,0:0:0:0:
329,192,305814,1,0,0:0:0:0:
475,192,305899,1,0,0:0:0:0:
36,192,305942,1,0,0:0:0:0:
109,192,305942,1,0,0:0:0:0:
182,192,305942,1,0,0:0:0:0:
402,192,305942,1,0,0:0:0:0:
329,192,306006,1,0,0:0:0:0:
256,192,306070,1,0,0:0:0:0:
109,192,306134,1,0,0:0:0:0:
329,192,306199,1,0,0:0:0:0:
402,192,306199,1,0,0:0:0:0:
475,192,306199,1,0,0:0:0:0:
182,192,306199,1,0,0:0:0:0:
36,192,306241,1,0,0:0:0:0:
329,192,306327,1,0,0:0:0:0:
402,192,306327,1,0,0:0:0:0:
475,192,306327,1,0,0:0:0:0:
109,192,306327,1,0,0:0:0:0:
256,192,306412,1,0,0:0:0:0:
182,192,306455,1,0,0:0:0:0:
475,192,306498,1,0,0:0:0:0:
329,192,306519,1,0,0:0:0:0:
182,192,306583,1,0,0:0:0:0:
109,192,306583,1,0,0:0:0:0:
36,192,306583,1,0,0:0:0:0:
402,192,306583,1,0,0:0:0:0:
256,192,306669,1,0,0:0:0:0:
109,192,306711,1,0,0:0:0:0:
36,192,306711,1,0,0:0:0:0:
182,192,306711,1,0,0:0:0:0:
475,192,306711,1,0,0:0:0:0:
329,192,306754,1,0,0:0:0:0:
256,192,306840,1,0,0:0:0:0:
36,192,306904,1,0,0:0:0:0:
182,192,306925,1,0,0:0:0:0:
329,192,306968,1,0,0:0:0:0:
402,192,306968,1,0,0:0:0:0:
475,192,306968,1,0,0:0:0:0:
109,192,307011,1,0,0:0:0:0:
256,192,307032,1,0,0:0:0:0:
329,192,307096,1,0,0:0:0:0:
402,192,307096,1,0,0:0:0:0:
475,192,307096,1,0,0:0:0:0:
36,192,307096,1,0,0:0:0:0:
182,192,307160,1,0,0:0:0:0:
109,192,307224,1,0,0:0:0:0:
36,192,307288,1,0,0:0:0:0:
402,192,307288,1,0,0:0:0:0:
182,192,307352,1,0,0:0:0:0:
256,192,307352,1,0,0:0:0:0:
329,192,307352,1,0,0:0:0:0:
475,192,307416,1,0,0:0:0:0:
109,192,307438,1,0,0:0:0:0:
329,192,307481,1,0,0:0:0:0:
256,192,307481,1,0,0:0:0:0:
182,192,307481,1,0,0:0:0:0:
402,192,307523,1,0,0:0:0:0:
36,192,307566,1,0,0:0:0:0:
256,192,307609,1,0,0:0:0:0:
475,192,307609,1,0,0:0:0:0:
329,192,307673,1,0,0:0:0:0:
36,192,307737,1,0,0:0:0:0:
109,192,307737,1,0,0:0:0:0:
182,192,307737,1,0,0:0:0:0:
402,192,307737,1,0,0:0:0:0:
475,192,307780,1,0,0:0:0:0:
109,192,307865,1,0,0:0:0:0:
36,192,307865,1,0,0:0:0:0:
182,192,307865,1,0,0:0:0:0:
329,192,307865,1,0,0:0:0:0:
402,192,307951,1,0,0:0:0:0:
182,192,307993,1,0,0:0:0:0:
36,192,307993,1,0,0:0:0:0:
109,192,307993,1,0,0:0:0:0:
475,192,307993,1,0,0:0:0:0:
329,192,308058,1,0,0:0:0:0:
256,192,308122,1,0,0:0:0:0:
109,192,308164,1,0,0:0:0:0:
182,192,308207,1,0,0:0:0:0:
329,192,308250,1,0,0:0:0:0:
402,192,308250,1,0,0:0:0:0:
475,192,308250,1,0,0:0:0:0:
36,192,308293,1,0,0:0:0:0:
256,192,308335,1,0,0:0:0:0:
475,192,308378,1,0,0:0:0:0:
402,192,308378,1,0,0:0:0:0:
329,192,308378,1,0,0:0:0:0:
109,192,308378,1,0,0:0:0:0:
182,192,308464,1,0,0:0:0:0:
329,192,308506,1,0,0:0:0:0:
402,192,308506,1,0,0:0:0:0:
475,192,308506,1,0,0:0:0:0:
36,192,308506,1,0,0:0:0:0:
109,192,308549,1,0,0:0:0:0:
256,192,308592,1,0,0:0:0:0:
402,192,308634,1,0,0:0:0:0:
182,192,308634,1,0,0:0:0:0:
329,192,308720,1,0,0:0:0:0:
182,192,308763,1,0,0:0:0:0:
109,192,308763,1,0,0:0:0:0:
36,192,308763,1,0,0:0:0:0:
475,192,308763,1,0,0:0:0:0:
256,192,308805,1,0,0:0:0:0:
36,192,308891,1,0,0:0:0:0:
109,192,308891,1,0,0:0:0:0:
182,192,308891,1,0,0:0:0:0:
402,192,308891,1,0,0:0:0:0:
329,192,308934,1,0,0:0:0:0:
475,192,308976,1,0,0:0:0:0:
182,192,309019,1,0,0:0:0:0:
109,192,309019,1,0,0:0:0:0:
36,192,309019,1,0,0:0:0:0:
402,192,309062,1,0,0:0:0:0:
329,192,309105,1,0,0:0:0:0:
109,192,309147,1,0,0:0:0:0:
256,192,309190,1,0,0:0:0:0:
36,192,309233,1,0,0:0:0:0:
329,192,309275,1,0,0:0:0:0:
402,192,309275,1,0,0:0:0:0:
475,192,309275,1,0,0:0:0:0:
182,192,309275,1,0,0:0:0:0:
256,192,309340,1,0,0:0:0:0:
329,192,309404,1,0,0:0:0:0:
402,192,309404,1,0,0:0:0:0:
475,192,309404,1,0,0:0:0:0:
109,192,309468,1,0,0:0:0:0:
182,192,309468,1,0,0:0:0:0:
256,192,309532,1,0,0:0:0:0:
475,192,309532,1,0,0:0:0:0:
402,192,309532,1,0,0:0:0:0:
182,192,309596,1,0,0:0:0:0:
329,192,309596,1,0,0:0:0:0:
36,192,309660,1,0,0:0:0:0:
109,192,309660,1,0,0:0:0:0:
256,192,309660,1,0,0:0:0:0:
402,192,309724,1,0,0:0:0:0:
475,192,309724,1,0,0:0:0:0:
182,192,309788,1,0,0:0:0:0:
109,192,309788,1,0,0:0:0:0:
329,192,309788,1,0,0:0:0:0:
256,192,309852,1,0,0:0:0:0:
402,192,309852,1,0,0:0:0:0:
475,192,309916,1,0,0:0:0:0:
36,192,309916,1,0,0:0:0:0:
182,192,309916,1,0,0:0:0:0:
256,192,309981,1,0,0:0:0:0:
329,192,309981,1,0,0:0:0:0:
109,192,310045,1,0,0:0:0:0:
36,192,310045,1,0,0:0:0:0:
402,192,310045,1,0,0:0:0:0:
182,192,310109,1,0,0:0:0:0:
329,192,310109,1,0,0:0:0:0:
256,192,310173,1,0,0:0:0:0:
475,192,310173,1,0,0:0:0:0:
109,192,310173,1,0,0:0:0:0:
402,192,310237,1,0,0:0:0:0:
329,192,310237,1,0,0:0:0:0:
182,192,310301,1,0,0:0:0:0:
256,192,310301,1,0,0:0:0:0:
109,192,310365,1,0,0:0:0:0:
36,192,310365,1,0,0:0:0:0:
402,192,310429,1,0,0:0:0:0:
475,192,310429,1,0,0:0:0:0:
329,192,310461,1,0,0:0:0:0:
256,192,310493,1,0,0:0:0:0:
182,192,310525,1,0,0:0:0:0:
109,192,310558,1,0,0:0:0:0:
36,192,310590,1,0,0:0:0:0:
475,192,310590,1,0,0:0:0:0:
402,192,310622,1,0,0:0:0:0:
329,192,310654,1,0,0:0:0:0:
256,192,310686,1,0,0:0:0:0:
109,192,310728,1,0,0:0:0:0:
182,192,310771,1,0,0:0:0:0:
329,192,310814,1,0,0:0:0:0:
402,192,310846,1,0,0:0:0:0:
475,192,310878,1,0,0:0:0:0:
36,192,310878,1,0,0:0:0:0:
109,192,310910,1,0,0:0:0:0:
182,192,310942,1,0,0:0:0:0:
256,192,310974,1,0,0:0:0:0:
402,192,311028,1,0,0:0:0:0:
329,192,311070,1,0,0:0:0:0:
36,192,311070,1,0,0:0:0:0:
109,192,311102,1,0,0:0:0:0:
182,192,311134,1,0,0:0:0:0:
256,192,311166,1,0,0:0:0:0:
329,192,311199,1,0,0:0:0:0:
475,192,311199,1,0,0:0:0:0:
402,192,311199,1,0,0:0:0:0:
109,192,311263,1,0,0:0:0:0:
36,192,311263,1,0,0:0:0:0:
182,192,311295,1,0,0:0:0:0:
256,192,311327,1,0,0:0:0:0:
329,192,311327,1,0,0:0:0:0:
402,192,311391,1,0,0:0:0:0:
475,192,311391,1,0,0:0:0:0:
36,192,311455,128,0,311519:0:0:0:0:
109,192,311455,128,0,311519:0:0:0:0:
256,192,311455,128,0,311540:0:0:0:0:
329,192,311540,128,0,311626:0:0:0:0:
402,192,311626,128,0,311711:0:0:0:0:
109,192,311711,128,0,311775:0:0:0:0:
182,192,311711,128,0,311775:0:0:0:0:
475,192,311711,128,0,311797:0:0:0:0:
402,192,311797,128,0,311882:0:0:0:0:
329,192,311882,128,0,311968:0:0:0:0:
36,192,311968,128,0,312032:0:0:0:0:
109,192,311968,128,0,312032:0:0:0:0:
256,192,311968,128,0,312053:0:0:0:0:
402,192,312053,128,0,312139:0:0:0:0:
329,192,312139,128,0,312224:0:0:0:0:
109,192,312224,128,0,312288:0:0:0:0:
182,192,312224,128,0,312288:0:0:0:0:
475,192,312224,128,0,312310:0:0:0:0:
256,192,312310,128,0,312395:0:0:0:0:
36,192,312395,128,0,312481:0:0:0:0:
329,192,312481,128,0,312545:0:0:0:0:
402,192,312481,128,0,312545:0:0:0:0:
109,192,312481,128,0,312566:0:0:0:0:
182,192,312566,128,0,312652:0:0:0:0:
109,192,312652,128,0,312737:0:0:0:0:
402,192,312737,128,0,312801:0:0:0:0:
475,192,312737,128,0,312801:0:0:0:0:
256,192,312737,128,0,312822:0:0:0:0:
182,192,312822,128,0,312908:0:0:0:0:
109,192,312908,128,0,312993:0:0:0:0:
329,192,312993,128,0,313058:0:0:0:0:
402,192,312993,128,0,313058:0:0:0:0:
36,192,312993,128,0,313079:0:0:0:0:
182,192,313079,128,0,313164:0:0:0:0:
256,192,313164,128,0,313250:0:0:0:0:
402,192,313250,128,0,313314:0:0:0:0:
475,192,313250,128,0,313314:0:0:0:0:
109,192,313250,128,0,313335:0:0:0:0:
182,192,313335,128,0,313421:0:0:0:0:
256,192,313421,128,0,313506:0:0:0:0:
329,192,313506,128,0,313570:0:0:0:0:
402,192,313506,128,0,313570:0:0:0:0:
475,192,313506,128,0,313570:0:0:0:0:
182,192,313506,128,0,313570:0:0:0:0:
109,192,313506,128,0,313570:0:0:0:0:
36,192,313506,128,0,313570:0:0:0:0:
329,192,314019,128,0,319275:0:0:0:0:
475,192,314019,128,0,319275:0:0:0:0:
402,192,314019,128,0,319275:0:0:0:0:
182,192,314019,128,0,319275:0:0:0:0:
109,192,314019,128,0,319275:0:0:0:0:
36,192,314019,128,0,319275:0:0:0:0:
329,192,319356,128,0,325269:0:0:0:0:
182,192,319356,128,0,325269:0:0:0:0:
109,192,319356,128,0,325269:0:0:0:0:
36,192,319356,128,0,325269:0:0:0:0:
402,192,319356,128,0,325269:0:0:0:0:
475,192,319356,128,0,325269:0:0:0:0:
