osu file format v14

[General]
AudioFilename: audio.mp3
AudioLeadIn: 0
PreviewTime: 117519
Countdown: 0
SampleSet: None
StackLeniency: 0.7
Mode: 2
LetterboxInBreaks: 0
WidescreenStoryboard: 0

[Editor]
Bookmarks: 101199,134019,142224,161711,220173,263250,271455,291968,307737,309404
DistanceSpacing: 1.6
BeatDivisor: 4
GridSize: 32
TimelineZoom: 2.999999

[Metadata]
Title:Ragnarok
TitleUnicode:Ragnarok
Artist:Gram vs. Camellia
ArtistUnicode:Gram vs. かめりあ
Creator:Bunnrei
Version:Denouement
Source:
Tags:The Requiem Speedcore Classical Psy-Trance DJ Genki -plus- chara osu_gangster
BeatmapID:1939410
BeatmapSetID:928515

[Difficulty]
HPDrainRate:5
CircleSize:4.2
OverallDifficulty:9.9
ApproachRate:9.9
SliderMultiplier:2
SliderTickRate:2

[Events]
//Background and Video events
0,0,"oofe_waifu2x_art_noise1_scale_tta_1.jpg",0,0
//Break Periods
//Storyboard Layer 0 (Background)
//Storyboard Layer 1 (Fail)
//Storyboard Layer 2 (Pass)
//Storyboard Layer 3 (Foreground)
//Storyboard Sound Samples

[TimingPoints]
16006,600,4,2,99,25,1,0
16006,-66.6666666666667,4,2,99,25,0,0
31019,659.340659340659,4,2,99,25,1,0
31019,-66.6666666666667,4,2,99,25,0,0
31679,714.285714285714,4,2,99,25,1,0
31679,-66.6666666666667,4,2,99,25,0,0
32393,800,4,2,99,25,1,0
33206,875.912408759124,4,2,99,25,1,0
33206,-50,4,2,99,25,0,0
34082,1008.40336134454,4,2,99,25,1,0
34082,-50,4,2,99,25,0,0
36108,645.161290322581,4,2,99,25,1,0
36108,-133.333333333333,4,2,99,25,0,0
36188,645.161290322581,4,2,99,25,1,0
36188,-133.333333333333,4,2,99,25,0,0
38677,833.333333333335,4,2,99,25,1,0
38877,681.818181818183,4,2,99,25,1,0
39046,571.428571428572,4,2,99,25,1,0
39335,517.241379310345,4,2,99,25,1,0
39973,645.161290322581,4,2,99,25,1,0
40139,845.070422535212,4,2,99,25,1,0
40556,508.474576271186,4,2,99,25,1,0
41077,285.714285714286,4,2,99,40,1,0
44492,279.06976744186,4,2,99,40,1,0
45608,270.27027027027,4,2,99,40,1,0
46689,265.486725663717,4,2,99,45,1,0
47750,260.869565217391,4,2,99,50,1,0
48793,258.620689655172,4,2,99,55,1,0
49827,256.410256410256,4,2,98,60,1,0
49827,-133.333333333333,4,2,98,60,0,0
66237,-100,4,3,2,70,0,0
67262,-125,4,3,1,70,0,0
68288,-100,4,3,2,60,0,0
69314,-125,4,3,1,60,0,0
70339,-100,4,3,2,70,0,0
71365,-125,4,3,1,60,0,0
72391,-100,4,3,2,70,0,0
74442,-100,4,3,1,70,0,0
84698,-100,4,3,1,75,0,0
108288,-100,4,3,2,75,0,0
109314,-100,4,3,1,75,0,0
117775,-100,4,3,1,75,0,1
129826,-100,4,3,2,75,0,1
131878,-100,4,3,1,45,0,0
132262,-100,4,3,1,50,0,0
132647,-100,4,3,1,55,0,0
133032,-100,4,3,1,60,0,0
133929,-125,4,2,98,60,0,0
142134,-125,4,3,1,45,0,0
150339,-100,4,3,1,55,0,0
154442,-100,4,3,1,65,0,0
158609,-100,4,3,1,15,0,0
158801,-100,4,3,1,20,0,0
159057,-100,4,3,1,25,0,0
159314,-100,4,3,1,30,0,0
159570,-100,4,3,1,35,0,0
159826,-100,4,3,1,40,0,0
160083,-100,4,3,1,45,0,0
160339,-100,4,3,1,50,0,0
160596,-100,4,3,1,55,0,0
160852,-100,4,3,1,60,0,0
161109,-100,4,3,1,65,0,0
161365,-100,4,3,1,70,0,0
162647,-83.3333333333333,4,3,1,75,0,1
166750,-83.3333333333333,4,3,1,75,0,0
169826,-83.3333333333333,4,3,2,75,0,0
170852,-83.3333333333333,4,3,1,75,0,1
174955,-83.3333333333333,4,3,1,75,0,0
179057,-83.3333333333333,4,3,1,75,0,1
183160,-83.3333333333333,4,3,1,75,0,0
186237,-83.3333333333333,4,3,2,75,0,0
187006,-83.3333333333333,4,3,1,75,0,0
187262,-83.3333333333333,4,3,1,75,0,1
188288,-83.3333333333333,4,3,1,75,0,0
189314,-83.3333333333333,4,3,1,75,0,1
190339,-83.3333333333333,4,3,1,75,0,0
193416,-83.3333333333333,4,3,2,75,0,0
194955,-25,4,3,1,75,0,0
195468,-100,4,2,0,60,0,0
203673,-125,4,2,98,60,0,0
220083,-100,4,3,2,70,0,0
221109,-125,4,3,2,60,0,0
222134,-100,4,3,2,70,0,0
223160,-125,4,3,2,60,0,0
224185,-100,4,3,2,70,0,0
225211,-125,4,3,2,60,0,0
226237,-100,4,3,2,70,0,0
236493,-100,4,3,1,70,0,0
238609,-100,4,3,1,15,0,0
238801,-100,4,3,1,20,0,0
239057,-100,4,3,1,25,0,0
239314,-100,4,3,1,30,0,0
239570,-100,4,3,1,35,0,0
239826,-100,4,3,1,40,0,0
240083,-100,4,3,1,45,0,0
240339,-100,4,3,1,50,0,0
240596,-100,4,3,1,55,0,0
240852,-100,4,3,1,60,0,0
241109,-100,4,3,1,65,0,0
241365,-100,4,3,1,70,0,0
241621,-100,4,3,1,75,0,0
242134,-100,4,3,2,60,0,0
242647,-90.9090909090909,4,3,1,80,0,1
257006,-90.9090909090909,4,3,2,80,0,1
258544,-90.9090909090909,4,3,1,70,0,0
259057,-90.9090909090909,4,3,1,80,0,1
273416,-100,4,3,1,60,0,0
275724,-90.9090909090909,4,3,2,75,0,0
276493,-100,4,3,1,75,0,0
282647,-100,4,3,2,75,0,0
283416,-100,4,3,1,75,0,0
291878,-90.9090909090909,4,3,1,75,0,1
295468,-90.9090909090909,4,3,1,75,0,0
295980,-90.9090909090909,4,3,1,75,0,1
300083,-100,4,3,1,75,0,0
304185,-90.9090909090909,4,3,2,75,0,1
307262,-90.9090909090909,4,3,1,75,0,1
311365,-125,4,2,0,60,0,0
313993,-125,4,2,0,40,0,0
318993,-125,4,2,0,5,0,0
319250,-125,4,3,97,80,0,0
319314,-125,4,3,97,20,0,0
322391,-125,4,3,97,30,0,0
322903,-125,4,3,97,40,0,0
323416,-125,4,3,97,50,0,0
323929,-125,4,3,97,60,0,0
324442,-125,4,3,97,70,0,0
324698,-125,4,3,97,80,0,0
324955,-125,4,3,97,90,0,0
325147,-125,4,2,0,5,0,0

[Colours]
Combo1 : 128,128,128
Combo2 : 192,192,192

[HitObjects]
197,337,16006,6,0,L|435:316,1,225.000008583069,6|2,0:0|0:0,0:0:0:0:
273,330,16606,2,0,P|193:291|306:165,1,300.000011444092,2|0,0:0|0:0,0:0:0:0:
440,124,17506,1,2,0:0:0:0:
365,119,17656,1,2,0:0:0:0:
290,115,17806,1,2,0:0:0:0:
464,223,18106,1,2,0:0:0:0:
213,339,18406,6,0,P|143:302|230:219,1,225.000008583069,6|2,0:0|0:0,0:0:0:0:
360,231,19006,2,0,L|43:188,1,300.000011444092,2|0,0:0|0:0,0:0:0:0:
224,224,19906,1,2,0:0:0:0:
298,212,20056,1,2,0:0:0:0:
372,201,20206,1,2,0:0:0:0:
164,107,20506,1,2,0:0:0:0:
400,101,20806,6,0,P|408:159|284:261,1,225.000008583069,6|2,0:0|0:0,0:0:0:0:
146,287,21406,2,0,L|460:250,1,300.000011444092,2|0,0:0|0:0,0:0:0:0:
256,185,22306,1,2,0:0:0:0:
330,173,22456,1,2,0:0:0:0:
404,161,22606,1,2,0:0:0:0:
199,72,22906,1,2,0:0:0:0:
410,72,23206,6,0,P|410:136|273:219,1,225.000008583069,6|2,0:0|0:0,0:0:0:0:
156,230,23806,2,0,P|91:269|180:337,1,225.000008583069,2|2,0:0|0:0,0:0:0:0:
343,327,24406,2,0,P|349:260|157:124,1,300.000011444092,2|2,0:0|0:0,0:0:0:0:
16,101,25306,2,0,L|95:95,1,75.0000028610231,2|2,0:0|0:0,0:0:0:0:
265,181,25606,6,0,L|495:160,1,225.000008583069,6|2,0:0|0:0,0:0:0:0:
345,241,26206,2,0,P|243:226|208:46,1,300.000011444092,2|0,0:0|0:0,0:0:0:0:
378,121,27106,1,2,0:0:0:0:
303,118,27256,1,2,0:0:0:0:
228,115,27406,1,2,0:0:0:0:
58,109,27706,1,2,0:0:0:0:
259,290,28006,6,0,P|278:223|168:132,1,225.000008583069,6|2,0:0|0:0,0:0:0:0:
36,157,28606,2,0,P|29:240|209:345,1,300.000011444092,2|0,0:0|0:0,0:0:0:0:
344,126,29506,1,2,0:0:0:0:
269,123,29656,1,2,0:0:0:0:
194,121,29806,1,2,0:0:0:0:
381,248,30106,1,2,0:0:0:0:
166,360,30406,6,0,P|104:298|209:238,1,225.000008583069,6|2,0:0|0:0,0:0:0:0:
360,209,31019,2,0,L|54:172,1,300.000011444092,2|2,0:0|0:0,0:0:0:0:
232,106,32036,1,2,0:0:0:0:
305,93,32214,1,2,0:0:0:0:
379,81,32393,1,2,0:0:0:0:
151,36,32793,1,2,0:0:0:0:
352,36,33206,6,0,P|448:84|384:245,1,300,4|2,0:0|0:0,0:0:0:0:
160,316,34082,2,0,P|100:167|315:334,1,800,2|0,0:0|0:0,0:0:0:0:
277,342,36148,1,0,0:0:0:0:
234,341,36188,1,0,0:0:0:0:
136,336,36228,1,6,0:0:0:0:
389,341,38677,5,2,0:0:0:0:
298,329,38877,1,2,0:0:0:0:
213,267,39046,1,2,0:0:0:0:
267,221,39188,1,2,0:0:0:0:
351,209,39335,1,2,0:0:0:0:
445,219,39464,1,2,0:0:0:0:
400,286,39593,1,2,0:0:0:0:
321,323,39722,1,2,0:0:0:0:
222,346,39851,1,2,0:0:0:0:
114,350,39973,5,2,0:0:0:0:
223,255,40139,1,2,0:0:0:0:
457,237,40556,1,2,0:0:0:0:
117,370,41077,5,6,0:0:0:0:
63,312,41172,1,0,0:0:0:0:
49,234,41267,1,0,0:0:0:0:
80,161,41362,1,0,0:0:0:0:
146,117,41457,1,0,0:0:0:0:
225,116,41553,1,0,0:0:0:0:
317,320,41648,5,2,0:0:0:0:
370,262,41743,1,0,0:0:0:0:
384,184,41838,1,0,0:0:0:0:
353,111,41933,1,0,0:0:0:0:
287,67,42028,1,0,0:0:0:0:
208,66,42124,1,0,0:0:0:0:
300,29,42219,5,2,0:0:0:0:
377,42,42314,1,0,0:0:0:0:
435,95,42409,1,0,0:0:0:0:
454,172,42504,1,0,0:0:0:0:
427,246,42599,1,0,0:0:0:0:
365,294,42695,1,0,0:0:0:0:
268,326,42791,5,2,0:0:0:0:
205,278,42887,1,0,0:0:0:0:
178,204,42982,1,0,0:0:0:0:
197,127,43077,1,0,0:0:0:0:
255,73,43172,1,0,0:0:0:0:
333,60,43267,1,0,0:0:0:0:
220,29,43362,6,0,L|106:41,2,66.6666666666667,2|0|0,0:0|0:0|0:0,0:0:0:0:
135,79,43648,1,0,0:0:0:0:
75,106,43743,1,0,0:0:0:0:
34,159,43838,1,0,0:0:0:0:
127,166,43934,6,0,L|241:178,2,66.6666666666667,2|0|0,0:0|0:0|0:0,0:0:0:0:
212,216,44220,1,0,0:0:0:0:
271,243,44315,1,0,0:0:0:0:
312,296,44410,1,0,0:0:0:0:
219,351,44492,5,2,0:0:0:0:
170,311,44585,1,0,0:0:0:0:
193,253,44678,1,0,0:0:0:0:
294,203,44771,2,0,L|375:190,2,66.6666666666667,0|0|0,0:0|0:0|0:0,0:0:0:0:
180,141,45050,5,2,0:0:0:0:
157,199,45143,1,0,0:0:0:0:
206,239,45236,1,0,0:0:0:0:
294,203,45329,1,0,0:0:0:0:
355,186,45422,1,0,0:0:0:0:
371,125,45515,1,0,0:0:0:0:
207,343,45608,5,6,0:0:0:0:
146,292,45698,1,0,0:0:0:0:
121,217,45788,1,0,0:0:0:0:
139,141,45878,1,0,0:0:0:0:
195,85,45968,1,0,0:0:0:0:
272,67,46058,1,0,0:0:0:0:
182,22,46148,5,2,0:0:0:0:
105,39,46238,1,0,0:0:0:0:
48,95,46328,1,0,0:0:0:0:
30,171,46418,1,0,0:0:0:0:
55,246,46508,1,0,0:0:0:0:
116,297,46598,1,0,0:0:0:0:
207,294,46689,5,2,0:0:0:0:
228,231,46777,1,0,0:0:0:0:
221,165,46865,1,0,0:0:0:0:
188,108,46954,1,0,0:0:0:0:
134,70,47042,1,0,0:0:0:0:
68,58,47131,1,0,0:0:0:0:
176,48,47219,5,2,0:0:0:0:
242,60,47308,1,0,0:0:0:0:
296,98,47396,1,0,0:0:0:0:
329,155,47485,1,0,0:0:0:0:
336,221,47573,1,0,0:0:0:0:
315,283,47661,1,0,0:0:0:0:
227,321,47750,6,0,L|144:315,2,66.6666666666667,2|0|0,0:0|0:0|0:0,0:0:0:0:
139,338,48010,2,0,L|122:226,2,66.6666666666667,0|0|0,0:0|0:0|0:0,0:0:0:0:
227,321,48271,6,0,L|310:315,2,66.6666666666667,2|0|0,0:0|0:0|0:0,0:0:0:0:
315,338,48532,2,0,L|331:226,2,66.6666666666667,0|0|0,0:0|0:0|0:0,0:0:0:0:
225,323,48793,5,2,0:0:0:0:
153,291,48879,1,0,0:0:0:0:
116,222,48965,1,0,0:0:0:0:
130,144,49051,1,0,0:0:0:0:
189,92,49137,1,0,0:0:0:0:
267,88,49224,1,0,0:0:0:0:
198,39,49310,5,2,0:0:0:0:
276,43,49397,1,0,0:0:0:0:
335,95,49483,1,0,0:0:0:0:
349,172,49569,1,0,0:0:0:0:
312,241,49655,1,0,0:0:0:0:
240,273,49741,1,0,0:0:0:0:
403,339,49827,6,0,L|499:345,2,75.0000028610231,6|0|0,0:0|0:0|0:0,0:0:0:0:
215,316,50339,1,0,0:0:0:0:
393,262,50596,1,0,0:0:0:0:
209,239,50852,6,0,L|215:161,1,75.0000028610231,8|0,0:0|0:0,0:0:0:0:
330,175,51109,2,0,L|336:97,1,75.0000028610231,0|0,0:0|0:0,0:0:0:0:
220,78,51365,1,0,0:0:0:0:
33,104,51621,2,0,L|111:110,1,75.0000028610231,2|0,0:0|0:0,0:0:0:0:
247,207,51878,6,0,L|169:213,1,75.0000028610231,0|0,0:0|0:0,0:0:0:0:
83,221,52134,1,0,0:0:0:0:
283,341,52391,1,2,0:0:0:0:
357,333,52519,1,0,0:0:0:0:
432,326,52647,1,0,0:0:0:0:
236,258,52903,6,0,L|147:266,1,75.0000028610231,8|0,0:0|0:0,0:0:0:0:
257,335,53160,2,0,L|168:343,1,75.0000028610231,0|0,0:0|0:0,0:0:0:0:
58,304,53416,2,0,L|147:296,1,75.0000028610231,8|0,0:0|0:0,0:0:0:0:
29,165,53673,1,0,0:0:0:0:
232,189,53929,6,0,L|240:278,1,75.0000028610231,2|0,0:0|0:0,0:0:0:0:
120,280,54185,2,0,L|112:369,1,75.0000028610231,0|0,0:0|0:0,0:0:0:0:
257,345,54442,1,2,0:0:0:0:
65,236,54698,1,0,0:0:0:0:
269,147,54955,6,0,L|358:139,1,75.0000028610231,8|0,0:0|0:0,0:0:0:0:
237,232,55211,2,0,L|148:224,1,75.0000028610231,0|0,0:0|0:0,0:0:0:0:
69,214,55468,1,0,0:0:0:0:
244,100,55724,2,0,L|333:92,1,75.0000028610231,2|0,0:0|0:0,0:0:0:0:
447,240,55980,6,0,L|358:232,1,75.0000028610231,0|0,0:0|0:0,0:0:0:0:
470,106,56237,1,0,0:0:0:0:
262,329,56493,2,0,L|173:321,1,75.0000028610231,2|0,0:0|0:0,0:0:0:0:
302,223,56750,2,0,L|213:215,1,75.0000028610231,0|0,0:0|0:0,0:0:0:0:
101,267,57006,6,0,L|93:356,1,75.0000028610231,8|0,0:0|0:0,0:0:0:0:
215,373,57262,2,0,L|304:381,1,75.0000028610231,0|0,0:0|0:0,0:0:0:0:
420,297,57519,2,0,L|263:285,1,150.000005722046,8|0,0:0|0:0,0:0:0:0:
40,276,58032,6,0,L|50:177,1,75.0000028610231,2|0,0:0|0:0,0:0:0:0:
172,154,58288,2,0,L|162:55,1,75.0000028610231,0|0,0:0|0:0,0:0:0:0:
286,65,58544,1,0,0:0:0:0:
55,25,58801,1,0,0:0:0:0:
269,145,59057,6,0,L|368:135,1,75.0000028610231,8|0,0:0|0:0,0:0:0:0:
224,238,59314,2,0,L|125:228,1,75.0000028610231,0|0,0:0|0:0,0:0:0:0:
293,332,59570,1,0,0:0:0:0:
110,315,59826,2,0,L|120:216,1,75.0000028610231,2|0,0:0|0:0,0:0:0:0:
240,251,60083,6,0,L|250:152,1,75.0000028610231,0|0,0:0|0:0,0:0:0:0:
124,103,60339,1,0,0:0:0:0:
344,101,60596,2,0,L|447:94,2,75.0000028610231,2|0|0,0:0|0:0|0:0,0:0:0:0:
149,324,61109,6,0,L|139:225,1,75.0000028610231,8|0,0:0|0:0,0:0:0:0:
255,251,61365,2,0,L|245:152,1,75.0000028610231,0|0,0:0|0:0,0:0:0:0:
126,84,61621,2,0,L|27:94,2,75.0000028610231,8|0|0,0:0|0:0|0:0,0:0:0:0:
319,148,62134,6,0,L|423:148,1,75.0000028610231,2|0,0:0|0:0,0:0:0:0:
283,210,62391,2,0,L|266:301,1,75.0000028610231,0|0,0:0|0:0,0:0:0:0:
383,320,62647,1,2,0:0:0:0:
189,346,62903,1,0,0:0:0:0:
404,376,63160,6,0,P|437:310|381:262,1,150.000005722046,8|0,0:0|0:0,0:0:0:0:
152,269,63673,1,0,0:0:0:0:
340,308,63929,2,0,L|441:299,1,75.0000028610231,2|0,0:0|0:0,0:0:0:0:
284,250,64185,2,0,L|273:152,2,75.0000028610231,0|0|0,0:0|0:0|0:0,0:0:0:0:
480,93,64698,2,0,L|374:84,3,75.0000028610231,2|0|0|0,0:0|0:0|0:0|0:0,0:0:0:0:
267,74,65211,5,8,0:0:0:0:
201,105,65339,1,0,0:0:0:0:
187,175,65467,1,0,0:0:0:0:
236,229,65595,1,0,0:0:0:0:
342,235,65724,2,0,P|404:216|422:63,1,225.000008583069,0|0,0:0|0:0,0:0:0:0:
83,177,66237,5,12,0:0:0:0:
391,206,66365,2,0,L|398:82,1,100,12|0,0:0|0:0,0:0:0:0:
121,206,66621,1,12,0:0:0:0:
429,177,66750,2,0,L|436:53,1,100,12|0,0:0|0:0,0:0:0:0:
121,206,67006,1,12,0:0:0:0:
391,206,67134,1,12,0:0:0:0:
121,206,67262,6,0,L|56:210,2,53.3333333333333,0|0|0,0:0|0:0|0:0,0:0:0:0:
194,286,67519,2,0,L|259:290,2,53.3333333333333,0|0|0,0:0|0:0|0:0,0:0:0:0:
121,206,67775,6,0,L|56:210,2,53.3333333333333,0|0|0,0:0|0:0|0:0,0:0:0:0:
194,286,68032,2,0,L|259:290,2,53.3333333333333,0|0|0,0:0|0:0|0:0,0:0:0:0:
429,177,68288,5,12,0:0:0:0:
121,206,68416,2,0,L|114:82,1,100,12|0,0:0|0:0,0:0:0:0:
391,206,68672,1,12,0:0:0:0:
83,177,68801,2,0,L|76:53,1,100,12|0,0:0|0:0,0:0:0:0:
391,206,69057,1,12,0:0:0:0:
121,206,69185,1,12,0:0:0:0:
391,206,69314,6,0,L|456:210,2,53.3333333333333,0|0|0,0:0|0:0|0:0,0:0:0:0:
318,286,69570,2,0,L|253:290,2,53.3333333333333,0|0|0,0:0|0:0|0:0,0:0:0:0:
391,206,69826,6,0,L|456:210,2,53.3333333333333,0|0|0,0:0|0:0|0:0,0:0:0:0:
318,286,70083,2,0,L|253:290,2,53.3333333333333,0|0|0,0:0|0:0|0:0,0:0:0:0:
87,204,70339,5,12,0:0:0:0:
374,253,70468,2,0,L|368:352,1,100,12|0,0:0|0:0,0:0:0:0:
138,253,70724,1,12,0:0:0:0:
425,204,70852,2,0,L|419:303,1,100,12|0,0:0|0:0,0:0:0:0:
138,253,71109,1,12,0:0:0:0:
374,253,71237,1,12,0:0:0:0:
138,253,71365,5,0,0:0:0:0:
66,228,71450,1,0,0:0:0:0:
58,152,71535,1,0,0:0:0:0:
133,101,71621,2,0,L|207:94,2,53.3333333333333,0|0|0,0:0|0:0|0:0,0:0:0:0:
212,216,71878,5,0,0:0:0:0:
283,191,71963,1,0,0:0:0:0:
291,115,72048,1,0,0:0:0:0:
217,64,72134,2,0,L|143:57,2,53.3333333333333,0|0|0,0:0|0:0|0:0,0:0:0:0:
431,84,72391,5,12,0:0:0:0:
129,225,72519,2,0,L|118:111,1,100,12|0,0:0|0:0,0:0:0:0:
393,125,72775,1,12,0:0:0:0:
205,127,72903,2,0,L|303:108,1,100,12|0,0:0|0:0,0:0:0:0:
81,84,73160,5,12,0:0:0:0:
383,225,73288,2,0,L|394:111,1,100,12|0,0:0|0:0,0:0:0:0:
119,125,73544,1,12,0:0:0:0:
307,127,73672,2,0,L|209:108,1,100,12|0,0:0|0:0,0:0:0:0:
420,324,73929,6,0,L|427:221,1,100,12|8,0:0|0:0,0:0:0:0:
259,189,74121,2,0,L|252:86,1,100,12|8,0:0|0:0,0:0:0:0:
420,324,74314,1,12,0:0:0:0:
229,339,74442,5,8,0:0:0:0:
38,357,74570,1,2,0:0:0:0:
168,219,74698,1,8,0:0:0:0:
359,237,74826,1,2,0:0:0:0:
228,130,74955,5,8,0:0:0:0:
419,148,75083,1,2,0:0:0:0:
289,10,75211,1,8,0:0:0:0:
98,28,75339,1,2,0:0:0:0:
228,130,75468,5,8,0:0:0:0:
37,148,75596,1,2,0:0:0:0:
167,10,75724,1,8,0:0:0:0:
358,28,75852,1,2,0:0:0:0:
228,130,75980,6,0,L|153:136,2,66.6666666666667,8|0|0,0:0|0:0|0:0,0:0:0:0:
64,230,76237,2,0,L|51:116,1,100,8|2,0:0|0:0,0:0:0:0:
334,341,76493,5,8,0:0:0:0:
141,325,76621,1,2,0:0:0:0:
272,233,76750,1,8,0:0:0:0:
79,217,76878,1,2,0:0:0:0:
209,220,77006,5,8,0:0:0:0:
402,204,77134,1,2,0:0:0:0:
271,112,77263,1,8,0:0:0:0:
464,96,77391,1,2,0:0:0:0:
334,146,77519,5,8,0:0:0:0:
141,162,77647,1,2,0:0:0:0:
272,254,77776,1,8,0:0:0:0:
79,270,77904,1,2,0:0:0:0:
209,345,78032,6,0,L|296:336,2,66.6666666666667,8|0|0,0:0|0:0|0:0,0:0:0:0:
371,231,78288,2,0,L|458:222,2,66.6666666666667,8|0|0,0:0|0:0|0:0,0:0:0:0:
189,210,78544,6,0,L|170:142,1,50,10|2,0:0|0:0,0:0:0:0:
313,83,78673,2,0,L|381:64,1,50,2|2,0:0|0:0,0:0:0:0:
164,244,78801,6,0,L|113:194,1,50,10|2,0:0|0:0,0:0:0:0:
313,83,78930,2,0,L|381:64,1,50,2|0,0:0|0:0,0:0:0:0:
132,300,79057,6,0,L|63:282,1,50,10|2,0:0|0:0,0:0:0:0:
313,83,79185,2,0,L|381:64,1,50,2|2,0:0|0:0,0:0:0:0:
180,368,79314,2,0,P|120:299|174:266,1,150,2|0,0:0|0:0,0:0:0:0:
323,210,79570,6,0,L|342:142,1,50,10|2,0:0|0:0,0:0:0:0:
199,83,79699,2,0,L|131:64,1,50,2|2,0:0|0:0,0:0:0:0:
348,244,79827,6,0,L|399:194,1,50,10|2,0:0|0:0,0:0:0:0:
199,83,79956,2,0,L|131:64,1,50,2|0,0:0|0:0,0:0:0:0:
380,300,80083,6,0,L|449:282,1,50,10|2,0:0|0:0,0:0:0:0:
199,83,80211,2,0,L|131:64,1,50,2|2,0:0|0:0,0:0:0:0:
332,368,80340,2,0,P|392:299|338:266,1,150,2|0,0:0|0:0,0:0:0:0:
199,256,80596,6,0,L|129:252,1,50,10|2,0:0|0:0,0:0:0:0:
337,171,80724,2,0,L|407:167,1,50,2|2,0:0|0:0,0:0:0:0:
116,187,80852,2,0,P|116:111|184:70,1,150,2|0,0:0|0:0,0:0:0:0:
313,256,81109,6,0,L|383:252,1,50,10|2,0:0|0:0,0:0:0:0:
175,171,81237,2,0,L|105:167,1,50,2|2,0:0|0:0,0:0:0:0:
396,187,81365,2,0,P|396:111|328:70,1,150,2|0,0:0|0:0,0:0:0:0:
151,109,81621,6,0,L|292:96,1,100,10|2,0:0|0:0,0:0:0:0:
433,208,81814,2,0,L|292:195,1,100,2|2,0:0|0:0,0:0:0:0:
151,109,82006,2,0,L|64:123,1,50,2|0,0:0|0:0,0:0:0:0:
319,291,82134,6,0,L|437:268,1,100,10|2,0:0|0:0,0:0:0:0:
237,223,82326,2,0,L|119:200,1,100,2|2,0:0|0:0,0:0:0:0:
331,90,82519,2,0,L|246:70,1,50,2|0,0:0|0:0,0:0:0:0:
52,59,82647,5,4,0:0:0:0:
52,59,84185,2,0,P|33:164|211:350,1,350,0|0,0:0|0:0,0:0:0:0:
421,355,84698,6,0,L|288:342,1,100,4|2,0:0|0:0,0:0:0:0:
291,342,84858,1,2,0:0:0:0:
274,317,84890,1,2,0:0:0:0:
283,288,84922,1,2,0:0:0:0:
312,278,84955,2,0,L|369:270,1,50,2|0,0:0|0:0,0:0:0:0:
289,241,85083,2,0,L|232:233,1,50,2|0,0:0|0:0,0:0:0:0:
104,141,85211,6,0,L|161:133,1,50,2|0,0:0|0:0,0:0:0:0:
289,241,85339,2,0,L|346:233,1,50,2|0,0:0|0:0,0:0:0:0:
201,191,85468,2,0,L|258:183,1,50,2|0,0:0|0:0,0:0:0:0:
386,291,85596,2,0,L|443:283,1,50,2|0,0:0|0:0,0:0:0:0:
238,327,85724,6,0,L|181:319,1,50,2|0,0:0|0:0,0:0:0:0:
266,281,85852,2,0,L|335:291,1,50,2|0,0:0|0:0,0:0:0:0:
393,229,85980,1,2,0:0:0:0:
440,215,86044,1,0,0:0:0:0:
469,175,86108,1,2,0:0:0:0:
468,126,86172,1,0,0:0:0:0:
278,118,86237,6,0,L|270:175,1,50,2|0,0:0|0:0,0:0:0:0:
396,255,86365,2,0,L|388:312,1,50,2|0,0:0|0:0,0:0:0:0:
205,279,86493,2,0,L|148:271,1,50,2|2,0:0|0:0,0:0:0:0:
331,368,86621,2,0,L|388:360,1,50,2|2,0:0|0:0,0:0:0:0:
240,293,86750,6,0,L|248:236,1,50,2|0,0:0|0:0,0:0:0:0:
326,200,86878,2,0,L|383:208,1,50,2|0,0:0|0:0,0:0:0:0:
291,162,87006,1,2,0:0:0:0:
246,144,87070,1,0,0:0:0:0:
220,102,87134,1,2,0:0:0:0:
226,54,87198,1,0,0:0:0:0:
377,50,87262,6,0,L|363:120,1,50,2|0,0:0|0:0,0:0:0:0:
282,129,87391,2,0,L|268:199,1,50,2|0,0:0|0:0,0:0:0:0:
359,162,87519,2,0,L|345:232,1,50,2|0,0:0|0:0,0:0:0:0:
195,258,87648,2,0,L|116:249,1,50,2|0,0:0|0:0,0:0:0:0:
326,351,87775,5,2,0:0:0:0:
350,348,87807,1,2,0:0:0:0:
375,345,87839,1,2,0:0:0:0:
210,354,87903,2,0,L|206:288,1,50,2|2,0:0|0:0,0:0:0:0:
354,255,88032,2,0,L|350:189,1,50,2|2,0:0|0:0,0:0:0:0:
201,151,88160,2,0,L|267:147,1,50,2|2,0:0|0:0,0:0:0:0:
416,110,88288,6,0,L|412:176,1,50,2|0,0:0|0:0,0:0:0:0:
276,199,88416,1,2,0:0:0:0:
125,297,88480,2,0,L|191:301,1,50,2|0,0:0|0:0,0:0:0:0:
314,308,88609,1,2,0:0:0:0:
465,217,88673,2,0,L|399:221,1,50,2|0,0:0|0:0,0:0:0:0:
246,157,88801,6,0,L|180:161,1,50,2|0,0:0|0:0,0:0:0:0:
276,199,88929,2,0,L|315:275,1,50,2|0,0:0|0:0,0:0:0:0:
378,228,89057,2,0,L|417:304,1,50,2|0,0:0|0:0,0:0:0:0:
480,296,89185,2,0,L|441:372,1,50,2|0,0:0|0:0,0:0:0:0:
287,352,89314,6,0,L|196:339,1,50,2|0,0:0|0:0,0:0:0:0:
106,284,89442,2,0,L|15:271,1,50,2|0,0:0|0:0,0:0:0:0:
192,244,89570,2,0,L|283:231,1,50,2|0,0:0|0:0,0:0:0:0:
422,168,89698,2,0,L|373:176,1,50,2|2,0:0|0:0,0:0:0:0:
234,84,89826,6,0,L|184:91,1,50,2|2,0:0|0:0,0:0:0:0:
349,342,89955,2,0,L|399:335,1,50,2|2,0:0|0:0,0:0:0:0:
218,334,90083,1,2,0:0:0:0:
169,331,90147,1,0,0:0:0:0:
140,292,90211,1,2,0:0:0:0:
150,245,90275,1,0,0:0:0:0:
293,257,90339,6,0,L|301:193,1,50,2|0,0:0|0:0,0:0:0:0:
174,179,90468,2,0,L|182:115,1,50,2|0,0:0|0:0,0:0:0:0:
311,322,90596,2,0,L|319:258,1,50,0|0,0:0|0:0,0:0:0:0:
192,244,90725,2,0,L|200:180,1,50,2|0,0:0|0:0,0:0:0:0:
319,76,90852,6,0,L|408:68,1,50,2|0,0:0|0:0,0:0:0:0:
240,208,90980,1,2,0:0:0:0:
65,232,91044,2,0,L|-24:224,1,50,2|0,0:0|0:0,0:0:0:0:
144,364,91172,1,2,0:0:0:0:
284,342,91237,2,0,L|292:253,1,50,2|0,0:0|0:0,0:0:0:0:
129,133,91365,6,0,L|218:141,1,50,2|0,0:0|0:0,0:0:0:0:
313,168,91493,1,2,0:0:0:0:
457,232,91557,2,0,L|368:240,1,50,2|0,0:0|0:0,0:0:0:0:
273,267,91685,1,2,0:0:0:0:
127,305,91750,2,0,L|119:216,1,50,2|0,0:0|0:0,0:0:0:0:
261,213,91878,5,2,0:0:0:0:
399,180,91942,1,2,0:0:0:0:
251,213,92006,1,2,0:0:0:0:
113,180,92070,1,2,0:0:0:0:
261,213,92134,2,0,L|329:211,1,50,2|0,0:0|0:0,0:0:0:0:
480,96,92262,1,2,0:0:0:0:
455,95,92294,1,2,0:0:0:0:
430,94,92326,1,2,0:0:0:0:
279,115,92391,6,0,L|211:113,1,50,2|0,0:0|0:0,0:0:0:0:
399,180,92519,1,2,0:0:0:0:
374,179,92551,1,2,0:0:0:0:
349,178,92583,1,2,0:0:0:0:
208,165,92647,1,2,0:0:0:0:
256,160,92711,1,2,0:0:0:0:
290,195,92775,1,2,0:0:0:0:
286,243,92839,1,2,0:0:0:0:
144,339,92903,6,0,L|84:343,1,50,4|0,0:0|0:0,0:0:0:0:
163,287,93032,2,0,L|159:227,1,50,2|2,0:0|0:0,0:0:0:0:
91,240,93160,1,2,0:0:0:0:
47,217,93224,1,0,0:0:0:0:
31,171,93288,1,2,0:0:0:0:
49,125,93352,1,2,0:0:0:0:
205,93,93416,6,0,L|267:89,1,50,2|0,0:0|0:0,0:0:0:0:
100,208,93544,1,2,0:0:0:0:
124,206,93576,1,2,0:0:0:0:
149,204,93608,1,2,0:0:0:0:
308,245,93673,2,0,L|370:241,1,50,2|2,0:0|0:0,0:0:0:0:
203,360,93801,2,0,L|265:356,1,50,2|2,0:0|0:0,0:0:0:0:
443,341,93929,6,0,L|431:273,1,50,2|0,0:0|0:0,0:0:0:0:
363,281,94057,2,0,L|351:213,1,50,2|0,0:0|0:0,0:0:0:0:
424,215,94185,1,2,0:0:0:0:
444,170,94249,1,0,0:0:0:0:
427,125,94313,1,2,0:0:0:0:
382,104,94377,1,0,0:0:0:0:
249,189,94442,6,0,L|253:251,1,50,2|0,0:0|0:0,0:0:0:0:
382,261,94570,2,0,L|386:323,1,50,2|0,0:0|0:0,0:0:0:0:
250,333,94698,2,0,L|188:337,1,50,2|2,0:0|0:0,0:0:0:0:
344,166,94826,2,0,L|406:170,1,50,2|2,0:0|0:0,0:0:0:0:
235,230,94955,5,2,0:0:0:0:
210,231,94987,1,2,0:0:0:0:
185,233,95019,1,2,0:0:0:0:
36,182,95083,2,0,L|106:178,1,50,2|2,0:0|0:0,0:0:0:0:
154,178,95211,1,2,0:0:0:0:
175,134,95275,1,0,0:0:0:0:
153,91,95339,1,2,0:0:0:0:
106,83,95403,1,0,0:0:0:0:
271,56,95468,6,0,L|259:118,1,50,0|0,0:0|0:0,0:0:0:0:
178,124,95596,2,0,L|166:186,1,50,2|0,0:0|0:0,0:0:0:0:
249,137,95724,2,0,L|237:199,1,50,0|2,0:0|0:0,0:0:0:0:
156,205,95852,2,0,L|144:267,1,50,2|0,0:0|0:0,0:0:0:0:
315,370,95980,6,0,L|320:284,1,50,2|0,0:0|0:0,0:0:0:0:
185,240,96109,1,2,0:0:0:0:
160,238,96141,1,2,0:0:0:0:
135,237,96173,1,2,0:0:0:0:
269,226,96237,2,0,L|274:140,1,50,2|2,0:0|0:0,0:0:0:0:
142,84,96365,2,0,L|56:79,1,50,2|2,0:0|0:0,0:0:0:0:
246,161,96493,6,0,L|332:156,2,50,2|0|0,0:0|0:0|0:0,0:0:0:0:
393,277,96685,2,0,L|479:272,2,50,2|0|0,0:0|0:0|0:0,0:0:0:0:
223,161,96878,2,0,L|309:156,1,50,2|0,0:0|0:0,0:0:0:0:
444,155,97006,6,0,L|440:223,1,50,8|8,0:0|0:0,0:0:0:0:
276,262,97134,2,0,L|190:257,1,50,8|8,0:0|0:0,0:0:0:0:
460,159,97262,6,0,L|432:221,1,50,8|8,0:0|0:0,0:0:0:0:
276,262,97391,2,0,L|190:257,1,50,8|8,0:0|0:0,0:0:0:0:
474,168,97519,6,0,L|427:217,1,50,8|8,0:0|0:0,0:0:0:0:
276,262,97647,2,0,L|190:257,1,50,8|8,0:0|0:0,0:0:0:0:
433,300,97775,2,0,L|280:292,1,150,2|0,0:0|0:0,0:0:0:0:
68,155,98032,6,0,L|72:223,1,50,8|8,0:0|0:0,0:0:0:0:
236,262,98160,2,0,L|322:257,1,50,8|8,0:0|0:0,0:0:0:0:
52,159,98288,6,0,L|79:221,1,50,8|8,0:0|0:0,0:0:0:0:
236,262,98417,2,0,L|322:257,1,50,8|8,0:0|0:0,0:0:0:0:
38,168,98545,6,0,L|84:217,1,50,8|8,0:0|0:0,0:0:0:0:
236,262,98673,2,0,L|322:257,1,50,8|8,0:0|0:0,0:0:0:0:
137,296,98801,2,0,L|32:288,1,100,2|2,0:0|0:0,0:0:0:0:
273,119,99057,6,0,L|387:119,1,100,8|8,0:0|0:0,0:0:0:0:
209,262,99250,2,0,L|95:262,1,100,8|8,0:0|0:0,0:0:0:0:
278,337,99442,2,0,L|216:335,1,50,8|0,0:0|0:0,0:0:0:0:
31,57,99570,6,0,L|145:57,1,100,8|8,0:0|0:0,0:0:0:0:
302,268,99762,2,0,L|416:268,1,100,8|8,0:0|0:0,0:0:0:0:
224,352,99955,2,0,L|286:350,1,50,8|0,0:0|0:0,0:0:0:0:
470,350,100083,1,4,0:0:0:0:
256,192,100147,12,0,100980,0:0:0:0:
175,125,101109,6,0,L|80:117,2,50,4|0|0,0:0|0:0|0:0,0:0:0:0:
245,130,101301,1,0,0:0:0:0:
315,134,101365,1,8,0:0:0:0:
321,182,101429,1,0,0:0:0:0:
297,225,101493,1,0,0:0:0:0:
253,246,101557,1,0,0:0:0:0:
391,308,101621,6,0,L|398:250,2,50,2|0|0,0:0|0:0|0:0,0:0:0:0:
325,336,101814,1,0,0:0:0:0:
260,349,101878,1,8,0:0:0:0:
212,340,101942,1,0,0:0:0:0:
193,296,102006,1,0,0:0:0:0:
218,255,102070,1,0,0:0:0:0:
69,180,102134,6,0,L|0:192,2,50,2|0|0,0:0|0:0|0:0,0:0:0:0:
137,193,102326,1,0,0:0:0:0:
205,223,102391,1,8,0:0:0:0:
209,271,102455,1,0,0:0:0:0:
183,313,102519,1,0,0:0:0:0:
137,330,102583,1,0,0:0:0:0:
331,105,102647,6,0,L|401:103,2,50,2|0|0,0:0|0:0|0:0,0:0:0:0:
198,179,102839,1,0,0:0:0:0:
65,105,102903,2,0,L|-5:103,2,50,8|0|0,0:0|0:0|0:0,0:0:0:0:
198,179,103095,1,0,0:0:0:0:
350,214,103160,6,0,L|402:219,2,50,2|0|0,0:0|0:0|0:0,0:0:0:0:
280,206,103352,1,0,0:0:0:0:
350,214,103416,1,8,0:0:0:0:
389,242,103480,1,0,0:0:0:0:
389,290,103544,1,0,0:0:0:0:
350,318,103608,1,0,0:0:0:0:
199,339,103673,6,0,L|189:285,2,50,2|0|0,0:0|0:0|0:0,0:0:0:0:
271,351,103865,1,0,0:0:0:0:
199,339,103929,1,8,0:0:0:0:
202,290,103993,1,0,0:0:0:0:
235,254,104057,1,0,0:0:0:0:
284,247,104121,1,0,0:0:0:0:
431,187,104185,6,0,L|483:183,2,50,2|0|0,0:0|0:0|0:0,0:0:0:0:
362,200,104378,1,0,0:0:0:0:
431,187,104442,1,8,0:0:0:0:
432,137,104506,1,0,0:0:0:0:
405,97,104570,1,0,0:0:0:0:
358,81,104634,1,0,0:0:0:0:
188,58,104698,6,0,L|117:66,2,50,2|0|0,0:0|0:0|0:0,0:0:0:0:
314,143,104891,1,0,0:0:0:0:
440,58,104955,2,0,L|511:66,2,50,8|0|0,0:0|0:0|0:0,0:0:0:0:
314,143,105148,1,0,0:0:0:0:
160,245,105211,6,0,L|96:252,2,50,2|0|0,0:0|0:0|0:0,0:0:0:0:
227,235,105403,1,0,0:0:0:0:
295,221,105468,1,8,0:0:0:0:
246,220,105532,1,0,0:0:0:0:
210,187,105596,1,0,0:0:0:0:
206,138,105660,1,0,0:0:0:0:
352,94,105724,6,0,L|362:161,2,50,2|0|0,0:0|0:0|0:0,0:0:0:0:
282,74,105916,1,0,0:0:0:0:
212,63,105980,1,8,0:0:0:0:
218,111,106044,1,0,0:0:0:0:
253,147,106108,1,0,0:0:0:0:
301,156,106172,1,0,0:0:0:0:
164,287,106237,6,0,L|100:299,2,50,2|0|0,0:0|0:0|0:0,0:0:0:0:
233,274,106429,1,0,0:0:0:0:
302,258,106493,1,8,0:0:0:0:
254,248,106557,1,0,0:0:0:0:
232,205,106621,1,0,0:0:0:0:
252,161,106685,1,0,0:0:0:0:
381,351,106750,6,0,L|443:343,2,50,2|0|0,0:0|0:0|0:0,0:0:0:0:
245,326,106942,1,0,0:0:0:0:
109,351,107006,2,0,L|47:343,2,50,8|0|0,0:0|0:0|0:0,0:0:0:0:
245,326,107198,1,0,0:0:0:0:
368,196,107262,6,0,L|424:194,2,50,2|0|0,0:0|0:0|0:0,0:0:0:0:
434,231,107455,1,0,0:0:0:0:
499,267,107519,1,8,0:0:0:0:
483,313,107583,1,0,0:0:0:0:
443,342,107647,1,0,0:0:0:0:
394,345,107711,1,0,0:0:0:0:
242,100,107775,6,0,L|186:98,2,50,2|0|0,0:0|0:0|0:0,0:0:0:0:
176,135,107968,1,0,0:0:0:0:
111,171,108032,1,8,0:0:0:0:
128,217,108096,1,0,0:0:0:0:
168,246,108160,1,0,0:0:0:0:
217,249,108224,1,0,0:0:0:0:
358,343,108288,6,0,L|282:341,1,50,6|0,0:0|0:0,0:0:0:0:
139,353,108416,1,6,0:0:0:0:
102,324,108480,1,0,0:0:0:0:
110,277,108544,1,0,0:0:0:0:
155,263,108608,1,0,0:0:0:0:
315,268,108673,2,0,L|319:202,1,50,6|0,0:0|0:0,0:0:0:0:
129,121,108801,6,0,L|193:109,1,50,2|2,0:0|0:0,0:0:0:0:
327,70,108929,2,0,L|263:58,1,50,2|2,0:0|0:0,0:0:0:0:
427,118,109057,2,0,L|436:293,1,150,8|0,0:0|0:0,0:0:0:0:
232,249,109314,5,4,0:0:0:0:
191,224,109378,1,0,0:0:0:0:
188,176,109442,1,0,0:0:0:0:
251,154,109506,1,0,0:0:0:0:
315,96,109570,2,0,L|259:80,1,50,8|0,0:0|0:0,0:0:0:0:
203,47,109698,2,0,L|259:31,1,50,0|0,0:0|0:0,0:0:0:0:
402,30,109826,5,2,0:0:0:0:
446,49,109890,1,0,0:0:0:0:
469,93,109954,1,0,0:0:0:0:
404,139,110019,1,0,0:0:0:0:
340,243,110083,2,0,L|396:227,1,50,8|0,0:0|0:0,0:0:0:0:
452,222,110211,2,0,L|436:166,1,50,0|0,0:0|0:0,0:0:0:0:
283,218,110339,5,2,0:0:0:0:
257,257,110403,1,0,0:0:0:0:
286,294,110467,1,0,0:0:0:0:
352,305,110532,1,0,0:0:0:0:
417,332,110596,2,0,L|483:319,1,50,8|0,0:0|0:0,0:0:0:0:
401,273,110724,2,0,L|335:260,1,50,0|0,0:0|0:0,0:0:0:0:
179,304,110852,6,0,L|113:294,1,50,2|0,0:0|0:0,0:0:0:0:
199,178,110980,2,0,L|265:168,1,50,0|0,0:0|0:0,0:0:0:0:
403,149,111109,2,0,L|469:139,1,50,8|0,0:0|0:0,0:0:0:0:
383,23,111237,2,0,L|317:13,1,50,0|0,0:0|0:0,0:0:0:0:
162,83,111365,5,2,0:0:0:0:
162,131,111429,1,0,0:0:0:0:
195,167,111493,1,0,0:0:0:0:
265,174,111557,1,0,0:0:0:0:
195,167,111621,2,0,L|135:171,1,50,8|0,0:0|0:0,0:0:0:0:
74,206,111750,2,0,L|95:259,1,50
238,315,111878,5,2,0:0:0:0:
278,288,111942,1,0,0:0:0:0:
288,241,112006,1,0,0:0:0:0:
219,234,112070,1,0,0:0:0:0:
288,241,112134,2,0,L|346:230,1,50,8|0,0:0|0:0,0:0:0:0:
407,204,112262,2,0,L|349:192,1,50,0|0,0:0|0:0,0:0:0:0:
182,131,112391,5,2,0:0:0:0:
193,178,112455,1,0,0:0:0:0:
235,203,112519,1,0,0:0:0:0:
302,209,112583,1,0,0:0:0:0:
235,203,112647,2,0,L|168:214,1,50,8|0,0:0|0:0,0:0:0:0:
253,248,112775,2,0,L|320:258,1,50,0|0,0:0|0:0,0:0:0:0:
162,324,112903,6,0,L|94:334,1,50,2|0,0:0|0:0,0:0:0:0:
42,268,113032,2,0,L|109:278,1,50,0|0,0:0|0:0,0:0:0:0:
265,179,113160,2,0,L|332:189,1,50,8|0,0:0|0:0,0:0:0:0:
385,123,113289,2,0,L|317:133,1,50,0|0,0:0|0:0,0:0:0:0:
123,271,113416,6,0,L|118:199,1,50,6|0,0:0|0:0,0:0:0:0:
293,112,113544,2,0,L|298:40,1,50,2|0,0:0|0:0,0:0:0:0:
216,62,113673,2,0,L|220:112,1,50,2|0,0:0|0:0,0:0:0:0:
300,128,113801,2,0,L|303:78,1,50,2|0,0:0|0:0,0:0:0:0:
162,28,113929,6,0,L|112:24,1,50,2|0,0:0|0:0,0:0:0:0:
34,90,114057,2,0,L|83:86,1,50,2|0,0:0|0:0,0:0:0:0:
269,140,114185,1,10,0:0:0:0:
271,189,114249,1,0,0:0:0:0:
244,229,114313,1,0,0:0:0:0:
197,245,114377,1,0,0:0:0:0:
389,271,114442,6,0,L|394:199,1,50,6|0,0:0|0:0,0:0:0:0:
219,112,114570,2,0,L|214:40,1,50,2|0,0:0|0:0,0:0:0:0:
296,62,114699,2,0,L|292:112,1,50,2|0,0:0|0:0,0:0:0:0:
212,128,114827,2,0,L|209:78,1,50,2|0,0:0|0:0,0:0:0:0:
350,28,114955,6,0,L|399:24,1,50,2|0,0:0|0:0,0:0:0:0:
478,90,115083,2,0,L|428:86,1,50,2|0,0:0|0:0,0:0:0:0:
243,140,115211,1,10,0:0:0:0:
240,189,115275,1,0,0:0:0:0:
267,229,115339,1,0,0:0:0:0:
314,245,115403,1,0,0:0:0:0:
452,275,115468,6,0,L|361:287,1,50,4|2,0:0|0:0,0:0:0:0:
244,343,115596,2,0,L|153:355,1,50,2|2,0:0|0:0,0:0:0:0:
336,350,115724,1,8,0:0:0:0:
330,301,115788,1,0,0:0:0:0:
295,266,115852,1,0,0:0:0:0:
246,259,115916,1,0,0:0:0:0:
60,275,115980,6,0,L|151:287,1,50,4|2,0:0|0:0,0:0:0:0:
268,343,116108,2,0,L|359:355,1,50,2|2,0:0|0:0,0:0:0:0:
176,350,116236,1,8,0:0:0:0:
181,301,116300,1,0,0:0:0:0:
216,266,116364,1,0,0:0:0:0:
265,259,116428,1,0,0:0:0:0:
451,274,116493,5,4,0:0:0:0:
256,192,116557,12,0,117519,0:0:0:0:
149,109,117775,6,0,L|224:103,1,50,12|0,0:0|0:0,0:0:0:0:
360,229,117903,2,0,L|435:223,1,50,0|0,0:0|0:0,0:0:0:0:
224,288,118032,5,2,0:0:0:0:
222,238,118096,1,0,0:0:0:0:
251,199,118160,1,0,0:0:0:0:
299,187,118224,1,0,0:0:0:0:
374,160,118288,2,0,L|299:153,1,50,8|0,0:0|0:0,0:0:0:0:
249,103,118416,2,0,L|256:28,1,50,0|0,0:0|0:0,0:0:0:0:
422,91,118544,5,2,0:0:0:0:
418,140,118608,1,0,0:0:0:0:
387,178,118672,1,0,0:0:0:0:
340,193,118736,1,0,0:0:0:0:
205,287,118801,2,0,L|263:291,1,50,8|0,0:0|0:0,0:0:0:0:
380,329,118929,2,0,L|384:271,1,50,0|0,0:0|0:0,0:0:0:0:
228,175,119057,5,2,0:0:0:0:
184,197,119121,1,0,0:0:0:0:
165,242,119185,1,0,0:0:0:0:
178,289,119249,1,0,0:0:0:0:
315,332,119314,2,0,L|365:317,1,50,8|0,0:0|0:0,0:0:0:0:
285,281,119442,2,0,L|235:266,1,50,0|0,0:0|0:0,0:0:0:0:
73,245,119570,5,2,0:0:0:0:
88,292,119634,1,0,0:0:0:0:
123,326,119698,1,0,0:0:0:0:
171,341,119762,1,0,0:0:0:0:
246,360,119826,2,0,L|178:358,1,50,8|0,0:0|0:0,0:0:0:0:
50,251,119955,2,0,L|52:183,1,50,0|0,0:0|0:0,0:0:0:0:
239,190,120083,6,0,L|241:122,1,50,2|0,0:0|0:0,0:0:0:0:
167,109,120211,1,0,0:0:0:0:
121,127,120275,1,0,0:0:0:0:
102,171,120339,1,8,0:0:0:0:
119,217,120403,1,0,0:0:0:0:
196,250,120468,2,0,L|278:233,1,50,0|0,0:0|0:0,0:0:0:0:
402,241,120596,5,2,0:0:0:0:
443,264,120660,1,0,0:0:0:0:
441,311,120724,1,0,0:0:0:0:
397,329,120788,1,0,0:0:0:0:
265,353,120852,2,0,L|203:345,1,50,8|0,0:0|0:0,0:0:0:0:
361,206,120980,2,0,L|369:144,1,50,0|0,0:0|0:0,0:0:0:0:
199,183,121109,5,2,0:0:0:0:
150,175,121173,1,0,0:0:0:0:
119,137,121237,1,0,0:0:0:0:
122,88,121301,1,0,0:0:0:0:
273,115,121365,2,0,L|205:105,1,50,8|0,0:0|0:0,0:0:0:0:
148,117,121493,2,0,L|158:49,1,50,0|0,0:0|0:0,0:0:0:0:
323,130,121621,5,2,0:0:0:0:
306,176,121685,1,0,0:0:0:0:
270,210,121749,1,0,0:0:0:0:
222,222,121813,1,0,0:0:0:0:
300,278,121878,2,0,L|358:272,1,50,8|0,0:0|0:0,0:0:0:0:
197,343,122006,2,0,L|203:285,1,50,0|0,0:0|0:0,0:0:0:0:
365,175,122134,6,0,L|307:169,1,50,2|0,0:0|0:0,0:0:0:0:
241,166,122262,1,0,0:0:0:0:
216,124,122326,1,0,0:0:0:0:
234,79,122390,1,8,0:0:0:0:
280,64,122454,1,0,0:0:0:0:
201,54,122519,2,0,L|192:-13,1,50,0|0,0:0|0:0,0:0:0:0:
369,113,122647,5,2,0:0:0:0:
379,160,122711,1,0,0:0:0:0:
357,204,122775,1,0,0:0:0:0:
312,223,122839,1,0,0:0:0:0:
175,316,122903,2,0,L|108:307,1,50,8|0,0:0|0:0,0:0:0:0:
274,376,123032,2,0,L|341:367,1,50,0|0,0:0|0:0,0:0:0:0:
460,315,123160,5,2,0:0:0:0:
457,265,123224,1,0,0:0:0:0:
425,228,123288,1,0,0:0:0:0:
376,218,123352,1,0,0:0:0:0:
213,235,123416,2,0,L|222:177,1,50,8|0,0:0|0:0,0:0:0:0:
304,170,123544,2,0,L|313:112,1,50,0|0,0:0|0:0,0:0:0:0:
158,126,123673,5,2,0:0:0:0:
164,174,123737,1,0,0:0:0:0:
198,210,123801,1,0,0:0:0:0:
247,220,123865,1,0,0:0:0:0:
189,285,123929,2,0,L|124:293,1,50,8|0,0:0|0:0,0:0:0:0:
311,367,124057,2,0,L|318:300,1,50,0|0,0:0|0:0,0:0:0:0:
165,73,124185,6,0,L|100:81,1,50,2|0,0:0|0:0,0:0:0:0:
265,233,124314,2,0,L|330:241,1,50,2|0,0:0|0:0,0:0:0:0:
169,203,124442,2,0,L|177:138,1,50,8|0,0:0|0:0,0:0:0:0:
347,65,124570,2,0,L|412:73,1,50,2|2,0:0|0:0,0:0:0:0:
249,254,124698,5,2,0:0:0:0:
245,204,124762,1,0,0:0:0:0:
271,163,124826,1,0,0:0:0:0:
317,146,124890,1,0,0:0:0:0:
398,116,124955,2,0,L|336:112,1,50,8|0,0:0|0:0,0:0:0:0:
194,174,125083,6,0,L|132:170,1,50,2|0,0:0|0:0,0:0:0:0:
223,130,125211,1,0,0:0:0:0:
269,147,125275,1,0,0:0:0:0:
295,188,125339,1,2,0:0:0:0:
291,237,125403,1,0,0:0:0:0:
159,280,125468,6,0,L|151:338,1,50,0|0,0:0|0:0,0:0:0:0:
316,170,125596,2,0,L|258:162,1,50,2|2,0:0|0:0,0:0:0:0:
81,175,125724,6,0,L|73:117,1,50,4|0,0:0|0:0,0:0:0:0:
151,128,125852,1,0,0:0:0:0:
168,172,125916,1,0,0:0:0:0:
141,212,125980,1,8,0:0:0:0:
93,213,126044,1,0,0:0:0:0:
241,282,126109,2,0,L|292:274,1,50,0|0,0:0|0:0,0:0:0:0:
440,353,126237,6,0,L|491:345,1,50,2|0,0:0|0:0,0:0:0:0:
413,327,126365,1,0,0:0:0:0:
364,319,126429,1,0,0:0:0:0:
329,284,126493,1,8,0:0:0:0:
323,236,126557,1,0,0:0:0:0:
398,194,126621,2,0,L|391:254,1,50,0|0,0:0|0:0,0:0:0:0:
226,281,126750,5,2,0:0:0:0:
196,242,126814,1,0,0:0:0:0:
207,196,126878,1,0,0:0:0:0:
251,176,126942,1,0,0:0:0:0:
388,63,127006,2,0,L|305:61,1,50,8|0,0:0|0:0,0:0:0:0:
192,162,127134,2,0,L|109:160,1,50,0|0,0:0|0:0,0:0:0:0:
295,271,127262,6,0,L|301:201,1,50,2|0,0:0|0:0,0:0:0:0:
226,165,127391,2,0,L|156:159,1,50,0|0,0:0|0:0,0:0:0:0:
333,146,127519,1,8,0:0:0:0:
375,122,127583,1,0,0:0:0:0:
381,74,127647,1,0,0:0:0:0:
346,41,127711,1,0,0:0:0:0:
170,61,127775,5,2,0:0:0:0:
173,110,127839,1,0,0:0:0:0:
203,149,127903,1,0,0:0:0:0:
249,167,127967,1,0,0:0:0:0:
325,181,128032,2,0,L|315:250,1,50,8|0,0:0|0:0,0:0:0:0:
168,314,128160,2,0,L|118:318,1,50,0|0,0:0|0:0,0:0:0:0:
269,321,128288,6,0,L|259:390,1,50,2|0,0:0|0:0,0:0:0:0:
187,368,128416,1,0,0:0:0:0:
157,329,128480,1,0,0:0:0:0:
166,281,128544,1,8,0:0:0:0:
208,256,128608,1,0,0:0:0:0:
284,237,128673,2,0,L|220:229,1,50,0|0,0:0|0:0,0:0:0:0:
64,214,128801,5,2,0:0:0:0:
77,166,128865,1,0,0:0:0:0:
113,132,128929,1,0,0:0:0:0:
161,120,128993,1,0,0:0:0:0:
31,117,129057,2,0,L|27:59,1,50,8|0,0:0|0:0,0:0:0:0:
223,75,129185,2,0,L|281:71,1,50
112,158,129314,5,2,0:0:0:0:
121,206,129378,1,0,0:0:0:0:
158,239,129442,1,0,0:0:0:0:
207,243,129506,1,0,0:0:0:0:
393,241,129570,2,0,L|385:311,1,50,8|0,0:0|0:0,0:0:0:0:
335,356,129698,2,0,L|265:348,1,50,0|0,0:0|0:0,0:0:0:0:
145,345,129826,6,0,L|85:341,1,50,6|0,0:0|0:0,0:0:0:0:
253,323,129955,1,6,0:0:0:0:
283,285,130019,1,0,0:0:0:0:
267,240,130083,1,0,0:0:0:0:
220,230,130147,1,0,0:0:0:0:
367,345,130211,6,0,L|427:341,1,50,6|0,0:0|0:0,0:0:0:0:
259,323,130340,1,6,0:0:0:0:
228,285,130404,1,0,0:0:0:0:
244,240,130468,1,0,0:0:0:0:
291,230,130532,1,0,0:0:0:0:
131,215,130596,6,0,L|122:151,1,50,6|0,0:0|0:0,0:0:0:0:
296,141,130724,1,6,0:0:0:0:
294,91,130788,1,0,0:0:0:0:
262,54,130852,1,0,0:0:0:0:
214,45,130916,1,0,0:0:0:0:
381,215,130980,6,0,L|390:151,1,50,6|0,0:0|0:0,0:0:0:0:
216,141,131108,1,6,0:0:0:0:
217,91,131172,1,0,0:0:0:0:
249,54,131236,1,0,0:0:0:0:
297,45,131300,1,0,0:0:0:0:
149,104,131365,6,0,L|93:87,1,50,6|0,0:0|0:0,0:0:0:0:
310,117,131493,2,0,L|296:164,1,50,6|0,0:0|0:0,0:0:0:0:
216,164,131621,2,0,L|202:211,1,50,0|0,0:0|0:0,0:0:0:0:
363,104,131750,2,0,L|419:87,1,50,6|0,0:0|0:0,0:0:0:0:
245,59,131878,5,2,0:0:0:0:
211,72,131942,1,2,0:0:0:0:
191,103,132006,1,2,0:0:0:0:
192,140,132070,1,2,0:0:0:0:
215,169,132134,1,2,0:0:0:0:
349,237,132262,6,0,L|362:316,4,50,2|2|2|2|2,0:0|0:0|0:0|0:0|0:0,0:0:0:0:
202,348,132647,6,0,L|193:278,1,50,2|2,0:0|0:0,0:0:0:0:
269,307,132775,2,0,L|278:237,1,50,2|2,0:0|0:0,0:0:0:0:
193,234,132903,1,2,0:0:0:0:
50,183,133032,6,0,L|61:130,1,50,2|2,0:0|0:0,0:0:0:0:
137,101,133160,2,0,L|193:90,1,50,2|2,0:0|0:0,0:0:0:0:
28,43,133288,2,0,L|102:32,1,50,2|2,0:0|0:0,0:0:0:0:
259,36,133416,5,4,0:0:0:0:
289,109,133501,1,0,0:0:0:0:
283,188,133586,1,0,0:0:0:0:
243,257,133672,1,0,0:0:0:0:
177,302,133757,1,0,0:0:0:0:
99,313,133843,1,0,0:0:0:0:
319,365,133929,5,6,0:0:0:0:
332,313,134014,1,0,0:0:0:0:
323,261,134099,1,0,0:0:0:0:
293,218,134185,1,0,0:0:0:0:
246,193,134270,1,0,0:0:0:0:
194,189,134356,1,0,0:0:0:0:
263,177,134442,5,2,0:0:0:0:
315,173,134528,1,0,0:0:0:0:
362,148,134613,1,0,0:0:0:0:
392,105,134699,1,0,0:0:0:0:
401,53,134784,1,0,0:0:0:0:
388,1,134869,1,0,0:1:0:0:
269,365,134955,5,10,0:0:0:0:
256,313,135040,1,0,0:0:0:0:
265,261,135125,1,0,0:0:0:0:
295,218,135211,1,0,0:0:0:0:
342,193,135296,1,0,0:0:0:0:
394,189,135382,1,0,0:0:0:0:
325,177,135468,5,2,0:0:0:0:
273,173,135554,1,0,0:0:0:0:
226,148,135639,1,0,0:0:0:0:
196,105,135725,1,2,0:0:0:0:
187,53,135810,1,0,0:0:0:0:
200,1,135895,1,0,0:1:0:0:
276,1,135980,5,0,0:0:0:0:
274,52,136065,1,0,0:0:0:0:
234,84,136150,1,0,0:0:0:0:
182,119,136237,1,0,0:0:0:0:
156,162,136322,1,0,0:0:0:0:
185,202,136407,1,0,0:0:0:0:
243,223,136493,5,2,0:0:0:0:
246,275,136578,1,0,0:0:0:0:
228,325,136663,1,0,0:0:0:0:
192,364,136749,1,0,0:0:0:0:
143,384,136834,1,0,0:0:0:0:
90,384,136920,1,0,0:0:0:0:
212,322,137006,5,8,0:0:0:0:
225,270,137091,1,0,0:0:0:0:
214,218,137176,1,0,0:0:0:0:
181,177,137262,1,0,0:0:0:0:
134,153,137347,1,0,0:0:0:0:
81,153,137433,1,0,0:0:0:0:
191,97,137519,5,8,0:0:0:0:
224,135,137604,1,0,0:0:0:0:
210,184,137689,1,0,0:0:0:0:
140,204,137775,1,0,0:0:0:0:
89,195,137860,1,0,0:0:0:0:
67,149,137945,1,0,0:0:0:0:
182,68,138032,5,2,0:0:0:0:
231,107,138117,1,0,0:0:0:0:
248,167,138202,1,0,0:0:0:0:
227,227,138288,1,0,0:0:0:0:
175,263,138373,1,0,0:0:0:0:
112,262,138459,1,0,0:0:0:0:
196,194,138544,5,2,0:0:0:0:
249,191,138629,1,0,0:0:0:0:
303,187,138714,1,0,0:0:0:0:
364,139,138801,1,0,0:0:0:0:
311,136,138886,1,0,0:0:0:0:
257,132,138971,1,0,0:0:0:0:
153,116,139057,5,10,0:0:0:0:
118,155,139142,1,0,0:0:0:0:
103,206,139227,1,0,0:0:0:0:
112,259,139313,1,0,0:0:0:0:
142,302,139398,1,0,0:0:0:0:
188,329,139484,1,0,0:0:0:0:
294,362,139569,5,0,0:0:0:0:
345,367,139656,1,0,0:0:0:0:
386,335,139741,1,0,0:0:0:0:
392,283,139826,1,2,0:0:0:0:
360,243,139912,1,0,0:0:0:0:
308,237,139997,1,0,0:0:0:0:
234,234,140083,5,0,0:0:0:0:
188,208,140168,1,0,0:0:0:0:
165,161,140253,1,0,0:0:0:0:
174,109,140339,1,0,0:0:0:0:
212,73,140424,1,0,0:0:0:0:
264,66,140510,1,0,0:0:0:0:
321,66,140596,5,2,0:0:0:0:
373,73,140682,1,0,0:0:0:0:
411,109,140767,1,0,0:0:0:0:
420,161,140853,1,2,0:0:0:0:
397,208,140938,1,0,0:0:0:0:
352,234,141023,1,0,0:0:0:0:
231,241,141109,5,8,0:0:0:0:
189,214,141194,1,0,0:0:0:0:
208,169,141279,1,0,0:0:0:0:
303,169,141365,1,0,0:0:0:0:
322,214,141450,1,0,0:0:0:0:
281,241,141535,1,0,0:0:0:0:
208,169,141621,5,8,0:0:0:0:
189,214,141707,1,0,0:0:0:0:
231,241,141792,1,0,0:0:0:0:
281,241,141878,1,0,0:0:0:0:
322,214,141963,1,0,0:0:0:0:
303,169,142049,1,0,0:0:0:0:
93,90,142134,6,0,L|37:93,2,53.3333333333333,4|0|0,0:0|0:0|0:0,0:0:0:0:
171,136,142391,2,0,L|227:139,2,53.3333333333333,2|0|0,0:0|0:0|0:0,0:0:0:0:
103,146,142647,6,0,L|47:149,2,53.3333333333333,2|0|0,0:0|0:0|0:0,0:0:0:0:
181,192,142904,2,0,L|237:195,2,53.3333333333333,2|0|0,0:0|0:0|0:0,0:0:0:0:
113,220,143160,6,0,L|57:223,2,53.3333333333333,2|0|0,0:0|0:0|0:0,0:0:0:0:
191,266,143417,2,0,L|247:269,2,53.3333333333333,2|0|0,0:0|0:0|0:0,0:0:0:0:
87,332,143673,5,2,0:0:0:0:
169,321,143758,1,0,0:0:0:0:
252,308,143844,1,0,0:0:0:0:
154,299,143929,1,2,0:0:0:0:
116,266,144014,1,0,0:0:0:0:
132,218,144099,1,0,0:0:0:0:
419,90,144185,6,0,L|475:93,2,53.3333333333333,2|0|0,0:0|0:0|0:0,0:0:0:0:
341,136,144442,2,0,L|285:139,2,53.3333333333333,2|0|0,0:0|0:0|0:0,0:0:0:0:
409,146,144698,6,0,L|465:149,2,53.3333333333333,2|0|0,0:0|0:0|0:0,0:0:0:0:
331,192,144955,2,0,L|275:195,2,53.3333333333333,2|0|0,0:0|0:0|0:0,0:0:0:0:
399,220,145211,6,0,L|455:223,2,53.3333333333333,2|0|0,0:0|0:0|0:0,0:0:0:0:
321,266,145468,2,0,L|265:269,2,53.3333333333333,2|0|0,0:0|0:0|0:0,0:0:0:0:
410,260,145724,5,2,0:0:0:0:
426,307,145809,1,0,0:0:0:0:
388,340,145894,1,0,0:0:0:0:
290,354,145979,1,2,0:0:0:0:
373,362,146065,1,0,0:0:0:0:
455,367,146150,1,0,0:0:0:0:
238,324,146237,6,0,L|170:316,2,53.3333333333333,2|0|0,0:0|0:0|0:0,0:0:0:0:
324,331,146493,1,2,0:0:0:0:
334,281,146578,1,0,0:0:0:0:
296,246,146663,1,0,0:0:0:0:
205,185,146750,6,0,L|137:177,2,53.3333333333333,2|0|0,0:0|0:0|0:0,0:0:0:0:
291,192,147006,1,2,0:0:0:0:
301,142,147091,1,0,0:0:0:0:
263,107,147176,1,0,0:0:0:0:
173,83,147262,6,0,L|105:75,2,53.3333333333333,2|0|0,0:0|0:0|0:0,0:0:0:0:
259,90,147518,1,2,0:0:0:0:
269,40,147603,1,0,0:0:0:0:
231,5,147690,1,0,0:0:0:0:
135,38,147775,5,2,0:0:0:0:
218,55,147861,1,0,0:0:0:0:
300,72,147946,1,0,0:0:0:0:
197,95,148032,1,2,0:0:0:0:
146,106,148117,1,0,0:0:0:0:
123,153,148203,1,0,0:0:0:0:
274,324,148288,6,0,L|342:316,2,53.3333333333333,2|0|0,0:0|0:0|0:0,0:0:0:0:
188,331,148544,1,2,0:0:0:0:
178,281,148629,1,0,0:0:0:0:
216,246,148714,1,0,0:0:0:0:
307,185,148801,6,0,L|375:177,2,53.3333333333333,2|0|0,0:0|0:0|0:0,0:0:0:0:
221,192,149057,1,2,0:0:0:0:
211,142,149142,1,0,0:0:0:0:
249,107,149227,1,0,0:0:0:0:
339,83,149314,6,0,L|407:75,2,53.3333333333333,2|0|0,0:0|0:0|0:0,0:0:0:0:
253,90,149569,1,2,0:0:0:0:
243,40,149656,1,0,0:0:0:0:
281,5,149741,1,0,0:0:0:0:
380,190,149826,5,2,0:0:0:0:
357,143,149912,1,0,0:0:0:0:
307,131,149997,1,2,0:0:0:0:
209,108,150083,1,2,0:0:0:0:
286,91,150168,1,0,0:0:0:0:
369,74,150254,1,2,0:0:0:0:
189,168,150339,6,0,L|71:162,1,100,8|2,0:0|0:0,0:0:0:0:
345,309,150596,2,0,L|463:303,1,100,8|2,0:0|0:0,0:0:0:0:
328,195,150852,2,0,L|446:189,1,100,8|2,0:0|0:0,0:0:0:0:
156,101,151109,1,8,0:0:0:0:
356,101,151237,1,8,0:0:0:0:
137,348,151365,6,0,L|19:342,1,100,8|2,0:0|0:0,0:0:0:0:
154,234,151621,2,0,L|36:228,1,100,8|2,0:0|0:0,0:0:0:0:
171,120,151878,2,0,L|53:114,1,100,8|2,0:0|0:0,0:0:0:0:
310,41,152134,2,0,L|238:36,1,50,8|8,0:0|0:0,0:0:0:0:
120,117,152262,2,0,L|48:112,1,50,8|8,0:0|0:0,0:0:0:0:
253,302,152391,6,0,L|360:292,1,100,8|2,0:0|0:0,0:0:0:0:
220,188,152647,2,0,L|327:178,1,100,8|2,0:0|0:0,0:0:0:0:
452,109,152903,2,0,L|345:99,1,100,8|2,0:0|0:0,0:0:0:0:
124,72,153160,1,8,0:0:0:0:
388,72,153288,1,8,0:0:0:0:
89,275,153416,5,8,0:0:0:0:
306,176,153544,1,8,0:0:0:0:
256,169,153608,1,8,0:0:0:0:
206,163,153672,1,8,0:0:0:0:
423,275,153801,2,0,L|427:217,1,50,8|8,0:0|0:0,0:0:0:0:
278,242,153929,5,8,0:0:0:0:
253,240,153961,1,8,0:0:0:0:
228,238,153993,1,8,0:0:0:0:
89,275,154057,2,0,L|85:217,1,50,8|8,0:0|0:0,0:0:0:0:
219,140,154185,2,0,L|215:82,1,50,8|8,0:0|0:0,0:0:0:0:
134,96,154314,2,0,L|130:38,1,50,8|8,0:0|0:0,0:0:0:0:
294,33,154442,6,0,L|356:31,1,50,8|8,0:0|0:0,0:0:0:0:
491,129,154570,2,0,L|478:81,1,50,8|8,0:0|0:0,0:0:0:0:
265,28,154698,6,0,L|314:18,1,50,8|8,0:0|0:0,0:0:0:0:
490,129,154826,2,0,L|469:84,1,50,8|8,0:0|0:0,0:0:0:0:
237,29,154955,6,0,L|294:6,1,50,8|8,0:0|0:0,0:0:0:0:
490,128,155083,2,0,L|461:88,1,50,8|8,0:0|0:0,0:0:0:0:
321,294,155211,2,0,P|346:238|443:211,1,150,2|0,0:0|0:0,0:0:0:0:
218,33,155468,6,0,L|156:31,1,50,8|8,0:0|0:0,0:0:0:0:
20,129,155596,2,0,L|34:81,1,50,8|8,0:0|0:0,0:0:0:0:
247,28,155724,6,0,L|186:16,1,50,8|8,0:0|0:0,0:0:0:0:
21,129,155852,2,0,L|43:84,1,50,8|8,0:0|0:0,0:0:0:0:
275,29,155981,6,0,L|218:6,1,50,8|8,0:0|0:0,0:0:0:0:
21,128,156109,2,0,L|51:88,1,50,8|0,0:0|0:0,0:0:0:0:
191,294,156237,2,0,P|166:238|69:211,1,150,2|0,0:0|0:0,0:0:0:0:
244,161,156493,6,0,L|304:151,1,50,8|8,0:0|0:0,0:0:0:0:
146,65,156621,2,0,L|206:55,1,50,8|8,0:0|0:0,0:0:0:0:
350,50,156750,2,0,P|402:93|346:145,1,150,2|0,0:0|0:0,0:0:0:0:
205,268,157006,6,0,L|145:258,1,50,8|8,0:0|0:0,0:0:0:0:
303,172,157134,2,0,L|243:162,1,50,8|8,0:0|0:0,0:0:0:0:
99,157,157263,2,0,P|47:200|103:252,1,150,2|0,0:0|0:0,0:0:0:0:
252,343,157519,6,0,L|358:337,1,100,8|8,0:0|0:0,0:0:0:0:
132,139,157711,2,0,L|26:133,1,100,8|8,0:0|0:0,0:0:0:0:
233,29,157903,2,0,L|283:27,1,50,8|0,0:0|0:0,0:0:0:0:
488,136,158032,6,0,L|389:142,1,100,8|8,0:0|0:0,0:0:0:0:
183,286,158224,2,0,L|282:291,1,100,8|8,0:0|0:0,0:0:0:0:
76,217,158416,2,0,L|-7:212,1,50,8|0,0:0|0:0,0:0:0:0:
251,215,158544,5,2,0:0:0:0:
279,209,158608,1,2,0:0:0:0:
301,191,158672,1,2,0:0:0:0:
312,164,158736,1,2,0:0:0:0:
309,136,158800,1,2,0:0:0:0:
294,113,158864,1,2,0:0:0:0:
269,99,158928,1,2,0:0:0:0:
241,98,158992,1,2,0:0:0:0:
208,103,159057,5,2,0:0:0:0:
189,134,159121,1,2,0:0:0:0:
192,170,159185,1,2,0:0:0:0:
217,197,159249,1,2,0:0:0:0:
254,202,159313,1,2,0:0:0:0:
291,207,159378,1,2,0:0:0:0:
316,234,159442,1,2,0:0:0:0:
319,270,159506,1,2,0:0:0:0:
299,302,159570,5,2,0:0:0:0:
251,304,159634,1,2,0:0:0:0:
216,271,159698,1,2,0:0:0:0:
217,222,159762,1,2,0:0:0:0:
247,182,159826,1,2,0:0:0:0:
265,227,159890,1,2,0:0:0:0:
243,271,159954,1,2,0:0:0:0:
197,285,160018,1,2,0:0:0:0:
144,272,160083,5,2,0:0:0:0:
109,226,160147,1,2,0:0:0:0:
128,172,160211,1,2,0:0:0:0:
183,158,160275,1,2,0:0:0:0:
238,153,160339,1,2,0:0:0:0:
273,107,160403,1,2,0:0:0:0:
254,53,160467,1,2,0:0:0:0:
199,39,160531,1,2,0:0:0:0:
139,43,160596,5,2,0:0:0:0:
101,94,160660,1,2,0:0:0:0:
118,156,160724,1,2,0:0:0:0:
178,179,160788,1,2,0:0:0:0:
245,192,160852,1,2,0:0:0:0:
308,188,160916,1,2,0:0:0:0:
334,245,160980,1,2,0:0:0:0:
289,289,161044,1,2,0:0:0:0:
224,289,161109,5,2,0:0:0:0:
179,245,161173,1,2,0:0:0:0:
205,188,161237,1,2,0:0:0:0:
267,192,161301,1,2,0:0:0:0:
335,179,161365,1,2,0:0:0:0:
395,156,161429,1,2,0:0:0:0:
412,94,161493,1,2,0:0:0:0:
373,43,161557,1,2,0:0:0:0:
305,31,161621,5,2,0:0:0:0:
247,34,161685,1,2,0:0:0:0:
189,38,161749,1,2,0:0:0:0:
253,83,161814,1,2,0:0:0:0:
317,77,161878,1,2,0:0:0:0:
259,80,161942,1,2,0:0:0:0:
201,84,162006,1,2,0:0:0:0:
265,129,162071,1,2,0:0:0:0:
328,186,162134,6,0,L|187:194,1,100,4|0,0:0|0:0,0:0:0:0:
81,319,162326,6,0,L|222:327,1,100,4|0,0:0|0:0,0:0:0:0:
370,343,162519,6,0,L|298:349,1,50,4|0,0:0|0:0,0:0:0:0:
141,352,162647,6,0,L|134:286,1,59.9999981689454,4|0,0:0|0:0,0:0:0:0:
344,156,162775,2,0,L|403:158,1,59.9999981689454,2|0,0:0|0:0,0:0:0:0:
190,247,162903,1,2,0:0:0:0:
133,231,162967,1,0,0:0:0:0:
104,181,163031,1,0,0:0:0:0:
119,124,163095,1,0,0:0:0:0:
280,321,163160,6,0,L|359:314,1,59.9999981689454,2|0,0:0|0:0,0:0:0:0:
254,269,163288,2,0,L|238:196,1,59.9999981689454
395,92,163416,2,0,L|322:108,1,59.9999981689454,2|0,0:0|0:0,0:0:0:0:
265,175,163544,2,0,L|281:248,1,59.9999981689454,0|0,0:0|0:0,0:0:0:0:
430,308,163673,6,0,L|503:292,1,59.9999981689454,2|0,0:0|0:0,0:0:0:0:
407,235,163801,2,0,L|334:219,1,59.9999981689454
203,111,163929,2,0,L|190:169,1,59.9999981689454,2|0,0:0|0:0,0:0:0:0:
269,216,164057,2,0,L|256:274,1,59.9999981689454,0|0,0:0|0:0,0:0:0:0:
108,266,164185,6,0,L|95:324,1,59.9999981689454,2|0,0:0|0:0,0:0:0:0:
175,366,164314,2,0,L|233:378,1,59.9999981689454,0|0,0:0|0:0,0:0:0:0:
45,231,164442,2,0,L|57:172,1,59.9999981689454,2|0,0:0|0:0,0:0:0:0:
248,103,164570,2,0,L|306:115,1,59.9999981689454,0|0,0:0|0:0,0:0:0:0:
160,173,164698,5,2,0:0:0:0:
141,228,164762,1,0,0:0:0:0:
169,279,164826,1,0,0:0:0:0:
226,293,164890,1,0,0:0:0:0:
299,282,164955,2,0,L|363:270,1,59.9999981689454,2|0,0:0|0:0,0:0:0:0:
281,264,165083,2,0,L|264:173,1,59.9999981689454,0|0,0:0|0:0,0:0:0:0:
468,124,165211,6,0,L|459:64,1,59.9999981689454,2|0,0:0|0:0,0:0:0:0:
370,43,165339,2,0,L|300:51,1,59.9999981689454
461,228,165468,2,0,L|453:158,1,59.9999981689454,2|0,0:0|0:0,0:0:0:0:
375,180,165596,2,0,L|278:163,1,59.9999981689454,0|0,0:0|0:0,0:0:0:0:
172,79,165724,6,0,L|102:87,1,59.9999981689454,2|0,0:0|0:0,0:0:0:0:
34,147,165852,2,0,L|104:155,1,59.9999981689454,0|0,0:0|0:0,0:0:0:0:
261,282,165980,2,0,L|269:212,1,59.9999981689454,2|0,0:0|0:0,0:0:0:0:
186,216,166109,2,0,L|178:146,1,59.9999981689454,0|0,0:0|0:0,0:0:0:0:
353,167,166237,5,2,0:0:0:0:
403,139,166301,1,0,0:0:0:0:
402,82,166365,1,0,0:0:0:0:
352,55,166429,1,0,0:0:0:0:
278,23,166493,2,0,L|364:23,1,59.9999981689454,2|0,0:0|0:0,0:0:0:0:
412,19,166621,2,0,L|503:21,1,59.9999981689454,0|0,0:0|0:0,0:0:0:0:
253,193,166750,5,2,0:0:0:0:
173,193,166835,1,0,0:0:0:0:
173,193,166921,1,0,0:0:0:0:
253,193,167006,1,2,0:0:0:0:
173,193,167091,1,0,0:0:0:0:
93,193,167177,1,0,0:0:0:0:
258,193,167262,5,2,0:0:0:0:
338,193,167347,1,0,0:0:0:0:
338,193,167433,1,0,0:0:0:0:
258,193,167518,1,2,0:0:0:0:
338,193,167603,1,0,0:0:0:0:
418,193,167689,1,0,0:0:0:0:
173,193,167775,5,2,0:0:0:0:
93,193,167861,1,0,0:0:0:0:
93,193,167946,1,0,0:0:0:0:
173,193,168032,1,2,0:0:0:0:
252,193,168117,1,0,0:0:0:0:
173,193,168203,1,0,0:0:0:0:
338,193,168288,5,2,0:0:0:0:
418,193,168374,1,0,0:0:0:0:
418,193,168459,1,0,0:0:0:0:
338,193,168545,1,2,0:0:0:0:
259,193,168630,1,0,0:0:0:0:
338,193,168716,1,0,0:0:0:0:
186,193,168801,5,2,0:0:0:0:
23,242,168886,1,2,0:0:0:0:
186,193,168972,1,2,0:0:0:0:
23,242,169057,1,2,0:0:0:0:
102,265,169143,1,0,0:0:0:0:
261,309,169228,1,2,0:0:0:0:
489,242,169314,5,2,0:0:0:0:
326,193,169399,1,2,0:0:0:0:
489,242,169485,1,2,0:0:0:0:
326,193,169570,1,2,0:0:0:0:
242,170,169656,1,0,0:0:0:0:
81,148,169741,1,2,0:0:0:0:
242,170,169826,6,0,L|233:53,1,79.9999975585938,6|0,0:0|0:0,0:0:0:0:
40,38,169997,2,0,L|157:29,1,79.9999975585938,6|0,0:0|0:0,0:0:0:0:
292,185,170168,2,0,L|175:176,1,79.9999975585938,6|0,0:0|0:0,0:0:0:0:
386,249,170339,5,2,0:0:0:0:
387,139,170424,1,0,0:0:0:0:
310,62,170509,1,2,0:0:0:0:
201,63,170595,1,0,0:0:0:0:
126,142,170680,1,2,0:0:0:0:
129,251,170766,1,0,0:0:0:0:
447,351,170852,5,4,0:0:0:0:
461,294,170916,1,0,0:0:0:0:
431,243,170980,1,0,0:0:0:0:
374,228,171044,1,0,0:0:0:0:
221,212,171109,2,0,L|314:206,1,59.9999981689454,2|0,0:0|0:0,0:0:0:0:
348,253,171237,2,0,L|441:247,1,59.9999981689454
235,341,171365,6,0,L|209:252,1,59.9999981689454,2|0,0:0|0:0,0:0:0:0:
301,251,171493,2,0,L|275:162,1,59.9999981689454,0|0,0:0|0:0,0:0:0:0:
112,72,171621,2,0,L|23:98,1,59.9999981689454,2|0,0:0|0:0,0:0:0:0:
134,111,171750,2,0,L|223:137,1,59.9999981689454,0|0,0:0|0:0,0:0:0:0:
356,299,171878,6,0,L|382:210,1,59.9999981689454,2|0,0:0|0:0,0:0:0:0:
299,184,172006,2,0,L|210:158,1,59.9999981689454,0|0,0:0|0:0,0:0:0:0:
411,50,172134,2,0,L|385:139,1,59.9999981689454,2|0,0:0|0:0,0:0:0:0:
322,131,172262,2,0,L|233:105,1,59.9999981689454,0|0,0:0|0:0,0:0:0:0:
107,211,172391,6,0,L|18:185,1,59.9999981689454,2|0,0:0|0:0,0:0:0:0:
127,155,172519,2,0,L|216:129,1,59.9999981689454,0|0,0:0|0:0,0:0:0:0:
353,136,172647,2,0,L|379:225,1,59.9999981689454,2|0,0:0|0:0,0:0:0:0:
192,278,172775,2,0,L|218:367,1,59.9999981689454,0|0,0:0|0:0,0:0:0:0:
367,341,172903,5,2,0:0:0:0:
373,282,172967,1,0,0:0:0:0:
340,233,173031,1,0,0:0:0:0:
284,217,173095,1,0,0:0:0:0:
203,219,173160,2,0,L|229:308,1,59.9999981689454,2|0,0:0|0:0,0:0:0:0:
298,141,173288,2,0,L|272:52,1,59.9999981689454,0|0,0:0|0:0,0:0:0:0:
106,57,173416,6,0,L|17:83,1,59.9999981689454,2|0,0:0|0:0,0:0:0:0:
121,117,173544,2,0,L|210:143,1,59.9999981689454,0|0,0:0|0:0,0:0:0:0:
345,125,173673,2,0,L|319:214,1,59.9999981689454,2|0,0:0|0:0,0:0:0:0:
244,203,173801,2,0,L|218:292,1,59.9999981689454,0|0,0:0|0:0,0:0:0:0:
426,93,173929,6,0,L|515:119,1,59.9999981689454,2|0,0:0|0:0,0:0:0:0:
411,153,174057,2,0,L|322:179,1,59.9999981689454,0|0,0:0|0:0,0:0:0:0:
187,161,174186,2,0,L|213:250,1,59.9999981689454,2|0,0:0|0:0,0:0:0:0:
288,239,174314,2,0,L|314:328,1,59.9999981689454,0|0,0:0|0:0,0:0:0:0:
172,336,174442,5,2,0:0:0:0:
173,277,174506,1,0,0:0:0:0:
210,231,174570,1,0,0:0:0:0:
268,220,174634,1,0,0:0:0:0:
344,217,174698,2,0,L|408:214,1,59.9999981689454,2|0,0:0|0:0,0:0:0:0:
330,128,174826,2,0,L|266:125,1,59.9999981689454,0|0,0:0|0:0,0:0:0:0:
112,121,174955,5,2,0:0:0:0:
32,115,175040,1,0,0:0:0:0:
112,121,175126,1,0,0:0:0:0:
192,115,175211,1,2,0:0:0:0:
192,115,175297,1,0,0:0:0:0:
112,121,175382,1,0,0:0:0:0:
400,121,175468,5,2,0:0:0:0:
480,115,175553,1,0,0:0:0:0:
400,121,175639,1,0,0:0:0:0:
320,115,175724,1,2,0:0:0:0:
320,115,175810,1,0,0:0:0:0:
400,121,175895,1,0,0:0:0:0:
192,115,175980,5,2,0:0:0:0:
112,121,176066,1,0,0:0:0:0:
32,115,176151,1,0,0:0:0:0:
112,121,176237,1,2,0:0:0:0:
112,121,176322,1,0,0:0:0:0:
32,115,176408,1,0,0:0:0:0:
255,144,176493,6,0,L|340:134,1,79.9999975585938,2|0,0:0|0:0,0:0:0:0:
129,312,176664,2,0,L|119:227,1,79.9999975585938,2|0,0:0|0:0,0:0:0:0:
383,312,176835,2,0,L|393:227,1,79.9999975585938,2|0,0:0|0:0,0:0:0:0:
195,159,177006,5,4,0:0:0:0:
195,217,177070,1,0,0:0:0:0:
236,259,177134,1,0,0:0:0:0:
295,260,177198,1,0,0:0:0:0:
360,277,177262,1,0,0:0:0:0:
359,335,177326,1,0,0:0:0:0:
318,377,177390,1,0,0:0:0:0:
259,378,177454,1,0,0:0:0:0:
191,368,177519,6,0,L|180:303,1,59.9999981689454,0|0,0:0|0:0,0:0:0:0:
262,279,177647,2,0,L|251:214,1,59.9999981689454,2|2,0:0|0:0,0:0:0:0:
164,183,177775,2,0,L|153:118,1,59.9999981689454,2|2,0:0|0:0,0:0:0:0:
313,92,177903,2,0,L|302:27,1,59.9999981689454,2|2,0:0|0:0,0:0:0:0:
105,53,178032,6,0,L|98:123,1,59.9999981689454,4|0,0:0|0:0,0:0:0:0:
176,142,178160,2,0,L|182:220,1,59.9999981689454,0|0,0:0|0:0,0:0:0:0:
256,204,178288,2,0,L|279:268,1,59.9999981689454,0|0,0:0|0:0,0:0:0:0:
349,253,178416,2,0,L|399:334,1,59.9999981689454,0|0,0:0|0:0,0:0:0:0:
458,308,178544,5,0,0:0:0:0:
467,229,178629,1,0,0:0:0:0:
444,152,178714,1,0,0:0:0:0:
394,91,178800,1,0,0:0:0:0:
324,53,178885,1,0,0:0:0:0:
245,46,178971,1,0,0:0:0:0:
46,94,179057,6,0,L|52:171,1,59.9999981689454,4|0,0:0|0:0,0:0:0:0:
213,239,179185,2,0,L|292:231,1,59.9999981689454,2|0,0:0|0:0,0:0:0:0:
437,152,179314,2,0,L|431:229,1,59.9999981689454,2|0,0:0|0:0,0:0:0:0:
270,297,179442,2,0,L|191:289,1,59.9999981689454,2|0,0:0|0:0,0:0:0:0:
379,178,179570,6,0,L|387:99,1,59.9999981689454,2|0,0:0|0:0,0:0:0:0:
231,48,179698,2,0,L|310:56,1,59.9999981689454,2|0,0:0|0:0,0:0:0:0:
473,244,179826,2,0,L|465:323,1,59.9999981689454,2|0,0:0|0:0,0:0:0:0:
327,338,179955,2,0,L|248:330,1,59.9999981689454,2|0,0:0|0:0,0:0:0:0:
133,178,180083,6,0,L|125:99,1,59.9999981689454,2|0,0:0|0:0,0:0:0:0:
281,48,180211,2,0,L|202:56,1,59.9999981689454,2|0,0:0|0:0,0:0:0:0:
39,244,180339,2,0,L|47:323,1,59.9999981689454,2|0,0:0|0:0,0:0:0:0:
185,338,180468,2,0,L|264:330,1,59.9999981689454,2|0,0:0|0:0,0:0:0:0:
377,246,180596,6,0,L|369:167,1,59.9999981689454,2|0,0:0|0:0,0:0:0:0:
234,145,180724,2,0,L|226:66,1,59.9999981689454,2|0,0:0|0:0,0:0:0:0:
398,44,180852,2,0,L|477:36,1,59.9999981689454,2|0,0:0|0:0,0:0:0:0:
306,162,180980,2,0,L|227:154,1,59.9999981689454,2|0,0:0|0:0,0:0:0:0:
75,178,181109,6,0,L|67:257,1,59.9999981689454,2|0,0:0|0:0,0:0:0:0:
213,349,181237,2,0,L|220:290,1,59.9999981689454,2|0,0:0|0:0,0:0:0:0:
74,110,181365,2,0,L|133:116,1,59.9999981689454,2|0,0:0|0:0,0:0:0:0:
277,96,181493,2,0,L|283:36,1,59.9999981689454,2|0,0:0|0:0,0:0:0:0:
128,26,181621,6,0,L|68:19,1,59.9999981689454,2|0,0:0|0:0,0:0:0:0:
231,198,181750,2,0,L|290:191,1,59.9999981689454,2|0,0:0|0:0,0:0:0:0:
445,148,181878,2,0,L|438:88,1,59.9999981689454,2|0,0:0|0:0,0:0:0:0:
257,91,182006,2,0,L|250:31,1,59.9999981689454,2|0,0:0|0:0,0:0:0:0:
384,26,182134,6,0,L|443:19,1,59.9999981689454,2|0,0:0|0:0,0:0:0:0:
281,198,182263,2,0,L|221:191,1,59.9999981689454,2|0,0:0|0:0,0:0:0:0:
67,148,182391,2,0,L|73:88,1,59.9999981689454,2|0,0:0|0:0,0:0:0:0:
255,91,182519,2,0,L|261:31,1,59.9999981689454,2|0,0:0|0:0,0:0:0:0:
105,274,182647,6,0,L|111:214,1,59.9999981689454,2|0,0:0|0:0,0:0:0:0:
259,136,182775,2,0,L|318:142,1,59.9999981689454,2|0,0:0|0:0,0:0:0:0:
139,22,182903,2,0,L|79:28,1,59.9999981689454,2|0,0:0|0:0,0:0:0:0:
244,158,183032,2,0,L|303:164,1,59.9999981689454,2|0,0:0|0:0,0:0:0:0:
474,234,183160,6,0,L|480:175,1,59.9999981689454,2|0,0:0|0:0,0:0:0:0:
293,218,183288,2,0,L|234:212,1,59.9999981689454,0|0,0:0|0:0,0:0:0:0:
316,171,183416,2,0,L|310:112,1,59.9999981689454,2|0,0:0|0:0,0:0:0:0:
227,60,183544,2,0,L|168:54,1,59.9999981689454,0|0,0:0|0:0,0:0:0:0:
38,234,183673,6,0,L|32:175,1,59.9999981689454,2|0,0:0|0:0,0:0:0:0:
219,218,183801,2,0,L|278:212,1,59.9999981689454,0|0,0:0|0:0,0:0:0:0:
196,171,183929,2,0,L|202:112,1,59.9999981689454,2|0,0:0|0:0,0:0:0:0:
285,60,184057,2,0,L|344:54,1,59.9999981689454,0|0,0:0|0:0,0:0:0:0:
474,234,184185,6,0,L|480:175,1,59.9999981689454,2|0,0:0|0:0,0:0:0:0:
326,238,184314,2,0,L|267:232,1,59.9999981689454,0|0,0:0|0:0,0:0:0:0:
184,281,184442,2,0,L|178:340,1,59.9999981689454,2|0,0:0|0:0,0:0:0:0:
260,350,184570,2,0,L|201:344,1,59.9999981689454,0|0,0:0|0:0,0:0:0:0:
38,234,184698,6,0,L|32:175,1,59.9999981689454,2|0,0:0|0:0,0:0:0:0:
186,238,184827,2,0,L|245:232,1,59.9999981689454,0|0,0:0|0:0,0:0:0:0:
328,281,184955,2,0,L|334:340,1,59.9999981689454,2|0,0:0|0:0,0:0:0:0:
252,350,185083,2,0,L|311:344,1,59.9999981689454,0|0,0:0|0:0,0:0:0:0:
474,234,185211,6,0,L|480:175,1,59.9999981689454,2|0,0:0|0:0,0:0:0:0:
327,147,185339,2,0,L|268:141,1,59.9999981689454,0|0,0:0|0:0,0:0:0:0:
185,121,185468,2,0,L|191:62,1,59.9999981689454,2|0,0:0|0:0,0:0:0:0:
274,193,185596,2,0,L|280:134,1,59.9999981689454,0|0,0:0|0:0,0:0:0:0:
38,234,185724,6,0,L|32:175,1,59.9999981689454,2|0,0:0|0:0,0:0:0:0:
185,147,185852,2,0,L|244:141,1,59.9999981689454,0|0,0:0|0:0,0:0:0:0:
327,121,185981,2,0,L|321:62,1,59.9999981689454,2|0,0:0|0:0,0:0:0:0:
238,193,186109,2,0,L|232:134,1,59.9999981689454,0|0,0:0|0:0,0:0:0:0:
474,234,186237,6,0,L|480:175,1,59.9999981689454,6|0,0:0|0:0,0:0:0:0:
288,99,186365,2,0,L|213:89,1,59.9999981689454,2|2,0:0|0:0,0:0:0:0:
32,190,186493,2,0,L|107:180,1,59.9999981689454,2|2,0:0|0:0,0:0:0:0:
288,99,186621,2,0,L|294:40,1,59.9999981689454,2|0,0:0|0:0,0:0:0:0:
96,76,186750,6,0,L|37:70,1,59.9999981689454,2|2,0:0|0:0,0:0:0:0:
240,211,186878,2,0,L|299:205,1,59.9999981689454,2|2,0:0|0:0,0:0:0:0:
102,295,187006,2,0,L|15:289,2,79.9999975585938,6|0|0,0:0|0:0|0:0,0:0:0:0:
287,255,187262,6,0,L|302:314,1,59.9999981689454,4|0,0:0|0:0,0:0:0:0:
153,190,187391,2,0,L|73:177,1,59.9999981689454,2|0,0:0|0:0,0:0:0:0:
306,240,187519,2,0,L|340:290,1,59.9999981689454,2|0,0:0|0:0,0:0:0:0:
158,225,187648,2,0,L|78:240,1,59.9999981689454,2|0,0:0|0:0,0:0:0:0:
320,219,187775,6,0,L|368:255,1,59.9999981689454,2|0,0:0|0:0,0:0:0:0:
175,256,187904,2,0,L|105:297,1,59.9999981689454,2|0,0:0|0:0,0:0:0:0:
325,195,188032,2,0,L|383:212,1,59.9999981689454,2|0,0:0|0:0,0:0:0:0:
201,279,188161,2,0,L|151:342,1,59.9999981689454,2|0,0:0|0:0,0:0:0:0:
382,168,188288,6,0,B|387:49|387:49|267:53|267:53|387:45|387:45|267:47|267:47|187:61|124:70|67:119|62:165|60:247|131:270,1,839.999974365235,2|0,0:0|0:0,0:0:0:0:
353,306,189314,6,0,L|438:292,1,59.9999981689454,4|0,0:0|0:0,0:0:0:0:
182,254,189442,2,0,L|168:169,1,59.9999981689454,2|0,0:0|0:0,0:0:0:0:
386,265,189570,2,0,L|461:223,1,59.9999981689454,2|0,0:0|0:0,0:0:0:0:
207,275,189698,2,0,L|165:200,1,59.9999981689454,2|0,0:0|0:0,0:0:0:0:
403,216,189826,6,0,L|459:151,1,59.9999981689454,2|0,0:0|0:0,0:0:0:0:
239,287,189954,2,0,L|173:230,1,59.9999981689454,2|0,0:0|0:0,0:0:0:0:
403,164,190082,2,0,L|433:84,1,59.9999981689454,2|0,0:0|0:0,0:0:0:0:
272,287,190210,2,0,L|192:256,1,59.9999981689454,2|0,0:0|0:0,0:0:0:0:
384,115,190339,6,0,B|402:237|402:237|166:262|166:262|286:270|286:270|166:283|166:283|56:301|29:219|33:161|133:138,1,839.999974365235,2|0,0:0|0:0,0:0:0:0:
313,104,191365,6,0,L|381:96,1,59.9999981689454,2|0,0:0|0:0,0:0:0:0:
186,283,191493,2,0,L|118:275,1,59.9999981689454,0|0,0:0|0:0,0:0:0:0:
202,239,191621,2,0,L|239:185,1,59.9999981689454,2|0,0:0|0:0,0:0:0:0:
312,162,191750,2,0,L|380:170,1,59.9999981689454,0|0,0:0|0:0,0:0:0:0:
191,172,191878,6,0,L|123:164,1,59.9999981689454,2|0,0:0|0:0,0:0:0:0:
318,351,192006,2,0,L|386:343,1,59.9999981689454,0|0,0:0|0:0,0:0:0:0:
302,299,192134,2,0,L|265:245,1,59.9999981689454,2|0,0:0|0:0,0:0:0:0:
192,230,192263,2,0,L|124:238,1,59.9999981689454,0|0,0:0|0:0,0:0:0:0:
331,146,192391,6,0,L|400:146,1,59.9999981689454,2|0,0:0|0:0,0:0:0:0:
216,181,192519,2,0,L|207:262,1,59.9999981689454,0|0,0:0|0:0,0:0:0:0:
282,286,192647,2,0,L|363:295,1,59.9999981689454,2|0,0:0|0:0,0:0:0:0:
416,259,192775,2,0,L|425:178,1,59.9999981689454,0|0,0:0|0:0,0:0:0:0:
181,146,192903,6,0,L|112:146,1,59.9999981689454,2|0,0:0|0:0,0:0:0:0:
296,181,193031,2,0,L|305:262,1,59.9999981689454,0|0,0:0|0:0,0:0:0:0:
230,286,193159,2,0,L|149:295,1,59.9999981689454,2|0,0:0|0:0,0:0:0:0:
96,259,193287,2,0,L|87:178,1,59.9999981689454,0|0,0:0|0:0,0:0:0:0:
259,109,193416,6,0,L|329:99,2,59.9999981689454,6|0|0,0:0|0:0|0:0,0:0:0:0:
107,262,193609,2,0,L|37:252,2,59.9999981689454,6|0|0,0:0|0:0|0:0,0:0:0:0:
276,346,193801,2,0,L|335:351,1,59.9999981689454,6|0,0:0|0:0,0:0:0:0:
158,314,193929,5,6,0:0:0:0:
111,281,193993,1,0,0:0:0:0:
123,225,194057,1,0,0:0:0:0:
316,144,194121,1,6,0:0:0:0:
256,134,194185,1,0,0:0:0:0:
197,125,194249,1,0,0:0:0:0:
354,314,194314,2,0,L|364:242,1,59.9999981689454,6|0,0:0|0:0,0:0:0:0:
206,250,194442,6,0,L|196:178,1,59.9999981689454,6|0,0:0|0:0,0:0:0:0:
347,147,194570,1,6,0:0:0:0:
496,117,194634,2,0,L|486:45,1,59.9999981689454,6|0,0:0|0:0,0:0:0:0:
311,63,194762,1,6,0:0:0:0:
134,57,194826,2,0,L|193:48,1,59.9999981689454,6|0,0:0|0:0,0:0:0:0:
466,382,194955,6,0,B|498:-18|498:-18|465:370|465:370|418:-29|418:-29|18:144,1,1600,4|4,0:0|0:0,0:0:0:0:
256,192,195596,12,0,199570,0:0:0:0:
207,206,201621,5,0,0:0:0:0:
256,192,201685,12,0,203544,0:0:0:0:
189,171,203673,6,0,L|96:161,2,80,6|0|0,0:0|0:0|0:0,0:0:0:0:
383,150,204185,1,0,0:0:0:0:
210,74,204442,1,0,0:0:0:0:
433,57,204698,6,0,L|445:144,1,80,8|0,0:0|0:0,0:0:0:0:
337,187,204955,2,0,L|349:274,1,80,0|0,0:0|0:0,0:0:0:0:
472,305,205211,1,0,0:0:0:0:
261,273,205468,2,0,L|174:285,1,80,2|0,0:0|0:0,0:0:0:0:
287,352,205724,6,0,L|200:364,1,80,0|0,0:0|0:0,0:0:0:0:
82,372,205980,1,0,0:0:0:0:
284,202,206237,1,2,0:0:0:0:
205,216,206365,1,0,0:0:0:0:
126,230,206493,1,0,0:0:0:0:
346,292,206750,6,0,L|358:205,1,80,8|0,0:0|0:0,0:0:0:0:
228,189,207006,2,0,L|240:102,1,80,0|0,0:0|0:0,0:0:0:0:
375,120,207262,2,0,L|387:33,1,80,8|0,0:0|0:0,0:0:0:0:
251,18,207519,1,0,0:0:0:0:
454,118,207775,6,0,L|349:120,1,80,2|0,0:0|0:0,0:0:0:0:
269,261,208032,2,0,L|164:263,1,80,0|0,0:0|0:0,0:0:0:0:
313,339,208288,1,2,0:0:0:0:
108,342,208544,1,0,0:0:0:0:
301,168,208801,6,0,L|406:170,1,80,8|0,0:0|0:0,0:0:0:0:
277,236,209057,2,0,L|172:238,1,80,0|0,0:0|0:0,0:0:0:0:
80,241,209314,1,0,0:0:0:0:
261,308,209570,6,0,L|265:200,1,80,2|0,0:0|0:0,0:0:0:0:
383,237,209826,2,0,L|387:129,1,80,0|0,0:0|0:0,0:0:0:0:
261,125,210083,1,0,0:0:0:0:
70,79,210339,2,0,L|149:81,1,80,2|0,0:0|0:0,0:0:0:0:
261,172,210596,2,0,L|181:174,1,80,0|0,0:0|0:0,0:0:0:0:
287,289,210852,6,0,L|366:291,1,80,8|0,0:0|0:0,0:0:0:0:
270,202,211109,2,0,L|349:204,1,80,0|0,0:0|0:0,0:0:0:0:
462,128,211365,2,0,L|268:120,1,160,8|0,0:0|0:0,0:0:0:0:
114,131,211878,6,0,L|-2:127,1,80,2|0,0:0|0:0,0:0:0:0:
152,206,212134,2,0,L|148:322,1,80,0|0,0:0|0:0,0:0:0:0:
36,314,212391,1,0,0:0:0:0:
276,355,212647,1,0,0:0:0:0:
78,144,212903,6,0,L|194:148,1,80,8|0,0:0|0:0,0:0:0:0:
280,203,213160,2,0,L|284:87,1,80
167,90,213416,2,0,L|75:89,2,53.3333333333333
251,98,213673,1,8,0:0:0:0:
302,107,213758,1,0,0:0:0:0:
346,79,213843,1,0,0:0:0:0:
262,64,213929,6,0,L|146:60,1,80
292,13,214185,1,0,0:0:0:0:
93,181,214442,1,2,0:0:0:0:
172,179,214570,1,0,0:0:0:0:
252,177,214698,1,0,0:0:0:0:
427,150,214955,6,0,L|435:252,1,80,8|0,0:0|0:0,0:0:0:0:
317,249,215211,2,0,L|325:351,1,80,0|0,0:0|0:0,0:0:0:0:
436,159,215468,1,8,0:0:0:0:
382,164,215553,1,0,0:0:0:0:
329,170,215638,1,0,0:0:0:0:
426,215,215724,1,0,0:0:0:0:
428,266,215809,1,0,0:0:0:0:
394,305,215894,1,0,0:0:0:0:
290,317,215980,6,0,L|194:325,1,80,2|0,0:0|0:0,0:0:0:0:
108,343,216237,2,0,L|100:247,1,80,0|0,0:0|0:0,0:0:0:0:
206,225,216493,1,2,0:0:0:0:
30,178,216750,1,0,0:0:0:0:
222,147,217006,6,0,L|229:227,1,80,8|0,0:0|0:0,0:0:0:0:
123,255,217262,2,0,L|129:334,1,80,0|0,0:0|0:0,0:0:0:0:
283,313,217519,1,0,0:0:0:0:
229,315,217604,1,0,0:0:0:0:
176,317,217689,1,0,0:0:0:0:
266,273,217775,1,2,0:0:0:0:
316,265,217860,1,0,0:0:0:0:
331,217,217945,1,0,0:0:0:0:
236,159,218032,6,0,P|213:238|300:283,1,160,0|0,0:0|0:0,0:0:0:0:
471,296,218544,2,0,L|370:302,2,80,2|0|0,0:0|0:0|0:0,0:0:0:0:
366,330,218929,1,0,0:0:0:0:
261,348,219057,5,8,0:0:0:0:
221,310,219142,1,0,0:0:0:0:
210,255,219227,1,0,0:0:0:0:
233,205,219313,1,0,0:0:0:0:
280,177,219398,1,0,0:0:0:0:
335,182,219484,1,0,0:0:0:0:
398,199,219570,5,0,0:0:0:0:
437,161,219655,1,0,0:0:0:0:
448,106,219740,1,0,0:0:0:0:
425,56,219826,1,0,0:0:0:0:
378,28,219911,1,0,0:0:0:0:
323,33,219997,1,0,0:0:0:0:
106,118,220083,5,12,0:0:0:0:
369,153,220211,2,0,L|364:52,1,100,12|0,0:0|0:0,0:0:0:0:
143,153,220468,1,12,0:0:0:0:
406,118,220596,2,0,L|401:17,1,100,12|0,0:0|0:0,0:0:0:0:
143,153,220852,1,12,0:0:0:0:
369,153,220980,1,12,0:0:0:0:
143,153,221109,5,0,0:0:0:0:
94,135,221194,1,0,0:0:0:0:
71,88,221279,1,0,0:0:0:0:
142,68,221365,2,0,L|206:55,2,53.3333333333333,0|0|0,0:0|0:0|0:0,0:0:0:0:
85,159,221621,5,0,0:0:0:0:
55,119,221706,1,0,0:0:0:0:
86,80,221791,1,0,0:0:0:0:
163,117,221878,2,0,L|227:104,2,53.3333333333333,0|0|0,0:0|0:0|0:0,0:0:0:0:
406,118,222134,5,12,0:0:0:0:
143,153,222262,2,0,L|148:52,1,100,12|0,0:0|0:0,0:0:0:0:
369,153,222519,1,12,0:0:0:0:
106,118,222647,2,0,L|111:17,1,100,12|0,0:0|0:0,0:0:0:0:
369,153,222903,1,12,0:0:0:0:
143,153,223031,1,12,0:0:0:0:
369,153,223160,5,0,0:0:0:0:
417,135,223245,1,0,0:0:0:0:
440,88,223330,1,0,0:0:0:0:
370,68,223416,2,0,L|306:55,2,53.3333333333333,0|0|0,0:0|0:0|0:0,0:0:0:0:
427,159,223672,5,0,0:0:0:0:
456,119,223758,1,0,0:0:0:0:
425,80,223844,1,0,0:0:0:0:
349,117,223929,2,0,L|285:104,2,53.3333333333333,0|0|0,0:0|0:0|0:0,0:0:0:0:
102,254,224185,5,12,0:0:0:0:
365,203,224314,2,0,L|369:70,1,100,12|0,0:0|0:0,0:0:0:0:
147,203,224570,1,12,0:0:0:0:
410,254,224698,2,0,L|414:121,1,100,12|0,0:0|0:0,0:0:0:0:
147,203,224955,1,12,0:0:0:0:
365,203,225083,1,12,0:0:0:0:
147,203,225211,5,0,0:0:0:0:
98,193,225296,1,0,0:0:0:0:
92,143,225381,1,0,0:0:0:0:
149,105,225468,2,0,L|205:101,2,53.3333333333333,0|0|0,0:0|0:0|0:0,0:0:0:0:
209,155,225724,5,0,0:0:0:0:
257,145,225809,1,0,0:0:0:0:
263,95,225894,1,0,0:0:0:0:
207,57,225981,2,0,L|151:53,2,53.3333333333333,0|0|0,0:0|0:0|0:0,0:0:0:0:
424,72,226237,5,12,0:0:0:0:
130,265,226365,2,0,L|116:161,1,100,12|0,0:0|0:0,0:0:0:0:
396,165,226621,1,12,0:0:0:0:
206,128,226750,2,0,L|305:117,1,100,12|0,0:0|0:0,0:0:0:0:
88,72,227006,5,12,0:0:0:0:
382,265,227134,2,0,L|396:161,1,100,12|0,0:0|0:0,0:0:0:0:
116,165,227390,1,12,0:0:0:0:
306,128,227519,2,0,L|206:117,1,100,12|0,0:0|0:0,0:0:0:0:
433,159,227775,6,0,L|447:277,1,100,12|8,0:0|0:0,0:0:0:0:
287,240,227968,2,0,L|301:358,1,100,12|8,0:0|0:0,0:0:0:0:
457,371,228160,1,12,0:0:0:0:
220,345,228288,5,8,0:0:0:0:
90,328,228416,1,2,0:0:0:0:
290,231,228544,1,8,0:0:0:0:
160,214,228672,1,2,0:0:0:0:
374,168,228801,5,8,0:0:0:0:
504,151,228929,1,2,0:0:0:0:
304,54,229057,1,8,0:0:0:0:
434,37,229185,1,2,0:0:0:0:
160,214,229314,5,8,0:0:0:0:
30,197,229442,1,2,0:0:0:0:
230,100,229570,1,8,0:0:0:0:
100,83,229698,1,2,0:0:0:0:
309,55,229826,6,0,L|400:49,2,66.6666666666667,8|0|0,0:0|0:0|0:0,0:0:0:0:
140,127,230083,2,0,L|8:142,1,100,8|2,0:0|0:0,0:0:0:0:
292,345,230339,5,8,0:0:0:0:
422,328,230467,1,2,0:0:0:0:
222,231,230595,1,8,0:0:0:0:
352,214,230723,1,2,0:0:0:0:
138,168,230852,5,8,0:0:0:0:
8,151,230980,1,2,0:0:0:0:
208,54,231108,1,8,0:0:0:0:
78,37,231236,1,2,0:0:0:0:
352,214,231365,5,8,0:0:0:0:
482,197,231493,1,2,0:0:0:0:
282,100,231621,1,8,0:0:0:0:
412,83,231749,1,2,0:0:0:0:
208,54,231878,6,0,L|127:55,2,66.6666666666667,8|0|0,0:0|0:0|0:0,0:0:0:0:
356,55,232134,1,8,0:0:0:0:
418,68,232219,1,0,0:0:0:0:
442,128,232304,1,0,0:0:0:0:
232,241,232391,6,0,L|305:266,1,50,10|2,0:0|0:0,0:0:0:0:
466,318,232519,2,0,L|429:285,1,50,2|2,0:0|0:0,0:0:0:0:
241,244,232647,6,0,L|318:256,1,50,10|2,0:0|0:0,0:0:0:0:
486,279,232775,2,0,L|443:253,1,50,2|2,0:0|0:0,0:0:0:0:
251,246,232903,6,0,L|328:244,1,50,10|2,0:0|0:0,0:0:0:0:
498,238,233031,2,0,L|451:220,1,50,0|2,0:0|0:0,0:0:0:0:
300,168,233160,2,0,L|469:170,1,150,2|0,0:0|0:0,0:0:0:0:
280,241,233416,6,0,L|207:266,1,50,10|2,0:0|0:0,0:0:0:0:
47,318,233544,2,0,L|83:285,1,50,2|2,0:0|0:0,0:0:0:0:
272,244,233672,6,0,L|195:256,1,50,10|2,0:0|0:0,0:0:0:0:
28,279,233800,2,0,L|70:253,1,50,2|2,0:0|0:0,0:0:0:0:
262,246,233928,6,0,L|185:244,1,50,10|2,0:0|0:0,0:0:0:0:
16,238,234056,2,0,L|62:220,1,50,0|2,0:0|0:0,0:0:0:0:
212,168,234185,2,0,L|43:170,1,150,2|0,0:0|0:0,0:0:0:0:
251,92,234442,6,0,L|321:101,1,50,10|2,0:0|0:0,0:0:0:0:
481,202,234570,2,0,L|408:210,1,50,2|2,0:0|0:0,0:0:0:0:
278,225,234698,2,0,L|445:256,1,150,2|0,0:0|0:0,0:0:0:0:
261,92,234955,6,0,L|191:101,1,50,10|2,0:0|0:0,0:0:0:0:
31,202,235083,2,0,L|104:210,1,50,2|2,0:0|0:0,0:0:0:0:
234,225,235211,2,0,L|67:256,1,150,2|0,0:0|0:0,0:0:0:0:
251,328,235468,6,0,L|373:334,1,100,10|2,0:0|0:0,0:0:0:0:
495,202,235660,2,0,L|373:208,1,100,2|2,0:0|0:0,0:0:0:0:
231,131,235852,2,0,L|169:133,1,50,2|0,0:0|0:0,0:0:0:0:
18,220,235980,6,0,L|140:226,1,100,10|2,0:0|0:0,0:0:0:0:
308,287,236173,2,0,L|186:293,1,100,2|2,0:0|0:0,0:0:0:0:
18,220,236365,2,0,L|68:218,1,50,2|0,0:0|0:0,0:0:0:0:
256,210,236493,5,4,0:0:0:0:
256,192,236557,12,0,238416,0:0:0:0:
363,198,238544,5,2,0:0:0:0:
373,167,238608,1,2,0:0:0:0:
361,137,238672,1,2,0:0:0:0:
332,122,238736,1,2,0:0:0:0:
289,114,238801,1,2,0:0:0:0:
278,83,238865,1,2,0:0:0:0:
290,53,238929,1,2,0:0:0:0:
319,38,238993,1,2,0:0:0:0:
373,49,239057,6,0,L|386:105,2,50,2|2|2,0:0|0:0|0:0,0:0:0:0:
440,117,239250,2,0,L|453:173,2,50,2|2|2,0:0|0:0|0:0,0:0:0:0:
387,198,239442,2,0,L|374:254,1,50,2|2,0:0|0:0,0:0:0:0:
304,301,239570,5,2,0:0:0:0:
257,285,239634,1,2,0:0:0:0:
229,245,239698,1,2,0:0:0:0:
230,196,239762,1,2,0:0:0:0:
281,196,239826,1,2,0:0:0:0:
282,245,239890,1,2,0:0:0:0:
254,285,239954,1,2,0:0:0:0:
208,301,240018,1,2,0:0:0:0:
156,297,240083,6,0,L|123:245,2,50,2|2|2,0:0|0:0|0:0,0:0:0:0:
213,90,240275,2,0,L|275:81,2,50,2|2|2,0:0|0:0|0:0,0:0:0:0:
150,40,240468,2,0,L|88:31,1,50,2|2,0:0|0:0,0:0:0:0:
279,51,240596,5,2,0:0:0:0:
300,94,240660,1,2,0:0:0:0:
288,142,240724,1,2,0:0:0:0:
248,169,240788,1,2,0:0:0:0:
184,185,240852,1,2,0:0:0:0:
233,190,240916,1,2,0:0:0:0:
283,195,240980,1,2,0:0:0:0:
333,201,241044,1,2,0:0:0:0:
265,266,241109,6,0,L|188:270,2,50,2|2|2,0:0|0:0|0:0,0:0:0:0:
332,311,241301,2,0,L|409:315,2,50,2|2|2,0:0|0:0|0:0,0:0:0:0:
255,346,241493,2,0,L|178:350,1,50,2|2,0:0|0:0,0:0:0:0:
398,351,241621,5,2,0:0:0:0:
404,286,241685,1,2,0:0:0:0:
366,233,241749,1,2,0:0:0:0:
303,218,241813,1,2,0:0:0:0:
158,200,241878,2,0,L|164:128,1,50,2|2,0:0|0:0,0:0:0:0:
330,108,242006,2,0,L|324:36,1,50,2|2,0:0|0:0,0:0:0:0:
110,57,242134,6,0,L|46:53,1,50,6|0,0:0|0:0,0:0:0:0:
279,138,242326,2,0,L|215:134,1,50,6|0,0:0|0:0,0:0:0:0:
451,53,242519,2,0,L|402:57,1,50,6|0,0:0|0:0,0:0:0:0:
240,103,242647,6,0,L|236:171,1,55.0000016784668,4|0,0:0|0:0,0:0:0:0:
307,223,242775,2,0,L|375:227,1,55.0000016784668,0|0,0:0|0:0,0:0:0:0:
204,278,242903,1,8,0:0:0:0:
150,275,242967,1,0,0:0:0:0:
107,307,243031,1,0,0:0:0:0:
96,360,243095,1,0,0:0:0:0:
280,358,243160,6,0,L|340:350,2,55.0000016784668,2|0|0,0:0|0:0|0:0,0:0:0:0:
143,270,243352,1,0,0:0:0:0:
106,233,243416,1,8,0:0:0:0:
128,186,243480,1,0,0:0:0:0:
274,96,243544,2,0,L|189:84,1,55.0000016784668,0|0,0:0|0:0,0:0:0:0:
67,128,243673,6,0,L|79:188,1,55.0000016784668,2|0,0:0|0:0,0:0:0:0:
154,232,243801,2,0,L|214:220,1,55.0000016784668
355,222,243929,1,8,0:0:0:0:
397,253,243993,1,0,0:0:0:0:
392,305,244057,1,0,0:0:0:0:
344,327,244121,1,0,0:0:0:0:
199,316,244185,5,2,0:0:0:0:
190,264,244249,1,0,0:0:0:0:
230,230,244313,1,0,0:0:0:0:
376,188,244378,2,0,L|443:177,2,55.0000016784668,0|8|0,0:0|0:0|0:0,0:0:0:0:
202,52,244570,2,0,L|135:41,1,55.0000016784668,0|0,0:0|0:0,0:0:0:0:
301,109,244698,6,0,L|367:98,1,55.0000016784668,2|0,0:0|0:0,0:0:0:0:
280,153,244826,2,0,L|217:167,1,55.0000016784668
24,256,244955,1,8,0:0:0:0:
18,309,245019,1,0,0:0:0:0:
52,351,245083,1,0,0:0:0:0:
105,358,245147,1,0,0:0:0:0:
267,353,245211,6,0,L|329:347,2,55.0000016784668,2|0|0,0:0|0:0|0:0,0:0:0:0:
128,282,245403,1,0,0:0:0:0:
146,231,245467,1,8,0:0:0:0:
191,201,245531,1,0,0:0:0:0:
344,209,245596,2,0,L|338:153,1,55.0000016784668,0|0,0:0|0:0,0:0:0:0:
184,101,245724,6,0,L|253:96,1,55.0000016784668,2|0,0:0|0:0,0:0:0:0:
312,117,245852,2,0,L|307:48,1,55.0000016784668,0|0,0:0|0:0,0:0:0:0:
151,117,245980,1,8,0:0:0:0:
101,136,246044,1,0,0:0:0:0:
87,187,246108,1,0,0:0:0:0:
120,229,246172,1,0,0:0:0:0:
266,281,246237,5,2,0:0:0:0:
320,279,246301,1,0,0:0:0:0:
375,277,246365,1,0,0:0:0:0:
227,211,246429,2,0,L|159:208,2,55.0000016784668,0|8|0,0:0|0:0|0:0,0:0:0:0:
372,83,246621,2,0,L|440:80,1,55.0000016784668,0|0,0:0|0:0,0:0:0:0:
257,124,246750,6,0,L|189:121,1,55.0000016784668,2|0,0:0|0:0,0:0:0:0:
129,70,246878,2,0,L|197:67,1,55.0000016784668,0|0,0:0|0:0,0:0:0:0:
352,107,247006,1,8,0:0:0:0:
298,109,247070,1,0,0:0:0:0:
261,148,247134,1,0,0:0:0:0:
262,201,247198,1,0,0:0:0:0:
393,266,247262,5,2,0:0:0:0:
400,213,247326,1,0,0:0:0:0:
362,176,247390,1,0,0:0:0:0:
207,154,247455,1,0,0:0:0:0:
261,148,247519,1,8,0:0:0:0:
316,142,247583,1,0,0:0:0:0:
458,96,247647,2,0,L|377:101,1,55.0000016784668,0|0,0:0|0:0,0:0:0:0:
224,86,247775,6,0,L|238:156,1,55.0000016784668,2|0,0:0|0:0,0:0:0:0:
316,142,247903,2,0,L|330:212,1,55.0000016784668,0|0,0:0|0:0,0:0:0:0:
184,281,248032,1,8,0:0:0:0:
133,267,248096,1,0,0:0:0:0:
119,216,248160,1,0,0:0:0:0:
157,179,248224,1,0,0:0:0:0:
307,226,248288,6,0,L|371:220,2,55.0000016784668,2|0|0,0:0|0:0|0:0,0:0:0:0:
146,318,248480,1,0,0:0:0:0:
94,310,248544,1,8,0:0:0:0:
84,260,248608,1,0,0:0:0:0:
254,215,248673,2,0,L|245:153,1,55.0000016784668,0|0,0:0|0:0,0:0:0:0:
55,75,248801,6,0,L|117:66,1,55.0000016784668,2|0,0:0|0:0,0:0:0:0:
184,116,248929,2,0,L|246:107,1,55.0000016784668,0|0,0:0|0:0,0:0:0:0:
86,207,249057,1,8,0:0:0:0:
108,256,249121,1,0,0:0:0:0:
154,285,249185,1,0,0:0:0:0:
208,286,249249,1,0,0:0:0:0:
362,304,249314,5,2,0:0:0:0:
307,300,249378,1,0,0:0:0:0:
252,296,249442,1,0,0:0:0:0:
393,254,249506,1,0,0:0:0:0:
431,218,249570,1,8,0:0:0:0:
416,169,249634,1,0,0:0:0:0:
273,149,249698,2,0,L|186:135,1,55.0000016784668,0|0,0:0|0:0,0:0:0:0:
383,89,249826,5,2,0:0:0:0:
453,97,249891,2,0,L|458:29,1,55.0000016784668,0|0,0:0|0:0,0:0:0:0:
292,187,250019,1,0,0:0:0:0:
222,195,250084,2,0,L|217:127,1,55.0000016784668,8|0,0:0|0:0,0:0:0:0:
360,112,250211,2,0,L|286:107,1,55.0000016784668,0|0,0:0|0:0,0:0:0:0:
133,101,250339,6,0,L|139:178,1,55.0000016784668,2|0,0:0|0:0,0:0:0:0:
300,240,250468,2,0,L|306:317,1,55.0000016784668,0|0,0:0|0:0,0:0:0:0:
130,370,250596,2,0,L|53:376,1,55.0000016784668,8|0,0:0|0:0,0:0:0:0:
243,174,250724,2,0,L|320:180,1,55.0000016784668,0|0,0:0|0:0,0:0:0:0:
476,198,250852,6,0,L|470:275,1,55.0000016784668,4|0,0:0|0:0,0:0:0:0:
397,266,250980,2,0,L|391:343,1,55.0000016784668
216,322,251109,1,8,0:0:0:0:
204,269,251173,1,0,0:0:0:0:
233,225,251237,1,0,0:0:0:0:
286,216,251301,1,0,0:0:0:0:
140,213,251365,6,0,L|59:205,2,55.0000016784668,2|0|0,0:0|0:0|0:0,0:0:0:0:
293,259,251557,1,0,0:0:0:0:
267,210,251621,1,8,0:0:0:0:
222,181,251685,1,0,0:0:0:0:
370,121,251750,2,0,L|451:113,1,55.0000016784668,0|0,0:0|0:0,0:0:0:0:
277,63,251878,6,0,L|196:55,1,55.0000016784668,2|0,0:0|0:0,0:0:0:0:
153,98,252006,2,0,L|234:90,1,55.0000016784668,0|0,0:0|0:0,0:0:0:0:
363,351,252134,1,8,0:0:0:0:
417,345,252198,1,0,0:0:0:0:
249,279,252262,2,0,L|171:269,1,55.0000016784668,0|0,0:0|0:0,0:0:0:0:
23,190,252391,5,2,0:0:0:0:
34,137,252455,1,0,0:0:0:0:
76,103,252519,1,0,0:0:0:0:
222,126,252583,2,0,L|293:124,2,55.0000016784668,0|8|0,0:0|0:0|0:0,0:0:0:0:
385,196,252775,2,0,L|393:134,1,55.0000016784668,0|0,0:0|0:0,0:0:0:0:
242,51,252903,6,0,L|180:43,1,55.0000016784668,2|0,0:0|0:0,0:0:0:0:
260,86,253032,2,0,L|322:78,1,55.0000016784668,0|0,0:0|0:0,0:0:0:0:
467,119,253160,1,8,0:0:0:0:
474,172,253224,1,0,0:0:0:0:
444,216,253288,1,0,0:0:0:0:
391,226,253352,1,0,0:0:0:0:
230,306,253416,5,2,0:0:0:0:
245,255,253480,1,0,0:0:0:0:
294,236,253544,1,0,0:0:0:0:
131,210,253609,2,0,L|69:208,2,55.0000016784668,0|8|0,0:0|0:0|0:0,0:0:0:0:
278,184,253801,2,0,L|351:188,1,55.0000016784668,0|0,0:0|0:0,0:0:0:0:
159,305,253929,6,0,L|163:232,1,55.0000016784668,2|0,0:0|0:0,0:0:0:0:
241,250,254057,2,0,L|245:177,1,55.0000016784668,0|0,0:0|0:0,0:0:0:0:
81,210,254185,1,8,0:0:0:0:
52,254,254249,1,0,0:0:0:0:
70,304,254313,1,0,0:0:0:0:
121,319,254377,1,0,0:0:0:0:
280,322,254442,5,2,0:0:0:0:
270,269,254506,1,0,0:0:0:0:
226,239,254570,1,0,0:0:0:0:
91,210,254634,2,0,L|15:206,2,55.0000016784668,0|8|0,0:0|0:0|0:0,0:0:0:0:
229,93,254826,2,0,L|305:89,1,55.0000016784668,0|0,0:0|0:0,0:0:0:0:
456,96,254955,6,0,L|462:159,1,55.0000016784668,2|0,0:0|0:0,0:0:0:0:
391,213,255083,2,0,L|328:219,1,55.0000016784668,0|0,0:0|0:0,0:0:0:0:
478,245,255211,1,8,0:0:0:0:
489,297,255275,1,0,0:0:0:0:
466,346,255339,1,0,0:0:0:0:
417,368,255403,1,0,0:0:0:0:
278,355,255468,5,2,0:0:0:0:
223,348,255532,1,0,0:0:0:0:
168,342,255596,1,0,0:0:0:0:
312,301,255660,1,0,0:0:0:0:
316,247,255724,1,8,0:0:0:0:
278,210,255788,1,0,0:0:0:0:
137,199,255852,2,0,L|65:197,1,55.0000016784668,0|0,0:0|0:0,0:0:0:0:
268,293,255980,6,0,L|340:291,1,55.0000016784668,2|0,0:0|0:0,0:0:0:0:
253,238,256109,2,0,L|181:236,1,55.0000016784668,0|0,0:0|0:0,0:0:0:0:
44,221,256237,1,8,0:0:0:0:
61,169,256301,1,0,0:0:0:0:
99,129,256365,1,0,0:0:0:0:
150,110,256429,1,0,0:0:0:0:
308,120,256493,5,2,0:0:0:0:
253,110,256557,1,0,0:0:0:0:
199,100,256621,1,0,0:0:0:0:
50,223,256685,1,0,0:0:0:0:
52,275,256749,1,8,0:0:0:0:
96,304,256813,1,0,0:0:0:0:
259,322,256878,2,0,L|261:243,1,55.0000016784668,0|0,0:0|0:0,0:0:0:0:
98,247,257006,6,0,L|44:252,1,55.0000016784668,14|0,0:0|0:0,0:0:0:0:
254,184,257134,2,0,L|308:178,1,55.0000016784668,14|0,0:0|0:0,0:0:0:0:
386,171,257262,2,0,L|377:74,1,55.0000016784668,0|0,0:0|0:0,0:0:0:0:
259,115,257391,1,6,0:0:0:0:
138,110,257455,1,2,0:0:0:0:
17,83,257519,6,0,L|175:69,1,110.000003356934,6|2,0:0|0:0,0:0:0:0:
297,154,257711,2,0,L|213:82,1,110.000003356934,6|2,0:0|0:0,0:0:0:0:
385,73,257903,2,0,L|471:78,1,55.0000016784668,6|0,0:0|0:0,0:0:0:0:
205,268,258032,5,6,0:0:0:0:
155,246,258096,1,0,0:0:0:0:
134,197,258160,1,2,0:0:0:0:
311,143,258224,1,6,0:0:0:0:
256,138,258288,1,0,0:0:0:0:
201,133,258352,1,2,0:0:0:0:
378,197,258416,2,0,L|432:201,1,55.0000016784668,6|0,0:0|0:0,0:0:0:0:
180,181,258544,5,4,0:0:0:0:
174,126,258608,1,0,0:0:0:0:
251,92,258673,1,0,0:0:0:0:
255,37,258737,1,0,0:0:0:0:
336,32,258801,1,0,0:0:0:0:
367,0,258865,1,0,0:0:0:0:
441,20,258929,1,0,0:0:0:0:
494,5,258993,1,0,0:0:0:0:
278,303,259057,6,0,L|203:297,1,55.0000016784668,6|0,0:0|0:0,0:0:0:0:
435,256,259185,2,0,L|507:247,1,55.0000016784668,8|0,0:0|0:0,0:0:0:0:
235,198,259314,2,0,L|239:123,1,55.0000016784668,2|0,0:0|0:0,0:0:0:0:
398,121,259442,1,8,0:0:0:0:
258,109,259506,1,0,0:0:0:0:
118,105,259570,6,0,L|23:115,1,55.0000016784668,2|0,0:0|0:0,0:0:0:0:
232,167,259698,1,8,0:0:0:0:
401,213,259762,2,0,L|391:118,1,55.0000016784668,0|2,0:0|0:0,0:0:0:0:
244,134,259891,1,0,0:0:0:0:
95,87,259955,2,0,L|190:77,1,55.0000016784668,8|0,0:0|0:0,0:0:0:0:
340,95,260083,6,0,L|350:190,1,55.0000016784668,2|0,0:0|0:0,0:0:0:0:
170,246,260211,2,0,L|180:341,1,55.0000016784668,8|0,0:0|0:0,0:0:0:0:
366,357,260339,2,0,L|461:347,1,55.0000016784668,2|0,0:0|0:0,0:0:0:0:
292,301,260468,1,8,0:0:0:0:
165,280,260532,1,0,0:0:0:0:
38,265,260596,6,0,L|32:193,1,55.0000016784668,2|0,0:0|0:0,0:0:0:0:
198,182,260724,1,8,0:0:0:0:
363,169,260788,2,0,L|446:159,1,55.0000016784668,0|2,0:0|0:0,0:0:0:0:
271,115,260916,1,0,0:0:0:0:
124,117,260980,2,0,L|130:171,1,55.0000016784668,8|0,0:0|0:0,0:0:0:0:
317,289,261109,6,0,L|371:283,1,55.0000016784668,2|0,0:0|0:0,0:0:0:0:
225,190,261237,2,0,L|171:184,1,55.0000016784668,8|0,0:0|0:0,0:0:0:0:
24,308,261365,2,0,L|30:254,1,55.0000016784668,2|0,0:0|0:0,0:0:0:0:
157,231,261493,1,8,0:0:0:0:
284,216,261557,1,0,0:0:0:0:
411,202,261621,6,0,L|477:190,1,55.0000016784668,2|0,0:0|0:0,0:0:0:0:
297,132,261750,1,8,0:0:0:0:
132,78,261814,2,0,L|77:87,1,55.0000016784668,0|2,0:0|0:0,0:0:0:0:
232,165,261942,1,0,0:0:0:0:
386,220,262006,2,0,L|395:275,1,55.0000016784668,8|0,0:0|0:0,0:0:0:0:
216,355,262134,6,0,L|207:300,1,55.0000016784668,2|0,0:0|0:0,0:0:0:0:
387,164,262262,2,0,L|378:109,1,55.0000016784668,8|0,0:0|0:0,0:0:0:0:
185,42,262391,2,0,L|130:51,1,55.0000016784668,2|0,0:0|0:0,0:0:0:0:
252,108,262519,1,8,0:0:0:0:
374,130,262583,1,0,0:0:0:0:
496,136,262647,6,0,L|410:144,1,55.0000016784668,2|0,0:0|0:0,0:0:0:0:
271,159,262775,1,8,0:0:0:0:
101,208,262839,2,0,L|187:216,1,55.0000016784668,0|2,0:0|0:0,0:0:0:0:
309,230,262967,1,0,0:0:0:0:
464,252,263032,2,0,L|456:338,1,55.0000016784668,8|0,0:0|0:0,0:0:0:0:
280,340,263160,6,0,L|194:332,1,55.0000016784668,4|0,0:0|0:0,0:0:0:0:
145,255,263288,2,0,L|231:247,1,55.0000016784668,0|0,0:0|0:0,0:0:0:0:
351,239,263416,1,8,0:0:0:0:
342,185,263480,1,0,0:0:0:0:
304,147,263544,1,0,0:0:0:0:
250,140,263608,1,0,0:0:0:0:
91,163,263673,6,0,L|23:171,2,55.0000016784668,2|0|0,0:0|0:0|0:0,0:0:0:0:
244,212,263865,1,0,0:0:0:0:
263,163,263929,1,8,0:0:0:0:
229,123,263993,1,0,0:0:0:0:
65,106,264057,2,0,L|119:99,1,55.0000016784668,0|0,0:0|0:0,0:0:0:0:
306,92,264185,6,0,L|312:146,1,55.0000016784668,2|0,0:0|0:0,0:0:0:0:
234,168,264314,2,0,L|240:222,1,55.0000016784668,0|0,0:0|0:0,0:0:0:0:
383,255,264442,1,8,0:0:0:0:
434,237,264506,1,0,0:0:0:0:
468,195,264570,1,0,0:0:0:0:
474,141,264634,1,0,0:0:0:0:
304,147,264698,5,2,0:0:0:0:
270,186,264762,1,0,0:0:0:0:
299,228,264826,1,0,0:0:0:0:
445,263,264891,1,0,0:0:0:0:
390,258,264955,1,8,0:0:0:0:
335,254,265019,1,0,0:0:0:0:
195,301,265083,2,0,L|189:219,1,55.0000016784668,0|0,0:0|0:0,0:0:0:0:
337,82,265211,6,0,L|419:76,1,55.0000016784668,2|0,0:0|0:0,0:0:0:0:
317,138,265339,2,0,L|235:144,1,55.0000016784668,0|0,0:0|0:0,0:0:0:0:
64,172,265468,1,8,0:0:0:0:
39,219,265532,1,0,0:0:0:0:
61,267,265596,1,0,0:0:0:0:
113,278,265660,1,0,0:0:0:0:
270,319,265724,6,0,L|338:313,2,55.0000016784668,2|0|0,0:0|0:0|0:0,0:0:0:0:
108,240,265916,1,0,0:0:0:0:
162,234,265980,1,8,0:0:0:0:
217,228,266044,1,0,0:0:0:0:
360,216,266109,2,0,L|362:154,1,55.0000016784668,0|0,0:0|0:0,0:0:0:0:
216,141,266237,5,2,0:0:0:0:
146,129,266301,2,0,L|148:67,1,55.0000016784668,0|0,0:0|0:0,0:0:0:0:
317,182,266429,1,0,0:0:0:0:
387,170,266493,2,0,L|385:108,1,55.0000016784668,8|0,0:0|0:0,0:0:0:0:
234,61,266621,2,0,L|172:63,1,55.0000016784668,0|0,0:0|0:0,0:0:0:0:
348,187,266750,6,0,L|410:189,1,55.0000016784668,2|0,0:0|0:0,0:0:0:0:
238,261,266878,2,0,L|176:263,1,55.0000016784668,0|0,0:0|0:0,0:0:0:0:
362,290,267006,2,0,L|363:344,1,55.0000016784668,8|0,0:0|0:0,0:0:0:0:
161,213,267134,2,0,L|215:211,1,55.0000016784668,0|0,0:0|0:0,0:0:0:0:
429,201,267262,6,0,L|431:136,1,55.0000016784668,6|0,0:0|0:0,0:0:0:0:
262,92,267391,2,0,L|264:27,1,55.0000016784668,8|0,0:0|0:0,0:0:0:0:
457,48,267519,2,0,L|392:46,1,55.0000016784668,2|0,0:0|0:0,0:0:0:0:
275,64,267647,1,8,0:0:0:0:
147,87,267711,1,0,0:0:0:0:
20,141,267775,6,0,L|18:206,1,55.0000016784668,2|0,0:0|0:0,0:0:0:0:
191,244,267903,1,8,0:0:0:0:
366,300,267968,2,0,L|432:296,1,55.0000016784668,0|2,0:0|0:0,0:0:0:0:
271,228,268096,1,0,0:0:0:0:
121,157,268160,2,0,L|187:153,1,55.0000016784668,8|0,0:0|0:0,0:0:0:0:
335,188,268288,6,0,L|331:133,1,55.0000016784668,2|0,0:0|0:0,0:0:0:0:
166,61,268416,2,0,L|111:64,1,55.0000016784668,8|0,0:0|0:0,0:0:0:0:
289,142,268544,2,0,L|343:145,1,55.0000016784668,2|0,0:0|0:0,0:0:0:0:
496,160,268673,1,8,0:0:0:0:
343,145,268737,1,0,0:0:0:0:
207,134,268801,6,0,L|152:137,1,55.0000016784668,2|0,0:0|0:0,0:0:0:0:
321,222,268929,1,8,0:0:0:0:
490,254,268993,2,0,L|493:199,1,55.0000016784668,0|2,0:0|0:0,0:0:0:0:
346,164,269121,1,0,0:0:0:0:
199,128,269185,2,0,L|202:73,1,55.0000016784668,8|0,0:0|0:0,0:0:0:0:
370,41,269314,6,0,L|425:44,1,55.0000016784668,2|0,0:0|0:0,0:0:0:0:
261,206,269442,2,0,L|206:209,1,55.0000016784668,8|0,0:0|0:0,0:0:0:0:
46,188,269570,2,0,L|43:133,1,55.0000016784668,2|0,0:0|0:0,0:0:0:0:
173,107,269698,1,8,0:0:0:0:
303,74,269762,1,0,0:0:0:0:
433,52,269826,6,0,L|488:49,1,55.0000016784668,2|0,0:0|0:0,0:0:0:0:
317,152,269955,1,8,0:0:0:0:
149,296,270019,2,0,L|94:293,1,55.0000016784668,0|2,0:0|0:0,0:0:0:0:
242,221,270147,1,0,0:0:0:0:
389,151,270211,2,0,L|334:148,1,55.0000016784668,8|0,0:0|0:0,0:0:0:0:
166,169,270339,6,0,L|163:224,1,55.0000016784668,2|0,0:0|0:0,0:0:0:0:
332,283,270468,2,0,L|329:338,1,55.0000016784668,8|0,0:0|0:0,0:0:0:0:
149,330,270596,2,0,L|94:327,1,55.0000016784668,2|0,0:0|0:0,0:0:0:0:
223,287,270724,1,8,0:0:0:0:
352,259,270788,1,0,0:0:0:0:
481,199,270852,6,0,L|426:196,1,55.0000016784668,2|0,0:0|0:0,0:0:0:0:
255,171,270980,1,8,0:0:0:0:
83,143,271044,2,0,L|138:140,1,55.0000016784668,0|2,0:0|0:0,0:0:0:0:
285,120,271173,1,0,0:0:0:0:
430,76,271237,2,0,L|375:73,1,55.0000016784668,8|0,0:0|0:0,0:0:0:0:
191,67,271365,6,0,L|259:59,1,55.0000016784668,8|2,0:0|0:0,0:0:0:0:
437,63,271493,2,0,L|447:125,1,55.0000016784668,2|2,0:0|0:0,0:0:0:0:
191,67,271621,6,0,L|259:59,1,55.0000016784668,8|2,0:0|0:0,0:0:0:0:
470,132,271750,2,0,L|458:194,1,55.0000016784668,2|2,0:0|0:0,0:0:0:0:
191,67,271878,6,0,L|259:59,1,55.0000016784668,8|2,0:0|0:0,0:0:0:0:
477,209,272006,2,0,L|445:263,1,55.0000016784668,2|2,0:0|0:0,0:0:0:0:
125,301,272134,2,0,P|114:213|187:181,1,165.000005035401,2|0,0:0|0:0,0:0:0:0:
321,67,272391,6,0,L|253:59,1,55.0000016784668,8|2,0:0|0:0,0:0:0:0:
75,63,272519,2,0,L|65:125,1,55.0000016784668,2|2,0:0|0:0,0:0:0:0:
321,67,272647,6,0,L|253:59,1,55.0000016784668,8|2,0:0|0:0,0:0:0:0:
41,132,272776,2,0,L|53:194,1,55.0000016784668,2|2,0:0|0:0,0:0:0:0:
321,67,272904,6,0,L|253:59,1,55.0000016784668,8|2,0:0|0:0,0:0:0:0:
34,209,273032,2,0,L|66:263,1,55.0000016784668,2|2,0:0|0:0,0:0:0:0:
271,321,273160,2,0,L|162:315,1,110.000003356934,2|2,0:0|0:0,0:0:0:0:
383,224,273416,6,0,P|382:151|327:104,1,150,4|0,0:0|0:0,0:0:0:0:
230,246,273801,2,0,L|168:240,1,50,0|0,0:0|0:0,0:0:0:0:
250,198,273929,2,0,L|422:213,2,150,0|0|0,0:0|0:0|0:0,0:0:0:0:
104,192,274442,6,0,L|85:134,2,50,0|0|0,0:0|0:0|0:0,0:0:0:0:
187,237,274634,1,0,0:0:0:0:
220,271,274698,1,0,0:0:0:0:
201,313,274762,1,0,0:0:0:0:
137,349,274826,2,0,L|56:334,1,50,0|0,0:0|0:0,0:0:0:0:
253,293,274955,6,0,L|268:212,1,50,0|0,0:0|0:0,0:0:0:0:
180,215,275083,2,0,L|195:134,1,50,0|0,0:0|0:0,0:0:0:0:
336,109,275211,1,0,0:0:0:0:
399,121,275275,1,0,0:0:0:0:
427,179,275339,1,0,0:0:0:0:
397,236,275403,1,0,0:0:0:0:
220,271,275468,6,0,P|244:200|331:177,1,150,0|0,0:0|0:0,0:0:0:0:
103,78,275724,6,0,L|186:68,1,55.0000016784668,6|0,0:0|0:0,0:0:0:0:
350,70,275852,2,0,L|409:78,1,55.0000016784668,6|0,0:0|0:0,0:0:0:0:
103,78,275980,6,0,L|186:68,1,55.0000016784668,6|0,0:0|0:0,0:0:0:0:
350,70,276108,2,0,L|409:78,1,55.0000016784668,6|0,0:0|0:0,0:0:0:0:
103,78,276237,6,0,L|186:68,1,55.0000016784668,6|0,0:0|0:0,0:0:0:0:
350,70,276365,2,0,L|409:78,1,55.0000016784668,6|0,0:0|0:0,0:0:0:0:
253,256,276493,5,4,0:0:0:0:
205,253,276557,1,0,0:0:0:0:
180,212,276621,1,0,0:0:0:0:
200,169,276685,1,0,0:0:0:0:
271,165,276750,2,0,L|331:149,1,50,2|0,0:0|0:0,0:0:0:0:
242,127,276878,2,0,L|238:63,1,50,0|0,0:0|0:0,0:0:0:0:
385,43,277006,6,0,L|451:51,1,50,2|0,0:0|0:0,0:0:0:0:
358,119,277134,2,0,L|292:127,1,50,0|0,0:0|0:0,0:0:0:0:
148,202,277262,2,0,L|160:268,1,50,2|0,0:0|0:0,0:0:0:0:
237,266,277391,2,0,L|225:332,1,50,0|0,0:0|0:0,0:0:0:0:
75,339,277519,6,0,L|23:332,1,50,2|0,0:0|0:0,0:0:0:0:
99,285,277647,2,0,L|107:223,1,50,0|0,0:0|0:0,0:0:0:0:
35,191,277775,1,2,0:0:0:0:
28,142,277839,1,0,0:0:0:0:
57,103,277903,1,0,0:0:0:0:
106,96,277967,1,0,0:0:0:0:
242,134,278032,6,0,L|315:132,1,50,2|0,0:0|0:0,0:0:0:0:
225,179,278160,2,0,L|217:235,1,50,0|0,0:0|0:0,0:0:0:0:
287,277,278288,1,2,0:0:0:0:
274,324,278352,1,0,0:0:0:0:
235,354,278416,1,0,0:0:0:0:
186,354,278480,1,0,0:0:0:0:
360,351,278544,6,0,L|420:343,1,50,2|0,0:0|0:0,0:0:0:0:
479,275,278673,2,0,L|419:267,1,50,0|0,0:0|0:0,0:0:0:0:
352,258,278801,1,2,0:0:0:0:
341,210,278865,1,0,0:0:0:0:
365,168,278929,1,0,0:0:0:0:
411,153,278993,1,0,0:0:0:0:
273,152,279057,6,0,L|205:146,2,50,2|0|0,0:0|0:0|0:0,0:0:0:0:
127,257,279250,2,0,L|59:251,2,50,2|0|0,0:0|0:0|0:0,0:0:0:0:
256,347,279442,2,0,L|324:341,1,50,2|0,0:0|0:0,0:0:0:0:
160,338,279570,5,2,0:0:0:0:
130,299,279634,1,0,0:0:0:0:
140,252,279698,1,0,0:0:0:0:
184,230,279762,1,0,0:0:0:0:
261,233,279826,2,0,L|251:163,1,50,2|0,0:0|0:0,0:0:0:0:
186,135,279955,2,0,L|196:65,1,50,0|0,0:0|0:0,0:0:0:0:
352,76,280083,5,2,0:0:0:0:
400,74,280147,1,0,0:0:0:0:
440,103,280211,1,0,0:0:0:0:
451,151,280275,1,0,0:0:0:0:
381,190,280339,2,0,L|319:183,1,50,2|0,0:0|0:0,0:0:0:0:
401,276,280468,2,0,L|463:269,1,50,0|0,0:0|0:0,0:0:0:0:
294,343,280596,6,0,L|207:341,1,50,2|0,0:0|0:0,0:0:0:0:
178,298,280724,2,0,L|180:211,1,50,0|0,0:0|0:0,0:0:0:0:
259,247,280852,1,2,0:0:0:0:
301,223,280916,1,0,0:0:0:0:
316,176,280980,1,0,0:0:0:0:
293,133,281044,1,0,0:0:0:0:
139,115,281109,5,2,0:0:0:0:
133,163,281173,1,0,0:0:0:0:
158,206,281237,1,0,0:0:0:0:
203,225,281301,1,0,0:0:0:0:
276,266,281365,2,0,L|346:260,1,50,2|0,0:0|0:0,0:0:0:0:
251,295,281493,2,0,L|181:289,1,50,0|0,0:0|0:0,0:0:0:0:
40,281,281621,5,2,0:0:0:0:
42,232,281685,1,0,0:0:0:0:
75,196,281749,1,0,0:0:0:0:
124,192,281813,1,0,0:0:0:0:
208,159,281878,2,0,L|115:143,1,50,2|0,0:0|0:0,0:0:0:0:
83,137,282006,2,0,L|77:71,1,50,0|0,0:0|0:0,0:0:0:0:
240,70,282134,6,0,L|313:65,1,50,2|0,0:0|0:0,0:0:0:0:
228,149,282262,2,0,L|155:144,1,50,0|0,0:0|0:0,0:0:0:0:
342,152,282391,1,2,0:0:0:0:
366,193,282455,1,0,0:0:0:0:
352,240,282519,1,0,0:0:0:0:
309,262,282583,1,0,0:0:0:0:
187,266,282647,5,6,0:0:0:0:
116,263,282711,2,0,L|109:209,1,50,0|0,0:0|0:0,0:0:0:0:
266,98,282839,1,6,0:0:0:0:
216,95,282903,1,0,0:0:0:0:
166,92,282967,1,0,0:0:0:0:
325,266,283032,5,6,0:0:0:0:
396,263,283096,2,0,L|403:209,1,50,0|0,0:0|0:0,0:0:0:0:
246,98,283224,1,6,0:0:0:0:
296,95,283288,1,0,0:0:0:0:
346,92,283352,1,0,0:0:0:0:
187,266,283416,6,0,L|373:254,1,150,4|0,0:0|0:0,0:0:0:0:
482,241,283673,6,0,L|487:175,1,50,2|2,0:0|0:0,0:0:0:0:
333,181,283801,1,2,0:0:0:0:
179,181,283865,1,2,0:0:0:0:
26,191,283929,2,0,L|30:241,1,50,2|2,0:0|0:0,0:0:0:0:
164,251,284057,1,2,0:0:0:0:
298,273,284121,1,2,0:0:0:0:
432,237,284185,6,0,L|481:240,1,50,2|2,0:0|0:0,0:0:0:0:
333,181,284314,1,2,0:0:0:0:
179,181,284378,1,2,0:0:0:0:
30,240,284442,2,0,L|80:237,1,50,2|2,0:0|0:0,0:0:0:0:
214,233,284570,1,2,0:0:0:0:
348,258,284634,1,2,0:0:0:0:
481,240,284698,6,0,L|432:237,1,50,4|0,0:0|0:0,0:0:0:0:
349,229,284826,2,0,L|352:180,1,50,0|0,0:0|0:0,0:0:0:0:
427,167,284955,1,2,0:0:0:0:
443,212,285019,1,0,0:0:0:0:
421,255,285083,1,0,0:0:0:0:
374,267,285147,1,0,0:0:0:0:
236,303,285211,6,0,L|178:303,1,50,2|0,0:0|0:0,0:0:0:0:
255,332,285339,2,0,L|313:332,1,50,0|0,0:0|0:0,0:0:0:0:
150,338,285468,2,0,L|136:259,1,50,2|0,0:0|0:0,0:0:0:0:
220,251,285596,2,0,L|206:172,1,50,0|0,0:0|0:0,0:0:0:0:
64,148,285724,5,2,0:0:0:0:
59,196,285788,1,0,0:0:0:0:
88,236,285852,1,0,0:0:0:0:
135,247,285916,1,0,0:0:0:0:
206,260,285980,2,0,L|274:256,1,50,2|0,0:0|0:0,0:0:0:0:
188,315,286109,2,0,L|184:247,1,50,0|0,0:0|0:0,0:0:0:0:
346,233,286237,5,2,0:0:0:0:
334,185,286301,1,0,0:0:0:0:
297,152,286365,1,0,0:0:0:0:
248,146,286429,1,0,0:0:0:0:
179,119,286493,2,0,L|247:115,1,50,2|0,0:0|0:0,0:0:0:0:
295,63,286621,2,0,L|363:59,1,50,0|0,0:0|0:0,0:0:0:0:
197,198,286750,6,0,L|191:258,1,50,2|0,0:0|0:0,0:0:0:0:
270,273,286878,2,0,L|264:333,1,50,0|0,0:0|0:0,0:0:0:0:
184,349,287006,1,2,0:0:0:0:
135,345,287070,1,0,0:0:0:0:
102,308,287134,1,0,0:0:0:0:
104,260,287198,1,0,0:0:0:0:
234,148,287262,6,0,L|294:152,1,50,2|0,0:0|0:0,0:0:0:0:
221,212,287391,2,0,L|161:216,1,50,0|0,0:0|0:0,0:0:0:0:
348,251,287519,1,2,0:0:0:0:
390,227,287583,1,0,0:0:0:0:
405,180,287647,1,0,0:0:0:0:
383,137,287711,1,0,0:0:0:0:
247,68,287775,6,0,L|168:77,1,50,2|2,0:0|0:0,0:0:0:0:
27,132,287903,2,0,L|104:125,1,50,2|2,0:0|0:0,0:0:0:0:
262,44,288032,6,0,L|222:79,1,50,2|2,0:0|0:0,0:0:0:0:
27,132,288160,2,0,L|104:125,1,50,2|2,0:0|0:0,0:0:0:0:
281,17,288288,6,0,L|264:73,1,50,2|2,0:0|0:0,0:0:0:0:
27,132,288416,2,0,L|104:125,1,50,2|2,0:0|0:0,0:0:0:0:
252,109,288544,2,0,L|95:125,1,150,2|0,0:0|0:0,0:0:0:0:
265,68,288801,6,0,L|344:77,1,50,2|2,0:0|0:0,0:0:0:0:
485,132,288929,2,0,L|408:125,1,50,2|2,0:0|0:0,0:0:0:0:
250,44,289058,6,0,L|290:79,1,50,2|2,0:0|0:0,0:0:0:0:
485,132,289186,2,0,L|408:125,1,50,2|2,0:0|0:0,0:0:0:0:
231,17,289314,6,0,L|248:73,1,50,2|2,0:0|0:0,0:0:0:0:
485,132,289442,2,0,L|408:125,1,50,2|2,0:0|0:0,0:0:0:0:
260,109,289570,2,0,L|400:123,1,100,2|2,0:0|0:0,0:0:0:0:
117,324,289826,6,0,L|55:324,1,50,2|2,0:0|0:0,0:0:0:0:
246,188,289955,2,0,L|308:188,1,50,2|2,0:0|0:0,0:0:0:0:
98,185,290083,2,0,P|106:121|193:82,1,150,2|0,0:0|0:0,0:0:0:0:
395,324,290339,6,0,L|457:324,1,50,2|2,0:0|0:0,0:0:0:0:
266,188,290468,2,0,L|204:188,1,50,2|2,0:0|0:0,0:0:0:0:
414,185,290596,2,0,P|406:121|319:82,1,150,2|0,0:0|0:0,0:0:0:0:
139,78,290852,1,4,0:0:0:0:
256,192,290916,12,0,291750,0:0:0:0:
282,218,291878,6,0,L|347:203,1,55.0000016784668,4|0,0:0|0:0,0:0:0:0:
158,195,292006,1,2,0:0:0:0:
151,141,292070,1,2,0:0:0:0:
184,98,292134,1,0,0:0:0:0:
236,89,292198,1,0,0:0:0:0:
392,311,292262,6,0,L|398:236,1,55.0000016784668,2|2,0:0|0:0,0:0:0:0:
231,231,292391,2,0,L|237:156,1,55.0000016784668,2|2,0:0|0:0,0:0:0:0:
301,146,292519,2,0,L|376:140,1,55.0000016784668,2|2,0:0|0:0,0:0:0:0:
154,222,292647,6,0,L|79:216,1,55.0000016784668,2|2,0:0|0:0,0:0:0:0:
271,83,292775,2,0,L|346:77,1,55.0000016784668,2|2,0:0|0:0,0:0:0:0:
248,41,292903,5,2,0:0:0:0:
220,44,292935,1,2,0:0:0:0:
193,46,292967,1,2,0:0:0:0:
21,43,293032,6,0,L|31:149,1,55.0000016784668,2|2,0:0|0:0,0:0:0:0:
182,157,293160,2,0,L|192:263,1,55.0000016784668,2|2,0:0|0:0,0:0:0:0:
125,285,293288,2,0,L|19:295,1,55.0000016784668,2|0,0:0|0:0,0:0:0:0:
251,319,293416,6,0,L|333:304,1,55.0000016784668,2|0,0:0|0:0,0:0:0:0:
162,283,293544,1,2,0:0:0:0:
112,266,293608,1,0,0:0:0:0:
102,215,293672,1,2,0:0:0:0:
142,182,293736,1,2,0:0:0:0:
297,170,293801,6,0,L|301:87,1,55.0000016784668,2|0,0:0|0:0,0:0:0:0:
163,84,293929,2,0,L|108:84,1,55.0000016784668,2|0,0:0|0:0,0:0:0:0:
42,85,294057,1,2,0:0:0:0:
43,57,294089,1,0,0:0:0:0:
44,30,294121,1,2,0:0:0:0:
229,21,294185,6,0,L|296:25,1,55.0000016784668,2|2,0:0|0:0,0:0:0:0:
441,100,294314,2,0,L|433:169,1,55.0000016784668,2|0,0:0|0:0,0:0:0:0:
355,159,294442,2,0,L|347:228,1,55.0000016784668,2|0,0:0|0:0,0:0:0:0:
477,316,294570,6,0,L|486:237,1,55.0000016784668,2|2,0:0|0:0,0:0:0:0:
294,214,294698,1,0,0:0:0:0:
289,160,294762,1,2,0:0:0:0:
322,118,294826,1,2,0:0:0:0:
375,110,294890,1,0,0:0:0:0:
182,168,294955,6,0,L|100:159,1,55.0000016784668,2|2,0:0|0:0,0:0:0:0:
268,61,295083,2,0,L|328:49,1,55.0000016784668,2|2,0:0|0:0,0:0:0:0:
244,61,295211,2,0,L|184:49,1,55.0000016784668,2|2,0:0|0:0,0:0:0:0:
330,168,295339,2,0,L|412:159,1,55.0000016784668,2|2,0:0|0:0,0:0:0:0:
209,290,295468,5,4,0:0:0:0:
77,255,295596,2,0,L|72:172,1,55.0000016784668
153,90,295724,2,0,P|75:107|40:179,1,165.000005035401
298,118,295980,6,0,L|379:101,1,55.0000016784668,4|2,0:0|0:0,0:0:0:0:
183,267,296109,2,0,L|129:278,1,55.0000016784668,2|2,0:0|0:0,0:0:0:0:
345,268,296237,2,0,L|328:187,1,55.0000016784668,2|2,0:0|0:0,0:0:0:0:
250,201,296365,6,0,L|233:120,1,55.0000016784668,2|0,0:0|0:0,0:0:0:0:
446,151,296493,1,2,0:0:0:0:
461,202,296557,1,2,0:0:0:0:
436,249,296621,1,2,0:0:0:0:
385,265,296685,1,2,0:0:0:0:
247,323,296750,6,0,L|230:248,1,55.0000016784668,2|0,0:0|0:0,0:0:0:0:
389,188,296878,2,0,L|294:180,1,55.0000016784668,2|0,0:0|0:0,0:0:0:0:
279,215,297006,2,0,L|283:160,1,55.0000016784668,2|2,0:0|0:0,0:0:0:0:
432,103,297134,6,0,L|498:107,1,55.0000016784668,2|0,0:0|0:0,0:0:0:0:
314,327,297262,1,2,0:0:0:0:
260,319,297326,1,0,0:0:0:0:
223,279,297390,1,2,0:0:0:0:
219,226,297454,1,0,0:0:0:0:
366,108,297519,6,0,L|282:95,1,55.0000016784668,2|0,0:0|0:0,0:0:0:0:
170,147,297647,2,0,L|92:135,1,55.0000016784668,2|0,0:0|0:0,0:0:0:0:
177,80,297775,2,0,L|255:68,1,55.0000016784668,2|2,0:0|0:0,0:0:0:0:
386,137,297903,6,0,L|398:215,1,55.0000016784668,2|2,0:0|0:0,0:0:0:0:
247,273,298032,1,2,0:0:0:0:
225,224,298096,1,0,0:0:0:0:
249,176,298160,1,2,0:0:0:0:
300,164,298224,1,2,0:0:0:0:
135,143,298288,6,0,L|128:205,1,55.0000016784668,2|0,0:0|0:0,0:0:0:0:
283,298,298416,2,2,L|345:305,1,55.0000016784668,2|0,0:0|0:0,0:0:0:0:
272,335,298544,2,2,L|210:342,1,55.0000016784668,2|2,0:0|0:0,0:0:0:0:
55,352,298673,6,0,L|48:290,1,55.0000016784668,2|0,0:0|0:0,0:0:0:0:
178,262,298801,1,2,0:0:0:0:
229,249,298865,1,2,0:0:0:0:
251,201,298929,1,2,0:0:0:0:
226,154,298993,1,0,0:0:0:0:
86,175,299057,6,0,L|79:113,1,55.0000016784668,2|2,0:0|0:0,0:0:0:0:
234,37,299185,2,0,L|296:30,1,55.0000016784668,2|0,0:0|0:0,0:0:0:0:
226,78,299314,2,0,L|164:71,1,55.0000016784668,2|2,0:0|0:0,0:0:0:0:
341,157,299442,2,0,L|403:150,1,55.0000016784668,2|0,0:0|0:0,0:0:0:0:
259,318,299570,5,2,0:0:0:0:
231,314,299602,1,2,0:0:0:0:
204,311,299634,1,2,0:0:0:0:
78,294,299698,2,0,L|86:224,1,55.0000016784668,2|2,0:0|0:0,0:0:0:0:
165,264,299826,2,0,L|173:194,1,55.0000016784668,2|2,0:0|0:0,0:0:0:0:
22,104,299955,2,0,L|92:96,1,55.0000016784668,2|0,0:0|0:0,0:0:0:0:
273,82,300083,6,0,L|329:78,1,50,2|0,0:0|0:0,0:0:0:0:
178,125,300211,1,2,0:0:0:0:
135,147,300275,1,0,0:0:0:0:
130,194,300339,1,2,0:0:0:0:
168,224,300403,1,0,0:0:0:0:
340,276,300468,6,0,L|290:270,1,50,2|0,0:0|0:0,0:0:0:0:
155,203,300596,1,2,0:0:0:0:
171,156,300660,1,0,0:0:0:0:
208,123,300724,1,2,0:0:0:0:
256,111,300788,1,0,0:0:0:0:
99,88,300852,6,0,L|43:84,1,50,2|0,0:0|0:0,0:0:0:0:
194,131,300980,1,2,0:0:0:0:
236,153,301044,1,0,0:0:0:0:
241,200,301108,1,2,0:0:0:0:
203,230,301172,1,0,0:0:0:0:
32,282,301237,6,0,L|82:276,1,50,2|0,0:0|0:0,0:0:0:0:
217,209,301365,1,2,0:0:0:0:
201,162,301429,1,0,0:0:0:0:
164,129,301493,1,2,0:0:0:0:
116,117,301557,1,0,0:0:0:0:
261,61,301621,6,0,L|319:61,1,50,2|0,0:0|0:0,0:0:0:0:
439,70,301750,1,2,0:0:0:0:
445,118,301814,1,0,0:0:0:0:
417,158,301878,1,2,0:0:0:0:
369,167,301942,1,0,0:0:0:0:
222,252,302006,6,0,L|216:169,1,50,2|0,0:0|0:0,0:0:0:0:
360,231,302134,1,2,0:0:0:0:
387,191,302198,1,0,0:0:0:0:
370,146,302262,1,2,0:0:0:0:
323,133,302326,1,0,0:0:0:0:
166,326,302391,6,0,L|228:318,1,50,2|0,0:0|0:0,0:0:0:0:
369,276,302519,1,2,0:0:0:0:
405,244,302583,1,0,0:0:0:0:
403,196,302647,1,2,0:0:0:0:
363,169,302711,1,0,0:0:0:0:
232,156,302775,6,0,L|168:148,1,50,2|0,0:0|0:0,0:0:0:0:
321,99,302903,1,2,0:0:0:0:
304,145,302967,1,0,0:0:0:0:
266,175,303031,1,2,0:0:0:0:
216,179,303095,1,0,0:0:0:0:
67,258,303160,6,0,L|147:256,1,50,2|0,0:0|0:0,0:0:0:0:
257,256,303288,1,2,0:0:0:0:
280,213,303352,1,0,0:0:0:0:
264,167,303416,1,2,0:0:0:0:
219,148,303480,1,0,0:0:0:0:
373,143,303544,6,0,L|422:144,1,50,2|0,0:0|0:0,0:0:0:0:
271,247,303673,2,0,P|257:171|429:78,1,300,4|2,0:0|0:0,0:0:0:0:
360,109,304121,1,2,0:0:0:0:
149,328,304185,6,0,L|76:322,1,55.0000016784668,6|0,0:0|0:0,0:0:0:0:
287,253,304314,2,0,L|293:186,1,55.0000016784668,6|0,0:0|0:0,0:0:0:0:
220,198,304442,2,0,L|225:253,1,55.0000016784668,0|0,0:0|0:0,0:0:0:0:
363,328,304570,6,0,L|436:322,1,55.0000016784668,6|0,0:0|0:0,0:0:0:0:
239,285,304698,1,6,0:0:0:0:
213,238,304762,1,0,0:0:0:0:
235,189,304826,1,0,0:0:0:0:
286,176,304890,1,0,0:0:0:0:
149,105,304955,6,0,L|77:111,1,55.0000016784668,6|0,0:0|0:0,0:0:0:0:
292,142,305083,1,6,0:0:0:0:
287,88,305147,1,0,0:0:0:0:
251,48,305211,1,0,0:0:0:0:
198,39,305275,1,0,0:0:0:0:
363,105,305339,6,0,L|435:111,1,55.0000016784668,6|0,0:0|0:0,0:0:0:0:
212,164,305468,1,6,0:0:0:0:
263,147,305532,1,0,0:0:0:0:
295,104,305596,1,0,0:0:0:0:
296,50,305660,1,0,0:0:0:0:
98,200,305724,6,0,L|106:260,1,55.0000016784668,6|0,0:0|0:0,0:0:0:0:
299,275,305852,2,0,L|291:335,1,55.0000016784668,6|0,0:0|0:0,0:0:0:0:
222,277,305980,2,0,L|162:269,1,55.0000016784668,0|0,0:0|0:0,0:0:0:0:
414,200,306109,6,0,L|406:260,1,55.0000016784668,6|0,0:0|0:0,0:0:0:0:
213,275,306237,2,0,L|221:335,1,55.0000016784668,6|0,0:0|0:0,0:0:0:0:
290,277,306365,2,0,L|350:269,1,55.0000016784668,0|0,0:0|0:0,0:0:0:0:
164,185,306493,6,0,L|96:196,1,55.0000016784668,6|0,0:0|0:0,0:0:0:0:
302,152,306621,2,0,L|288:80,1,55.0000016784668,6|0,0:0|0:0,0:0:0:0:
220,98,306750,2,0,L|210:152,1,55.0000016784668,0|0,0:0|0:0,0:0:0:0:
348,185,306878,6,0,L|416:196,1,55.0000016784668,6|0,0:0|0:0,0:0:0:0:
210,152,307006,2,0,L|224:80,1,55.0000016784668,6|0,0:0|0:0,0:0:0:0:
291,98,307135,2,0,L|302:152,1,55.0000016784668,0|0,0:0|0:0,0:0:0:0:
139,34,307262,6,0,L|112:96,1,55.0000016784668,2|0,0:0|0:0,0:0:0:0:
263,175,307391,1,2,0:0:0:0:
283,126,307455,1,0,0:0:0:0:
256,81,307519,1,0,0:0:0:0:
203,76,307583,1,0,0:0:0:0:
348,53,307647,6,0,L|414:59,1,55.0000016784668,2|0,0:0|0:0,0:0:0:0:
241,124,307775,2,0,L|170:132,1,55.0000016784668,2|0,0:0|0:0,0:0:0:0:
362,292,307903,1,2,0:0:0:0:
408,267,307967,1,0,0:0:0:0:
409,215,308031,1,0,0:0:0:0:
363,190,308095,1,0,0:0:0:0:
203,192,308160,6,0,L|193:262,1,55.0000016784668,2|0,0:0|0:0,0:0:0:0:
340,324,308288,2,0,L|270:314,1,55.0000016784668,2|0,0:0|0:0,0:0:0:0:
149,303,308416,1,2,0:0:0:0:
95,299,308480,1,0,0:0:0:0:
59,259,308544,1,0,0:0:0:0:
61,205,308608,1,0,0:0:0:0:
199,137,308673,6,0,L|261:125,1,55.0000016784668,2|0,0:0|0:0,0:0:0:0:
430,67,308801,2,0,L|368:55,1,55.0000016784668,2|0,0:0|0:0,0:0:0:0:
168,61,308929,1,2,0:0:0:0:
115,65,308993,1,0,0:0:0:0:
87,110,309057,1,0,0:0:0:0:
108,159,309121,1,0,0:0:0:0:
317,190,309185,2,0,L|255:194,1,55.0000016784668,2|0,0:0|0:0,0:0:0:0:
48,264,309314,6,2,L|122:271,1,55.0000016784668,2|2,0:0|0:0,0:0:0:0:
228,144,309442,2,2,L|282:138,1,55.0000016784668,2|2,0:0|0:0,0:0:0:0:
464,264,309570,2,2,L|390:271,1,55.0000016784668,2|2,0:0|0:0,0:0:0:0:
284,144,309698,2,2,L|229:138,1,55.0000016784668,2|2,0:0|0:0,0:0:0:0:
62,300,309826,6,2,L|136:307,1,55.0000016784668,2|2,0:0|0:0,0:0:0:0:
412,195,309955,2,2,L|338:202,1,55.0000016784668,2|2,0:0|0:0,0:0:0:0:
100,195,310082,2,2,L|174:202,1,55.0000016784668,2|2,0:0|0:0,0:0:0:0:
450,300,310211,2,2,L|376:307,1,55.0000016784668
271,258,310339,5,2,0:0:0:0:
162,320,310371,2,2,L|124:314,2,27.5000008392334
263,251,310468,5,2,0:0:0:0:
380,215,310500,2,2,L|418:209,2,27.5000008392334
248,251,310596,5,2,0:0:0:0:
132,215,310628,2,2,L|94:209,2,27.5000008392334
240,258,310725,5,2,0:0:0:0:
350,320,310756,2,2,L|388:314,2,27.5000008392334
235,336,310852,6,0,L|169:330,1,55.0000016784668,2|2,0:0|0:0,0:0:0:0:
38,218,310980,2,0,L|104:212,1,55.0000016784668,2|2,0:0|0:0,0:0:0:0:
278,190,311109,2,0,L|276:124,1,55.0000016784668,2|0,0:0|0:0,0:0:0:0:
96,30,311237,2,0,L|30:32,1,55.0000016784668,2|2,0:0|0:0,0:0:0:0:
283,20,311365,6,0,L|359:31,2,53.3333333333333,2|0|0,0:0|0:0|0:0,0:0:0:0:
222,38,311621,2,0,L|146:49,2,53.3333333333333,2|0|0,0:0|0:0|0:0,0:0:0:0:
290,38,311878,6,0,L|366:49,2,53.3333333333333,2|0|0,0:0|0:0|0:0,0:0:0:0:
229,20,312134,2,0,L|153:31,2,53.3333333333333,2|0|0,0:0|0:0|0:0,0:0:0:0:
317,53,312391,5,2,0:0:0:0:
331,101,312476,1,0,0:0:0:0:
295,137,312561,1,0,0:0:0:0:
204,169,312647,1,2,0:0:0:0:
256,176,312732,1,0,0:0:0:0:
309,183,312817,1,0,0:0:0:0:
216,137,312903,5,2,0:0:0:0:
180,101,312988,1,0,0:0:0:0:
195,53,313073,1,0,0:0:0:0:
308,169,313160,1,2,0:0:0:0:
256,176,313245,1,0,0:0:0:0:
203,183,313330,1,0,0:0:0:0:
295,137,313416,2,0,P|369:179|278:303,1,266.666666666667,2|0,0:0|0:0,0:0:0:0:
36,312,313929,5,4,0:1:0:0:
256,192,313993,12,0,318993,0:0:0:0:
286,183,319250,5,12,0:0:0:0:
256,192,319314,12,0,325147,0:0:0:0:
