osu file format v14

[General]
AudioFilename: fire.mp3
AudioLeadIn: 0
PreviewTime: 169067
Countdown: 0
SampleSet: Normal
StackLeniency: 0.7
Mode: 1
LetterboxInBreaks: 0
WidescreenStoryboard: 0

[Editor]
Bookmarks: 8704,233407,300496
DistanceSpacing: 0.9
BeatDivisor: 4
GridSize: 32
TimelineZoom: 3.799998

[Metadata]
Title:Sigmund (tpz Overheat Remix) / Ending
TitleUnicode:Sigmund (tpz Overheat Remix) / Ending
Artist:Gram
ArtistUnicode:Gram
Creator:eiri-
Version:Finality
Source:beatmania IIDX 21 SPADA
Tags:Ayyri Realazy AyyLazy Real t+pazolite GuNGNiR LEGGENDARIA 22 PENDUAL 23 SINOBUZ 24 copula The Requiem PSY Psy-Trance DJ Genki GNKCD-004 M3-40 M3 KONAMI BEMANI
BeatmapID:1593453
BeatmapSetID:757457

[Difficulty]
HPDrainRate:5
CircleSize:2
OverallDifficulty:6
ApproachRate:10
SliderMultiplier:1.4
SliderTickRate:1

[Events]
//Background and Video events
0,0,"Sigmund (tpz Overheat Remix).jpg",0,80
//Break Periods
//Storyboard Layer 0 (Background)
//Storyboard Layer 1 (Fail)
//Storyboard Layer 2 (Pass)
//Storyboard Layer 3 (Foreground)
//Storyboard Sound Samples

[TimingPoints]
8704,272.727272727273,4,1,0,100,1,0
29431,-100,4,1,0,50,0,0
30522,-100,4,1,0,100,0,0
170158,-100,4,1,0,100,0,1
187613,-100,4,1,0,100,0,0
223613,-125,4,1,0,100,0,0
224567,-133.333333333333,4,1,0,100,0,0
225794,-142.857142857143,4,1,0,75,0,0
226817,-153.846153846154,4,1,0,50,0,0
227976,-166.666666666667,4,1,0,50,0,0
228794,-181.818181818182,4,1,0,25,0,0
231249,-200,4,1,0,25,0,0
233294,-200,4,1,0,5,0,0
233407,631.578947368421,4,1,0,50,1,0
256143,-66.6666666666667,4,1,0,50,0,0
258038,-100,4,1,0,5,0,0
258670,-50,4,1,0,75,0,0
280775,-100,4,1,0,5,0,0
281400,631.578947368421,4,1,0,5,1,8
281475,600,4,1,0,50,1,0
281575,-90.9090909090909,4,1,0,50,0,0
281675,517.241379310345,4,1,0,50,1,8
283730,512.820512820513,4,1,0,50,1,8
284242,495.867768595041,4,1,0,50,1,8
284738,535.714285714286,4,1,0,50,1,0
286693,491.803278688525,4,1,0,50,1,8
287420,536.912751677852,4,1,0,50,1,0
289567,631.578947368421,4,1,0,50,1,0
291988,600,4,1,0,50,1,0
292588,631.578947368421,4,1,0,50,1,8
294408,705.882352941176,4,1,0,50,1,8
294496,750,4,1,0,50,1,0
294496,-93.4579439252336,4,1,0,50,0,0
295246,-93.4579439252336,4,1,0,45,0,0
295996,-93.4579439252336,4,1,0,40,0,0
296746,-93.4579439252336,4,1,0,35,0,0
297496,-93.4579439252336,4,1,0,30,0,0
298246,-93.4579439252336,4,1,0,25,0,0
298996,-93.4579439252336,4,1,0,15,0,0
299746,-93.4579439252336,4,1,0,10,0,0
300496,-93.4579439252336,4,1,0,5,0,0

[HitObjects]
256,192,44,8,0,8567,0:0:0:0:
256,192,8704,5,4,0:0:0:0:
256,192,8976,1,4,0:0:0:0:
256,192,9249,1,8,0:0:0:0:
256,192,10067,1,0,0:0:0:0:
256,192,10204,1,0,0:0:0:0:
256,192,10340,1,8,0:0:0:0:
256,192,10613,1,0,0:0:0:0:
256,192,10885,1,4,0:0:0:0:
256,192,11158,1,4,0:0:0:0:
256,192,11431,1,8,0:0:0:0:
256,192,12249,1,0,0:0:0:0:
256,192,12385,1,8,0:0:0:0:
256,192,12522,1,0,0:0:0:0:
256,192,12613,1,0,0:0:0:0:
256,192,12704,1,0,0:0:0:0:
256,192,12794,1,8,0:0:0:0:
256,192,12885,1,8,0:0:0:0:
256,192,12976,1,8,0:0:0:0:
256,192,13067,1,4,0:0:0:0:
256,192,13340,1,4,0:0:0:0:
256,192,13613,1,8,0:0:0:0:
256,192,14158,1,8,0:0:0:0:
256,192,14431,1,0,0:0:0:0:
256,192,14567,1,0,0:0:0:0:
256,192,14704,1,8,0:0:0:0:
256,192,14976,1,0,0:0:0:0:
256,192,15113,1,0,0:0:0:0:
256,192,15249,1,4,0:0:0:0:
256,192,15522,1,4,0:0:0:0:
256,192,15794,1,8,0:0:0:0:
256,192,16067,1,0,0:0:0:0:
256,192,16340,1,4,0:0:0:0:
256,192,16749,1,0,0:0:0:0:
256,192,17158,1,0,0:0:0:0:
256,192,17431,1,12,0:0:0:0:
256,192,17704,1,12,0:0:0:0:
256,192,17976,1,8,0:0:0:0:
256,192,18113,1,0,0:0:0:0:
256,192,18385,1,0,0:0:0:0:
256,192,18794,1,0,0:0:0:0:
256,192,18931,1,0,0:0:0:0:
256,192,19067,1,8,0:0:0:0:
256,192,19340,1,0,0:0:0:0:
256,192,19613,1,12,0:0:0:0:
256,192,19886,1,12,0:0:0:0:
256,192,20158,1,8,0:0:0:0:
256,192,20295,1,0,0:0:0:0:
256,192,20567,1,0,0:0:0:0:
256,192,20976,1,0,0:0:0:0:
256,192,21113,1,0,0:0:0:0:
256,192,21249,1,8,0:0:0:0:
256,192,21340,1,8,0:0:0:0:
256,192,21431,1,8,0:0:0:0:
256,192,21522,1,0,0:0:0:0:
256,192,21613,1,0,0:0:0:0:
256,192,21704,1,0,0:0:0:0:
256,192,21794,1,12,0:0:0:0:
256,192,22067,1,12,0:0:0:0:
256,192,22339,1,8,0:0:0:0:
256,192,22476,1,0,0:0:0:0:
256,192,22748,1,0,0:0:0:0:
256,192,23157,1,0,0:0:0:0:
256,192,23294,1,0,0:0:0:0:
256,192,23430,1,8,0:0:0:0:
256,192,23703,1,0,0:0:0:0:
256,192,23840,1,0,0:0:0:0:
256,192,23976,1,12,0:0:0:0:
256,192,24249,1,12,0:0:0:0:
256,192,24521,1,8,0:0:0:0:
256,192,24794,1,0,0:0:0:0:
256,192,25067,1,0,0:0:0:0:
256,192,25476,1,0,0:0:0:0:
256,192,25613,1,8,0:0:0:0:
256,192,25885,1,8,0:0:0:0:
256,192,26158,1,4,0:0:0:0:
256,192,28340,1,4,0:0:0:0:
256,192,29431,1,8,0:0:0:0:
256,192,29704,1,8,0:0:0:0:
256,192,29976,1,8,0:0:0:0:
256,192,30249,1,8,0:0:0:0:
256,192,30522,1,12,0:0:0:0:
256,192,30658,1,0,0:0:0:0:
256,192,30794,1,0,0:0:0:0:
256,192,30862,1,0,0:0:0:0:
256,192,30931,1,8,0:0:0:0:
256,192,31067,1,8,0:0:0:0:
256,192,31203,1,0,0:0:0:0:
256,192,31340,1,0,0:0:0:0:
256,192,31408,1,8,0:0:0:0:
256,192,31476,1,0,0:0:0:0:
256,192,31613,1,8,0:0:0:0:
256,192,31681,1,8,0:0:0:0:
256,192,31749,1,0,0:0:0:0:
256,192,31885,1,0,0:0:0:0:
256,192,31954,1,0,0:0:0:0:
256,192,32022,1,8,0:0:0:0:
256,192,32158,1,8,0:0:0:0:
256,192,32226,1,0,0:0:0:0:
256,192,32294,1,8,0:0:0:0:
256,192,32431,1,8,0:0:0:0:
256,192,32499,1,0,0:0:0:0:
256,192,32567,1,8,0:0:0:0:
256,192,32635,1,8,0:0:0:0:
256,192,32704,1,0,0:0:0:0:
256,192,32840,1,0,0:0:0:0:
256,192,32908,1,0,0:0:0:0:
256,192,32976,1,8,0:0:0:0:
256,192,33113,1,8,0:0:0:0:
256,192,33249,1,0,0:0:0:0:
256,192,33385,1,0,0:0:0:0:
256,192,33454,1,0,0:0:0:0:
256,192,33522,1,8,0:0:0:0:
256,192,33658,1,8,0:0:0:0:
256,192,33794,1,8,0:0:0:0:
256,192,33863,1,0,0:0:0:0:
256,192,33931,1,0,0:0:0:0:
256,192,33999,1,0,0:0:0:0:
256,192,34067,1,8,0:0:0:0:
256,192,34204,1,8,0:0:0:0:
256,192,34272,1,0,0:0:0:0:
256,192,34340,1,8,0:0:0:0:
256,192,34408,1,0,0:0:0:0:
256,192,34476,1,8,0:0:0:0:
256,192,34522,1,8,0:0:0:0:
256,192,34567,1,8,0:0:0:0:
256,192,34613,1,0,0:0:0:0:
256,192,34749,1,0,0:0:0:0:
256,192,34885,1,12,0:0:0:0:
256,192,35022,1,8,0:0:0:0:
256,192,35090,1,0,0:0:0:0:
256,192,35158,1,8,0:0:0:0:
256,192,35294,1,8,0:0:0:0:
256,192,35363,1,8,0:0:0:0:
256,192,35431,1,0,0:0:0:0:
256,192,35567,1,0,0:0:0:0:
256,192,35635,1,0,0:0:0:0:
256,192,35704,1,8,0:0:0:0:
256,192,35772,1,0,0:0:0:0:
256,192,35840,1,8,0:0:0:0:
256,192,35976,1,0,0:0:0:0:
256,192,36044,1,0,0:0:0:0:
256,192,36113,1,8,0:0:0:0:
256,192,36249,1,8,0:0:0:0:
256,192,36385,1,8,0:0:0:0:
256,192,36454,1,0,0:0:0:0:
256,192,36522,1,0,0:0:0:0:
256,192,36658,1,8,0:0:0:0:
256,192,36794,1,0,0:0:0:0:
256,192,36863,1,0,0:0:0:0:
256,192,36931,1,0,0:0:0:0:
256,192,36999,1,0,0:0:0:0:
256,192,37067,1,12,0:0:0:0:
256,192,37204,1,8,0:0:0:0:
256,192,37340,1,0,0:0:0:0:
256,192,37476,1,8,0:0:0:0:
256,192,37613,1,12,0:0:0:0:
256,192,37749,1,0,0:0:0:0:
256,192,37885,1,8,0:0:0:0:
256,192,38022,1,0,0:0:0:0:
256,192,38158,1,8,0:0:0:0:
256,192,38226,1,0,0:0:0:0:
256,192,38294,1,8,0:0:0:0:
256,192,38363,1,8,0:0:0:0:
256,192,38431,1,0,0:0:0:0:
256,192,38567,1,8,0:0:0:0:
256,192,38704,1,8,0:0:0:0:
256,192,38749,1,8,0:0:0:0:
256,192,38794,1,8,0:0:0:0:
256,192,38840,1,0,0:0:0:0:
256,192,38908,1,0,0:0:0:0:
256,192,38976,1,8,0:0:0:0:
256,192,39022,1,8,0:0:0:0:
256,192,39067,1,8,0:0:0:0:
256,192,39113,1,0,0:0:0:0:
256,192,39181,1,0,0:0:0:0:
256,192,39249,1,8,0:0:0:0:
256,192,39317,1,0,0:0:0:0:
256,192,39385,1,8,0:0:0:0:
256,192,39454,1,8,0:0:0:0:
256,192,39522,1,8,0:0:0:0:
256,192,39590,1,0,0:0:0:0:
256,192,39658,1,8,0:0:0:0:
256,192,39726,1,8,0:0:0:0:
256,192,39794,1,0,0:0:0:0:
256,192,39863,1,0,0:0:0:0:
256,192,39931,1,8,0:0:0:0:
256,192,39999,1,0,0:0:0:0:
256,192,40067,1,8,0:0:0:0:
256,192,40135,1,0,0:0:0:0:
256,192,40204,1,8,0:0:0:0:
256,192,40272,1,8,0:0:0:0:
256,192,40340,1,0,0:0:0:0:
256,192,40408,1,0,0:0:0:0:
256,192,40476,1,8,0:0:0:0:
256,192,40544,1,0,0:0:0:0:
256,192,40613,1,8,0:0:0:0:
256,192,40681,1,0,0:0:0:0:
256,192,40749,1,8,0:0:0:0:
256,192,40817,1,8,0:0:0:0:
256,192,40885,1,0,0:0:0:0:
256,192,40954,1,0,0:0:0:0:
256,192,41022,1,8,0:0:0:0:
256,192,41090,1,0,0:0:0:0:
256,192,41158,1,12,0:0:0:0:
256,192,41431,1,8,0:0:0:0:
256,192,41499,1,0,0:0:0:0:
256,192,41567,1,8,0:0:0:0:
256,192,41636,1,8,0:0:0:0:
256,192,41704,1,8,0:0:0:0:
256,192,41772,1,0,0:0:0:0:
256,192,41840,1,8,0:0:0:0:
256,192,41908,1,8,0:0:0:0:
256,192,41976,1,0,0:0:0:0:
256,192,42045,1,0,0:0:0:0:
256,192,42113,1,8,0:0:0:0:
256,192,42181,1,0,0:0:0:0:
256,192,42249,1,8,0:0:0:0:
256,192,42317,1,0,0:0:0:0:
256,192,42386,1,8,0:0:0:0:
256,192,42454,1,8,0:0:0:0:
256,192,42522,1,0,0:0:0:0:
256,192,42590,1,0,0:0:0:0:
256,192,42658,1,8,0:0:0:0:
256,192,42726,1,0,0:0:0:0:
256,192,42795,1,8,0:0:0:0:
256,192,42863,1,0,0:0:0:0:
256,192,42931,1,8,0:0:0:0:
256,192,42999,1,8,0:0:0:0:
256,192,43067,1,0,0:0:0:0:
256,192,43136,1,0,0:0:0:0:
256,192,43204,1,8,0:0:0:0:
256,192,43272,1,8,0:0:0:0:
256,192,43340,1,0,0:0:0:0:
256,192,43476,1,0,0:0:0:0:
256,192,43613,1,8,0:0:0:0:
256,192,43681,1,0,0:0:0:0:
256,192,43749,1,8,0:0:0:0:
256,192,43818,1,8,0:0:0:0:
256,192,43886,1,8,0:0:0:0:
256,192,43954,1,0,0:0:0:0:
256,192,44022,1,8,0:0:0:0:
256,192,44090,1,8,0:0:0:0:
256,192,44158,1,0,0:0:0:0:
256,192,44227,1,0,0:0:0:0:
256,192,44295,1,8,0:0:0:0:
256,192,44363,1,0,0:0:0:0:
256,192,44431,1,8,0:0:0:0:
256,192,44499,1,0,0:0:0:0:
256,192,44568,1,8,0:0:0:0:
256,192,44636,1,8,0:0:0:0:
256,192,44704,1,0,0:0:0:0:
256,192,44772,1,0,0:0:0:0:
256,192,44840,1,8,0:0:0:0:
256,192,44908,1,0,0:0:0:0:
256,192,44977,1,8,0:0:0:0:
256,192,45022,1,8,0:0:0:0:
256,192,45067,1,8,0:0:0:0:
256,192,45113,1,0,0:0:0:0:
256,192,45181,1,0,0:0:0:0:
256,192,45249,1,8,0:0:0:0:
256,192,45318,1,0,0:0:0:0:
256,192,45386,1,8,0:0:0:0:
256,192,45431,1,8,0:0:0:0:
256,192,45522,1,0,0:0:0:0:
256,192,45567,1,0,0:0:0:0:
256,192,45658,1,8,0:0:0:0:
256,192,45704,1,8,0:0:0:0:
256,192,45794,1,8,0:0:0:0:
256,192,45863,1,8,0:0:0:0:
256,192,45931,1,0,0:0:0:0:
256,192,45999,1,0,0:0:0:0:
256,192,46067,1,8,0:0:0:0:
256,192,46135,1,0,0:0:0:0:
256,192,46204,1,8,0:0:0:0:
256,192,46249,1,8,0:0:0:0:
256,192,46294,1,8,0:0:0:0:
256,192,46340,1,0,0:0:0:0:
256,192,46408,1,0,0:0:0:0:
256,192,46476,1,8,0:0:0:0:
256,192,46544,1,0,0:0:0:0:
256,192,46613,1,8,0:0:0:0:
256,192,46681,1,0,0:0:0:0:
256,192,46749,1,8,0:0:0:0:
256,192,46794,1,8,0:0:0:0:
256,192,46840,1,8,0:0:0:0:
256,192,46885,1,0,0:0:0:0:
256,192,46954,1,0,0:0:0:0:
256,192,47022,1,8,0:0:0:0:
256,192,47067,1,8,0:0:0:0:
256,192,47113,1,8,0:0:0:0:
256,192,47158,1,0,0:0:0:0:
256,192,47226,1,0,0:0:0:0:
256,192,47363,1,0,0:0:0:0:
256,192,47431,1,8,0:0:0:0:
256,192,47476,1,8,0:0:0:0:
256,192,47522,1,8,0:0:0:0:
256,192,47567,1,0,0:0:0:0:
256,192,47635,1,0,0:0:0:0:
256,192,47704,1,8,0:0:0:0:
256,192,47772,1,0,0:0:0:0:
256,192,47840,1,8,0:0:0:0:
256,192,47885,1,8,0:0:0:0:
256,192,47931,1,8,0:0:0:0:
256,192,47976,1,0,0:0:0:0:
256,192,49340,1,0,0:0:0:0:
256,192,49749,1,0,0:0:0:0:
256,192,50158,1,4,0:0:0:0:
256,192,50431,1,8,0:0:0:0:
256,192,50704,1,8,0:0:0:0:
256,192,50976,1,8,0:0:0:0:
256,192,51249,1,8,0:0:0:0:
256,192,51385,1,8,0:0:0:0:
256,192,51522,1,0,0:0:0:0:
256,192,51658,1,8,0:0:0:0:
256,192,51931,1,0,0:0:0:0:
256,192,52067,1,8,0:0:0:0:
256,192,52340,1,4,0:0:0:0:
256,192,53704,1,0,0:0:0:0:
256,192,54113,1,0,0:0:0:0:
256,192,54522,1,4,0:0:0:0:
256,192,54795,1,8,0:0:0:0:
256,192,55068,1,8,0:0:0:0:
256,192,55340,1,8,0:0:0:0:
256,192,55613,1,8,0:0:0:0:
256,192,55749,1,8,0:0:0:0:
256,192,55886,1,0,0:0:0:0:
256,192,56022,1,8,0:0:0:0:
256,192,56295,1,0,0:0:0:0:
256,192,56431,1,8,0:0:0:0:
256,192,56704,1,4,0:0:0:0:
256,192,56976,1,0,0:0:0:0:
256,192,57113,1,0,0:0:0:0:
256,192,57249,1,8,0:0:0:0:
256,192,57385,1,8,0:0:0:0:
256,192,57522,1,0,0:0:0:0:
256,192,57658,1,8,0:0:0:0:
256,192,57794,1,0,0:0:0:0:
256,192,58068,1,0,0:0:0:0:
256,192,58204,1,8,0:0:0:0:
256,192,58340,1,8,0:0:0:0:
256,192,58477,1,0,0:0:0:0:
256,192,58613,1,8,0:0:0:0:
256,192,58749,1,8,0:0:0:0:
256,192,58886,1,4,0:0:0:0:
256,192,59158,1,8,0:0:0:0:
256,192,59431,1,8,0:0:0:0:
256,192,59703,1,8,0:0:0:0:
256,192,59976,1,8,0:0:0:0:
256,192,60112,1,8,0:0:0:0:
256,192,60249,1,0,0:0:0:0:
256,192,60385,1,8,0:0:0:0:
256,192,60658,1,0,0:0:0:0:
256,192,60794,1,8,0:0:0:0:
256,192,61067,1,4,0:0:0:0:
256,192,61340,1,0,0:0:0:0:
256,192,61613,1,0,0:0:0:0:
256,192,61886,1,0,0:0:0:0:
256,192,62158,1,0,0:0:0:0:
256,192,62431,1,0,0:0:0:0:
256,192,62567,1,0,0:0:0:0:
256,192,62704,1,0,0:0:0:0:
256,192,62840,1,0,0:0:0:0:
256,192,62976,1,0,0:0:0:0:
256,192,63113,1,0,0:0:0:0:
256,192,63249,1,12,0:0:0:0:
256,192,63385,1,0,0:0:0:0:
256,192,63522,1,8,0:0:0:0:
256,192,63590,1,8,0:0:0:0:
256,192,63658,1,0,0:0:0:0:
256,192,63726,1,0,0:0:0:0:
256,192,63794,1,8,0:0:0:0:
256,192,63863,1,8,0:0:0:0:
256,192,63931,1,0,0:0:0:0:
256,192,63999,1,0,0:0:0:0:
256,192,64067,1,8,0:0:0:0:
256,192,64135,1,0,0:0:0:0:
256,192,64204,1,8,0:0:0:0:
256,192,64272,1,8,0:0:0:0:
256,192,64340,1,4,0:0:0:0:
256,192,65158,1,0,0:0:0:0:
256,192,65204,1,0,0:0:0:0:
256,192,65249,1,0,0:0:0:0:
256,192,65294,1,0,0:0:0:0:
256,192,65340,1,0,0:0:0:0:
256,192,65385,1,0,0:0:0:0:
256,192,65431,1,8,0:0:0:0:
256,192,65567,1,0,0:0:0:0:
256,192,65704,1,8,0:0:0:0:
256,192,65772,1,8,0:0:0:0:
256,192,65908,1,8,0:0:0:0:
256,192,66044,1,8,0:0:0:0:
256,192,66181,1,0,0:0:0:0:
256,192,66249,1,8,0:0:0:0:
256,192,66317,1,0,0:0:0:0:
256,192,66385,1,0,0:0:0:0:
256,192,66454,1,8,0:0:0:0:
256,192,66522,1,0,0:0:0:0:
256,192,66658,1,0,0:0:0:0:
256,192,66794,1,8,0:0:0:0:
256,192,66863,1,8,0:0:0:0:
256,192,66999,1,8,0:0:0:0:
256,192,67135,1,0,0:0:0:0:
256,192,67272,1,8,0:0:0:0:
256,192,67340,1,0,0:0:0:0:
256,192,67408,1,0,0:0:0:0:
256,192,67476,1,8,0:0:0:0:
256,192,67544,1,8,0:0:0:0:
256,192,67613,1,0,0:0:0:0:
256,192,67749,1,0,0:0:0:0:
256,192,67886,1,8,0:0:0:0:
256,192,67954,1,8,0:0:0:0:
256,192,68090,1,8,0:0:0:0:
256,192,68226,1,8,0:0:0:0:
256,192,68363,1,0,0:0:0:0:
256,192,68431,1,8,0:0:0:0:
256,192,68499,1,0,0:0:0:0:
256,192,68567,1,0,0:0:0:0:
256,192,68636,1,8,0:0:0:0:
256,192,68704,1,0,0:0:0:0:
256,192,68840,1,0,0:0:0:0:
256,192,68976,1,8,0:0:0:0:
256,192,69045,1,8,0:0:0:0:
256,192,69181,1,8,0:0:0:0:
256,192,69317,1,0,0:0:0:0:
256,192,69454,1,8,0:0:0:0:
256,192,69522,1,0,0:0:0:0:
256,192,69590,1,0,0:0:0:0:
256,192,69658,1,8,0:0:0:0:
256,192,69726,1,8,0:0:0:0:
256,192,69794,1,0,0:0:0:0:
256,192,69930,1,0,0:0:0:0:
256,192,70067,1,8,0:0:0:0:
256,192,70135,1,8,0:0:0:0:
256,192,70271,1,8,0:0:0:0:
256,192,70407,1,8,0:0:0:0:
256,192,70544,1,0,0:0:0:0:
256,192,70612,1,8,0:0:0:0:
256,192,70680,1,0,0:0:0:0:
256,192,70748,1,0,0:0:0:0:
256,192,70817,1,8,0:0:0:0:
256,192,70885,1,0,0:0:0:0:
256,192,71021,1,0,0:0:0:0:
256,192,71157,1,8,0:0:0:0:
256,192,71226,1,8,0:0:0:0:
256,192,71362,1,8,0:0:0:0:
256,192,71498,1,0,0:0:0:0:
256,192,71635,1,8,0:0:0:0:
256,192,71703,1,0,0:0:0:0:
256,192,71771,1,0,0:0:0:0:
256,192,71839,1,8,0:0:0:0:
256,192,71907,1,8,0:0:0:0:
256,192,71976,1,0,0:0:0:0:
256,192,72112,1,0,0:0:0:0:
256,192,72249,1,8,0:0:0:0:
256,192,72317,1,8,0:0:0:0:
256,192,72453,1,8,0:0:0:0:
256,192,72589,1,8,0:0:0:0:
256,192,72726,1,0,0:0:0:0:
256,192,72794,1,8,0:0:0:0:
256,192,72862,1,0,0:0:0:0:
256,192,72930,1,0,0:0:0:0:
256,192,72999,1,8,0:0:0:0:
256,192,73067,1,0,0:0:0:0:
256,192,73203,1,0,0:0:0:0:
256,192,73339,1,8,0:0:0:0:
256,192,73408,1,8,0:0:0:0:
256,192,73544,1,8,0:0:0:0:
256,192,73680,1,0,0:0:0:0:
256,192,73817,1,8,0:0:0:0:
256,192,73885,1,0,0:0:0:0:
256,192,73953,1,0,0:0:0:0:
256,192,74021,1,8,0:0:0:0:
256,192,74089,1,8,0:0:0:0:
256,192,74158,1,0,0:0:0:0:
256,192,74294,1,0,0:0:0:0:
256,192,74431,1,8,0:0:0:0:
256,192,74499,1,8,0:0:0:0:
256,192,74567,1,0,0:0:0:0:
256,192,74635,1,8,0:0:0:0:
256,192,74771,1,8,0:0:0:0:
256,192,74908,1,0,0:0:0:0:
256,192,74976,1,8,0:0:0:0:
256,192,75044,1,0,0:0:0:0:
256,192,75112,1,0,0:0:0:0:
256,192,75181,1,8,0:0:0:0:
256,192,75249,1,0,0:0:0:0:
256,192,75385,1,0,0:0:0:0:
256,192,75521,1,8,0:0:0:0:
256,192,75590,1,8,0:0:0:0:
256,192,75658,1,0,0:0:0:0:
256,192,75726,1,8,0:0:0:0:
256,192,75794,1,0,0:0:0:0:
256,192,75862,1,8,0:0:0:0:
256,192,75999,1,8,0:0:0:0:
256,192,76067,1,0,0:0:0:0:
256,192,76135,1,0,0:0:0:0:
256,192,76203,1,8,0:0:0:0:
256,192,76271,1,8,0:0:0:0:
256,192,76340,1,0,0:0:0:0:
256,192,76476,1,0,0:0:0:0:
256,192,76613,1,8,0:0:0:0:
256,192,76681,1,0,0:0:0:0:
256,192,76749,1,8,0:0:0:0:
256,192,76817,1,8,0:0:0:0:
256,192,76953,1,8,0:0:0:0:
256,192,77090,1,0,0:0:0:0:
256,192,77158,1,8,0:0:0:0:
256,192,77226,1,0,0:0:0:0:
256,192,77294,1,0,0:0:0:0:
256,192,77363,1,8,0:0:0:0:
256,192,77431,1,0,0:0:0:0:
256,192,77567,1,0,0:0:0:0:
256,192,77703,1,8,0:0:0:0:
256,192,77772,1,8,0:0:0:0:
256,192,77840,1,0,0:0:0:0:
256,192,77908,1,8,0:0:0:0:
256,192,77976,1,0,0:0:0:0:
256,192,78044,1,8,0:0:0:0:
256,192,78181,1,8,0:0:0:0:
256,192,78249,1,0,0:0:0:0:
256,192,78317,1,0,0:0:0:0:
256,192,78385,1,8,0:0:0:0:
256,192,78453,1,8,0:0:0:0:
256,192,78522,1,0,0:0:0:0:
256,192,78658,1,0,0:0:0:0:
256,192,78795,1,8,0:0:0:0:
256,192,78863,1,8,0:0:0:0:
256,192,78931,1,0,0:0:0:0:
256,192,78999,1,8,0:0:0:0:
256,192,79135,1,8,0:0:0:0:
256,192,79272,1,0,0:0:0:0:
256,192,79340,1,8,0:0:0:0:
256,192,79408,1,0,0:0:0:0:
256,192,79476,1,0,0:0:0:0:
256,192,79545,1,8,0:0:0:0:
256,192,79613,1,0,0:0:0:0:
256,192,79749,1,0,0:0:0:0:
256,192,79885,1,8,0:0:0:0:
256,192,79954,1,8,0:0:0:0:
256,192,80022,1,0,0:0:0:0:
256,192,80090,1,8,0:0:0:0:
256,192,80158,1,0,0:0:0:0:
256,192,80226,1,8,0:0:0:0:
256,192,80363,1,8,0:0:0:0:
256,192,80431,1,0,0:0:0:0:
256,192,80499,1,0,0:0:0:0:
256,192,80567,1,8,0:0:0:0:
256,192,80635,1,8,0:0:0:0:
256,192,80704,1,0,0:0:0:0:
256,192,80840,1,0,0:0:0:0:
256,192,80977,1,8,0:0:0:0:
256,192,81045,1,8,0:0:0:0:
256,192,81113,1,0,0:0:0:0:
256,192,81181,1,8,0:0:0:0:
256,192,81317,1,8,0:0:0:0:
256,192,81454,1,0,0:0:0:0:
256,192,81522,1,8,0:0:0:0:
256,192,81590,1,0,0:0:0:0:
256,192,81658,1,0,0:0:0:0:
256,192,81727,1,8,0:0:0:0:
256,192,81795,1,0,0:0:0:0:
256,192,81931,1,0,0:0:0:0:
256,192,82067,1,8,0:0:0:0:
256,192,82136,1,8,0:0:0:0:
256,192,82272,1,8,0:0:0:0:
256,192,82340,1,0,0:0:0:0:
256,192,82408,1,8,0:0:0:0:
256,192,82545,1,8,0:0:0:0:
256,192,82613,1,0,0:0:0:0:
256,192,82658,1,0,0:0:0:0:
256,192,82704,1,0,0:0:0:0:
256,192,82749,1,0,0:0:0:0:
256,192,82794,1,0,0:0:0:0:
256,192,82840,1,0,0:0:0:0:
256,192,82886,1,8,0:0:0:0:
256,192,83022,1,0,0:0:0:0:
256,192,83158,1,8,0:0:0:0:
256,192,83226,1,0,0:0:0:0:
256,192,83363,1,0,0:0:0:0:
256,192,83431,1,8,0:0:0:0:
256,192,83499,1,8,0:0:0:0:
256,192,83567,1,0,0:0:0:0:
256,192,83635,1,0,0:0:0:0:
256,192,83704,1,8,0:0:0:0:
256,192,83772,1,0,0:0:0:0:
256,192,83840,1,8,0:0:0:0:
256,192,83976,1,8,0:0:0:0:
256,192,84113,1,0,0:0:0:0:
256,192,84249,1,8,0:0:0:0:
256,192,84317,1,8,0:0:0:0:
256,192,84454,1,8,0:0:0:0:
256,192,84522,1,0,0:0:0:0:
256,192,84590,1,0,0:0:0:0:
256,192,84658,1,8,0:0:0:0:
256,192,84726,1,8,0:0:0:0:
256,192,84794,1,0,0:0:0:0:
256,192,84863,1,0,0:0:0:0:
256,192,84931,1,8,0:0:0:0:
256,192,84999,1,0,0:0:0:0:
256,192,85067,1,8,0:0:0:0:
256,192,85204,1,0,0:0:0:0:
256,192,85340,1,8,0:0:0:0:
256,192,85408,1,0,0:0:0:0:
256,192,85544,1,0,0:0:0:0:
256,192,85613,1,8,0:0:0:0:
256,192,85681,1,8,0:0:0:0:
256,192,85749,1,0,0:0:0:0:
256,192,85817,1,8,0:0:0:0:
256,192,85886,1,8,0:0:0:0:
256,192,85954,1,0,0:0:0:0:
256,192,86022,1,8,0:0:0:0:
256,192,86090,1,0,0:0:0:0:
256,192,86158,1,8,0:0:0:0:
256,192,86295,1,0,0:0:0:0:
256,192,86431,1,8,0:0:0:0:
256,192,86499,1,8,0:0:0:0:
256,192,86636,1,8,0:0:0:0:
256,192,86704,1,0,0:0:0:0:
256,192,86772,1,8,0:0:0:0:
256,192,86840,1,8,0:0:0:0:
256,192,86908,1,0,0:0:0:0:
256,192,86976,1,8,0:0:0:0:
256,192,87045,1,8,0:0:0:0:
256,192,87113,1,0,0:0:0:0:
256,192,87181,1,0,0:0:0:0:
256,192,87249,1,8,0:0:0:0:
256,192,87386,1,0,0:0:0:0:
256,192,87522,1,8,0:0:0:0:
256,192,87590,1,0,0:0:0:0:
256,192,87726,1,0,0:0:0:0:
256,192,87794,1,8,0:0:0:0:
256,192,87862,1,8,0:0:0:0:
256,192,87930,1,0,0:0:0:0:
256,192,87998,1,0,0:0:0:0:
256,192,88067,1,8,0:0:0:0:
256,192,88135,1,8,0:0:0:0:
256,192,88203,1,0,0:0:0:0:
256,192,88272,1,0,0:0:0:0:
256,192,88339,1,8,0:0:0:0:
256,192,88476,1,0,0:0:0:0:
256,192,88612,1,8,0:0:0:0:
256,192,88680,1,8,0:0:0:0:
256,192,88817,1,8,0:0:0:0:
256,192,88885,1,8,0:0:0:0:
256,192,88953,1,0,0:0:0:0:
256,192,89021,1,8,0:0:0:0:
256,192,89090,1,8,0:0:0:0:
256,192,89157,1,0,0:0:0:0:
256,192,89226,1,0,0:0:0:0:
256,192,89294,1,8,0:0:0:0:
256,192,89363,1,0,0:0:0:0:
256,192,89430,1,8,0:0:0:0:
256,192,89567,1,0,0:0:0:0:
256,192,89703,1,8,0:0:0:0:
256,192,89772,1,0,0:0:0:0:
256,192,89908,1,0,0:0:0:0:
256,192,89976,1,8,0:0:0:0:
256,192,90044,1,8,0:0:0:0:
256,192,90112,1,0,0:0:0:0:
256,192,90180,1,0,0:0:0:0:
256,192,90249,1,8,0:0:0:0:
256,192,90317,1,0,0:0:0:0:
256,192,90385,1,8,0:0:0:0:
256,192,90521,1,8,0:0:0:0:
256,192,90658,1,0,0:0:0:0:
256,192,90794,1,8,0:0:0:0:
256,192,90862,1,0,0:0:0:0:
256,192,90930,1,8,0:0:0:0:
256,192,90999,1,8,0:0:0:0:
256,192,91067,1,0,0:0:0:0:
256,192,91135,1,0,0:0:0:0:
256,192,91203,1,0,0:0:0:0:
256,192,91272,1,0,0:0:0:0:
256,192,91339,1,8,0:0:0:0:
256,192,91408,1,8,0:0:0:0:
256,192,91476,1,0,0:0:0:0:
256,192,91544,1,0,0:0:0:0:
256,192,91613,1,12,0:0:0:0:
256,192,91749,1,0,0:0:0:0:
256,192,91885,1,8,0:0:0:0:
256,192,91953,1,0,0:0:0:0:
256,192,92090,1,0,0:0:0:0:
256,192,92158,1,8,0:0:0:0:
256,192,92226,1,8,0:0:0:0:
256,192,92294,1,0,0:0:0:0:
256,192,92362,1,0,0:0:0:0:
256,192,92431,1,8,0:0:0:0:
256,192,92499,1,0,0:0:0:0:
256,192,92567,1,8,0:0:0:0:
256,192,92703,1,8,0:0:0:0:
256,192,92840,1,0,0:0:0:0:
256,192,92976,1,8,0:0:0:0:
256,192,93044,1,8,0:0:0:0:
256,192,93181,1,8,0:0:0:0:
256,192,93249,1,0,0:0:0:0:
256,192,93317,1,0,0:0:0:0:
256,192,93385,1,8,0:0:0:0:
256,192,93453,1,8,0:0:0:0:
256,192,93521,1,0,0:0:0:0:
256,192,93590,1,0,0:0:0:0:
256,192,93658,1,8,0:0:0:0:
256,192,93726,1,0,0:0:0:0:
256,192,93794,1,8,0:0:0:0:
256,192,93931,1,0,0:0:0:0:
256,192,94067,1,8,0:0:0:0:
256,192,94135,1,0,0:0:0:0:
256,192,94271,1,0,0:0:0:0:
256,192,94340,1,8,0:0:0:0:
256,192,94408,1,8,0:0:0:0:
256,192,94476,1,0,0:0:0:0:
256,192,94544,1,8,0:0:0:0:
256,192,94613,1,8,0:0:0:0:
256,192,94681,1,0,0:0:0:0:
256,192,94749,1,8,0:0:0:0:
256,192,94817,1,0,0:0:0:0:
256,192,94885,1,8,0:0:0:0:
256,192,95022,1,0,0:0:0:0:
256,192,95158,1,8,0:0:0:0:
256,192,95226,1,8,0:0:0:0:
256,192,95363,1,8,0:0:0:0:
256,192,95431,1,0,0:0:0:0:
256,192,95499,1,8,0:0:0:0:
256,192,95567,1,8,0:0:0:0:
256,192,95635,1,0,0:0:0:0:
256,192,95703,1,8,0:0:0:0:
256,192,95772,1,8,0:0:0:0:
256,192,95840,1,0,0:0:0:0:
256,192,95908,1,0,0:0:0:0:
256,192,95976,1,8,0:0:0:0:
256,192,96113,1,0,0:0:0:0:
256,192,96249,1,8,0:0:0:0:
256,192,96317,1,0,0:0:0:0:
256,192,96453,1,0,0:0:0:0:
256,192,96521,1,8,0:0:0:0:
256,192,96589,1,8,0:0:0:0:
256,192,96657,1,0,0:0:0:0:
256,192,96725,1,0,0:0:0:0:
256,192,96794,1,8,0:0:0:0:
256,192,96862,1,8,0:0:0:0:
256,192,96930,1,0,0:0:0:0:
256,192,96999,1,0,0:0:0:0:
256,192,97066,1,8,0:0:0:0:
256,192,97203,1,0,0:0:0:0:
256,192,97339,1,8,0:0:0:0:
256,192,97407,1,8,0:0:0:0:
256,192,97544,1,8,0:0:0:0:
256,192,97612,1,8,0:0:0:0:
256,192,97680,1,0,0:0:0:0:
256,192,97748,1,8,0:0:0:0:
256,192,97817,1,8,0:0:0:0:
256,192,97884,1,0,0:0:0:0:
256,192,97953,1,0,0:0:0:0:
256,192,98021,1,8,0:0:0:0:
256,192,98090,1,0,0:0:0:0:
256,192,98157,1,8,0:0:0:0:
256,192,98294,1,0,0:0:0:0:
256,192,98431,1,8,0:0:0:0:
256,192,98567,1,0,0:0:0:0:
256,192,98704,1,0,0:0:0:0:
256,192,98840,1,0,0:0:0:0:
256,192,98976,1,8,0:0:0:0:
256,192,99113,1,0,0:0:0:0:
256,192,99249,1,0,0:0:0:0:
256,192,99385,1,0,0:0:0:0:
256,192,99431,1,0,0:0:0:0:
256,192,99476,1,0,0:0:0:0:
256,192,99521,1,8,0:0:0:0:
256,192,99590,1,8,0:0:0:0:
256,192,99658,1,0,0:0:0:0:
256,192,99726,1,0,0:0:0:0:
256,192,99794,1,8,0:0:0:0:
256,192,99863,1,0,0:0:0:0:
256,192,99931,1,8,0:0:0:0:
256,192,99999,1,0,0:0:0:0:
256,192,100067,1,8,0:0:0:0:
256,192,100113,1,8,0:0:0:0:
256,192,100158,1,8,0:0:0:0:
256,192,100204,1,0,0:0:0:0:
256,192,100272,1,0,0:0:0:0:
256,192,100340,1,12,0:0:0:0:
256,192,100476,8,0,108976,0:0:0:0:
256,192,109067,5,12,0:0:0:0:
256,192,109249,1,0,0:0:0:0:
256,192,109340,1,8,0:0:0:0:
256,192,109431,1,8,0:0:0:0:
256,192,109522,1,0,0:0:0:0:
256,192,109613,1,8,0:0:0:0:
256,192,109704,1,8,0:0:0:0:
256,192,109794,1,8,0:0:0:0:
256,192,109885,1,0,0:0:0:0:
256,192,109976,1,0,0:0:0:0:
256,192,110067,1,8,0:0:0:0:
256,192,110158,1,8,0:0:0:0:
256,192,110249,1,8,0:0:0:0:
256,192,110340,1,0,0:0:0:0:
256,192,110431,1,8,0:0:0:0:
256,192,110522,1,8,0:0:0:0:
256,192,110612,1,0,0:0:0:0:
256,192,110703,1,8,0:0:0:0:
256,192,110794,1,8,0:0:0:0:
256,192,110885,1,8,0:0:0:0:
256,192,110976,1,0,0:0:0:0:
256,192,111067,1,0,0:0:0:0:
256,192,111158,1,8,0:0:0:0:
256,192,111249,1,8,0:0:0:0:
256,192,111340,1,0,0:0:0:0:
256,192,111431,1,0,0:0:0:0:
256,192,111522,1,8,0:0:0:0:
256,192,111613,1,8,0:0:0:0:
256,192,111704,1,0,0:0:0:0:
256,192,111795,1,8,0:0:0:0:
256,192,111886,1,8,0:0:0:0:
256,192,111976,1,8,0:0:0:0:
256,192,112067,1,0,0:0:0:0:
256,192,112158,1,0,0:0:0:0:
256,192,112249,1,8,0:0:0:0:
256,192,112340,1,8,0:0:0:0:
256,192,112431,1,8,0:0:0:0:
256,192,112522,1,0,0:0:0:0:
256,192,112613,1,8,0:0:0:0:
256,192,112704,1,8,0:0:0:0:
256,192,112794,1,0,0:0:0:0:
256,192,112885,1,8,0:0:0:0:
256,192,112976,1,8,0:0:0:0:
256,192,113067,1,8,0:0:0:0:
256,192,113158,1,0,0:0:0:0:
256,192,113249,1,0,0:0:0:0:
256,192,113340,1,8,0:0:0:0:
256,192,113431,1,8,0:0:0:0:
256,192,113522,1,0,0:0:0:0:
256,192,113613,1,0,0:0:0:0:
256,192,113704,1,8,0:0:0:0:
256,192,113795,1,8,0:0:0:0:
256,192,113886,1,0,0:0:0:0:
256,192,113977,1,8,0:0:0:0:
256,192,114068,1,8,0:0:0:0:
256,192,114158,1,8,0:0:0:0:
256,192,114249,1,0,0:0:0:0:
256,192,114340,1,0,0:0:0:0:
256,192,114431,1,8,0:0:0:0:
256,192,114522,1,8,0:0:0:0:
256,192,114613,1,8,0:0:0:0:
256,192,114704,1,0,0:0:0:0:
256,192,114795,1,8,0:0:0:0:
256,192,114886,1,8,0:0:0:0:
256,192,114976,1,0,0:0:0:0:
256,192,115067,1,8,0:0:0:0:
256,192,115158,1,8,0:0:0:0:
256,192,115249,1,8,0:0:0:0:
256,192,115340,1,0,0:0:0:0:
256,192,115431,1,0,0:0:0:0:
256,192,115522,1,8,0:0:0:0:
256,192,115613,1,8,0:0:0:0:
256,192,115704,1,0,0:0:0:0:
256,192,115795,1,0,0:0:0:0:
256,192,115886,1,8,0:0:0:0:
256,192,115977,1,8,0:0:0:0:
256,192,116068,1,0,0:0:0:0:
256,192,116159,1,8,0:0:0:0:
256,192,116250,1,8,0:0:0:0:
256,192,116340,1,8,0:0:0:0:
256,192,116431,1,0,0:0:0:0:
256,192,116522,1,0,0:0:0:0:
256,192,116613,1,8,0:0:0:0:
256,192,116704,1,8,0:0:0:0:
256,192,116795,1,8,0:0:0:0:
256,192,116886,1,0,0:0:0:0:
256,192,116977,1,8,0:0:0:0:
256,192,117068,1,8,0:0:0:0:
256,192,117158,1,0,0:0:0:0:
256,192,117249,1,8,0:0:0:0:
256,192,117340,1,8,0:0:0:0:
256,192,117431,1,8,0:0:0:0:
256,192,117522,1,0,0:0:0:0:
256,192,117613,1,0,0:0:0:0:
256,192,117704,1,8,0:0:0:0:
256,192,117795,1,4,0:0:0:0:
256,192,118067,1,0,0:0:0:0:
256,192,118340,1,8,0:0:0:0:
256,192,118613,1,0,0:0:0:0:
256,192,118885,1,0,0:0:0:0:
256,192,119158,1,0,0:0:0:0:
256,192,119431,1,8,0:0:0:0:
256,192,119704,1,0,0:0:0:0:
256,192,119976,1,8,0:0:0:0:
256,192,120249,1,0,0:0:0:0:
256,192,120522,1,8,0:0:0:0:
256,192,120794,1,0,0:0:0:0:
256,192,121067,1,0,0:0:0:0:
256,192,121340,1,0,0:0:0:0:
256,192,121613,1,8,0:0:0:0:
256,192,121885,1,0,0:0:0:0:
256,192,122022,1,0,0:0:0:0:
256,192,122158,1,12,0:0:0:0:
256,192,122431,1,0,0:0:0:0:
256,192,122704,1,8,0:0:0:0:
256,192,122976,1,0,0:0:0:0:
256,192,123249,1,0,0:0:0:0:
256,192,123522,1,0,0:0:0:0:
256,192,123794,1,8,0:0:0:0:
256,192,124067,1,0,0:0:0:0:
256,192,124340,1,8,0:0:0:0:
256,192,124613,1,0,0:0:0:0:
256,192,124885,1,8,0:0:0:0:
256,192,125158,1,0,0:0:0:0:
256,192,125431,1,0,0:0:0:0:
256,192,125704,1,0,0:0:0:0:
256,192,125976,1,8,0:0:0:0:
256,192,126158,1,0,0:0:0:0:
256,192,126249,1,8,0:0:0:0:
256,192,126340,1,0,0:0:0:0:
256,192,126431,1,0,0:0:0:0:
256,192,126522,1,12,0:0:0:0:
256,192,126794,1,0,0:0:0:0:
256,192,127067,1,0,0:0:0:0:
256,192,127340,1,0,0:0:0:0:
256,192,127613,1,8,0:0:0:0:
256,192,127885,1,0,0:0:0:0:
256,192,128158,1,8,0:0:0:0:
256,192,128431,1,0,0:0:0:0:
256,192,128704,1,8,0:0:0:0:
256,192,128976,1,0,0:0:0:0:
256,192,129249,1,0,0:0:0:0:
256,192,129522,1,0,0:0:0:0:
256,192,129794,1,8,0:0:0:0:
256,192,130067,1,0,0:0:0:0:
256,192,130340,1,8,0:0:0:0:
256,192,130613,1,0,0:0:0:0:
256,192,130885,1,8,0:0:0:0:
256,192,131067,1,0,0:0:0:0:
256,192,131158,1,8,0:0:0:0:
256,192,131340,1,8,0:0:0:0:
256,192,131431,1,0,0:0:0:0:
256,192,131613,1,0,0:0:0:0:
256,192,131704,1,8,0:0:0:0:
256,192,131885,1,0,0:0:0:0:
256,192,131976,1,8,0:0:0:0:
256,192,132158,1,8,0:0:0:0:
256,192,132249,1,0,0:0:0:0:
256,192,132431,1,0,0:0:0:0:
256,192,132522,1,8,0:0:0:0:
256,192,132704,1,8,0:0:0:0:
256,192,132794,1,0,0:0:0:0:
256,192,132976,1,0,0:0:0:0:
256,192,133067,1,8,0:0:0:0:
256,192,133158,1,8,0:0:0:0:
256,192,133249,1,0,0:0:0:0:
256,192,133340,1,8,0:0:0:0:
256,192,133431,1,0,0:0:0:0:
256,192,133522,1,0,0:0:0:0:
256,192,133613,1,8,0:0:0:0:
256,192,133704,1,8,0:0:0:0:
256,192,133794,1,0,0:0:0:0:
256,192,133885,1,8,0:0:0:0:
256,192,133976,1,0,0:0:0:0:
256,192,134067,1,0,0:0:0:0:
256,192,134158,1,8,0:0:0:0:
256,192,134431,1,8,0:0:0:0:
256,192,134522,1,8,0:0:0:0:
256,192,134613,1,8,0:0:0:0:
256,192,134704,1,0,0:0:0:0:
256,192,134794,1,0,0:0:0:0:
256,192,134885,1,0,0:0:0:0:
256,192,134976,1,12,0:0:0:0:
256,192,135249,1,4,0:0:0:0:
256,192,135521,1,12,0:0:0:0:
256,192,135794,1,0,0:0:0:0:
256,192,135976,1,0,0:0:0:0:
256,192,136067,1,8,0:0:0:0:
256,192,136249,1,12,0:0:0:0:
256,192,136521,1,0,0:0:0:0:
256,192,136612,1,8,0:0:0:0:
256,192,136885,1,8,0:0:0:0:
256,192,137158,1,0,0:0:0:0:
256,192,137431,1,4,0:0:0:0:
256,192,137703,1,12,0:0:0:0:
256,192,137976,1,0,0:0:0:0:
256,192,138158,1,0,0:0:0:0:
256,192,138249,1,8,0:0:0:0:
256,192,138431,1,12,0:0:0:0:
256,192,138703,1,0,0:0:0:0:
256,192,138794,1,8,0:0:0:0:
256,192,138976,1,8,0:0:0:0:
256,192,139067,1,0,0:0:0:0:
256,192,139249,1,0,0:0:0:0:
256,192,139340,1,8,0:0:0:0:
256,192,139612,1,12,0:0:0:0:
256,192,139794,1,12,0:0:0:0:
256,192,139976,1,12,0:0:0:0:
256,192,140158,1,0,0:0:0:0:
256,192,140430,1,8,0:0:0:0:
256,192,140613,1,12,0:0:0:0:
256,192,140885,1,0,0:0:0:0:
256,192,140976,1,8,0:0:0:0:
256,192,141249,1,8,0:0:0:0:
256,192,141522,1,0,0:0:0:0:
256,192,141794,1,4,0:0:0:0:
256,192,142066,1,12,0:0:0:0:
256,192,142339,1,0,0:0:0:0:
256,192,142521,1,0,0:0:0:0:
256,192,142612,1,8,0:0:0:0:
256,192,142794,1,12,0:0:0:0:
256,192,143067,1,0,0:0:0:0:
256,192,143158,1,8,0:0:0:0:
256,192,143340,1,8,0:0:0:0:
256,192,143431,1,8,0:0:0:0:
256,192,143613,1,0,0:0:0:0:
256,192,143704,1,8,0:0:0:0:
256,192,143976,1,4,0:0:0:0:
256,192,144248,1,12,0:0:0:0:
256,192,144521,1,0,0:0:0:0:
256,192,144703,1,0,0:0:0:0:
256,192,144794,1,8,0:0:0:0:
256,192,144976,1,12,0:0:0:0:
256,192,145248,1,0,0:0:0:0:
256,192,145339,1,8,0:0:0:0:
256,192,145612,1,8,0:0:0:0:
256,192,145885,1,0,0:0:0:0:
256,192,146158,1,4,0:0:0:0:
256,192,146430,1,12,0:0:0:0:
256,192,146703,1,0,0:0:0:0:
256,192,146885,1,0,0:0:0:0:
256,192,146976,1,8,0:0:0:0:
256,192,147158,1,12,0:0:0:0:
256,192,147430,1,0,0:0:0:0:
256,192,147521,1,8,0:0:0:0:
256,192,147703,1,8,0:0:0:0:
256,192,147794,1,0,0:0:0:0:
256,192,147976,1,0,0:0:0:0:
256,192,148067,1,8,0:0:0:0:
256,192,148339,1,12,0:0:0:0:
256,192,148521,1,12,0:0:0:0:
256,192,148703,1,12,0:0:0:0:
256,192,148885,1,0,0:0:0:0:
256,192,149157,1,8,0:0:0:0:
256,192,149340,1,12,0:0:0:0:
256,192,149612,1,0,0:0:0:0:
256,192,149703,1,8,0:0:0:0:
256,192,149976,1,8,0:0:0:0:
256,192,150249,1,0,0:0:0:0:
256,192,150521,1,4,0:0:0:0:
256,192,150704,1,8,0:0:0:0:
256,192,150794,1,8,0:0:0:0:
256,192,150885,1,0,0:0:0:0:
256,192,150976,1,0,0:0:0:0:
256,192,151067,1,8,0:0:0:0:
256,192,151158,1,8,0:0:0:0:
256,192,151249,1,8,0:0:0:0:
256,192,151340,1,0,0:0:0:0:
256,192,151431,1,8,0:0:0:0:
256,192,151522,1,0,0:0:0:0:
256,192,151613,1,8,0:0:0:0:
256,192,151704,1,0,0:0:0:0:
256,192,151794,1,0,0:0:0:0:
256,192,151885,1,8,0:0:0:0:
256,192,151976,1,8,0:0:0:0:
256,192,152067,1,8,0:0:0:0:
256,192,152158,1,0,0:0:0:0:
256,192,152249,1,0,0:0:0:0:
256,192,152340,1,0,0:0:0:0:
256,192,152431,1,12,0:0:0:0:
256,192,152704,1,12,0:0:0:0:
256,192,152976,1,8,0:0:0:0:
256,192,153158,1,0,0:0:0:0:
256,192,153249,1,0,0:0:0:0:
256,192,153431,1,0,0:0:0:0:
256,192,153522,1,8,0:0:0:0:
256,192,153704,1,12,0:0:0:0:
256,192,153976,1,0,0:0:0:0:
256,192,154067,1,8,0:0:0:0:
256,192,154249,1,8,0:0:0:0:
256,192,154340,1,0,0:0:0:0:
256,192,154522,1,0,0:0:0:0:
256,192,154613,1,8,0:0:0:0:
256,192,154885,1,12,0:0:0:0:
256,192,155158,1,8,0:0:0:0:
256,192,155340,1,0,0:0:0:0:
256,192,155431,1,0,0:0:0:0:
256,192,155613,1,0,0:0:0:0:
256,192,155704,1,8,0:0:0:0:
256,192,155885,1,12,0:0:0:0:
256,192,156158,1,0,0:0:0:0:
256,192,156249,1,8,0:0:0:0:
256,192,156431,1,8,0:0:0:0:
256,192,156522,1,8,0:0:0:0:
256,192,156704,1,0,0:0:0:0:
256,192,156794,1,8,0:0:0:0:
256,192,157067,1,12,0:0:0:0:
256,192,157249,1,0,0:0:0:0:
256,192,157431,1,0,0:0:0:0:
256,192,157613,1,8,0:0:0:0:
256,192,157794,1,0,0:0:0:0:
256,192,157885,1,0,0:0:0:0:
256,192,157976,1,0,0:0:0:0:
256,192,158067,1,12,0:0:0:0:
256,192,158340,1,0,0:0:0:0:
256,192,158431,1,8,0:0:0:0:
256,192,158613,1,8,0:0:0:0:
256,192,158704,1,0,0:0:0:0:
256,192,158885,1,0,0:0:0:0:
256,192,158976,1,8,0:0:0:0:
256,192,159249,1,12,0:0:0:0:
256,192,159522,1,8,0:0:0:0:
256,192,159704,1,0,0:0:0:0:
256,192,159794,1,0,0:0:0:0:
256,192,159976,1,0,0:0:0:0:
256,192,160067,1,8,0:0:0:0:
256,192,160249,1,12,0:0:0:0:
256,192,160522,1,0,0:0:0:0:
256,192,160613,1,8,0:0:0:0:
256,192,160794,1,8,0:0:0:0:
256,192,160885,1,8,0:0:0:0:
256,192,161067,1,0,0:0:0:0:
256,192,161158,1,8,0:0:0:0:
256,192,161431,1,12,0:0:0:0:
256,192,161704,1,12,0:0:0:0:
256,192,161885,1,0,0:0:0:0:
256,192,161976,1,8,0:0:0:0:
256,192,162158,1,0,0:0:0:0:
256,192,162249,1,0,0:0:0:0:
256,192,162431,1,12,0:0:0:0:
256,192,162704,1,0,0:0:0:0:
256,192,162794,1,8,0:0:0:0:
256,192,163067,1,8,0:0:0:0:
256,192,163340,1,0,0:0:0:0:
256,192,163522,1,0,0:0:0:0:
256,192,163613,1,12,0:0:0:0:
256,192,163885,1,12,0:0:0:0:
256,192,164158,1,8,0:0:0:0:
256,192,164340,1,0,0:0:0:0:
256,192,164431,1,8,0:0:0:0:
256,192,164613,1,12,0:0:0:0:
256,192,164885,1,0,0:0:0:0:
256,192,164976,1,8,0:0:0:0:
256,192,165158,1,8,0:0:0:0:
256,192,165249,1,0,0:0:0:0:
256,192,165431,1,0,0:0:0:0:
256,192,165522,1,8,0:0:0:0:
256,192,165613,1,0,0:0:0:0:
256,192,165704,1,0,0:0:0:0:
256,192,165794,1,12,0:0:0:0:
256,192,166067,1,0,0:0:0:0:
256,192,166204,1,0,0:0:0:0:
256,192,166340,1,8,0:0:0:0:
256,192,166476,1,0,0:0:0:0:
256,192,166613,1,0,0:0:0:0:
256,192,166749,1,0,0:0:0:0:
256,192,166885,1,8,0:0:0:0:
256,192,167022,1,0,0:0:0:0:
256,192,167158,1,0,0:0:0:0:
256,192,167294,1,0,0:0:0:0:
256,192,167431,1,8,0:0:0:0:
256,192,167567,1,0,0:0:0:0:
256,192,167704,1,0,0:0:0:0:
256,192,167840,1,0,0:0:0:0:
256,192,167976,1,8,0:0:0:0:
256,192,168044,1,8,0:0:0:0:
256,192,168113,1,0,0:0:0:0:
256,192,168181,1,0,0:0:0:0:
256,192,168249,1,8,0:0:0:0:
256,192,168317,1,0,0:0:0:0:
256,192,168385,1,8,0:0:0:0:
256,192,168454,1,0,0:0:0:0:
256,192,168522,1,8,0:0:0:0:
256,192,168590,1,8,0:0:0:0:
256,192,168658,1,8,0:0:0:0:
256,192,168726,1,8,0:0:0:0:
256,192,168794,1,0,0:0:0:0:
256,192,168863,1,0,0:0:0:0:
256,192,168931,1,8,0:0:0:0:
256,192,168999,1,0,0:0:0:0:
256,192,169067,1,12,0:0:0:0:
256,192,169340,1,8,0:0:0:0:
256,192,169613,1,8,0:0:0:0:
256,192,169681,1,0,0:0:0:0:
256,192,169749,1,0,0:0:0:0:
256,192,169817,1,0,0:0:0:0:
256,192,169885,1,12,0:0:0:0:
256,192,170158,1,12,0:0:0:0:
256,192,170294,1,0,0:0:0:0:
256,192,170363,1,8,0:0:0:0:
256,192,170499,1,0,0:0:0:0:
256,192,170567,1,8,0:0:0:0:
256,192,170635,1,0,0:0:0:0:
256,192,170704,1,8,0:0:0:0:
256,192,170840,1,0,0:0:0:0:
256,192,170908,1,8,0:0:0:0:
256,192,170976,1,0,0:0:0:0:
256,192,171113,1,8,0:0:0:0:
256,192,171181,1,8,0:0:0:0:
256,192,171249,1,0,0:0:0:0:
256,192,171385,1,0,0:0:0:0:
256,192,171454,1,0,0:0:0:0:
256,192,171522,1,8,0:0:0:0:
256,192,171590,1,0,0:0:0:0:
256,192,171658,1,8,0:0:0:0:
256,192,171726,1,8,0:0:0:0:
256,192,171794,1,0,0:0:0:0:
256,192,171863,1,0,0:0:0:0:
256,192,171931,1,8,0:0:0:0:
256,192,171999,1,0,0:0:0:0:
256,192,172067,1,8,0:0:0:0:
256,192,172135,1,8,0:0:0:0:
256,192,172204,1,0,0:0:0:0:
256,192,172272,1,0,0:0:0:0:
256,192,172340,1,8,0:0:0:0:
256,192,172476,1,0,0:0:0:0:
256,192,172544,1,8,0:0:0:0:
256,192,172613,1,0,0:0:0:0:
256,192,172749,1,8,0:0:0:0:
256,192,172817,1,0,0:0:0:0:
256,192,172885,1,8,0:0:0:0:
256,192,173022,1,0,0:0:0:0:
256,192,173090,1,8,0:0:0:0:
256,192,173158,1,0,0:0:0:0:
256,192,173294,1,8,0:0:0:0:
256,192,173363,1,8,0:0:0:0:
256,192,173431,1,0,0:0:0:0:
256,192,173567,1,0,0:0:0:0:
256,192,173635,1,0,0:0:0:0:
256,192,173704,1,8,0:0:0:0:
256,192,173772,1,0,0:0:0:0:
256,192,173840,1,8,0:0:0:0:
256,192,173908,1,0,0:0:0:0:
256,192,173976,1,8,0:0:0:0:
256,192,174044,1,8,0:0:0:0:
256,192,174113,1,8,0:0:0:0:
256,192,174181,1,0,0:0:0:0:
256,192,174249,1,8,0:0:0:0:
256,192,174317,1,8,0:0:0:0:
256,192,174385,1,0,0:0:0:0:
256,192,174454,1,0,0:0:0:0:
256,192,174522,1,8,0:0:0:0:
256,192,174658,1,0,0:0:0:0:
256,192,174726,1,8,0:0:0:0:
256,192,174863,1,8,0:0:0:0:
256,192,174931,1,0,0:0:0:0:
256,192,175067,1,8,0:0:0:0:
256,192,175135,1,0,0:0:0:0:
256,192,175204,1,0,0:0:0:0:
256,192,175272,1,8,0:0:0:0:
256,192,175340,1,0,0:0:0:0:
256,192,175476,1,8,0:0:0:0:
256,192,175613,1,0,0:0:0:0:
256,192,175681,1,0,0:0:0:0:
256,192,175749,1,8,0:0:0:0:
256,192,175817,1,0,0:0:0:0:
256,192,175885,1,8,0:0:0:0:
256,192,175954,1,8,0:0:0:0:
256,192,176022,1,8,0:0:0:0:
256,192,176090,1,0,0:0:0:0:
256,192,176158,1,8,0:0:0:0:
256,192,176226,1,0,0:0:0:0:
256,192,176294,1,8,0:0:0:0:
256,192,176363,1,0,0:0:0:0:
256,192,176431,1,8,0:0:0:0:
256,192,176499,1,8,0:0:0:0:
256,192,176567,1,8,0:0:0:0:
256,192,176635,1,0,0:0:0:0:
256,192,176704,1,8,0:0:0:0:
256,192,176772,1,0,0:0:0:0:
256,192,176840,1,8,0:0:0:0:
256,192,176908,1,8,0:0:0:0:
256,192,176976,1,8,0:0:0:0:
256,192,177044,1,0,0:0:0:0:
256,192,177113,1,8,0:0:0:0:
256,192,177181,1,0,0:0:0:0:
256,192,177249,1,8,0:0:0:0:
256,192,177317,1,8,0:0:0:0:
256,192,177385,1,0,0:0:0:0:
256,192,177454,1,0,0:0:0:0:
256,192,177522,1,8,0:0:0:0:
256,192,177590,1,8,0:0:0:0:
256,192,177658,1,8,0:0:0:0:
256,192,177726,1,0,0:0:0:0:
256,192,177794,1,8,0:0:0:0:
256,192,177863,1,0,0:0:0:0:
256,192,177931,1,8,0:0:0:0:
256,192,177999,1,0,0:0:0:0:
256,192,178067,1,8,0:0:0:0:
256,192,178135,1,8,0:0:0:0:
256,192,178204,1,0,0:0:0:0:
256,192,178272,1,0,0:0:0:0:
256,192,178340,1,8,0:0:0:0:
256,192,178476,1,8,0:0:0:0:
256,192,178544,1,0,0:0:0:0:
256,192,178613,1,8,0:0:0:0:
256,192,178681,1,8,0:0:0:0:
256,192,178749,1,0,0:0:0:0:
256,192,178817,1,0,0:0:0:0:
256,192,178885,1,12,0:0:0:0:
256,192,179022,1,0,0:0:0:0:
256,192,179091,1,8,0:0:0:0:
256,192,179227,1,0,0:0:0:0:
256,192,179295,1,8,0:0:0:0:
256,192,179363,1,0,0:0:0:0:
256,192,179432,1,8,0:0:0:0:
256,192,179568,1,0,0:0:0:0:
256,192,179636,1,8,0:0:0:0:
256,192,179704,1,0,0:0:0:0:
256,192,179841,1,8,0:0:0:0:
256,192,179909,1,8,0:0:0:0:
256,192,179977,1,0,0:0:0:0:
256,192,180113,1,0,0:0:0:0:
256,192,180181,1,0,0:0:0:0:
256,192,180249,1,8,0:0:0:0:
256,192,180317,1,8,0:0:0:0:
256,192,180385,1,8,0:0:0:0:
256,192,180454,1,0,0:0:0:0:
256,192,180522,1,8,0:0:0:0:
256,192,180590,1,0,0:0:0:0:
256,192,180658,1,8,0:0:0:0:
256,192,180726,1,0,0:0:0:0:
256,192,180794,1,8,0:0:0:0:
256,192,180863,1,8,0:0:0:0:
256,192,180931,1,8,0:0:0:0:
256,192,180999,1,0,0:0:0:0:
256,192,181067,1,8,0:0:0:0:
256,192,181204,1,0,0:0:0:0:
256,192,181272,1,8,0:0:0:0:
256,192,181341,1,0,0:0:0:0:
256,192,181477,1,8,0:0:0:0:
256,192,181545,1,0,0:0:0:0:
256,192,181613,1,8,0:0:0:0:
256,192,181750,1,0,0:0:0:0:
256,192,181818,1,8,0:0:0:0:
256,192,181886,1,0,0:0:0:0:
256,192,182022,1,8,0:0:0:0:
256,192,182091,1,8,0:0:0:0:
256,192,182159,1,0,0:0:0:0:
256,192,182294,1,0,0:0:0:0:
256,192,182363,1,0,0:0:0:0:
256,192,182431,1,8,0:0:0:0:
256,192,182499,1,0,0:0:0:0:
256,192,182567,1,8,0:0:0:0:
256,192,182635,1,0,0:0:0:0:
256,192,182704,1,8,0:0:0:0:
256,192,182772,1,8,0:0:0:0:
256,192,182840,1,8,0:0:0:0:
256,192,182908,1,0,0:0:0:0:
256,192,182976,1,8,0:0:0:0:
256,192,183044,1,8,0:0:0:0:
256,192,183113,1,0,0:0:0:0:
256,192,183181,1,0,0:0:0:0:
256,192,183249,1,8,0:0:0:0:
256,192,183385,1,0,0:0:0:0:
256,192,183453,1,8,0:0:0:0:
256,192,183590,1,8,0:0:0:0:
256,192,183658,1,0,0:0:0:0:
256,192,183794,1,8,0:0:0:0:
256,192,183862,1,0,0:0:0:0:
256,192,183931,1,0,0:0:0:0:
256,192,183999,1,8,0:0:0:0:
256,192,184067,1,0,0:0:0:0:
256,192,184203,1,8,0:0:0:0:
256,192,184340,1,0,0:0:0:0:
256,192,184408,1,0,0:0:0:0:
256,192,184476,1,8,0:0:0:0:
256,192,184544,1,0,0:0:0:0:
256,192,184613,1,8,0:0:0:0:
256,192,184681,1,8,0:0:0:0:
256,192,184749,1,8,0:0:0:0:
256,192,184817,1,0,0:0:0:0:
256,192,184885,1,8,0:0:0:0:
256,192,184954,1,0,0:0:0:0:
256,192,185022,1,8,0:0:0:0:
256,192,185090,1,0,0:0:0:0:
256,192,185158,1,8,0:0:0:0:
256,192,185226,1,8,0:0:0:0:
256,192,185294,1,8,0:0:0:0:
256,192,185363,1,8,0:0:0:0:
256,192,185431,1,0,0:0:0:0:
256,192,185499,1,0,0:0:0:0:
256,192,185567,1,8,0:0:0:0:
256,192,185635,1,0,0:0:0:0:
256,192,185704,1,8,0:0:0:0:
256,192,185772,1,8,0:0:0:0:
256,192,185840,1,0,0:0:0:0:
256,192,185908,1,0,0:0:0:0:
256,192,185976,1,8,0:0:0:0:
256,192,186044,1,8,0:0:0:0:
256,192,186113,1,8,0:0:0:0:
256,192,186181,1,0,0:0:0:0:
256,192,186249,1,8,0:0:0:0:
256,192,186317,1,0,0:0:0:0:
256,192,186385,1,8,0:0:0:0:
256,192,186454,1,8,0:0:0:0:
256,192,186522,1,0,0:0:0:0:
256,192,186590,1,0,0:0:0:0:
256,192,186658,1,8,0:0:0:0:
256,192,186704,1,8,0:0:0:0:
256,192,186749,1,8,0:0:0:0:
256,192,186794,1,0,0:0:0:0:
256,192,186863,1,0,0:0:0:0:
256,192,186931,1,8,0:0:0:0:
256,192,186999,1,0,0:0:0:0:
256,192,187067,1,8,0:0:0:0:
256,192,187135,1,8,0:0:0:0:
256,192,187204,1,0,0:0:0:0:
256,192,187272,1,0,0:0:0:0:
256,192,187340,1,8,0:0:0:0:
256,192,187385,1,8,0:0:0:0:
256,192,187431,1,8,0:0:0:0:
256,192,187476,1,0,0:0:0:0:
256,192,187544,1,0,0:0:0:0:
256,192,187613,1,12,0:0:0:0:
256,192,187885,1,4,0:0:0:0:
256,192,188158,1,8,0:0:0:0:
256,192,188976,1,0,0:0:0:0:
256,192,189113,1,0,0:0:0:0:
256,192,189249,1,8,0:0:0:0:
256,192,189522,1,0,0:0:0:0:
256,192,189794,1,4,0:0:0:0:
256,192,190067,1,4,0:0:0:0:
256,192,190340,1,8,0:0:0:0:
256,192,191158,1,0,0:0:0:0:
256,192,191294,1,8,0:0:0:0:
256,192,191431,1,0,0:0:0:0:
256,192,191522,1,0,0:0:0:0:
256,192,191613,1,0,0:0:0:0:
256,192,191703,1,8,0:0:0:0:
256,192,191794,1,8,0:0:0:0:
256,192,191885,1,8,0:0:0:0:
256,192,191976,1,4,0:0:0:0:
256,192,192249,1,4,0:0:0:0:
256,192,192522,1,8,0:0:0:0:
256,192,193067,1,8,0:0:0:0:
256,192,193340,1,0,0:0:0:0:
256,192,193476,1,0,0:0:0:0:
256,192,193613,1,8,0:0:0:0:
256,192,193885,1,0,0:0:0:0:
256,192,194022,1,0,0:0:0:0:
256,192,194158,1,4,0:0:0:0:
256,192,194431,1,4,0:0:0:0:
256,192,194703,1,8,0:0:0:0:
256,192,194976,1,0,0:0:0:0:
256,192,195249,1,4,0:0:0:0:
256,192,195658,1,0,0:0:0:0:
256,192,196067,1,0,0:0:0:0:
256,192,196340,1,12,0:0:0:0:
256,192,196613,1,12,0:0:0:0:
256,192,196885,1,8,0:0:0:0:
256,192,197022,1,0,0:0:0:0:
256,192,197294,1,0,0:0:0:0:
256,192,197703,1,0,0:0:0:0:
256,192,197840,1,0,0:0:0:0:
256,192,197976,1,8,0:0:0:0:
256,192,198249,1,0,0:0:0:0:
256,192,198522,1,12,0:0:0:0:
256,192,198795,1,12,0:0:0:0:
256,192,199067,1,8,0:0:0:0:
256,192,199204,1,0,0:0:0:0:
256,192,199476,1,0,0:0:0:0:
256,192,199885,1,0,0:0:0:0:
256,192,200022,1,0,0:0:0:0:
256,192,200158,1,8,0:0:0:0:
256,192,200249,1,8,0:0:0:0:
256,192,200340,1,8,0:0:0:0:
256,192,200431,1,0,0:0:0:0:
256,192,200522,1,0,0:0:0:0:
256,192,200613,1,0,0:0:0:0:
256,192,200703,1,12,0:0:0:0:
256,192,200976,1,12,0:0:0:0:
256,192,201248,1,8,0:0:0:0:
256,192,201385,1,0,0:0:0:0:
256,192,201657,1,0,0:0:0:0:
256,192,202066,1,0,0:0:0:0:
256,192,202203,1,0,0:0:0:0:
256,192,202339,1,8,0:0:0:0:
256,192,202612,1,0,0:0:0:0:
256,192,202749,1,0,0:0:0:0:
256,192,202885,1,12,0:0:0:0:
256,192,203158,1,12,0:0:0:0:
256,192,203430,1,8,0:0:0:0:
256,192,203703,1,0,0:0:0:0:
256,192,203976,1,8,0:0:0:0:
256,192,204249,1,8,0:0:0:0:
256,192,204521,1,8,0:0:0:0:
256,192,204794,1,8,0:0:0:0:
256,192,205067,1,12,0:0:0:0:
256,192,205203,1,0,0:0:0:0:
256,192,205339,1,8,0:0:0:0:
256,192,205407,1,0,0:0:0:0:
256,192,205476,1,8,0:0:0:0:
256,192,205612,1,8,0:0:0:0:
256,192,205681,1,0,0:0:0:0:
256,192,205748,1,0,0:0:0:0:
256,192,205817,1,0,0:0:0:0:
256,192,205885,1,8,0:0:0:0:
256,192,205953,1,0,0:0:0:0:
256,192,206021,1,8,0:0:0:0:
256,192,206158,1,8,0:0:0:0:
256,192,206226,1,8,0:0:0:0:
256,192,206294,1,0,0:0:0:0:
256,192,206430,1,0,0:0:0:0:
256,192,206499,1,0,0:0:0:0:
256,192,206567,1,8,0:0:0:0:
256,192,206703,1,0,0:0:0:0:
256,192,206771,1,0,0:0:0:0:
256,192,206839,1,8,0:0:0:0:
256,192,206908,1,0,0:0:0:0:
256,192,206976,1,8,0:0:0:0:
256,192,207044,1,0,0:0:0:0:
256,192,207112,1,8,0:0:0:0:
256,192,207180,1,8,0:0:0:0:
256,192,207249,1,0,0:0:0:0:
256,192,207385,1,0,0:0:0:0:
256,192,207453,1,0,0:0:0:0:
256,192,207521,1,8,0:0:0:0:
256,192,207590,1,0,0:0:0:0:
256,192,207658,1,8,0:0:0:0:
256,192,207794,1,0,0:0:0:0:
256,192,207930,1,0,0:0:0:0:
256,192,207999,1,0,0:0:0:0:
256,192,208067,1,8,0:0:0:0:
256,192,208135,1,0,0:0:0:0:
256,192,208203,1,8,0:0:0:0:
256,192,208272,1,8,0:0:0:0:
256,192,208339,1,0,0:0:0:0:
256,192,208408,1,0,0:0:0:0:
256,192,208476,1,0,0:0:0:0:
256,192,208544,1,0,0:0:0:0:
256,192,208612,1,8,0:0:0:0:
256,192,208749,1,8,0:0:0:0:
256,192,208817,1,0,0:0:0:0:
256,192,208885,1,8,0:0:0:0:
256,192,208953,1,0,0:0:0:0:
256,192,209021,1,8,0:0:0:0:
256,192,209067,1,8,0:0:0:0:
256,192,209112,1,8,0:0:0:0:
256,192,209158,1,0,0:0:0:0:
256,192,209294,1,0,0:0:0:0:
256,192,209430,1,12,0:0:0:0:
256,192,209567,1,8,0:0:0:0:
256,192,209635,1,0,0:0:0:0:
256,192,209703,1,8,0:0:0:0:
256,192,209772,1,0,0:0:0:0:
256,192,209839,1,8,0:0:0:0:
256,192,209908,1,8,0:0:0:0:
256,192,209976,1,0,0:0:0:0:
256,192,210112,1,0,0:0:0:0:
256,192,210180,1,0,0:0:0:0:
256,192,210249,1,8,0:0:0:0:
256,192,210317,1,0,0:0:0:0:
256,192,210385,1,8,0:0:0:0:
256,192,210521,1,0,0:0:0:0:
256,192,210589,1,0,0:0:0:0:
256,192,210658,1,8,0:0:0:0:
256,192,210794,1,8,0:0:0:0:
256,192,210930,1,8,0:0:0:0:
256,192,210999,1,8,0:0:0:0:
256,192,211067,1,0,0:0:0:0:
256,192,211135,1,0,0:0:0:0:
256,192,211203,1,8,0:0:0:0:
256,192,211339,1,0,0:0:0:0:
256,192,211408,1,0,0:0:0:0:
256,192,211476,1,0,0:0:0:0:
256,192,211544,1,0,0:0:0:0:
256,192,211612,1,12,0:0:0:0:
256,192,211749,1,8,0:0:0:0:
256,192,211885,1,0,0:0:0:0:
256,192,212021,1,8,0:0:0:0:
256,192,212158,1,12,0:0:0:0:
256,192,212294,1,0,0:0:0:0:
256,192,212430,1,8,0:0:0:0:
256,192,212567,1,0,0:0:0:0:
256,192,212703,1,8,0:0:0:0:
256,192,212771,1,0,0:0:0:0:
256,192,212839,1,8,0:0:0:0:
256,192,212908,1,8,0:0:0:0:
256,192,212976,1,0,0:0:0:0:
256,192,213112,1,8,0:0:0:0:
256,192,213249,1,8,0:0:0:0:
256,192,213294,1,8,0:0:0:0:
256,192,213339,1,8,0:0:0:0:
256,192,213385,1,0,0:0:0:0:
256,192,213453,1,0,0:0:0:0:
256,192,213521,1,8,0:0:0:0:
256,192,213567,1,8,0:0:0:0:
256,192,213612,1,8,0:0:0:0:
256,192,213658,1,0,0:0:0:0:
256,192,213726,1,0,0:0:0:0:
256,192,213794,1,8,0:0:0:0:
256,192,213862,1,0,0:0:0:0:
256,192,213930,1,8,0:0:0:0:
256,192,213999,1,8,0:0:0:0:
256,192,214067,1,8,0:0:0:0:
256,192,214135,1,0,0:0:0:0:
256,192,214203,1,8,0:0:0:0:
256,192,214271,1,8,0:0:0:0:
256,192,214339,1,0,0:0:0:0:
256,192,214408,1,0,0:0:0:0:
256,192,214476,1,8,0:0:0:0:
256,192,214544,1,0,0:0:0:0:
256,192,214612,1,8,0:0:0:0:
256,192,214680,1,0,0:0:0:0:
256,192,214749,1,8,0:0:0:0:
256,192,214817,1,8,0:0:0:0:
256,192,214885,1,0,0:0:0:0:
256,192,214953,1,0,0:0:0:0:
256,192,215021,1,8,0:0:0:0:
256,192,215089,1,0,0:0:0:0:
256,192,215158,1,8,0:0:0:0:
256,192,215226,1,0,0:0:0:0:
256,192,215294,1,8,0:0:0:0:
256,192,215362,1,8,0:0:0:0:
256,192,215430,1,0,0:0:0:0:
256,192,215499,1,0,0:0:0:0:
256,192,215567,1,8,0:0:0:0:
256,192,215635,1,0,0:0:0:0:
256,192,215703,1,12,0:0:0:0:
256,192,215976,1,8,0:0:0:0:
256,192,216044,1,0,0:0:0:0:
256,192,216112,1,8,0:0:0:0:
256,192,216181,1,8,0:0:0:0:
256,192,216249,1,8,0:0:0:0:
256,192,216317,1,0,0:0:0:0:
256,192,216385,1,8,0:0:0:0:
256,192,216453,1,8,0:0:0:0:
256,192,216521,1,0,0:0:0:0:
256,192,216590,1,0,0:0:0:0:
256,192,216658,1,8,0:0:0:0:
256,192,216726,1,0,0:0:0:0:
256,192,216794,1,8,0:0:0:0:
256,192,216862,1,0,0:0:0:0:
256,192,216931,1,8,0:0:0:0:
256,192,216999,1,8,0:0:0:0:
256,192,217067,1,0,0:0:0:0:
256,192,217135,1,0,0:0:0:0:
256,192,217203,1,8,0:0:0:0:
256,192,217271,1,0,0:0:0:0:
256,192,217340,1,8,0:0:0:0:
256,192,217408,1,0,0:0:0:0:
256,192,217476,1,8,0:0:0:0:
256,192,217544,1,8,0:0:0:0:
256,192,217612,1,0,0:0:0:0:
256,192,217681,1,0,0:0:0:0:
256,192,217749,1,8,0:0:0:0:
256,192,217817,1,8,0:0:0:0:
256,192,217885,1,0,0:0:0:0:
256,192,218021,1,0,0:0:0:0:
256,192,218158,1,8,0:0:0:0:
256,192,218226,1,0,0:0:0:0:
256,192,218294,1,8,0:0:0:0:
256,192,218363,1,8,0:0:0:0:
256,192,218431,1,8,0:0:0:0:
256,192,218499,1,0,0:0:0:0:
256,192,218567,1,8,0:0:0:0:
256,192,218635,1,8,0:0:0:0:
256,192,218703,1,0,0:0:0:0:
256,192,218772,1,0,0:0:0:0:
256,192,218840,1,8,0:0:0:0:
256,192,218908,1,0,0:0:0:0:
256,192,218976,1,8,0:0:0:0:
256,192,219044,1,0,0:0:0:0:
256,192,219113,1,8,0:0:0:0:
256,192,219181,1,8,0:0:0:0:
256,192,219249,1,0,0:0:0:0:
256,192,219317,1,0,0:0:0:0:
256,192,219385,1,8,0:0:0:0:
256,192,219453,1,0,0:0:0:0:
256,192,219522,1,8,0:0:0:0:
256,192,219567,1,8,0:0:0:0:
256,192,219612,1,8,0:0:0:0:
256,192,219658,1,0,0:0:0:0:
256,192,219726,1,0,0:0:0:0:
256,192,219794,1,8,0:0:0:0:
256,192,219863,1,0,0:0:0:0:
256,192,219931,1,8,0:0:0:0:
256,192,219976,1,8,0:0:0:0:
256,192,220067,1,0,0:0:0:0:
256,192,220112,1,0,0:0:0:0:
256,192,220203,1,8,0:0:0:0:
256,192,220249,1,8,0:0:0:0:
256,192,220339,1,8,0:0:0:0:
256,192,220408,1,8,0:0:0:0:
256,192,220476,1,0,0:0:0:0:
256,192,220544,1,0,0:0:0:0:
256,192,220612,1,8,0:0:0:0:
256,192,220680,1,0,0:0:0:0:
256,192,220749,1,8,0:0:0:0:
256,192,220794,1,8,0:0:0:0:
256,192,220839,1,8,0:0:0:0:
256,192,220885,1,0,0:0:0:0:
256,192,220953,1,0,0:0:0:0:
256,192,221021,1,8,0:0:0:0:
256,192,221089,1,0,0:0:0:0:
256,192,221158,1,8,0:0:0:0:
256,192,221226,1,0,0:0:0:0:
256,192,221294,1,8,0:0:0:0:
256,192,221339,1,8,0:0:0:0:
256,192,221385,1,8,0:0:0:0:
256,192,221430,1,0,0:0:0:0:
256,192,221499,1,0,0:0:0:0:
256,192,221567,1,8,0:0:0:0:
256,192,221612,1,8,0:0:0:0:
256,192,221658,1,8,0:0:0:0:
256,192,221703,1,0,0:0:0:0:
256,192,221772,1,0,0:0:0:0:
256,192,221908,1,0,0:0:0:0:
256,192,221976,1,8,0:0:0:0:
256,192,222022,1,8,0:0:0:0:
256,192,222067,1,8,0:0:0:0:
256,192,222113,1,0,0:0:0:0:
256,192,222180,1,0,0:0:0:0:
256,192,222249,1,8,0:0:0:0:
256,192,222317,1,0,0:0:0:0:
256,192,222385,1,8,0:0:0:0:
256,192,222430,1,8,0:0:0:0:
256,192,222476,1,8,0:0:0:0:
256,192,222521,1,0,0:0:0:0:
256,192,224704,1,0,0:0:0:0:
256,192,226817,1,0,0:0:0:0:
256,192,228794,1,0,0:0:0:0:
256,192,231249,8,0,233294,0:0:0:0:
256,192,233407,5,8,0:0:0:0:
256,192,233722,1,0,0:0:0:0:
256,192,234038,1,0,0:0:0:0:
256,192,234354,1,8,0:0:0:0:
256,192,234670,1,0,0:0:0:0:
256,192,235301,1,8,0:0:0:0:
256,192,235933,1,8,0:0:0:0:
256,192,236249,1,0,0:0:0:0:
256,192,236564,1,0,0:0:0:0:
256,192,236880,1,8,0:0:0:0:
256,192,237196,1,8,0:0:0:0:
256,192,237512,1,0,0:0:0:0:
256,192,237828,1,0,0:0:0:0:
256,192,238143,1,0,0:0:0:0:
256,192,238301,1,0,0:0:0:0:
256,192,238459,1,8,0:0:0:0:
256,192,238775,1,0,0:0:0:0:
256,192,239091,1,8,0:0:0:0:
256,192,239407,1,8,0:0:0:0:
256,192,239564,1,8,0:0:0:0:
256,192,239722,1,0,0:0:0:0:
256,192,240038,1,0,0:0:0:0:
256,192,240354,1,8,0:0:0:0:
256,192,240670,1,8,0:0:0:0:
256,192,240828,1,0,0:0:0:0:
256,192,240985,1,0,0:0:0:0:
256,192,241301,1,0,0:0:0:0:
256,192,241617,1,0,0:0:0:0:
256,192,241933,1,8,0:0:0:0:
256,192,242249,1,0,0:0:0:0:
256,192,242880,1,0,0:0:0:0:
256,192,243512,1,8,0:0:0:0:
256,192,243827,1,0,0:0:0:0:
256,192,244143,1,0,0:0:0:0:
256,192,244459,1,8,0:0:0:0:
256,192,244775,1,0,0:0:0:0:
256,192,245406,1,8,0:0:0:0:
256,192,246038,1,8,0:0:0:0:
256,192,246354,1,0,0:0:0:0:
256,192,246669,1,0,0:0:0:0:
256,192,246985,1,8,0:0:0:0:
256,192,247301,1,8,0:0:0:0:
256,192,247617,1,0,0:0:0:0:
256,192,247933,1,8,0:0:0:0:
256,192,248248,1,0,0:0:0:0:
256,192,248406,1,8,0:0:0:0:
256,192,248564,1,8,0:0:0:0:
256,192,248880,1,0,0:0:0:0:
256,192,249196,1,8,0:0:0:0:
256,192,249512,1,8,0:0:0:0:
256,192,249669,1,0,0:0:0:0:
256,192,249827,1,0,0:0:0:0:
256,192,250143,1,0,0:0:0:0:
256,192,250459,1,8,0:0:0:0:
256,192,250775,1,8,0:0:0:0:
256,192,250933,1,0,0:0:0:0:
256,192,251090,1,8,0:0:0:0:
256,192,251406,1,0,0:0:0:0:
256,192,251722,1,0,0:0:0:0:
256,192,252038,1,8,0:0:0:0:
256,192,252354,1,0,0:0:0:0:
256,192,252828,1,8,0:0:0:0:
256,192,252907,1,8,0:0:0:0:
256,192,252985,1,0,0:0:0:0:
256,192,253617,1,8,0:0:0:0:
256,192,256143,1,8,0:0:0:0:
256,192,256459,8,0,258038,0:0:0:0:
256,192,258670,5,12,0:0:0:0:
256,192,258985,1,0,0:0:0:0:
256,192,259143,1,0,0:0:0:0:
256,192,259301,1,8,0:0:0:0:
256,192,259617,1,0,0:0:0:0:
256,192,259933,1,8,0:0:0:0:
256,192,260564,1,8,0:0:0:0:
256,192,260722,1,0,0:0:0:0:
256,192,260880,1,0,0:0:0:0:
256,192,261038,1,0,0:0:0:0:
256,192,261196,1,8,0:0:0:0:
256,192,261512,1,0,0:0:0:0:
256,192,261670,1,0,0:0:0:0:
256,192,261828,1,8,0:0:0:0:
256,192,262143,1,0,0:0:0:0:
256,192,262459,1,8,0:0:0:0:
256,192,263091,1,8,0:0:0:0:
256,192,263407,1,0,0:0:0:0:
256,192,263564,1,0,0:0:0:0:
256,192,263722,1,8,0:0:0:0:
256,192,264038,1,0,0:0:0:0:
256,192,264196,1,0,0:0:0:0:
256,192,264354,1,8,0:0:0:0:
256,192,264670,1,0,0:0:0:0:
256,192,264985,1,8,0:0:0:0:
256,192,265301,1,0,0:0:0:0:
256,192,265617,1,8,0:0:0:0:
256,192,265933,1,8,0:0:0:0:
256,192,266091,1,0,0:0:0:0:
256,192,266249,1,8,0:0:0:0:
256,192,266564,1,0,0:0:0:0:
256,192,266722,1,0,0:0:0:0:
256,192,266880,1,8,0:0:0:0:
256,192,267196,1,8,0:0:0:0:
256,192,267512,1,12,0:0:0:0:
256,192,267828,1,0,0:0:0:0:
256,192,268143,1,12,0:0:0:0:
256,192,268459,1,0,0:0:0:0:
256,192,268617,1,0,0:0:0:0:
256,192,268775,1,12,0:0:0:0:
256,192,269090,1,0,0:0:0:0:
256,192,269248,1,0,0:0:0:0:
256,192,269406,1,8,0:0:0:0:
256,192,269722,1,0,0:0:0:0:
256,192,270038,1,8,0:0:0:0:
256,192,270669,1,8,0:0:0:0:
256,192,270827,1,0,0:0:0:0:
256,192,270985,1,0,0:0:0:0:
256,192,271301,1,8,0:0:0:0:
256,192,271617,1,0,0:0:0:0:
256,192,271775,1,0,0:0:0:0:
256,192,271933,1,8,0:0:0:0:
256,192,272091,1,0,0:0:0:0:
256,192,272248,1,0,0:0:0:0:
256,192,272564,1,8,0:0:0:0:
256,192,273196,1,8,0:0:0:0:
256,192,273512,1,0,0:0:0:0:
256,192,273669,1,0,0:0:0:0:
256,192,273827,1,8,0:0:0:0:
256,192,274143,1,0,0:0:0:0:
256,192,274459,1,8,0:0:0:0:
256,192,274775,1,0,0:0:0:0:
256,192,274933,1,0,0:0:0:0:
256,192,275090,1,8,0:0:0:0:
256,192,275406,1,0,0:0:0:0:
256,192,275722,1,8,0:0:0:0:
256,192,276038,1,8,0:0:0:0:
256,192,276196,1,0,0:0:0:0:
256,192,276354,1,8,0:0:0:0:
256,192,276669,1,0,0:0:0:0:
256,192,276827,1,0,0:0:0:0:
256,192,276985,1,8,0:0:0:0:
256,192,277301,1,8,0:0:0:0:
256,192,277617,1,12,0:0:0:0:
256,192,277933,1,0,0:0:0:0:
256,192,278248,1,12,0:0:0:0:
256,192,278564,1,0,0:0:0:0:
256,192,278722,1,0,0:0:0:0:
256,192,278880,1,12,0:0:0:0:
256,192,279196,8,0,280775,0:0:0:0:
256,192,281475,5,0,0:0:0:0:
256,192,281575,1,0,0:0:0:0:
256,192,281675,1,8,0:0:0:0:
256,192,283730,1,8,0:0:0:0:
256,192,284242,1,0,0:0:0:0:
256,192,284738,1,0,0:0:0:0:
256,192,284827,1,8,0:0:0:0:
256,192,284916,1,8,0:0:0:0:
256,192,287420,1,8,0:0:0:0:
256,192,289567,1,0,0:0:0:0:
256,192,289619,1,0,0:0:0:0:
256,192,289672,1,0,0:0:0:0:
256,192,289724,1,8,0:0:0:0:
256,192,291988,1,8,0:0:0:0:
256,192,292588,1,0,0:0:0:0:
256,192,294408,1,0,0:0:0:0:
256,192,294496,1,0,0:0:0:0:
256,192,294542,1,0,0:0:0:0:
256,192,294589,1,0,0:0:0:0:
256,192,294636,1,8,0:0:0:0:
256,192,294871,12,0,300496,0:0:0:0:
