osu file format v14

[General]
AudioFilename: audio.mp3
AudioLeadIn: 0
PreviewTime: 50587
Countdown: 0
SampleSet: Normal
StackLeniency: 0.3
Mode: 0
LetterboxInBreaks: 0
WidescreenStoryboard: 1

[Editor]
Bookmarks: 12187,21787,31387,40987,50587,69787,79387,88987,108187,128587
DistanceSpacing: 0.8
BeatDivisor: 4
GridSize: 4
TimelineZoom: 1

[Metadata]
Title:Sigmund
TitleUnicode:Sigmund
Artist:Gram
ArtistUnicode:Gram
Creator:Geminous
Version:Leggendaria
Source:
Tags:hardcore break dark dramatic beatmania iidx
BeatmapID:1426228
BeatmapSetID:673988

[Difficulty]
HPDrainRate:5
CircleSize:4.2
OverallDifficulty:9
ApproachRate:9.6
SliderMultiplier:1.8
SliderTickRate:1

[Events]
//Background and Video events
0,0,"dark_mist_by_jjcanvas-d73j1wa.jpg",0,0
//Break Periods
2,69987,76478
//Storyboard Layer 0 (Background)
//Storyboard Layer 1 (Fail)
//Storyboard Layer 2 (Pass)
//Storyboard Layer 3 (Foreground)
//Storyboard Sound Samples

[TimingPoints]
12187,600,4,1,0,25,1,0
21787,-100,4,1,0,25,0,0
30187,-66.6666666666667,4,1,0,25,0,0
31087,-50,4,1,0,25,0,0
31387,300,4,1,0,25,1,0
31387,-100,4,1,0,25,0,0
39787,-66.6666666666667,4,1,0,25,0,0
40987,-100,4,1,0,25,0,0
44887,-66.6666666666667,4,1,0,25,0,0
45787,-100,4,1,0,25,0,0
50587,-66.6666666666667,4,1,0,25,0,1
57787,-100,4,1,0,25,0,1
60187,-66.6666666666667,4,1,0,25,0,1
67387,-100,4,1,0,25,0,1
69787,-133.333333333333,4,1,0,25,0,0
76987,-200,4,1,0,25,0,0
79387,-133.333333333333,4,1,0,25,0,0
87787,-200,4,1,0,25,0,0
88687,-50,4,1,0,25,0,0
88987,-100,4,1,0,25,0,0
97387,-80,4,1,0,25,0,0
98587,-100,4,1,0,25,0,0
105787,-200,4,1,0,25,0,0
106987,-133.333333333333,4,1,0,25,0,0
107587,-100,4,1,0,25,0,0
107887,-50,4,1,0,25,0,0
108187,-66.6666666666667,4,1,0,25,0,1
127387,-100,4,1,0,25,0,1
128587,-133.333333333333,4,1,0,25,0,0

[Colours]
Combo1 : 45,150,255
Combo2 : 128,128,128
Combo3 : 174,174,174
Combo4 : 0,99,198

[HitObjects]
256,192,19387,12,0,21637,0:0:0:0:
90,170,21787,5,0,0:0:0:0:
245,261,22087,1,0,0:0:0:0:
228,81,22387,1,0,0:0:0:0:
245,261,22687,1,0,0:0:0:0:
318,209,22837,1,0,0:0:0:0:
405,228,22987,2,0,P|381:284|345:313,1,90
181,281,23587,1,0,0:0:0:0:
145,198,23737,1,0,0:0:0:0:
110,114,23887,1,0,0:0:0:0:
287,140,24187,6,0,B|323:129|345:109|345:109|379:121,1,90
423,288,24787,1,0,0:0:0:0:
243,286,25087,1,0,0:0:0:0:
225,197,25237,1,0,0:0:0:0:
144,237,25387,2,0,P|105:261|52:267,1,90
69,86,25987,1,0,0:0:0:0:
156,106,26137,1,0,0:0:0:0:
239,72,26287,1,0,0:0:0:0:
382,180,26587,38,0,B|394:232|394:232|376:282,1,90
245,149,27187,1,0,0:0:0:0:
381,266,27487,1,0,0:0:0:0:
292,283,27637,1,0,0:0:0:0:
206,255,27787,2,0,P|161:270|128:304,1,90
18,157,28387,1,0,0:0:0:0:
107,150,28537,1,0,0:0:0:0:
184,103,28687,1,0,0:0:0:0:
359,142,28987,6,0,B|394:178|394:178|365:223,1,90
193,234,29587,2,0,P|168:246|157:260,2,30
238,132,29887,2,0,P|226:107|212:96,2,30
256,192,30187,12,0,31237,0:0:0:0:
420,216,31387,37,8,0:0:0:0:
442,187,31462,1,0,0:0:0:0:
449,151,31537,1,0,0:0:0:0:
442,115,31612,1,0,0:0:0:0:
425,83,31687,2,0,P|387:85|374:81,1,45
336,32,31837,2,0,P|298:30|285:34,1,45
243,79,31987,1,0,0:0:0:0:
207,71,32062,1,0,0:0:0:0:
171,63,32137,2,0,L|122:52,1,45
61,113,32287,2,0,L|111:125,3,45
84,193,32587,5,0,0:0:0:0:
114,212,32662,1,0,0:0:0:0:
146,226,32737,1,0,0:0:0:0:
180,235,32812,1,0,0:0:0:0:
215,241,32887,2,0,P|248:239|263:235,1,45
250,169,33037,2,0,P|277:164|301:166,1,45
353,197,33187,1,0,0:0:0:0:
373,167,33262,1,0,0:0:0:0:
393,137,33337,2,0,L|419:98,1,45
329,83,33487,2,0,L|344:37,3,45
253,67,33787,37,8,0:0:0:0:
218,75,33862,1,0,0:0:0:0:
187,93,33937,1,0,0:0:0:0:
166,122,34012,1,0,0:0:0:0:
162,157,34087,2,0,P|186:176|212:187,1,45
247,134,34237,2,0,P|279:147|296:162,1,45
291,220,34387,1,0,0:0:0:0:
325,231,34462,1,0,0:0:0:0:
359,242,34537,2,0,L|414:262,1,45
457,202,34687,2,0,L|441:154,3,45
381,184,34987,5,0,0:0:0:0:
382,148,35062,1,0,0:0:0:0:
368,114,35137,1,0,0:0:0:0:
340,90,35212,1,0,0:0:0:0:
304,82,35287,2,0,P|277:91|249:88,1,45
212,139,35437,2,0,P|185:133|156:135,1,45
121,84,35587,1,0,0:0:0:0:
94,108,35662,1,0,0:0:0:0:
67,132,35737,2,0,L|57:184,1,45
130,201,35887,2,0,L|132:249,3,45
214,217,36187,38,0,L|250:255,1,45,8|0,0:0|0:0,0:0:0:0:
330,220,36337,1,0,0:0:0:0:
364,211,36412,1,0,0:0:0:0:
396,195,36487,2,0,P|427:177|438:163,1,45
386,121,36637,2,0,P|386:91|381:74,1,45
315,89,36787,1,0,0:0:0:0:
279,82,36862,1,0,0:0:0:0:
243,76,36937,2,0,L|188:66,1,45
190,142,37087,2,0,L|131:144,3,45
139,222,37387,5,0,0:0:0:0:
122,254,37462,1,0,0:0:0:0:
125,289,37537,1,0,0:0:0:0:
146,317,37612,1,0,0:0:0:0:
177,333,37687,2,0,P|204:341|226:340,1,45
242,276,37837,2,0,P|274:273|296:278,1,45
338,318,37987,1,0,0:0:0:0:
370,302,38062,1,0,0:0:0:0:
402,286,38137,2,0,L|450:262,1,45
417,197,38287,2,0,L|371:220,3,45
339,155,38587,37,8,0:0:0:0:
303,155,38662,1,0,0:0:0:0:
267,148,38737,1,0,0:0:0:0:
234,132,38812,1,0,0:0:0:0:
206,109,38887,2,0,P|174:97|137:109,1,45
129,156,39037,2,0,P|112:180|77:191,1,45
134,245,39187,1,0,0:0:0:0:
166,260,39262,1,0,0:0:0:0:
198,275,39337,2,0,L|254:301,1,45
291,239,39487,2,0,L|334:272,3,45
399,231,39787,5,4,0:0:0:0:
336,142,39937,1,0,0:0:0:0:
336,142,40012,2,4,B|272:120|272:120|207:177|128:148,1,202.500007724762
39,137,40387,1,0,0:0:0:0:
89,282,40537,2,0,L|127:304,2,33.7500012874604
154,263,40687,1,2,0:0:0:0:
201,262,40762,1,2,0:0:0:0:
247,254,40837,1,2,0:0:0:0:
292,239,40912,1,2,0:0:0:0:
329,210,40987,38,0,P|364:221|412:202,1,90,4|0,0:0|0:0,0:0:0:0:
336,67,41287,2,0,P|302:66|281:60,1,45
252,130,41437,2,0,P|220:124|192:129,1,45
144,81,41587,1,0,0:0:0:0:
131,114,41662,1,0,0:0:0:0:
118,147,41737,2,0,L|92:207,1,45
188,208,41887,2,0,L|187:267,3,45
277,189,42187,6,0,L|277:138,2,45
205,133,42487,2,0,P|230:114|247:88,1,45
310,131,42637,2,0,P|341:118|368:116,1,45
399,177,42787,1,0,0:0:0:0:
380,207,42862,1,0,0:0:0:0:
361,238,42937,2,0,L|333:284,1,45
263,256,43087,2,0,L|246:206,3,45
179,302,43387,37,0,0:0:0:0:
157,273,43462,1,0,0:0:0:0:
141,240,43537,1,0,0:0:0:0:
132,205,43612,1,0,0:0:0:0:
132,169,43687,2,0,L|140:110,1,45
214,102,43837,2,0,L|203:157,1,45
266,181,43987,1,0,0:0:0:0:
300,170,44062,1,0,0:0:0:0:
334,160,44137,2,0,L|399:175,1,45
385,246,44287,2,0,L|432:273,3,45
314,302,44587,6,0,L|330:326,2,22.5
231,306,44737,1,0,0:0:0:0:
231,306,44812,1,0,0:0:0:0:
231,306,44887,2,0,P|196:238|143:197,1,135.000005149842
102,179,45112,1,0,0:0:0:0:
49,168,45187,2,0,L|76:96,1,67.5000025749208
167,66,45337,2,0,L|142:135,1,67.5000025749208
237,135,45487,1,0,0:0:0:0:
289,148,45562,1,0,0:0:0:0:
341,162,45637,1,0,0:0:0:0:
393,176,45712,1,0,0:0:0:0:
445,189,45787,38,0,L|498:206,3,45
435,257,46087,2,0,P|412:276|390:285,1,45
350,234,46237,2,0,P|320:246|301:248,1,45
274,189,46387,1,0,0:0:0:0:
239,179,46462,1,0,0:0:0:0:
204,169,46537,1,0,0:0:0:0:
169,159,46612,1,0,0:0:0:0:
134,149,46687,2,0,L|101:200,3,45
155,237,46987,5,0,0:0:0:0:
187,252,47062,1,0,0:0:0:0:
221,263,47137,1,0,0:0:0:0:
256,270,47212,1,0,0:0:0:0:
291,270,47287,2,0,P|318:262|340:242,1,45
330,184,47437,2,0,P|353:159|368:151,1,45
341,89,47587,1,0,0:0:0:0:
296,84,47662,1,0,0:0:0:0:
251,80,47737,2,0,L|192:74,1,45
146,127,47887,2,0,L|209:133,3,45
94,182,48187,38,0,P|104:240|138:280,1,90
164,303,48412,1,0,0:0:0:0:
292,184,48562,2,0,L|312:139,1,45
93,182,48787,1,0,0:0:0:0:
295,329,48937,1,0,0:0:0:0:
93,182,49087,1,0,0:0:0:0:
132,159,49162,1,0,0:0:0:0:
174,145,49237,1,0,0:0:0:0:
218,137,49312,1,0,0:0:0:0:
256,192,49387,12,0,50437,0:0:0:0:
80,304,50587,22,0,P|148:316|218:302,1,135.000005149842
442,213,50887,1,0,0:0:0:0:
226,53,51037,1,0,0:0:0:0:
284,320,51187,1,0,0:0:0:0:
377,28,51337,1,0,0:0:0:0:
86,226,51487,1,0,0:0:0:0:
486,134,51637,1,0,0:0:0:0:
284,320,51787,6,0,P|205:331|148:306,1,135.000005149842
39,124,52087,1,0,0:0:0:0:
332,26,52237,1,0,0:0:0:0:
190,266,52387,1,0,0:0:0:0:
0,23,52537,1,0,0:0:0:0:
377,97,52687,1,0,0:0:0:0:
48,312,52837,1,0,0:0:0:0:
94,318,52912,1,0,0:0:0:0:
140,324,52987,38,0,P|212:323|276:293,1,135.000005149842
64,148,53287,1,0,0:0:0:0:
312,9,53437,1,0,0:0:0:0:
192,300,53587,1,0,0:0:0:0:
43,21,53737,1,0,0:0:0:0:
415,138,53887,1,0,0:0:0:0:
21,274,54037,1,0,0:0:0:0:
238,344,54187,6,0,P|305:320|351:261,1,135.000005149842
392,71,54487,1,0,0:0:0:0:
121,35,54637,1,0,0:0:0:0:
168,284,54787,1,0,0:0:0:0:
293,12,54937,1,0,0:0:0:0:
412,324,55087,1,0,0:0:0:0:
364,328,55162,1,0,0:0:0:0:
316,332,55237,1,0,0:0:0:0:
268,336,55312,1,0,0:0:0:0:
220,340,55387,38,0,P|150:325|95:279,1,135.000005149842
38,108,55687,1,0,0:0:0:0:
293,12,55837,1,0,0:0:0:0:
162,253,55987,1,0,0:0:0:0:
417,124,56137,1,0,0:0:0:0:
115,34,56287,1,0,0:0:0:0:
383,311,56437,1,0,0:0:0:0:
162,253,56587,6,0,P|235:264|303:242,1,135.000005149842
417,124,56887,1,0,0:0:0:0:
165,52,57037,1,0,0:0:0:0:
341,265,57187,1,0,0:0:0:0:
273,6,57337,1,0,0:0:0:0:
34,184,57487,1,0,0:0:0:0:
393,187,57637,1,0,0:0:0:0:
158,320,57787,6,0,B|150:286|150:286|136:266|136:266|128:232,1,90
216,140,58087,2,0,B|208:106|208:106|194:86|194:86|186:52,1,90
321,262,58387,2,0,B|329:228|329:228|343:208|343:208|351:174,1,90
186,223,58687,2,0,B|194:189|194:189|208:169|208:169|216:135,1,90
72,229,58987,2,0,B|40:190|40:190|27:145,1,90
186,223,59287,2,0,B|218:262|218:262|231:307,1,90
345,248,59587,5,0,0:0:0:0:
368,209,59662,1,0,0:0:0:0:
391,170,59737,2,0,L|426:175,2,22.5
388,95,59887,1,0,0:0:0:0:
338,88,59962,1,0,0:0:0:0:
288,89,60037,1,0,0:0:0:0:
239,100,60112,1,0,0:0:0:0:
194,122,60187,6,0,P|141:194|146:288,1,135.000005149842
347,328,60487,1,0,0:0:0:0:
462,123,60637,1,0,0:0:0:0:
225,311,60787,1,0,0:0:0:0:
275,33,60937,1,0,0:0:0:0:
463,248,61087,1,0,0:0:0:0:
120,135,61237,1,0,0:0:0:0:
225,311,61387,6,0,P|305:306|365:280,1,135.000005149842
491,137,61687,1,0,0:0:0:0:
258,21,61837,1,0,0:0:0:0:
355,285,61987,1,0,0:0:0:0:
111,75,62137,1,0,0:0:0:0:
461,17,62287,1,0,0:0:0:0:
286,331,62437,1,0,0:0:0:0:
239,322,62512,1,0,0:0:0:0:
192,313,62587,38,0,P|172:249|206:178,1,135.000005149842
368,93,62887,1,0,0:0:0:0:
97,51,63037,1,0,0:0:0:0:
279,248,63187,1,0,0:0:0:0:
0,250,63337,1,0,0:0:0:0:
221,17,63487,1,0,0:0:0:0:
120,346,63637,1,0,0:0:0:0:
363,325,63787,1,0,0:0:0:0:
403,300,63862,1,0,0:0:0:0:
432,263,63937,1,0,0:0:0:0:
448,218,64012,1,0,0:0:0:0:
448,170,64087,2,0,P|385:132|308:124,1,135.000005149842
27,142,64387,1,0,0:0:0:0:
334,40,64537,1,0,0:0:0:0:
125,289,64687,1,0,0:0:0:0:
171,296,64762,1,0,0:0:0:0:
218,300,64837,1,0,0:0:0:0:
265,301,64912,1,0,0:0:0:0:
312,297,64987,6,0,P|387:320|449:278,1,135.000005149842
492,96,65287,1,0,0:0:0:0:
237,113,65437,1,0,0:0:0:0:
434,296,65587,1,0,0:0:0:0:
444,20,65737,1,0,0:0:0:0:
330,328,65887,1,0,0:0:0:0:
252,5,66037,1,0,0:0:0:0:
124,245,66187,2,0,P|197:252|262:227,1,135.000005149842
499,144,66487,1,0,0:0:0:0:
252,5,66637,1,0,0:0:0:0:
440,258,66787,1,0,0:0:0:0:
177,96,66937,1,0,0:0:0:0:
496,36,67087,1,0,0:0:0:0:
238,336,67237,1,0,0:0:0:0:
263,113,67387,38,0,P|212:95|149:102,1,90
126,100,67612,1,0,0:0:0:0:
126,100,67687,1,0,0:0:0:0:
37,333,67837,1,0,0:0:0:0:
349,246,67987,1,0,0:0:0:0:
10,214,68137,1,0,0:0:0:0:
349,246,68287,1,0,0:0:0:0:
371,206,68362,1,0,0:0:0:0:
372,161,68437,1,0,0:0:0:0:
357,118,68512,1,0,0:0:0:0:
256,192,68587,12,0,69787,0:0:0:0:
256,192,76987,12,0,79237,0:0:0:0:
145,240,79387,5,0,0:0:0:0:
281,117,79587,1,0,0:0:0:0:
281,117,79687,1,0,0:0:0:0:
372,246,79887,1,0,0:0:0:0:
372,246,79987,1,0,0:0:0:0:
337,274,80087,1,0,0:0:0:0:
296,293,80187,1,0,0:0:0:0:
252,303,80287,2,0,P|211:293|202:287,2,45.0000017166138
264,191,80587,37,0,0:0:0:0:
101,96,80787,1,0,0:0:0:0:
101,96,80887,1,0,0:0:0:0:
281,64,81087,1,0,0:0:0:0:
281,64,81187,1,0,0:0:0:0:
320,85,81287,1,0,0:0:0:0:
355,112,81387,1,0,0:0:0:0:
384,145,81487,2,0,P|392:162|401:170,4,22.5000008583069
296,198,81787,5,0,0:0:0:0:
168,83,81987,1,0,0:0:0:0:
168,83,82087,1,0,0:0:0:0:
99,237,82287,1,0,0:0:0:0:
99,237,82387,1,0,0:0:0:0:
140,254,82487,1,0,0:0:0:0:
183,266,82587,1,0,0:0:0:0:
227,272,82687,2,0,P|265:272|286:266,2,45.0000017166138
223,178,82987,37,0,0:0:0:0:
340,84,83187,1,0,0:0:0:0:
340,84,83287,1,0,0:0:0:0:
159,69,83487,1,0,0:0:0:0:
159,69,83587,1,0,0:0:0:0:
119,90,83687,1,0,0:0:0:0:
83,117,83787,1,0,0:0:0:0:
53,151,83887,2,0,P|34:168|26:184,4,22.5000008583069
123,210,84187,5,0,0:0:0:0:
167,202,84287,1,0,0:0:0:0:
211,194,84387,1,0,0:0:0:0:
255,186,84487,2,0,L|283:180,4,22.5000008583069
293,117,84787,37,0,0:0:0:0:
301,161,84887,1,0,0:0:0:0:
309,205,84987,1,0,0:0:0:0:
317,249,85087,2,0,L|323:277,4,22.5000008583069
390,235,85387,5,0,0:0:0:0:
398,191,85487,1,0,0:0:0:0:
406,147,85587,1,0,0:0:0:0:
414,103,85687,2,0,L|420:75,4,22.5000008583069
336,104,85987,1,0,0:0:0:0:
295,124,86087,1,0,0:0:0:0:
255,144,86187,1,0,0:0:0:0:
215,164,86287,2,0,L|188:176,4,22.5000008583069
156,111,86587,38,0,P|132:116|109:131,2,45.0000017166138
341,176,86887,2,0,P|365:181|388:196,2,45.0000017166138
156,241,87187,2,0,P|132:236|109:221,2,45.0000017166138
341,176,87487,2,0,P|365:171|388:156,2,45.0000017166138
189,88,87787,5,0,0:0:0:0:
159,140,87887,1,0,0:0:0:0:
146,198,87987,1,0,0:0:0:0:
151,257,88087,1,0,0:0:0:0:
185,306,88187,1,0,0:0:0:0:
240,329,88287,1,0,0:0:0:0:
299,319,88387,1,0,0:0:0:0:
343,278,88487,1,0,0:0:0:0:
357,219,88587,1,0,0:0:0:0:
348,160,88687,22,0,P|328:50|277:154,1,270
294,173,88987,5,0,0:0:0:0:
256,219,89087,1,0,0:0:0:0:
206,252,89187,1,0,0:0:0:0:
146,261,89287,2,0,P|103:225|87:160,1,120
110,58,89587,1,0,0:0:0:0:
168,73,89687,1,0,0:0:0:0:
227,78,89787,1,0,0:0:0:0:
285,65,89887,2,0,P|343:56|363:116,1,120
286,158,90187,1,0,0:0:0:0:
229,179,90287,1,0,0:0:0:0:
182,216,90387,1,0,0:0:0:0:
153,268,90487,2,0,P|199:306|262:309,1,120
388,238,90787,1,0,0:0:0:0:
427,192,90887,1,0,0:0:0:0:
439,133,90987,1,0,0:0:0:0:
416,77,91087,1,0,0:0:0:0:
360,53,91187,1,0,0:0:0:0:
302,70,91287,1,0,0:0:0:0:
274,123,91387,5,0,0:0:0:0:
260,64,91487,1,0,0:0:0:0:
209,32,91587,1,0,0:0:0:0:
149,33,91687,2,0,P|103:68|95:135,1,120
46,256,91987,1,0,0:0:0:0:
104,267,92087,1,0,0:0:0:0:
163,267,92187,1,0,0:0:0:0:
220,249,92287,2,0,P|272:267|333:233,1,120
391,111,92587,1,0,0:0:0:0:
333,93,92687,1,0,0:0:0:0:
273,86,92787,1,0,0:0:0:0:
213,94,92887,2,0,P|182:117|152:199,1,120
106,319,93187,1,0,0:0:0:0:
177,326,93287,1,0,0:0:0:0:
248,314,93387,1,0,0:0:0:0:
206,232,93487,1,0,0:0:0:0:
271,202,93587,1,0,0:0:0:0:
342,196,93687,1,0,0:0:0:0:
410,218,93787,37,0,0:0:0:0:
426,160,93887,1,0,0:0:0:0:
414,101,93987,1,0,0:0:0:0:
372,57,94087,2,0,P|326:85|244:94,1,120
134,58,94387,1,0,0:0:0:0:
126,117,94487,1,0,0:0:0:0:
130,176,94587,1,0,0:0:0:0:
150,232,94687,2,0,P|137:275|206:297,1,120
362,304,94987,1,0,0:0:0:0:
388,250,95087,1,0,0:0:0:0:
390,190,95187,1,0,0:0:0:0:
361,137,95287,2,0,P|301:121|232:133,1,120
88,87,95587,1,0,0:0:0:0:
83,146,95687,1,0,0:0:0:0:
99,203,95787,1,0,0:0:0:0:
140,246,95887,1,0,0:0:0:0:
196,267,95987,1,0,0:0:0:0:
255,256,96087,1,0,0:0:0:0:
294,210,96187,5,0,0:0:0:0:
295,269,96287,1,0,0:0:0:0:
325,320,96387,1,0,0:0:0:0:
378,347,96487,2,0,P|417:324|446:240,1,120
439,89,96787,1,0,0:0:0:0:
386,118,96887,1,0,0:0:0:0:
327,131,96987,1,0,0:0:0:0:
267,123,97087,1,0,0:0:0:0:
211,100,97187,1,0,0:0:0:0:
151,90,97287,1,0,0:0:0:0:
93,100,97387,5,0,0:0:0:0:
394,295,97587,1,0,0:0:0:0:
43,262,97787,1,0,0:0:0:0:
269,92,97987,1,0,0:0:0:0:
331,146,98087,1,0,0:0:0:0:
374,216,98187,1,0,0:0:0:0:
394,295,98287,2,0,L|395:339,4,37.5
288,305,98587,5,0,0:0:0:0:
216,309,98687,1,0,0:0:0:0:
147,286,98787,1,0,0:0:0:0:
97,234,98887,2,0,P|102:198|99:167,2,60
162,119,99187,1,0,0:0:0:0:
210,171,99287,1,0,0:0:0:0:
273,205,99387,1,0,0:0:0:0:
344,209,99487,2,0,P|378:203|405:186,2,60
464,243,99787,1,0,0:0:0:0:
415,296,99887,1,0,0:0:0:0:
350,328,99987,1,0,0:0:0:0:
278,335,100087,2,0,P|228:335|192:322,2,60
215,250,100387,1,0,0:0:0:0:
149,220,100487,1,0,0:0:0:0:
101,166,100587,1,0,0:0:0:0:
172,156,100687,1,0,0:0:0:0:
238,129,100787,1,0,0:0:0:0:
308,116,100887,1,0,0:0:0:0:
378,132,100987,37,0,0:0:0:0:
365,202,101087,1,0,0:0:0:0:
382,271,101187,1,0,0:0:0:0:
433,320,101287,2,0,P|456:293|475:254,2,60
382,271,101587,1,0,0:0:0:0:
310,265,101687,1,0,0:0:0:0:
238,274,101787,1,0,0:0:0:0:
170,298,101887,2,0,P|139:318|102:328,2,60
105,231,102187,1,0,0:0:0:0:
126,162,102287,1,0,0:0:0:0:
169,104,102387,1,0,0:0:0:0:
234,73,102487,2,0,P|279:73|303:86,2,60
350,32,102787,1,0,0:0:0:0:
395,102,102887,1,0,0:0:0:0:
407,185,102987,1,0,0:0:0:0:
386,266,103087,1,0,0:0:0:0:
326,256,103187,1,0,0:0:0:0:
266,247,103287,1,0,0:0:0:0:
206,238,103387,5,0,0:0:0:0:
169,175,103487,1,0,0:0:0:0:
110,132,103587,1,0,0:0:0:0:
39,116,103687,2,0,P|23:80|19:51,2,60
119,38,103987,1,0,0:0:0:0:
190,42,104087,1,0,0:0:0:0:
259,62,104187,1,0,0:0:0:0:
318,102,104287,2,0,P|347:136|354:157,2,60
257,169,104587,1,0,0:0:0:0:
209,165,104687,1,0,0:0:0:0:
161,162,104787,1,0,0:0:0:0:
113,159,104887,1,0,0:0:0:0:
89,214,104987,1,0,0:0:0:0:
99,273,105087,1,0,0:0:0:0:
138,318,105187,37,0,0:0:0:0:
200,339,105287,1,0,0:0:0:0:
265,342,105387,1,0,0:0:0:0:
335,326,105487,1,0,0:0:0:0:
393,284,105587,1,0,0:0:0:0:
430,215,105687,1,0,0:0:0:0:
446,140,105787,6,0,P|434:120|430:107,2,30
320,191,106087,2,0,P|308:211|304:224,2,30
274,70,106387,2,0,P|249:62|234:63,2,30
183,214,106687,2,0,P|157:224|143:226,2,30
144,118,106987,1,0,0:0:0:0:
190,124,107062,1,0,0:0:0:0:
233,142,107137,1,0,0:0:0:0:
267,173,107212,1,0,0:0:0:0:
330,162,107287,1,0,0:0:0:0:
361,197,107362,1,0,0:0:0:0:
377,241,107437,1,0,0:0:0:0:
377,288,107512,1,0,0:0:0:0:
358,330,107587,38,0,B|261:304|261:304|208:333,1,135
155,335,107887,22,0,B|104:288|144:244|144:244|106:158|106:158|163:155|195:122,1,270
243,108,108187,5,0,0:0:0:0:
483,224,108337,1,0,0:0:0:0:
92,208,108487,1,0,0:0:0:0:
486,96,108637,1,0,0:0:0:0:
154,298,108787,1,0,0:0:0:0:
123,253,108862,1,0,0:0:0:0:
92,208,108937,1,0,0:0:0:0:
279,83,109087,2,0,P|310:68|352:64,1,67.5000025749208
245,211,109237,2,0,P|214:226|172:230,1,67.5000025749208
375,173,109387,1,0,0:0:0:0:
154,298,109537,1,0,0:0:0:0:
48,16,109687,1,0,0:0:0:0:
439,139,109837,1,0,0:0:0:0:
58,169,109987,37,0,0:0:0:0:
107,203,110062,1,0,0:0:0:0:
165,220,110137,1,0,0:0:0:0:
225,214,110212,1,0,0:0:0:0:
284,199,110287,1,0,0:0:0:0:
342,213,110362,1,0,0:0:0:0:
393,245,110437,1,0,0:0:0:0:
425,296,110512,1,0,0:0:0:0:
440,354,110587,1,0,0:0:0:0:
140,305,110737,1,0,0:0:0:0:
484,146,110887,1,0,0:0:0:0:
91,97,111037,1,0,0:0:0:0:
376,71,111187,2,0,P|447:103|490:156,1,135.000005149842
194,293,111487,2,0,P|123:261|80:208,1,135.000005149842
340,77,111787,1,0,0:0:0:0:
230,378,111937,1,0,0:0:0:0:
128,119,112087,2,0,L|144:45,1,67.5000025749208
48,234,112237,2,0,L|32:308,1,67.5000025749208
185,198,112387,5,0,0:0:0:0:
241,219,112462,1,0,0:0:0:0:
282,262,112537,1,0,0:0:0:0:
306,317,112612,1,0,0:0:0:0:
360,343,112687,1,0,0:0:0:0:
420,333,112762,1,0,0:0:0:0:
460,288,112837,1,0,0:0:0:0:
463,227,112912,1,0,0:0:0:0:
443,169,112987,37,0,0:0:0:0:
58,319,113137,1,0,0:0:0:0:
235,40,113287,1,0,0:0:0:0:
341,335,113437,1,0,0:0:0:0:
82,209,113587,1,0,0:0:0:0:
74,155,113662,1,0,0:0:0:0:
65,101,113737,1,0,0:0:0:0:
352,25,113887,1,0,0:0:0:0:
475,345,114037,1,0,0:0:0:0:
153,284,114187,1,0,0:0:0:0:
134,226,114262,1,0,0:0:0:0:
115,168,114337,1,0,0:0:0:0:
96,110,114412,1,0,0:0:0:0:
76,52,114487,2,0,L|145:52,1,67.5000025749208
258,107,114637,2,0,L|189:107,1,67.5000025749208
388,68,114787,5,0,0:0:0:0:
425,115,114862,1,0,0:0:0:0:
441,173,114937,1,0,0:0:0:0:
437,233,115012,1,0,0:0:0:0:
412,288,115087,1,0,0:0:0:0:
363,324,115162,1,0,0:0:0:0:
302,330,115237,1,0,0:0:0:0:
248,301,115312,1,0,0:0:0:0:
211,252,115387,38,0,B|168:249|168:249|130:230|130:230|69:222,1,135.000005149842
79,23,115687,2,0,B|122:26|122:26|160:45|160:45|221:53,1,135.000005149842
425,129,115987,1,0,0:0:0:0:
432,182,116062,1,0,0:0:0:0:
439,235,116137,1,0,0:0:0:0:
198,102,116287,1,0,0:0:0:0:
251,92,116362,1,0,0:0:0:0:
304,82,116437,1,0,0:0:0:0:
357,72,116512,1,0,0:0:0:0:
410,62,116587,6,0,L|379:164,1,67.5000025749208
254,178,116737,2,0,L|279:106,1,67.5000025749208
440,202,116887,2,0,L|409:304,1,67.5000025749208
284,318,117037,2,0,L|309:246,1,67.5000025749208
254,178,117187,1,0,0:0:0:0:
240,118,117262,1,0,0:0:0:0:
201,70,117337,1,0,0:0:0:0:
142,52,117412,1,0,0:0:0:0:
84,70,117487,1,0,0:0:0:0:
47,118,117562,1,0,0:0:0:0:
43,178,117637,1,0,0:0:0:0:
71,231,117712,1,0,0:0:0:0:
121,264,117787,37,0,0:0:0:0:
492,141,117937,1,0,0:0:0:0:
261,340,118087,1,0,0:0:0:0:
334,17,118237,1,0,0:0:0:0:
131,203,118387,1,0,0:0:0:0:
118,150,118462,1,0,0:0:0:0:
105,97,118537,1,0,0:0:0:0:
417,308,118687,1,0,0:0:0:0:
35,212,118837,1,0,0:0:0:0:
269,102,118987,2,0,P|308:84|345:82,1,67.5000025749208
401,212,119137,2,0,P|362:230|325:232,1,67.5000025749208
193,320,119287,1,0,0:0:0:0:
512,256,119437,1,0,0:0:0:0:
189,89,119587,1,0,0:0:0:0:
134,116,119662,1,0,0:0:0:0:
96,164,119737,1,0,0:0:0:0:
92,224,119812,1,0,0:0:0:0:
119,277,119887,1,0,0:0:0:0:
168,312,119962,1,0,0:0:0:0:
228,320,120037,1,0,0:0:0:0:
285,301,120112,1,0,0:0:0:0:
323,253,120187,5,0,0:0:0:0:
255,13,120337,1,0,0:0:0:0:
431,337,120487,1,0,0:0:0:0:
58,102,120637,1,0,0:0:0:0:
401,35,120787,1,0,0:0:0:0:
442,69,120862,1,0,0:0:0:0:
483,103,120937,1,0,0:0:0:0:
487,331,121087,1,0,0:0:0:0:
330,62,121237,1,0,0:0:0:0:
274,319,121387,1,0,0:0:0:0:
224,296,121462,1,0,0:0:0:0:
189,254,121537,1,0,0:0:0:0:
181,200,121612,1,0,0:0:0:0:
197,148,121687,2,0,P|148:130|120:107,1,67.5000025749208
119,13,121837,2,0,P|168:31|196:54,1,67.5000025749208
266,90,121987,37,0,0:0:0:0:
322,112,122062,1,0,0:0:0:0:
371,146,122137,1,0,0:0:0:0:
411,191,122212,1,0,0:0:0:0:
427,249,122287,1,0,0:0:0:0:
367,237,122362,1,0,0:0:0:0:
306,237,122437,1,0,0:0:0:0:
247,252,122512,1,0,0:0:0:0:
192,279,122587,5,0,0:0:0:0:
0,20,122737,1,0,0:0:0:0:
450,160,122887,1,0,0:0:0:0:
24,236,123037,1,0,0:0:0:0:
290,25,123187,1,0,0:0:0:0:
208,349,123337,1,0,0:0:0:0:
386,53,123487,1,0,0:0:0:0:
24,236,123637,1,0,0:0:0:0:
334,218,123787,2,0,L|347:146,1,67.5000025749208
471,185,123937,2,0,L|484:113,1,67.5000025749208
334,218,124087,2,0,L|321:290,1,67.5000025749208
197,251,124237,2,0,L|184:323,1,67.5000025749208
262,148,124387,37,0,0:0:0:0:
227,97,124462,1,0,0:0:0:0:
175,64,124537,1,0,0:0:0:0:
114,56,124612,1,0,0:0:0:0:
58,81,124687,1,0,0:0:0:0:
34,136,124762,1,0,0:0:0:0:
56,192,124837,1,0,0:0:0:0:
103,229,124912,1,0,0:0:0:0:
161,246,124987,5,0,0:0:0:0:
450,120,125137,1,0,0:0:0:0:
110,326,125287,1,0,0:0:0:0:
256,15,125437,1,0,0:0:0:0:
321,338,125587,1,0,0:0:0:0:
34,136,125737,1,0,0:0:0:0:
396,107,125887,2,0,L|428:177,1,67.5000025749208
325,214,126037,2,0,L|283:284,1,67.5000025749208
185,280,126187,37,0,0:0:0:0:
132,310,126262,1,0,0:0:0:0:
71,308,126337,1,0,0:0:0:0:
23,270,126412,1,0,0:0:0:0:
6,211,126487,1,0,0:0:0:0:
22,152,126562,1,0,0:0:0:0:
66,110,126637,1,0,0:0:0:0:
125,100,126712,1,0,0:0:0:0:
179,126,126787,1,0,0:0:0:0:
234,150,126862,1,0,0:0:0:0:
294,154,126937,1,0,0:0:0:0:
351,133,127012,1,0,0:0:0:0:
396,92,127087,1,0,0:0:0:0:
395,152,127162,1,0,0:0:0:0:
411,210,127237,1,0,0:0:0:0:
447,258,127312,1,0,0:0:0:0:
487,298,127387,38,0,B|442:330|358:256|358:256|295:310|295:310|253:252|259:152|259:152|198:203|198:203|35:123|32:307,1,720
