osu file format v14

[General]
AudioFilename: audio.mp3
AudioLeadIn: 0
PreviewTime: 50587
Countdown: 0
SampleSet: Normal
StackLeniency: 0.3
Mode: 0
LetterboxInBreaks: 0
WidescreenStoryboard: 1

[Editor]
Bookmarks: 12187,21787,31387,50587,69787,79387,88987,108187,128587
DistanceSpacing: 0.2
BeatDivisor: 4
GridSize: 4
TimelineZoom: 1

[Metadata]
Title:Sigmund
TitleUnicode:Sigmund
Artist:Gram
ArtistUnicode:Gram
Creator:Geminous
Version:Insane
Source:
Tags:hardcore break dark dramatic beatmania iidx
BeatmapID:1427370
BeatmapSetID:673988

[Difficulty]
HPDrainRate:3.8
CircleSize:3.5
OverallDifficulty:7
ApproachRate:9
SliderMultiplier:1.8
SliderTickRate:1

[Events]
//Background and Video events
0,0,"dark_mist_by_jjcanvas-d73j1wa.jpg",0,0
//Break Periods
2,69987,76387
//Storyboard Layer 0 (Background)
//Storyboard Layer 1 (Fail)
//Storyboard Layer 2 (Pass)
//Storyboard Layer 3 (Foreground)
//Storyboard Sound Samples

[TimingPoints]
12187,600,4,1,0,35,1,0
21787,-100,4,1,0,35,0,0
30187,-66.6666666666667,4,1,0,35,0,0
31087,-50,4,1,0,35,0,0
31387,300,4,1,0,35,1,0
31387,-100,4,1,0,35,0,0
39787,-66.6666666666667,4,1,0,35,0,0
40987,-100,4,1,0,35,0,0
44887,-66.6666666666667,4,1,0,35,0,0
45787,-100,4,1,0,35,0,0
50587,-66.6666666666667,4,1,0,35,0,1
57787,-100,4,1,0,35,0,0
60187,-66.6666666666667,4,1,0,35,0,1
67387,-100,4,1,0,35,0,1
69787,-133.333333333333,4,1,0,35,0,0
76987,-200,4,1,0,35,0,0
79387,-133.333333333333,4,1,0,35,0,0
87787,-200,4,1,0,35,0,0
88687,-66.6666666666667,4,1,0,35,0,0
88987,-100,4,1,0,35,0,0
97387,-80,4,1,0,35,0,0
98587,-100,4,1,0,35,0,0
105787,-200,4,1,0,35,0,0
106987,-133.333333333333,4,1,0,35,0,0
107587,-100,4,1,0,35,0,0
107887,-50,4,1,0,35,0,0
108187,-66.6666666666667,4,1,0,35,0,1
127387,-100,4,1,0,35,0,1
128587,-133.333333333333,4,1,0,35,0,0

[Colours]
Combo1 : 45,150,255
Combo2 : 128,128,128
Combo3 : 174,174,174
Combo4 : 0,99,198

[HitObjects]
256,192,19387,12,0,21487,0:0:0:0:
140,205,21787,6,0,P|177:168|203:119,2,90
139,204,22837,2,0,L|151:262,1,45
333,310,23287,1,0,0:0:0:0:
234,162,23587,1,0,0:0:0:0:
294,95,23737,1,0,0:0:0:0:
383,94,23887,1,0,0:0:0:0:
234,162,24187,6,0,P|193:202|142:213,2,90
320,279,25087,1,0,0:0:0:0:
406,252,25237,2,0,L|461:268,1,45
258,340,25687,1,0,0:0:0:0:
197,175,25987,1,0,0:0:0:0:
130,113,26137,1,0,0:0:0:0:
63,51,26287,1,0,0:0:0:0:
197,175,26587,38,0,L|215:264,2,90
387,223,27487,1,0,0:0:0:0:
381,133,27637,2,0,L|307:138,1,45
243,284,28087,1,0,0:0:0:0:
72,206,28387,1,0,0:0:0:0:
137,144,28537,1,0,0:0:0:0:
160,57,28687,1,0,0:0:0:0:
72,206,28987,6,0,P|59:267|75:300,2,90
160,223,29737,1,0,0:0:0:0:
213,150,29887,1,0,0:0:0:0:
302,163,30037,1,0,0:0:0:0:
256,192,30187,12,0,31237,0:0:0:0:
118,226,31387,37,0,0:0:0:0:
143,120,31537,1,0,0:0:0:0:
143,120,31612,1,0,0:0:0:0:
143,120,31687,2,0,L|232:150,1,90
316,213,31987,1,0,0:0:0:0:
411,274,32137,1,0,0:0:0:0:
266,291,32287,2,0,B|219:305|219:305|172:300,1,90
92,246,32587,5,0,0:0:0:0:
60,118,32737,1,0,0:0:0:0:
60,118,32812,1,0,0:0:0:0:
60,118,32887,2,0,L|158:102,1,90
294,88,33187,1,0,0:0:0:0:
414,79,33337,1,0,0:0:0:0:
294,88,33487,2,0,B|283:138|283:138|285:193,1,90
256,261,33787,37,0,0:0:0:0:
119,228,33937,1,0,0:0:0:0:
119,228,34012,1,0,0:0:0:0:
119,228,34087,2,0,L|112:126,1,90
105,35,34387,1,0,0:0:0:0:
212,80,34537,1,0,0:0:0:0:
335,77,34687,2,0,B|325:126|325:126|288:164,1,90
228,196,34987,5,0,0:0:0:0:
212,80,35137,1,0,0:0:0:0:
212,80,35212,1,0,0:0:0:0:
212,80,35287,2,0,L|127:30,1,90
103,157,35587,1,0,0:0:0:0:
2,96,35737,1,0,0:0:0:0:
41,208,35887,2,0,B|97:219|97:219|135:241,1,90
195,293,36187,1,0,0:0:0:0:
328,264,36337,37,0,0:0:0:0:
328,264,36412,1,0,0:0:0:0:
328,264,36487,2,0,L|276:180,1,90
187,83,36787,1,0,0:0:0:0:
221,194,36937,1,0,0:0:0:0:
122,237,37087,2,0,B|72:204|72:204|75:146,1,90
90,79,37387,5,0,0:0:0:0:
224,147,37537,1,0,0:0:0:0:
224,147,37612,1,0,0:0:0:0:
224,147,37687,2,0,L|284:218,1,90
206,289,37987,1,0,0:0:0:0:
159,175,38137,1,0,0:0:0:0:
292,171,38287,2,0,B|341:169|341:169|392:205,1,90
350,272,38587,37,0,0:0:0:0:
292,171,38737,1,0,0:0:0:0:
292,171,38812,1,0,0:0:0:0:
292,171,38887,2,0,L|204:122,1,90
139,202,39187,1,0,0:0:0:0:
90,91,39337,1,0,0:0:0:0:
25,202,39487,2,0,B|58:265|58:265|130:301,1,135
163,303,39787,6,0,P|237:317|255:211,1,202.500007724762
127,214,40237,1,0,0:0:0:0:
242,170,40387,1,0,0:0:0:0:
152,110,40537,1,0,0:0:0:0:
242,170,40687,37,0,0:0:0:0:
267,179,40762,1,0,0:0:0:0:
292,188,40837,1,0,0:0:0:0:
317,197,40912,1,0,0:0:0:0:
341,206,40987,5,0,0:0:0:0:
424,97,41137,1,0,0:0:0:0:
424,97,41212,1,0,0:0:0:0:
424,97,41287,2,0,L|320:70,1,90
222,47,41587,1,0,0:0:0:0:
286,148,41737,1,0,0:0:0:0:
184,222,41887,2,0,P|152:189|132:137,1,90
52,226,42187,37,0,0:0:0:0:
134,149,42337,1,0,0:0:0:0:
134,149,42412,1,0,0:0:0:0:
134,149,42487,2,0,L|220:108,1,90
351,132,42787,1,0,0:0:0:0:
246,192,42937,1,0,0:0:0:0:
351,132,43087,2,0,P|388:169|390:217,1,90
304,288,43387,5,0,0:0:0:0:
223,198,43537,1,0,0:0:0:0:
223,198,43612,1,0,0:0:0:0:
223,198,43687,2,0,L|134:153,1,90
31,106,43987,1,0,0:0:0:0:
97,212,44137,1,0,0:0:0:0:
223,198,44287,2,0,P|265:171|281:130,1,90
308,20,44587,37,0,0:0:0:0:
169,97,44737,1,0,0:0:0:0:
169,97,44812,1,0,0:0:0:0:
169,97,44887,2,0,B|161:149|132:184|132:184|162:220|162:220|130:273|159:346,1,270.000010299683
273,289,45337,1,0,0:0:0:0:
279,185,45487,2,0,L|225:132,1,67.5000025749208
187,201,45637,2,0,L|119:186,1,67.5000025749208
104,262,45787,1,0,0:0:0:0:
175,231,46087,6,0,L|97:303,1,90
50,188,46387,1,0,0:0:0:0:
175,231,46537,1,0,0:0:0:0:
122,136,46687,2,0,P|168:98|194:59,1,90
290,105,46987,37,0,0:0:0:0:
386,55,47137,1,0,0:0:0:0:
386,55,47212,1,0,0:0:0:0:
386,55,47287,2,0,L|432:160,1,90
290,105,47587,1,0,0:0:0:0:
336,211,47737,1,0,0:0:0:0:
242,184,47887,2,0,P|214:229|217:271,1,90
108,304,48187,6,0,L|51:162,1,135
57,178,48637,1,0,0:0:0:0:
148,120,48787,1,0,0:0:0:0:
258,157,48937,1,0,0:0:0:0:
250,260,49087,2,0,L|237:307,3,45
256,192,49387,12,0,50512,0:0:0:0:
131,275,50587,5,0,0:0:0:0:
84,132,50737,1,0,0:0:0:0:
206,193,50887,2,0,P|250:138|263:69,1,135.000005149842
380,179,51187,1,0,0:0:0:0:
468,64,51337,1,0,0:0:0:0:
380,179,51487,2,0,P|306:191|249:144,1,135.000005149842
159,124,51787,1,0,0:0:0:0:
94,29,51937,1,0,0:0:0:0:
232,100,52087,2,0,P|309:132|362:126,1,135.000005149842
441,224,52387,1,0,0:0:0:0:
307,278,52537,1,0,0:0:0:0:
222,181,52687,2,0,B|177:160|177:160|157:129|157:129|110:102,1,135.000005149842
221,64,52987,5,0,0:0:0:0:
301,195,53137,1,0,0:0:0:0:
173,230,53287,2,0,P|119:180|87:117,1,135.000005149842
221,137,53587,1,0,0:0:0:0:
285,260,53737,1,0,0:0:0:0:
423,308,53887,2,0,P|479:261|490:200,1,135.000005149842
354,208,54187,1,0,0:0:0:0:
413,92,54337,1,0,0:0:0:0:
354,208,54487,2,0,B|303:186|303:186|286:162|286:162|223:133,1,135.000005149842
105,121,54787,2,0,B|130:170|130:170|109:254|109:254|167:345,1,202.500007724762
187,306,55087,37,0,0:0:0:0:
214,306,55162,1,0,0:0:0:0:
241,306,55237,1,0,0:0:0:0:
268,306,55312,1,0,0:0:0:0:
295,306,55387,5,0,0:0:0:0:
407,252,55537,1,0,0:0:0:0:
281,204,55687,2,0,P|265:155|181:104,1,135.000005149842
143,217,55987,1,0,0:0:0:0:
92,104,56137,1,0,0:0:0:0:
26,197,56287,2,0,P|58:268|123:304,1,135.000005149842
232,316,56587,1,0,0:0:0:0:
342,288,56737,1,0,0:0:0:0:
412,194,56887,2,0,B|394:124|394:124|356:70,1,135.000005149842
265,143,57187,1,0,0:0:0:0:
190,50,57337,1,0,0:0:0:0:
154,163,57487,2,0,B|90:190|90:190|15:254,1,135.000005149842
80,337,57787,6,0,B|123:332|159:311|159:311|182:340|182:340|210:327|261:335,1,180
374,288,58237,1,0,0:0:0:0:
357,240,58387,2,0,B|339:195|349:135|349:135|304:139|261:112,1,180
173,178,58837,1,0,0:0:0:0:
150,216,58987,2,0,B|165:262|165:262|226:284,1,90
321,275,59287,2,0,B|306:229|306:229|245:207,1,90
150,216,59587,2,0,B|179:168|179:168|188:118,1,90
203,37,59887,1,0,0:0:0:0:
228,45,59962,1,0,0:0:0:0:
253,53,60037,1,0,0:0:0:0:
278,62,60112,1,0,0:0:0:0:
302,71,60187,22,0,P|316:145|352:200,1,135.000005149842
314,335,60487,2,0,P|243:309|162:317,1,135.000005149842
50,329,60787,1,0,0:0:0:0:
86,171,60937,1,0,0:0:0:0:
207,230,61087,2,0,P|250:175|263:95,1,135.000005149842
372,15,61387,1,0,0:0:0:0:
440,162,61537,1,0,0:0:0:0:
315,176,61687,2,0,P|248:180|205:235,1,135.000005149842
107,340,61987,1,0,0:0:0:0:
27,200,62137,1,0,0:0:0:0:
150,91,62287,2,0,B|221:71|221:71|296:82,1,135.000005149842
331,91,62512,1,0,0:0:0:0:
331,91,62587,5,0,0:0:0:0:
485,173,62737,1,0,0:0:0:0:
331,222,62887,2,0,P|295:286|240:322,1,135.000005149842
86,278,63187,1,0,0:0:0:0:
186,177,63337,1,0,0:0:0:0:
331,222,63487,2,0,P|367:158|422:122,1,135.000005149842
318,38,63787,38,0,P|289:53|265:86,1,67.5000025749208
185,98,63937,1,0,0:0:0:0:
185,98,64012,1,0,0:0:0:0:
185,98,64087,1,0,0:0:0:0:
145,122,64387,1,0,0:0:0:0:
71,254,64537,1,0,0:0:0:0:
271,198,64687,1,0,0:0:0:0:
304,204,64762,1,0,0:0:0:0:
336,211,64837,1,0,0:0:0:0:
368,218,64912,1,0,0:0:0:0:
400,225,64987,5,0,0:0:0:0:
298,342,65137,1,0,0:0:0:0:
400,225,65287,2,0,P|431:149|419:63,1,135.000005149842
286,113,65587,1,0,0:0:0:0:
179,53,65737,1,0,0:0:0:0:
75,120,65887,2,0,P|94:188|85:260,1,135.000005149842
210,320,66187,1,0,0:0:0:0:
317,260,66337,1,0,0:0:0:0:
226,170,66487,2,0,B|243:104|243:104|311:47,1,135.000005149842
411,120,66787,1,0,0:0:0:0:
461,245,66937,1,0,0:0:0:0:
317,260,67087,2,0,B|285:200|285:200|224:168,1,135.000005149842
77,172,67387,2,0,L|55:73,1,90
137,253,67687,2,0,L|230:297,1,90
318,251,67987,2,0,L|340:152,1,90
257,54,68287,1,0,0:0:0:0:
257,54,68362,1,0,0:0:0:0:
257,54,68437,1,0,0:0:0:0:
257,54,68512,1,0,0:0:0:0:
256,192,68587,12,0,69787,0:0:0:0:
256,192,76987,12,0,79087,0:0:0:0:
332,178,79387,6,0,P|287:137|273:109,1,90.0000034332277
208,76,79687,2,0,P|189:129|161:156,1,90.0000034332277
99,197,79987,2,0,L|49:204,2,45.0000017166138
150,267,80287,2,0,L|116:305,2,45.0000017166138
242,260,80587,2,0,P|256:209|257:167,1,90.0000034332277
245,98,80887,2,0,P|303:79|347:117,1,90.0000034332277
389,132,81187,2,0,L|426:169,2,45.0000017166138
328,189,81487,2,0,L|337:222,6,22.5000008583069
198,131,81987,5,0,0:0:0:0:
198,131,82087,2,0,P|157:159|135:202,1,90.0000034332277
184,255,82387,2,0,L|166:308,2,45.0000017166138
269,255,82687,2,0,L|290:305,2,45.0000017166138
225,189,82987,2,0,P|237:139|230:95,1,90.0000034332277
194,39,83287,2,0,P|250:22|315:26,1,90.0000034332277
363,38,83587,2,0,L|410:24,2,45.0000017166138
414,110,83887,2,0,L|445:114,4,22.5000008583069
333,137,84187,38,0,L|284:129,2,45.0000017166138
399,187,84487,2,0,L|390:217,4,22.5000008583069
323,208,84787,6,0,L|274:200,2,45.0000017166138
389,258,85087,2,0,L|380:288,4,22.5000008583069
296,297,85387,38,0,L|257:349,2,45.0000017166138
210,282,85687,2,0,L|234:251,4,22.5000008583069
130,299,85987,6,0,L|91:351,2,45.0000017166138
44,284,86287,2,0,L|68:253,4,22.5000008583069
0,220,86587,38,0,P|23:179|25:127,1,90.0000034332277
15,60,86887,2,0,P|66:71|119:53,1,90.0000034332277
176,32,87187,2,0,P|179:86|199:128,1,90.0000034332277
135,173,87487,2,0,P|174:217|226:220,1,90.0000034332277
254,225,87787,6,0,P|272:229|287:221,2,30
216,289,88087,2,0,P|198:293|183:285,2,30
267,345,88387,2,0,P|285:349|300:341,2,30
288,275,88687,6,0,P|334:209|261:207,1,180.000006866455
195,224,88987,6,0,P|163:236|132:235,2,60
189,140,89287,2,0,P|222:77|294:55,1,120
359,75,89587,2,0,P|392:64|426:68,2,60
304,146,89887,2,0,P|349:204|332:280,1,120
437,280,90187,6,0,P|464:249|470:229,2,60
359,335,90487,2,0,P|285:343|237:333,1,120
169,286,90787,2,0,P|201:255|212:233,2,60
91,238,91087,2,0,P|59:207|48:185,2,60
135,158,91387,6,0,P|134:129|154:100,2,60
235,155,91687,2,0,P|290:120|350:112,1,120
436,147,91987,2,0,P|457:180|490:210,2,60
353,192,92287,2,0,P|311:243|302:307,1,120
226,334,92587,6,0,P|187:320|152:320,2,60
233,244,92887,2,0,P|215:181|174:138,1,120
106,79,93187,5,0,0:0:0:0:
106,79,93287,1,0,0:0:0:0:
106,79,93387,1,0,0:0:0:0:
106,79,93487,2,0,P|78:112|72:145,2,60
193,68,93787,6,0,P|221:35|227:2,2,60
214,149,94087,2,0,P|277:191|333:178,1,120
404,160,94387,2,0,P|427:188|448:233,2,60
318,186,94687,2,0,P|337:248|314:301,1,120
228,339,94987,6,0,P|256:365|289:369,2,60
137,335,95287,2,0,P|151:263|130:194,1,120
79,160,95587,2,0,P|65:120|72:80,2,60
160,107,95887,2,0,P|146:67|153:27,2,60
253,121,96187,6,0,P|278:123|314:106,2,60
188,187,96487,2,0,P|222:258|282:293,1,120
349,279,96787,2,0,L|414:270,2,60
425,184,97087,2,0,L|345:171,2,60
387,84,97387,6,0,B|320:45|320:45|242:46,2,150
251,176,97987,6,0,B|209:168|209:168|183:138,2,75
296,246,98287,6,0,L|266:268,4,37.5
377,284,98587,5,0,0:0:0:0:
451,184,98787,1,0,0:0:0:0:
445,154,98887,2,0,B|408:106|408:106|345:95,1,120
319,91,99187,2,0,P|287:111|268:151,2,60
346,162,99487,2,0,P|378:182|397:222,2,60
308,230,99787,5,0,0:0:0:0:
210,314,99987,1,0,0:0:0:0:
189,292,100087,2,0,B|110:268|110:268|145:209,1,120
142,209,100387,1,0,0:0:0:0:
155,182,100487,1,0,0:0:0:0:
169,155,100587,1,0,0:0:0:0:
183,128,100687,2,0,P|182:96|162:62,2,60
268,118,100987,5,0,0:0:0:0:
435,147,101187,1,0,0:0:0:0:
426,175,101287,2,0,B|388:235|388:235|340:266,1,120
318,271,101587,2,0,L|277:330,2,60
244,260,101887,2,0,L|285:201,2,60
167,265,102187,5,0,0:0:0:0:
29,202,102387,1,0,0:0:0:0:
44,176,102487,2,0,B|72:122|72:122|133:128,1,120
201,109,102787,6,0,P|230:77|261:68,2,60
306,127,103087,2,0,P|335:159|366:168,2,60
238,190,103387,5,0,0:0:0:0:
350,306,103587,1,0,0:0:0:0:
373,287,103687,2,0,B|422:231|422:231|439:175,1,120
433,157,103987,2,0,P|415:112|381:91,2,60
363,170,104287,2,0,P|330:163|301:175,2,60
371,248,104587,5,0,0:0:0:0:
212,317,104787,1,0,0:0:0:0:
189,296,104887,2,0,B|162:273|162:273|134:221,1,60
143,222,105087,1,0,0:0:0:0:
141,192,105187,2,0,L|148:121,2,60
229,95,105487,2,0,L|236:166,2,60
320,129,105787,6,0,P|356:115|389:154,1,90
426,236,106387,2,0,P|390:250|357:211,1,90
319,129,106987,2,0,L|284:91,3,33.7500012874604
244,155,107287,2,0,L|276:188,3,33.7500012874604
214,224,107587,6,0,P|175:254|130:257,1,90
226,324,107887,6,0,B|254:333|254:333|270:302|307:311|307:311|285:273|299:242|299:242|348:269|403:268,1,270
453,268,108187,5,0,0:0:0:0:
486,138,108337,1,0,0:0:0:0:
330,66,108487,2,0,P|254:74|195:102,1,135.000005149842
136,230,108787,2,0,P|212:222|271:194,1,135.000005149842
374,121,109087,1,0,0:0:0:0:
462,237,109237,1,0,0:0:0:0:
379,307,109387,5,0,0:0:0:0:
379,307,109462,1,0,0:0:0:0:
379,307,109537,1,0,0:0:0:0:
256,292,109687,2,0,P|183:277|133:230,1,135.000005149842
86,110,109987,2,0,P|78:79|97:45,3,67.5000025749208
161,95,110287,2,0,P|169:126|150:160,3,67.5000025749208
137,173,110587,5,0,0:0:0:0:
80,294,110737,1,0,0:0:0:0:
241,269,110887,2,0,P|315:266|399:290,1,135.000005149842
480,197,111187,2,0,P|406:194|322:218,1,135.000005149842
241,269,111487,1,0,0:0:0:0:
120,171,111637,1,0,0:0:0:0:
211,81,111787,5,0,0:0:0:0:
211,81,111862,1,0,0:0:0:0:
211,81,111937,1,0,0:0:0:0:
352,77,112087,2,0,P|407:121|419:202,1,135.000005149842
378,309,112387,2,0,P|406:335|451:336,3,67.5000025749208
323,241,112687,2,0,P|297:269|296:314,3,67.5000025749208
339,235,112987,5,0,0:0:0:0:
466,157,113137,1,0,0:0:0:0:
301,89,113287,2,0,P|226:81|177:127,1,135.000005149842
304,229,113587,2,0,P|235:259|215:323,1,135.000005149842
107,348,113887,1,0,0:0:0:0:
80,193,114037,1,0,0:0:0:0:
228,122,114187,5,0,0:0:0:0:
379,175,114337,2,0,P|377:208|343:220,1,67.5000025749208
277,251,114487,2,0,P|218:290|146:275,1,135.000005149842
70,177,114787,2,0,P|59:144|75:114,3,67.5000025749208
161,133,115087,1,0,0:0:0:0:
174,132,115162,1,0,0:0:0:0:
187,131,115237,1,0,0:0:0:0:
200,130,115312,1,0,0:0:0:0:
212,128,115387,6,0,P|280:131|350:172,1,135.000005149842
347,171,115612,1,0,0:0:0:0:
352,183,115687,2,0,P|337:261|301:314,1,135.000005149842
133,275,115987,2,0,B|86:222|86:222|93:149,1,135.000005149842
106,26,116287,2,0,B|153:79|153:79|146:152,1,135.000005149842
253,231,116587,5,0,0:0:0:0:
370,184,116737,1,0,0:0:0:0:
370,184,116812,1,0,0:0:0:0:
370,184,116887,1,0,0:0:0:0:
252,106,117037,1,0,0:0:0:0:
390,46,117187,2,0,P|417:59|443:95,3,67.5000025749208
359,133,117487,1,0,0:0:0:0:
361,166,117562,1,0,0:0:0:0:
357,199,117637,1,0,0:0:0:0:
347,231,117712,1,0,0:0:0:0:
329,260,117787,6,0,P|262:283|186:270,1,135.000005149842
61,212,118087,1,0,0:0:0:0:
167,125,118237,1,0,0:0:0:0:
292,74,118387,2,0,P|348:115|390:203,1,135.000005149842
292,266,118687,2,0,P|348:225|390:137,1,135.000005149842
390,33,118987,5,0,0:0:0:0:
256,78,119137,1,0,0:0:0:0:
256,78,119212,1,0,0:0:0:0:
256,78,119287,2,0,P|190:113|147:173,1,135.000005149842
112,296,119587,2,0,P|90:327|51:335,3,67.5000025749208
186,315,119887,2,0,P|208:284|247:276,3,67.5000025749208
259,345,120187,6,0,P|322:317|342:254,1,135.000005149842
339,128,120487,1,0,0:0:0:0:
339,128,120637,1,0,0:0:0:0:
183,45,120787,2,0,P|119:91|87:160,1,135.000005149842
258,130,121087,2,0,P|322:84|354:15,1,135.000005149842
454,124,121387,5,0,0:0:0:0:
396,227,121537,1,0,0:0:0:0:
396,227,121612,1,0,0:0:0:0:
396,227,121687,2,0,P|340:281|268:280,1,135.000005149842
138,233,121987,2,0,P|105:216|93:188,3,67.5000025749208
166,156,122287,1,0,0:0:0:0:
195,139,122362,1,0,0:0:0:0:
224,122,122437,1,0,0:0:0:0:
253,105,122512,1,0,0:0:0:0:
282,88,122587,6,0,L|420:88,1,135.000005149842
231,198,122887,2,0,L|369:198,1,135.000005149842
180,308,123187,2,0,L|318:308,1,135.000005149842
281,198,123487,2,0,L|143:198,1,135.000005149842
35,115,123787,5,0,0:0:0:0:
177,66,123937,2,0,P|206:95|210:135,1,67.5000025749208
134,142,124087,2,0,P|123:217|155:305,1,135.000005149842
289,324,124387,2,0,P|308:289|306:257,3,67.5000025749208
234,256,124687,1,0,0:0:0:0:
236,242,124762,1,0,0:0:0:0:
238,228,124837,1,0,0:0:0:0:
240,214,124912,1,0,0:0:0:0:
241,199,124987,6,0,P|302:149|426:163,1,202.500007724762
444,173,125437,1,0,0:0:0:0:
406,297,125587,1,0,0:0:0:0:
268,298,125737,1,0,0:0:0:0:
126,345,125887,2,0,P|88:330|72:305,3,67.5000025749208
134,249,126187,6,0,L|126:175,3,67.5000025749208
187,200,126487,6,0,L|179:274,3,67.5000025749208
240,249,126787,5,0,0:0:0:0:
253,249,126862,1,0,0:0:0:0:
266,247,126937,1,0,0:0:0:0:
279,244,127012,1,0,0:0:0:0:
291,240,127087,5,0,0:0:0:0:
303,234,127162,1,0,0:0:0:0:
314,227,127237,1,0,0:0:0:0:
324,218,127312,1,0,0:0:0:0:
330,209,127387,6,0,B|305:166|343:44|343:44|287:86|268:136|268:136|239:90|243:49|243:49|211:93|207:135|207:135|170:112|133:116|133:116|168:188|160:240|132:295,1,720
