osu file format v14

[General]
AudioFilename: audio.mp3
AudioLeadIn: 0
PreviewTime: 50587
Countdown: 0
SampleSet: Normal
StackLeniency: 0.3
Mode: 1
LetterboxInBreaks: 0
WidescreenStoryboard: 1

[Editor]
Bookmarks: 12187,21787,31387,50587,69787,79387,88987,108187,128587
DistanceSpacing: 1
BeatDivisor: 4
GridSize: 4
TimelineZoom: 1.8

[Metadata]
Title:Sigmund
TitleUnicode:Sigmund
Artist:Gram
ArtistUnicode:Gram
Creator:Geminous
Version:Inner Oni
Source:
Tags:hardcore break dark dramatic beatmania iidx
BeatmapID:1426227
BeatmapSetID:673988

[Difficulty]
HPDrainRate:5
CircleSize:4
OverallDifficulty:7
ApproachRate:9
SliderMultiplier:1.5
SliderTickRate:1

[Events]
//Background and Video events
0,0,"dark_mist_by_jjcanvas-d73j1wa.jpg",0,0
//Break Periods
//Storyboard Layer 0 (Background)
//Storyboard Layer 1 (Fail)
//Storyboard Layer 2 (Pass)
//Storyboard Layer 3 (Foreground)
//Storyboard Sound Samples

[TimingPoints]
12187,600,4,1,0,100,1,0
21787,-100,4,1,0,100,0,0
30187,-100,4,1,0,100,0,0
31087,-100,4,1,0,100,0,0
31387,300,4,1,0,100,1,0
31387,-100,4,1,0,100,0,0
39787,-100,4,1,0,100,0,0
40987,-100,4,1,0,100,0,0
44887,-100,4,1,0,100,0,0
45787,-100,4,1,0,100,0,0
50587,-100,4,1,0,100,0,0
57787,-100,4,1,0,100,0,0
60187,-100,4,1,0,100,0,0
67387,-100,4,1,0,100,0,0
69787,-100,4,1,0,100,0,0
76987,-100,4,1,0,100,0,0
79387,-100,4,1,0,100,0,0
87787,-100,4,1,0,100,0,0
88987,-100,4,1,0,100,0,0
97387,-100,4,1,0,100,0,0
98587,-100,4,1,0,100,0,0
105787,-100,4,1,0,100,0,0
106987,-100,4,1,0,100,0,0
107587,-100,4,1,0,100,0,0
107887,-100,4,1,0,100,0,0
108187,-100,4,1,0,100,0,1
127387,-100,4,1,0,100,0,1
128587,-100,4,1,0,100,0,0

[Colours]
Combo1 : 45,150,255
Combo2 : 128,128,128
Combo3 : 174,174,174
Combo4 : 0,99,198

[HitObjects]
256,192,12187,5,12,0:0:0:0:
256,192,12787,1,0,0:0:0:0:
256,192,13387,1,0,0:0:0:0:
256,192,13987,1,0,0:0:0:0:
256,192,14287,1,0,0:0:0:0:
256,192,14587,1,0,0:0:0:0:
256,192,15187,1,0,0:0:0:0:
256,192,15787,1,0,0:0:0:0:
256,192,16087,1,0,0:0:0:0:
256,192,16387,1,0,0:0:0:0:
256,192,16687,1,0,0:0:0:0:
256,192,16837,1,0,0:0:0:0:
256,192,16987,1,4,0:0:0:0:
256,192,17587,1,0,0:0:0:0:
256,192,18187,1,0,0:0:0:0:
256,192,18787,1,0,0:0:0:0:
256,192,19087,1,0,0:0:0:0:
256,192,19387,1,0,0:0:0:0:
256,192,19987,1,0,0:0:0:0:
256,192,20587,1,0,0:0:0:0:
256,192,20887,1,0,0:0:0:0:
256,192,21187,1,8,0:0:0:0:
256,192,21337,1,0,0:0:0:0:
256,192,21487,1,0,0:0:0:0:
256,192,21787,1,12,0:0:0:0:
256,192,22087,1,0,0:0:0:0:
256,192,22387,1,8,0:0:0:0:
256,192,22837,1,8,0:0:0:0:
256,192,22987,1,0,0:0:0:0:
256,192,23287,1,0,0:0:0:0:
256,192,23587,1,8,0:0:0:0:
256,192,23737,1,0,0:0:0:0:
256,192,23887,1,0,0:0:0:0:
256,192,24187,1,8,0:0:0:0:
256,192,24487,1,0,0:0:0:0:
256,192,24787,1,8,0:0:0:0:
256,192,25237,1,8,0:0:0:0:
256,192,25387,1,0,0:0:0:0:
256,192,25687,1,0,0:0:0:0:
256,192,25987,1,8,0:0:0:0:
256,192,26137,1,0,0:0:0:0:
256,192,26287,1,0,0:0:0:0:
256,192,26587,1,8,0:0:0:0:
256,192,26887,1,0,0:0:0:0:
256,192,27187,1,8,0:0:0:0:
256,192,27637,1,8,0:0:0:0:
256,192,27787,1,0,0:0:0:0:
256,192,28087,1,0,0:0:0:0:
256,192,28387,1,8,0:0:0:0:
256,192,28537,1,0,0:0:0:0:
256,192,28687,1,0,0:0:0:0:
256,192,28987,1,8,0:0:0:0:
256,192,29287,1,0,0:0:0:0:
256,192,29587,1,8,0:0:0:0:
256,192,29737,1,0,0:0:0:0:
256,192,29887,1,0,0:0:0:0:
256,192,29962,1,0,0:0:0:0:
256,192,30037,1,0,0:0:0:0:
256,192,30112,1,0,0:0:0:0:
256,192,30187,1,8,0:0:0:0:
256,192,31387,1,8,0:0:0:0:
256,192,31462,1,0,0:0:0:0:
256,192,31537,1,0,0:0:0:0:
256,192,31612,1,0,0:0:0:0:
256,192,31687,1,8,0:0:0:0:
256,192,31837,1,0,0:0:0:0:
256,192,31987,1,0,0:0:0:0:
256,192,32062,1,8,0:0:0:0:
256,192,32137,1,8,0:0:0:0:
256,192,32287,1,0,0:0:0:0:
256,192,32362,1,0,0:0:0:0:
256,192,32437,1,0,0:0:0:0:
256,192,32587,1,8,0:0:0:0:
256,192,32662,1,0,0:0:0:0:
256,192,32737,1,0,0:0:0:0:
256,192,32812,1,0,0:0:0:0:
256,192,32887,1,8,0:0:0:0:
256,192,33037,1,0,0:0:0:0:
256,192,33187,1,0,0:0:0:0:
256,192,33262,1,8,0:0:0:0:
256,192,33337,1,8,0:0:0:0:
256,192,33487,1,0,0:0:0:0:
256,192,33562,1,0,0:0:0:0:
256,192,33637,1,0,0:0:0:0:
256,192,33787,1,8,0:0:0:0:
256,192,33862,1,0,0:0:0:0:
256,192,33937,1,0,0:0:0:0:
256,192,34012,1,0,0:0:0:0:
256,192,34087,1,8,0:0:0:0:
256,192,34237,1,0,0:0:0:0:
256,192,34387,1,0,0:0:0:0:
256,192,34462,1,8,0:0:0:0:
256,192,34537,1,8,0:0:0:0:
256,192,34687,1,0,0:0:0:0:
256,192,34762,1,0,0:0:0:0:
256,192,34837,1,0,0:0:0:0:
256,192,34987,1,8,0:0:0:0:
256,192,35062,1,0,0:0:0:0:
256,192,35137,1,0,0:0:0:0:
256,192,35212,1,0,0:0:0:0:
256,192,35287,1,8,0:0:0:0:
256,192,35437,1,0,0:0:0:0:
256,192,35587,1,0,0:0:0:0:
256,192,35662,1,8,0:0:0:0:
256,192,35737,1,8,0:0:0:0:
256,192,35887,1,0,0:0:0:0:
256,192,35962,1,0,0:0:0:0:
256,192,36037,1,0,0:0:0:0:
256,192,36187,1,12,0:0:0:0:
256,192,36337,1,0,0:0:0:0:
256,192,36412,1,0,0:0:0:0:
256,192,36487,1,8,0:0:0:0:
256,192,36637,1,0,0:0:0:0:
256,192,36787,1,0,0:0:0:0:
256,192,36862,1,8,0:0:0:0:
256,192,36937,1,8,0:0:0:0:
256,192,37087,1,0,0:0:0:0:
256,192,37162,1,0,0:0:0:0:
256,192,37237,1,0,0:0:0:0:
256,192,37387,1,8,0:0:0:0:
256,192,37462,1,0,0:0:0:0:
256,192,37537,1,0,0:0:0:0:
256,192,37612,1,0,0:0:0:0:
256,192,37687,1,8,0:0:0:0:
256,192,37837,1,0,0:0:0:0:
256,192,37987,1,0,0:0:0:0:
256,192,38062,1,8,0:0:0:0:
256,192,38137,1,8,0:0:0:0:
256,192,38287,1,0,0:0:0:0:
256,192,38362,1,0,0:0:0:0:
256,192,38437,1,0,0:0:0:0:
256,192,38587,1,8,0:0:0:0:
256,192,38662,1,0,0:0:0:0:
256,192,38737,1,0,0:0:0:0:
256,192,38812,1,0,0:0:0:0:
256,192,38887,1,8,0:0:0:0:
256,192,39037,1,0,0:0:0:0:
256,192,39187,1,0,0:0:0:0:
256,192,39262,1,8,0:0:0:0:
256,192,39337,1,8,0:0:0:0:
256,192,39487,1,0,0:0:0:0:
256,192,39562,1,0,0:0:0:0:
256,192,39637,1,0,0:0:0:0:
256,192,39787,1,8,0:0:0:0:
256,192,40012,1,8,0:0:0:0:
256,192,40237,1,8,0:0:0:0:
256,192,40387,1,8,0:0:0:0:
256,192,40537,1,0,0:0:0:0:
256,192,40687,1,8,0:0:0:0:
256,192,40762,1,8,0:0:0:0:
256,192,40837,1,8,0:0:0:0:
256,192,40912,1,8,0:0:0:0:
256,192,40987,1,8,0:0:0:0:
256,192,41062,1,0,0:0:0:0:
256,192,41137,1,0,0:0:0:0:
256,192,41212,1,0,0:0:0:0:
256,192,41287,1,8,0:0:0:0:
256,192,41362,1,0,0:0:0:0:
256,192,41437,1,0,0:0:0:0:
256,192,41587,1,0,0:0:0:0:
256,192,41662,1,0,0:0:0:0:
256,192,41737,1,8,0:0:0:0:
256,192,41812,1,0,0:0:0:0:
256,192,41887,1,0,0:0:0:0:
256,192,42037,1,0,0:0:0:0:
256,192,42112,1,0,0:0:0:0:
256,192,42187,1,8,0:0:0:0:
256,192,42262,1,0,0:0:0:0:
256,192,42337,1,0,0:0:0:0:
256,192,42412,1,0,0:0:0:0:
256,192,42487,1,8,0:0:0:0:
256,192,42562,1,0,0:0:0:0:
256,192,42637,1,0,0:0:0:0:
256,192,42787,1,0,0:0:0:0:
256,192,42862,1,0,0:0:0:0:
256,192,42937,1,8,0:0:0:0:
256,192,43012,1,0,0:0:0:0:
256,192,43087,1,0,0:0:0:0:
256,192,43237,1,0,0:0:0:0:
256,192,43312,1,0,0:0:0:0:
256,192,43387,1,8,0:0:0:0:
256,192,43462,1,0,0:0:0:0:
256,192,43537,1,0,0:0:0:0:
256,192,43612,1,0,0:0:0:0:
256,192,43687,1,8,0:0:0:0:
256,192,43762,1,0,0:0:0:0:
256,192,43837,1,0,0:0:0:0:
256,192,43987,1,0,0:0:0:0:
256,192,44062,1,0,0:0:0:0:
256,192,44137,1,8,0:0:0:0:
256,192,44212,1,0,0:0:0:0:
256,192,44287,1,0,0:0:0:0:
256,192,44437,1,0,0:0:0:0:
256,192,44512,1,0,0:0:0:0:
256,192,44587,1,8,0:0:0:0:
256,192,44624,1,8,0:0:0:0:
256,192,44662,1,8,0:0:0:0:
256,192,44699,1,8,0:0:0:0:
256,192,44737,1,8,0:0:0:0:
256,192,44887,1,12,0:0:0:0:
256,192,44962,1,0,0:0:0:0:
256,192,45037,1,0,0:0:0:0:
256,192,45187,1,0,0:0:0:0:
256,192,45262,1,0,0:0:0:0:
256,192,45337,1,0,0:0:0:0:
256,192,45412,1,0,0:0:0:0:
256,192,45487,1,8,0:0:0:0:
256,192,45562,1,8,0:0:0:0:
256,192,45637,1,8,0:0:0:0:
256,192,45712,1,8,0:0:0:0:
256,192,45787,1,8,0:0:0:0:
256,192,45862,1,0,0:0:0:0:
256,192,45937,1,0,0:0:0:0:
256,192,46012,1,0,0:0:0:0:
256,192,46087,1,8,0:0:0:0:
256,192,46162,1,0,0:0:0:0:
256,192,46237,1,0,0:0:0:0:
256,192,46387,1,0,0:0:0:0:
256,192,46462,1,0,0:0:0:0:
256,192,46537,1,8,0:0:0:0:
256,192,46612,1,0,0:0:0:0:
256,192,46687,1,0,0:0:0:0:
256,192,46837,1,0,0:0:0:0:
256,192,46912,1,0,0:0:0:0:
256,192,46987,1,8,0:0:0:0:
256,192,47062,1,0,0:0:0:0:
256,192,47137,1,0,0:0:0:0:
256,192,47212,1,0,0:0:0:0:
256,192,47287,1,8,0:0:0:0:
256,192,47362,1,0,0:0:0:0:
256,192,47437,1,0,0:0:0:0:
256,192,47587,1,0,0:0:0:0:
256,192,47662,1,0,0:0:0:0:
256,192,47737,1,8,0:0:0:0:
256,192,47812,1,0,0:0:0:0:
256,192,47887,1,0,0:0:0:0:
256,192,48037,1,0,0:0:0:0:
256,192,48112,1,0,0:0:0:0:
256,192,48187,1,8,0:0:0:0:
256,192,48412,1,8,0:0:0:0:
256,192,48637,1,8,0:0:0:0:
256,192,48787,1,8,0:0:0:0:
256,192,48937,1,8,0:0:0:0:
256,192,49087,1,8,0:0:0:0:
256,192,49162,1,8,0:0:0:0:
256,192,49237,1,8,0:0:0:0:
256,192,49312,1,8,0:0:0:0:
256,192,49387,1,8,0:0:0:0:
256,192,50587,1,4,0:0:0:0:
256,192,50887,1,8,0:0:0:0:
256,192,51037,1,8,0:0:0:0:
256,192,51112,1,8,0:0:0:0:
256,192,51187,1,0,0:0:0:0:
256,192,51337,1,0,0:0:0:0:
256,192,51487,1,8,0:0:0:0:
256,192,51637,1,8,0:0:0:0:
256,192,51712,1,8,0:0:0:0:
256,192,51787,1,0,0:0:0:0:
256,192,51937,1,0,0:0:0:0:
256,192,52087,1,8,0:0:0:0:
256,192,52237,1,8,0:0:0:0:
256,192,52312,1,8,0:0:0:0:
256,192,52387,1,0,0:0:0:0:
256,192,52537,1,0,0:0:0:0:
256,192,52687,1,8,0:0:0:0:
256,192,52837,1,8,0:0:0:0:
256,192,52912,1,8,0:0:0:0:
256,192,52987,1,0,0:0:0:0:
256,192,53137,1,0,0:0:0:0:
256,192,53287,1,8,0:0:0:0:
256,192,53437,1,8,0:0:0:0:
256,192,53512,1,8,0:0:0:0:
256,192,53587,1,0,0:0:0:0:
256,192,53737,1,0,0:0:0:0:
256,192,53887,1,8,0:0:0:0:
256,192,54037,1,8,0:0:0:0:
256,192,54112,1,8,0:0:0:0:
256,192,54187,1,0,0:0:0:0:
256,192,54337,1,0,0:0:0:0:
256,192,54487,1,8,0:0:0:0:
256,192,54637,1,8,0:0:0:0:
256,192,54712,1,8,0:0:0:0:
256,192,54787,1,0,0:0:0:0:
256,192,54937,1,0,0:0:0:0:
256,192,55087,1,8,0:0:0:0:
256,192,55162,1,8,0:0:0:0:
256,192,55237,1,8,0:0:0:0:
256,192,55312,1,8,0:0:0:0:
256,192,55387,1,4,0:0:0:0:
256,192,55537,1,0,0:0:0:0:
256,192,55687,1,8,0:0:0:0:
256,192,55837,1,8,0:0:0:0:
256,192,55912,1,8,0:0:0:0:
256,192,55987,1,0,0:0:0:0:
256,192,56137,1,0,0:0:0:0:
256,192,56287,1,8,0:0:0:0:
256,192,56437,1,8,0:0:0:0:
256,192,56512,1,8,0:0:0:0:
256,192,56587,1,0,0:0:0:0:
256,192,56737,1,0,0:0:0:0:
256,192,56887,1,8,0:0:0:0:
256,192,57037,1,8,0:0:0:0:
256,192,57112,1,8,0:0:0:0:
256,192,57187,1,0,0:0:0:0:
256,192,57337,1,0,0:0:0:0:
256,192,57487,1,8,0:0:0:0:
256,192,57637,1,8,0:0:0:0:
256,192,57712,1,8,0:0:0:0:
256,192,57787,1,0,0:0:0:0:
256,192,57937,1,0,0:0:0:0:
256,192,58087,1,8,0:0:0:0:
256,192,58237,1,0,0:0:0:0:
256,192,58387,1,0,0:0:0:0:
256,192,58537,1,0,0:0:0:0:
256,192,58687,1,8,0:0:0:0:
256,192,58837,1,0,0:0:0:0:
256,192,58987,1,4,0:0:0:0:
256,192,59287,1,8,0:0:0:0:
256,192,59587,1,0,0:0:0:0:
256,192,59737,1,8,0:0:0:0:
256,192,59774,1,8,0:0:0:0:
256,192,59812,1,8,0:0:0:0:
256,192,59849,1,8,0:0:0:0:
256,192,59887,1,8,0:0:0:0:
256,192,59962,1,0,0:0:0:0:
256,192,60037,1,0,0:0:0:0:
256,192,60112,1,0,0:0:0:0:
256,192,60187,1,4,0:0:0:0:
256,192,60487,1,8,0:0:0:0:
256,192,60637,1,8,0:0:0:0:
256,192,60712,1,8,0:0:0:0:
256,192,60787,1,0,0:0:0:0:
256,192,60937,1,0,0:0:0:0:
256,192,61087,1,8,0:0:0:0:
256,192,61237,1,8,0:0:0:0:
256,192,61312,1,8,0:0:0:0:
256,192,61387,1,0,0:0:0:0:
256,192,61537,1,0,0:0:0:0:
256,192,61687,1,8,0:0:0:0:
256,192,61837,1,8,0:0:0:0:
256,192,61912,1,8,0:0:0:0:
256,192,61987,1,0,0:0:0:0:
256,192,62137,1,0,0:0:0:0:
256,192,62287,1,8,0:0:0:0:
256,192,62437,1,8,0:0:0:0:
256,192,62512,1,8,0:0:0:0:
256,192,62587,1,0,0:0:0:0:
256,192,62737,1,0,0:0:0:0:
256,192,62887,1,8,0:0:0:0:
256,192,63037,1,8,0:0:0:0:
256,192,63112,1,8,0:0:0:0:
256,192,63187,1,0,0:0:0:0:
256,192,63337,1,0,0:0:0:0:
256,192,63487,1,8,0:0:0:0:
256,192,63637,1,8,0:0:0:0:
256,192,63712,1,8,0:0:0:0:
256,192,63787,1,0,0:0:0:0:
256,192,63937,1,0,0:0:0:0:
256,192,64087,1,8,0:0:0:0:
256,192,64237,1,8,0:0:0:0:
256,192,64312,1,8,0:0:0:0:
256,192,64387,1,0,0:0:0:0:
256,192,64537,1,0,0:0:0:0:
256,192,64687,1,8,0:0:0:0:
256,192,64762,1,8,0:0:0:0:
256,192,64837,1,8,0:0:0:0:
256,192,64912,1,8,0:0:0:0:
256,192,64987,1,4,0:0:0:0:
256,192,65137,1,0,0:0:0:0:
256,192,65287,1,8,0:0:0:0:
256,192,65437,1,8,0:0:0:0:
256,192,65512,1,8,0:0:0:0:
256,192,65587,1,0,0:0:0:0:
256,192,65737,1,0,0:0:0:0:
256,192,65887,1,8,0:0:0:0:
256,192,66037,1,8,0:0:0:0:
256,192,66112,1,8,0:0:0:0:
256,192,66187,1,0,0:0:0:0:
256,192,66337,1,0,0:0:0:0:
256,192,66487,1,8,0:0:0:0:
256,192,66637,1,8,0:0:0:0:
256,192,66712,1,8,0:0:0:0:
256,192,66787,1,0,0:0:0:0:
256,192,66937,1,0,0:0:0:0:
256,192,67087,1,8,0:0:0:0:
256,192,67237,1,8,0:0:0:0:
256,192,67312,1,8,0:0:0:0:
256,192,67387,1,0,0:0:0:0:
256,192,67537,1,0,0:0:0:0:
256,192,67687,1,8,0:0:0:0:
256,192,67837,1,0,0:0:0:0:
256,192,67987,1,0,0:0:0:0:
256,192,68137,1,0,0:0:0:0:
256,192,68287,1,8,0:0:0:0:
256,192,68362,1,0,0:0:0:0:
256,192,68437,1,0,0:0:0:0:
256,192,68512,1,0,0:0:0:0:
256,192,68587,1,8,0:0:0:0:
256,192,69787,1,8,0:0:0:0:
256,192,70087,1,0,0:0:0:0:
256,192,70387,1,8,0:0:0:0:
256,192,70837,1,8,0:0:0:0:
256,192,70987,1,0,0:0:0:0:
256,192,71287,1,0,0:0:0:0:
256,192,71587,1,8,0:0:0:0:
256,192,71737,1,0,0:0:0:0:
256,192,71887,1,0,0:0:0:0:
256,192,72187,1,8,0:0:0:0:
256,192,72487,1,0,0:0:0:0:
256,192,72787,1,8,0:0:0:0:
256,192,73237,1,8,0:0:0:0:
256,192,73387,1,0,0:0:0:0:
256,192,73687,1,0,0:0:0:0:
256,192,73987,1,8,0:0:0:0:
256,192,74137,1,0,0:0:0:0:
256,192,74287,1,0,0:0:0:0:
256,192,74587,1,8,0:0:0:0:
256,192,74887,1,0,0:0:0:0:
256,192,75187,1,8,0:0:0:0:
256,192,75637,1,8,0:0:0:0:
256,192,75787,1,0,0:0:0:0:
256,192,76087,1,0,0:0:0:0:
256,192,76387,1,8,0:0:0:0:
256,192,76537,1,0,0:0:0:0:
256,192,76687,1,0,0:0:0:0:
256,192,76987,1,0,0:0:0:0:
256,192,77287,1,0,0:0:0:0:
256,192,77437,1,0,0:0:0:0:
256,192,77587,1,8,0:0:0:0:
256,192,77737,1,0,0:0:0:0:
256,192,77887,1,0,0:0:0:0:
256,192,78037,1,0,0:0:0:0:
256,192,78187,1,0,0:0:0:0:
256,192,78262,1,0,0:0:0:0:
256,192,78337,1,0,0:0:0:0:
256,192,78412,1,0,0:0:0:0:
256,192,78487,1,2,0:0:0:0:
256,192,78562,1,2,0:0:0:0:
256,192,78637,1,2,0:0:0:0:
256,192,78712,1,2,0:0:0:0:
256,192,78787,1,2,0:0:0:0:
256,192,78862,1,2,0:0:0:0:
256,192,78937,1,2,0:0:0:0:
256,192,79012,1,2,0:0:0:0:
256,192,79087,1,2,0:0:0:0:
256,192,79387,1,0,0:0:0:0:
256,192,79587,1,0,0:0:0:0:
256,192,79687,1,0,0:0:0:0:
256,192,79887,1,0,0:0:0:0:
256,192,79987,1,0,0:0:0:0:
256,192,80087,1,0,0:0:0:0:
256,192,80187,1,0,0:0:0:0:
256,192,80287,1,0,0:0:0:0:
256,192,80387,1,0,0:0:0:0:
256,192,80487,1,0,0:0:0:0:
256,192,80587,1,0,0:0:0:0:
256,192,80787,1,0,0:0:0:0:
256,192,80887,1,0,0:0:0:0:
256,192,81087,1,0,0:0:0:0:
256,192,81187,1,0,0:0:0:0:
256,192,81287,1,0,0:0:0:0:
256,192,81387,1,0,0:0:0:0:
256,192,81487,1,0,0:0:0:0:
256,192,81537,1,0,0:0:0:0:
256,192,81587,1,0,0:0:0:0:
256,192,81637,1,0,0:0:0:0:
256,192,81687,1,0,0:0:0:0:
256,192,81737,1,0,0:0:0:0:
256,192,81787,1,0,0:0:0:0:
256,192,81987,1,0,0:0:0:0:
256,192,82087,1,0,0:0:0:0:
256,192,82287,1,0,0:0:0:0:
256,192,82387,1,0,0:0:0:0:
256,192,82487,1,0,0:0:0:0:
256,192,82587,1,0,0:0:0:0:
256,192,82687,1,0,0:0:0:0:
256,192,82787,1,0,0:0:0:0:
256,192,82887,1,0,0:0:0:0:
256,192,82987,1,0,0:0:0:0:
256,192,83187,1,0,0:0:0:0:
256,192,83287,1,0,0:0:0:0:
256,192,83487,1,0,0:0:0:0:
256,192,83587,1,0,0:0:0:0:
256,192,83687,1,0,0:0:0:0:
256,192,83787,1,0,0:0:0:0:
256,192,83887,1,0,0:0:0:0:
256,192,83937,1,0,0:0:0:0:
256,192,83987,1,0,0:0:0:0:
256,192,84037,1,0,0:0:0:0:
256,192,84087,1,0,0:0:0:0:
256,192,84137,1,0,0:0:0:0:
256,192,84187,1,0,0:0:0:0:
256,192,84287,1,0,0:0:0:0:
256,192,84387,1,0,0:0:0:0:
256,192,84487,1,0,0:0:0:0:
256,192,84537,1,0,0:0:0:0:
256,192,84587,1,0,0:0:0:0:
256,192,84637,1,0,0:0:0:0:
256,192,84687,1,0,0:0:0:0:
256,192,84737,1,0,0:0:0:0:
256,192,84787,1,0,0:0:0:0:
256,192,84887,1,0,0:0:0:0:
256,192,84987,1,0,0:0:0:0:
256,192,85087,1,0,0:0:0:0:
256,192,85137,1,0,0:0:0:0:
256,192,85187,1,0,0:0:0:0:
256,192,85237,1,0,0:0:0:0:
256,192,85287,1,0,0:0:0:0:
256,192,85337,1,0,0:0:0:0:
256,192,85387,1,0,0:0:0:0:
256,192,85487,1,0,0:0:0:0:
256,192,85587,1,0,0:0:0:0:
256,192,85687,1,0,0:0:0:0:
256,192,85737,1,0,0:0:0:0:
256,192,85787,1,0,0:0:0:0:
256,192,85837,1,0,0:0:0:0:
256,192,85887,1,0,0:0:0:0:
256,192,85937,1,0,0:0:0:0:
256,192,85987,1,0,0:0:0:0:
256,192,86087,1,0,0:0:0:0:
256,192,86187,1,0,0:0:0:0:
256,192,86287,1,0,0:0:0:0:
256,192,86337,1,0,0:0:0:0:
256,192,86387,1,0,0:0:0:0:
256,192,86437,1,0,0:0:0:0:
256,192,86487,1,0,0:0:0:0:
256,192,86537,1,0,0:0:0:0:
256,192,86587,1,0,0:0:0:0:
256,192,86687,1,0,0:0:0:0:
256,192,86787,1,0,0:0:0:0:
256,192,86887,1,0,0:0:0:0:
256,192,86987,1,0,0:0:0:0:
256,192,87087,1,0,0:0:0:0:
256,192,87187,1,0,0:0:0:0:
256,192,87287,1,0,0:0:0:0:
256,192,87387,1,0,0:0:0:0:
256,192,87487,1,0,0:0:0:0:
256,192,87587,1,0,0:0:0:0:
256,192,87687,1,0,0:0:0:0:
256,192,87787,1,0,0:0:0:0:
256,192,88987,1,0,0:0:0:0:
256,192,89087,1,0,0:0:0:0:
256,192,89187,1,0,0:0:0:0:
256,192,89287,1,2,0:0:0:0:
256,192,89487,1,8,0:0:0:0:
256,192,89587,1,0,0:0:0:0:
256,192,89687,1,0,0:0:0:0:
256,192,89787,1,0,0:0:0:0:
256,192,89887,1,2,0:0:0:0:
256,192,90037,1,0,0:0:0:0:
256,192,90187,1,0,0:0:0:0:
256,192,90287,1,0,0:0:0:0:
256,192,90387,1,0,0:0:0:0:
256,192,90487,1,2,0:0:0:0:
256,192,90687,1,8,0:0:0:0:
256,192,90787,1,0,0:0:0:0:
256,192,90887,1,0,0:0:0:0:
256,192,90987,1,0,0:0:0:0:
256,192,91087,1,2,0:0:0:0:
256,192,91237,1,0,0:0:0:0:
256,192,91387,1,0,0:0:0:0:
256,192,91487,1,0,0:0:0:0:
256,192,91587,1,0,0:0:0:0:
256,192,91687,1,2,0:0:0:0:
256,192,91887,1,8,0:0:0:0:
256,192,91987,1,0,0:0:0:0:
256,192,92087,1,0,0:0:0:0:
256,192,92187,1,0,0:0:0:0:
256,192,92287,1,2,0:0:0:0:
256,192,92437,1,0,0:0:0:0:
256,192,92587,1,0,0:0:0:0:
256,192,92687,1,0,0:0:0:0:
256,192,92787,1,0,0:0:0:0:
256,192,92887,1,2,0:0:0:0:
256,192,93087,1,8,0:0:0:0:
256,192,93187,1,0,0:0:0:0:
256,192,93287,1,0,0:0:0:0:
256,192,93387,1,0,0:0:0:0:
256,192,93487,1,2,0:0:0:0:
256,192,93637,1,0,0:0:0:0:
256,192,93687,1,0,0:0:0:0:
256,192,93737,1,0,0:0:0:0:
256,192,93787,1,8,0:0:0:0:
256,192,93887,1,0,0:0:0:0:
256,192,93987,1,0,0:0:0:0:
256,192,94087,1,2,0:0:0:0:
256,192,94287,1,8,0:0:0:0:
256,192,94387,1,0,0:0:0:0:
256,192,94487,1,0,0:0:0:0:
256,192,94587,1,0,0:0:0:0:
256,192,94687,1,2,0:0:0:0:
256,192,94837,1,0,0:0:0:0:
256,192,94987,1,0,0:0:0:0:
256,192,95087,1,0,0:0:0:0:
256,192,95187,1,0,0:0:0:0:
256,192,95287,1,2,0:0:0:0:
256,192,95487,1,8,0:0:0:0:
256,192,95587,1,0,0:0:0:0:
256,192,95687,1,0,0:0:0:0:
256,192,95787,1,0,0:0:0:0:
256,192,95887,1,2,0:0:0:0:
256,192,96037,1,0,0:0:0:0:
256,192,96187,1,0,0:0:0:0:
256,192,96287,1,0,0:0:0:0:
256,192,96387,1,0,0:0:0:0:
256,192,96487,1,2,0:0:0:0:
256,192,96687,1,8,0:0:0:0:
256,192,96787,1,0,0:0:0:0:
256,192,96887,1,0,0:0:0:0:
256,192,96987,1,0,0:0:0:0:
256,192,97087,1,2,0:0:0:0:
256,192,97237,1,0,0:0:0:0:
256,192,97387,1,2,0:0:0:0:
256,192,97587,1,2,0:0:0:0:
256,192,97787,1,2,0:0:0:0:
256,192,97987,1,2,0:0:0:0:
256,192,98137,1,2,0:0:0:0:
256,192,98287,1,2,0:0:0:0:
256,192,98337,1,2,0:0:0:0:
256,192,98387,1,2,0:0:0:0:
256,192,98437,1,2,0:0:0:0:
256,192,98487,1,2,0:0:0:0:
256,192,98537,1,2,0:0:0:0:
256,192,98587,1,8,0:0:0:0:
256,192,98687,1,8,0:0:0:0:
256,192,98787,1,0,0:0:0:0:
256,192,98887,1,0,0:0:0:0:
256,192,98987,1,0,0:0:0:0:
256,192,99087,1,8,0:0:0:0:
256,192,99187,1,8,0:0:0:0:
256,192,99337,1,0,0:0:0:0:
256,192,99487,1,0,0:0:0:0:
256,192,99587,1,0,0:0:0:0:
256,192,99687,1,0,0:0:0:0:
256,192,99787,1,8,0:0:0:0:
256,192,99887,1,8,0:0:0:0:
256,192,99987,1,0,0:0:0:0:
256,192,100087,1,0,0:0:0:0:
256,192,100187,1,0,0:0:0:0:
256,192,100287,1,8,0:0:0:0:
256,192,100387,1,8,0:0:0:0:
256,192,100487,1,8,0:0:0:0:
256,192,100587,1,8,0:0:0:0:
256,192,100687,1,8,0:0:0:0:
256,192,100787,1,8,0:0:0:0:
256,192,100887,1,8,0:0:0:0:
256,192,100987,1,8,0:0:0:0:
256,192,101087,1,8,0:0:0:0:
256,192,101187,1,0,0:0:0:0:
256,192,101287,1,0,0:0:0:0:
256,192,101387,1,0,0:0:0:0:
256,192,101487,1,8,0:0:0:0:
256,192,101587,1,8,0:0:0:0:
256,192,101737,1,0,0:0:0:0:
256,192,101887,1,0,0:0:0:0:
256,192,101987,1,0,0:0:0:0:
256,192,102087,1,0,0:0:0:0:
256,192,102187,1,8,0:0:0:0:
256,192,102287,1,8,0:0:0:0:
256,192,102387,1,0,0:0:0:0:
256,192,102487,1,0,0:0:0:0:
256,192,102587,1,0,0:0:0:0:
256,192,102687,1,8,0:0:0:0:
256,192,102787,1,8,0:0:0:0:
256,192,102887,1,8,0:0:0:0:
256,192,102987,1,8,0:0:0:0:
256,192,103087,1,8,0:0:0:0:
256,192,103187,1,8,0:0:0:0:
256,192,103287,1,8,0:0:0:0:
256,192,103387,1,4,0:0:0:0:
256,192,103687,1,4,0:0:0:0:
256,192,103987,1,4,0:0:0:0:
256,192,104137,1,4,0:0:0:0:
256,192,104287,1,4,0:0:0:0:
256,192,104387,1,0,0:0:0:0:
256,192,104487,1,0,0:0:0:0:
256,192,104587,1,4,0:0:0:0:
256,192,104787,1,0,0:0:0:0:
256,192,104887,1,8,0:0:0:0:
256,192,105087,1,0,0:0:0:0:
256,192,105187,1,8,0:0:0:0:
256,192,105287,1,8,0:0:0:0:
256,192,105387,1,8,0:0:0:0:
256,192,105487,1,8,0:0:0:0:
256,192,105537,1,0,0:0:0:0:
256,192,105587,1,8,0:0:0:0:
256,192,105637,1,0,0:0:0:0:
256,192,105687,1,8,0:0:0:0:
256,192,105737,1,0,0:0:0:0:
256,192,105787,1,8,0:0:0:0:
256,192,108187,1,12,0:0:0:0:
256,192,108337,1,0,0:0:0:0:
256,192,108487,1,8,0:0:0:0:
256,192,108637,1,0,0:0:0:0:
256,192,108712,1,0,0:0:0:0:
256,192,108787,1,8,0:0:0:0:
256,192,108937,1,0,0:0:0:0:
256,192,109012,1,8,0:0:0:0:
256,192,109087,1,8,0:0:0:0:
256,192,109237,1,0,0:0:0:0:
256,192,109387,1,8,0:0:0:0:
256,192,109537,1,0,0:0:0:0:
256,192,109612,1,0,0:0:0:0:
256,192,109687,1,8,0:0:0:0:
256,192,109837,1,0,0:0:0:0:
256,192,109987,1,0,0:0:0:0:
256,192,110137,1,0,0:0:0:0:
256,192,110287,1,8,0:0:0:0:
256,192,110362,1,0,0:0:0:0:
256,192,110437,1,0,0:0:0:0:
256,192,110512,1,0,0:0:0:0:
256,192,110587,1,8,0:0:0:0:
256,192,110737,1,0,0:0:0:0:
256,192,110887,1,8,0:0:0:0:
256,192,111037,1,0,0:0:0:0:
256,192,111112,1,0,0:0:0:0:
256,192,111187,1,8,0:0:0:0:
256,192,111337,1,0,0:0:0:0:
256,192,111412,1,8,0:0:0:0:
256,192,111487,1,8,0:0:0:0:
256,192,111637,1,0,0:0:0:0:
256,192,111787,1,8,0:0:0:0:
256,192,111937,1,0,0:0:0:0:
256,192,112012,1,0,0:0:0:0:
256,192,112087,1,8,0:0:0:0:
256,192,112237,1,0,0:0:0:0:
256,192,112387,1,0,0:0:0:0:
256,192,112537,1,0,0:0:0:0:
256,192,112687,1,8,0:0:0:0:
256,192,112762,1,0,0:0:0:0:
256,192,112837,1,0,0:0:0:0:
256,192,112912,1,0,0:0:0:0:
256,192,112987,1,8,0:0:0:0:
256,192,113137,1,0,0:0:0:0:
256,192,113287,1,8,0:0:0:0:
256,192,113437,1,0,0:0:0:0:
256,192,113512,1,0,0:0:0:0:
256,192,113587,1,8,0:0:0:0:
256,192,113737,1,0,0:0:0:0:
256,192,113812,1,8,0:0:0:0:
256,192,113887,1,8,0:0:0:0:
256,192,114037,1,0,0:0:0:0:
256,192,114187,1,8,0:0:0:0:
256,192,114337,1,0,0:0:0:0:
256,192,114412,1,0,0:0:0:0:
256,192,114487,1,8,0:0:0:0:
256,192,114637,1,0,0:0:0:0:
256,192,114787,1,0,0:0:0:0:
256,192,114937,1,0,0:0:0:0:
256,192,115012,1,0,0:0:0:0:
256,192,115087,1,8,0:0:0:0:
256,192,115162,1,0,0:0:0:0:
256,192,115237,1,0,0:0:0:0:
256,192,115312,1,0,0:0:0:0:
256,192,115387,1,8,0:0:0:0:
256,192,115462,1,0,0:0:0:0:
256,192,115537,1,8,0:0:0:0:
256,192,115687,1,8,0:0:0:0:
256,192,115837,1,0,0:0:0:0:
256,192,115987,1,8,0:0:0:0:
256,192,116137,1,0,0:0:0:0:
256,192,116287,1,8,0:0:0:0:
256,192,116437,1,0,0:0:0:0:
256,192,116587,1,0,0:0:0:0:
256,192,116662,1,0,0:0:0:0:
256,192,116737,1,8,0:0:0:0:
256,192,116887,1,8,0:0:0:0:
256,192,117037,1,0,0:0:0:0:
256,192,117187,1,8,0:0:0:0:
256,192,117262,1,0,0:0:0:0:
256,192,117337,1,0,0:0:0:0:
256,192,117412,1,0,0:0:0:0:
256,192,117487,1,8,0:0:0:0:
256,192,117562,1,8,0:0:0:0:
256,192,117637,1,8,0:0:0:0:
256,192,117712,1,0,0:0:0:0:
256,192,117787,1,12,0:0:0:0:
256,192,117937,1,0,0:0:0:0:
256,192,118087,1,8,0:0:0:0:
256,192,118237,1,0,0:0:0:0:
256,192,118312,1,0,0:0:0:0:
256,192,118387,1,8,0:0:0:0:
256,192,118537,1,0,0:0:0:0:
256,192,118612,1,8,0:0:0:0:
256,192,118687,1,8,0:0:0:0:
256,192,118837,1,0,0:0:0:0:
256,192,118987,1,8,0:0:0:0:
256,192,119137,1,0,0:0:0:0:
256,192,119212,1,0,0:0:0:0:
256,192,119287,1,8,0:0:0:0:
256,192,119437,1,0,0:0:0:0:
256,192,119587,1,0,0:0:0:0:
256,192,119737,1,0,0:0:0:0:
256,192,119887,1,8,0:0:0:0:
256,192,119962,1,0,0:0:0:0:
256,192,120037,1,0,0:0:0:0:
256,192,120112,1,0,0:0:0:0:
256,192,120187,1,8,0:0:0:0:
256,192,120337,1,0,0:0:0:0:
256,192,120487,1,8,0:0:0:0:
256,192,120637,1,0,0:0:0:0:
256,192,120712,1,0,0:0:0:0:
256,192,120787,1,8,0:0:0:0:
256,192,120937,1,0,0:0:0:0:
256,192,121012,1,8,0:0:0:0:
256,192,121087,1,8,0:0:0:0:
256,192,121237,1,0,0:0:0:0:
256,192,121387,1,8,0:0:0:0:
256,192,121537,1,0,0:0:0:0:
256,192,121612,1,0,0:0:0:0:
256,192,121687,1,8,0:0:0:0:
256,192,121837,1,0,0:0:0:0:
256,192,121987,1,0,0:0:0:0:
256,192,122137,1,0,0:0:0:0:
256,192,122287,1,8,0:0:0:0:
256,192,122362,1,0,0:0:0:0:
256,192,122437,1,0,0:0:0:0:
256,192,122512,1,0,0:0:0:0:
256,192,122587,1,8,0:0:0:0:
256,192,122737,1,0,0:0:0:0:
256,192,122887,1,8,0:0:0:0:
256,192,123037,1,0,0:0:0:0:
256,192,123112,1,0,0:0:0:0:
256,192,123187,1,8,0:0:0:0:
256,192,123337,1,0,0:0:0:0:
256,192,123412,1,8,0:0:0:0:
256,192,123487,1,8,0:0:0:0:
256,192,123637,1,0,0:0:0:0:
256,192,123787,1,8,0:0:0:0:
256,192,123937,1,0,0:0:0:0:
256,192,124012,1,0,0:0:0:0:
256,192,124087,1,8,0:0:0:0:
256,192,124237,1,0,0:0:0:0:
256,192,124387,1,0,0:0:0:0:
256,192,124537,1,0,0:0:0:0:
256,192,124612,1,0,0:0:0:0:
256,192,124687,1,8,0:0:0:0:
256,192,124762,1,0,0:0:0:0:
256,192,124837,1,0,0:0:0:0:
256,192,124912,1,0,0:0:0:0:
256,192,124987,1,8,0:0:0:0:
256,192,125062,1,0,0:0:0:0:
256,192,125137,1,12,0:0:0:0:
256,192,125287,1,8,0:0:0:0:
256,192,125437,1,8,0:0:0:0:
256,192,125587,1,8,0:0:0:0:
256,192,125737,1,8,0:0:0:0:
256,192,125887,1,8,0:0:0:0:
256,192,125962,1,0,0:0:0:0:
256,192,126037,1,8,0:0:0:0:
256,192,126112,1,0,0:0:0:0:
256,192,126187,1,8,0:0:0:0:
256,192,126262,1,8,0:0:0:0:
256,192,126337,1,8,0:0:0:0:
256,192,126412,1,0,0:0:0:0:
256,192,126487,1,8,0:0:0:0:
256,192,126562,1,8,0:0:0:0:
256,192,126637,1,8,0:0:0:0:
256,192,126712,1,0,0:0:0:0:
256,192,126787,1,8,0:0:0:0:
256,192,126862,1,8,0:0:0:0:
256,192,126937,1,8,0:0:0:0:
256,192,127012,1,0,0:0:0:0:
256,192,127087,1,8,0:0:0:0:
256,192,127162,1,8,0:0:0:0:
256,192,127237,1,8,0:0:0:0:
256,192,127312,1,8,0:0:0:0:
256,192,127387,1,8,0:0:0:0:
256,192,127837,1,8,0:0:0:0:
256,192,127987,1,0,0:0:0:0:
256,192,128137,1,0,0:0:0:0:
256,192,128587,1,2,0:0:0:0:
