osu file format v14

[General]
AudioFilename: audio.mp3
AudioLeadIn: 0
PreviewTime: 100812
Countdown: 0
SampleSet: Soft
StackLeniency: 0.7
Mode: 3
LetterboxInBreaks: 0
SpecialStyle: 0
WidescreenStoryboard: 1

[Editor]
Bookmarks: 2412,12012,21612,31212,33612,36012,38412,40812,43212,48012,52812,57612,62412,72012,81612,91212,100812,110412,115212,120012,129612,139212,144012,148812,153612,156012,158412,168012,177612
DistanceSpacing: 3
BeatDivisor: 2
GridSize: 16
TimelineZoom: 0.6999997

[Metadata]
Title:Odin
TitleUnicode:Odin
Artist:Gram
ArtistUnicode:Gram
Creator:cai_ji_ccc
Version:NORMAL
Source:WACCA Reverse
Tags:mappers' guild mg electronic instrumental video game featured artist fa j-core hardcore tano*c djgenki dj genki gnkcd-015 comic market c97 ln long notes
BeatmapID:4115480
BeatmapSetID:1981845

[Difficulty]
HPDrainRate:7
CircleSize:4
OverallDifficulty:7
ApproachRate:5
SliderMultiplier:1.4
SliderTickRate:1

[Events]
//Background and Video events
0,0,"1682330744763.jpg",0,0
//Break Periods
//Storyboard Layer 0 (Background)
//Storyboard Layer 1 (Fail)
//Storyboard Layer 2 (Pass)
//Storyboard Layer 3 (Foreground)
//Storyboard Layer 4 (Overlay)
//Storyboard Sound Samples

[TimingPoints]
2412,300.0,4,2,1,35,1,0
62412,-100.0,4,2,1,35,0,1
81612,-100.0,4,2,1,35,0,0
120012,-100.0,4,2,1,35,0,1
138012,-100.0,4,2,1,35,0,0
139212,-100.0,4,2,1,35,0,1
158412,-100.0,4,2,1,35,0,0

[HitObjects]
448,192,2412,128,2,2712:0:0:0:20:soft-hitwhistle.wav
64,192,2712,128,0,3012:0:0:0:0:
320,192,3012,1,0,0:0:0:0:
192,192,3312,1,0,0:0:0:0:
448,192,3612,1,0,0:0:0:0:
320,192,3912,128,0,4212:0:0:0:0:
64,192,4212,1,0,0:0:0:0:
192,192,4512,1,0,0:0:0:0:
448,192,4812,1,0,0:0:0:0:
192,192,5112,128,0,5412:0:0:0:0:
320,192,5412,128,0,5712:0:0:0:0:
64,192,5712,128,0,6012:0:0:0:0:
192,192,6012,1,0,0:0:0:0:
448,192,6312,128,0,6612:0:0:0:0:
64,192,6612,1,0,0:0:0:0:
320,192,6912,1,0,0:0:0:0:
192,192,7212,128,0,7512:0:0:0:0:
448,192,7512,128,0,7812:0:0:0:0:
320,192,7812,1,0,0:0:0:0:
64,192,8112,1,0,0:0:0:0:
448,192,8412,1,0,0:0:0:0:
192,192,8712,128,0,9012:0:0:0:0:
448,192,9012,1,0,0:0:0:0:
320,192,9312,1,0,0:0:0:0:
64,192,9612,1,0,0:0:0:0:
320,192,9912,128,0,10212:0:0:0:0:
192,192,10212,128,0,10512:0:0:0:0:
448,192,10512,128,0,10812:0:0:0:0:
320,192,10812,128,0,11112:0:0:0:0:
64,192,11112,128,0,11412:0:0:0:0:
448,192,11412,128,0,11712:0:0:0:0:
192,192,11712,128,0,12012:0:0:0:0:
320,192,12012,128,4,12312:0:0:0:35:soft-hitfinish.wav
448,192,12012,1,2,0:0:0:35:soft-hitwhistle.wav
64,192,12312,1,0,0:0:0:0:
192,192,12462,1,0,0:0:0:0:
320,192,12612,1,2,0:0:0:0:
448,192,12612,1,4,0:0:0:0:
64,192,12912,1,2,0:0:0:0:
192,192,12912,1,4,0:0:0:0:
320,192,13212,1,2,0:0:0:0:
448,192,13212,1,4,0:0:0:0:
64,192,13512,128,0,13812:0:0:0:0:
320,192,13812,1,2,0:0:0:0:
448,192,13812,1,4,0:0:0:0:
64,192,14112,1,2,0:0:0:0:
192,192,14112,1,4,0:0:0:0:
320,192,14412,1,2,0:0:0:0:
448,192,14412,1,4,0:0:0:0:
192,192,14712,128,0,15012:0:0:0:0:
64,192,15012,1,2,0:0:0:0:
448,192,15012,1,4,0:0:0:0:
320,192,15162,1,6,0:0:0:0:
64,192,15312,1,2,0:0:0:0:
192,192,15312,1,4,0:0:0:0:
320,192,15612,1,2,0:0:0:0:
448,192,15612,1,4,0:0:0:0:
64,192,15837,1,2,0:0:0:0:
192,192,15837,1,4,0:0:0:0:
320,192,16062,1,2,0:0:0:0:
448,192,16062,1,4,0:0:0:0:
64,192,16212,1,2,0:0:0:0:
192,192,16212,1,4,0:0:0:0:
448,192,16362,128,2,16512:0:0:0:0:
320,192,16512,128,6,16812:0:0:0:0:
64,192,16812,1,2,0:0:0:0:
192,192,16812,128,4,17112:0:0:0:0:
448,192,17112,1,0,0:0:0:0:
320,192,17262,1,0,0:0:0:0:
64,192,17412,1,2,0:0:0:0:
192,192,17412,1,4,0:0:0:0:
320,192,17712,1,2,0:0:0:0:
448,192,17712,1,4,0:0:0:0:
64,192,18012,1,2,0:0:0:0:
192,192,18012,1,4,0:0:0:0:
448,192,18312,128,0,18612:0:0:0:0:
64,192,18612,1,2,0:0:0:0:
192,192,18612,1,4,0:0:0:0:
320,192,18912,1,2,0:0:0:0:
448,192,18912,1,4,0:0:0:0:
64,192,19212,1,2,0:0:0:0:
192,192,19212,1,4,0:0:0:0:
320,192,19512,128,0,19812:0:0:0:0:
64,192,19812,1,2,0:0:0:0:
448,192,19812,1,4,0:0:0:0:
192,192,19962,1,6,0:0:0:0:
320,192,20112,1,2,0:0:0:0:
448,192,20112,1,4,0:0:0:0:
64,192,20412,1,4,0:0:0:0:
192,192,20412,1,2,0:0:0:0:
320,192,20562,1,6,0:0:0:0:
64,192,20712,1,10,0:0:0:0:
448,192,20712,1,4,0:0:0:0:
192,192,20862,128,2,21012:0:0:0:0:
320,192,21012,1,10,0:0:0:0:
448,192,21012,1,4,0:0:0:0:
64,192,21162,128,2,21312:0:0:0:0:
320,192,21312,128,6,21612:0:0:0:0:
64,192,21612,1,2,0:0:0:0:
192,192,21612,1,4,0:0:0:0:
448,192,21762,1,0,0:0:0:0:
64,192,21912,1,0,0:0:0:0:
320,192,22062,1,0,0:0:0:0:
192,192,22212,128,0,22512:0:0:0:0:
448,192,22512,128,0,22812:0:0:0:0:
64,192,22812,128,0,23112:0:0:0:0:
320,192,23112,1,0,0:0:0:0:
192,192,23262,1,0,0:0:0:0:
448,192,23412,128,0,23712:0:0:0:0:
320,192,23712,128,0,24012:0:0:0:0:
64,192,24012,128,0,24312:0:0:0:0:
448,192,24312,1,0,0:0:0:0:
192,192,24462,1,0,0:0:0:0:
320,192,24612,128,0,24912:0:0:0:0:
64,192,24912,128,0,25212:0:0:0:0:
192,192,25212,128,0,25512:0:0:0:0:
320,192,25512,1,0,0:0:0:0:
64,192,25662,1,0,0:0:0:0:
448,192,25812,128,0,26112:0:0:0:0:
192,192,26112,128,0,26412:0:0:0:0:
320,192,26412,1,2,0:0:0:0:
448,192,26412,1,4,0:0:0:0:
64,192,26562,1,0,0:0:0:0:
448,192,26712,1,0,0:0:0:0:
320,192,26862,1,0,0:0:0:0:
192,192,27012,128,0,27312:0:0:0:0:
448,192,27312,128,0,27612:0:0:0:0:
64,192,27612,128,0,27912:0:0:0:0:
320,192,27912,1,0,0:0:0:0:
192,192,28062,1,0,0:0:0:0:
448,192,28212,128,0,28512:0:0:0:0:
320,192,28512,128,0,28812:0:0:0:0:
64,192,28812,128,0,29112:0:0:0:0:
448,192,29112,1,0,0:0:0:0:
192,192,29262,1,0,0:0:0:0:
320,192,29412,128,0,29712:0:0:0:0:
192,192,29712,128,0,30012:0:0:0:0:
448,192,30012,128,0,30312:0:0:0:0:
320,192,30312,128,0,30612:0:0:0:0:
64,192,30612,128,2,30912:0:0:0:0:
192,192,30912,128,2,31212:0:0:0:0:
448,192,30912,1,4,0:0:0:0:
64,192,31212,1,2,0:0:0:0:
448,192,31212,1,4,0:0:0:0:
320,192,31362,1,0,0:0:0:0:
192,192,31512,1,8,0:0:0:0:
448,192,31662,1,0,0:0:0:0:
64,192,31812,1,8,0:0:0:0:
320,192,31812,1,0,0:0:0:0:
64,192,32112,1,8,0:0:0:0:
192,192,32112,1,0,0:0:0:0:
320,192,32412,1,8,0:0:0:0:
448,192,32412,1,0,0:0:0:0:
192,192,32712,1,8,0:0:0:0:
320,192,32862,1,0,0:0:0:0:
64,192,33012,1,8,0:0:0:0:
448,192,33012,1,0,0:0:0:0:
64,192,33312,1,8,0:0:0:0:
192,192,33312,1,0,0:0:0:0:
320,192,33612,1,2,0:0:0:0:
448,192,33612,1,4,0:0:0:0:
64,192,33912,1,8,0:0:0:0:
448,192,34062,1,0,0:0:0:0:
320,192,34212,128,8,34512:0:0:0:0:
64,192,34512,128,8,34812:0:0:0:0:
192,192,34812,1,8,0:0:0:0:
448,192,34812,1,0,0:0:0:0:
320,192,35112,128,8,35412:0:0:0:0:
64,192,35412,1,8,0:0:0:0:
448,192,35412,128,0,35712:0:0:0:0:
192,192,35712,128,10,36012:0:0:0:0:
64,192,36012,1,2,0:0:0:0:
448,192,36012,1,4,0:0:0:0:
320,192,36162,1,8,0:0:0:0:
192,192,36312,1,8,0:0:0:0:
448,192,36462,1,8,0:0:0:0:
64,192,36612,128,8,36912:0:0:0:0:
320,192,36612,1,0,0:0:0:0:
192,192,36912,1,8,0:0:0:0:
448,192,36912,128,0,37212:0:0:0:0:
64,192,37212,1,4,0:0:0:0:
320,192,37212,1,2,0:0:0:0:
192,192,37512,1,8,0:0:0:0:
320,192,37662,1,8,0:0:0:0:
64,192,37812,128,8,38112:0:0:0:0:
448,192,37812,1,0,0:0:0:0:
192,192,38112,1,8,0:0:0:0:
448,192,38112,128,0,38412:0:0:0:0:
64,192,38412,128,4,38712:0:0:0:0:
192,192,38412,1,2,0:0:0:0:
320,192,38712,128,2,39012:0:0:0:0:
448,192,38712,1,4,0:0:0:0:
64,192,39012,1,4,0:0:0:0:
192,192,39012,128,2,39312:0:0:0:0:
320,192,39312,1,4,0:0:0:0:
448,192,39312,128,2,39612:0:0:0:0:
64,192,39612,128,0,39912:0:0:0:0:
448,192,39912,128,0,40212:0:0:0:0:
192,192,40212,128,0,40512:0:0:0:0:
320,192,40512,128,0,40812:0:0:0:0:
64,192,40812,128,4,42912:0:0:0:0:
448,192,40812,1,2,0:0:0:0:
192,192,42912,1,8,0:0:0:0:
320,192,43212,1,4,0:0:0:0:
448,192,43212,128,2,43812:0:0:0:0:
64,192,43512,1,8,0:0:0:0:
192,192,43512,1,2,0:0:0:0:
320,192,43812,1,2,0:0:0:0:
64,192,44112,1,8,0:0:0:0:
448,192,44112,1,2,0:0:0:0:
192,192,44412,128,2,45012:0:0:0:0:
320,192,44712,1,8,0:0:0:0:
448,192,44712,1,2,0:0:0:0:
64,192,45012,1,2,0:0:0:0:
192,192,45312,1,8,0:0:0:0:
448,192,45312,1,2,0:0:0:0:
320,192,45612,128,2,46212:0:0:0:0:
64,192,45912,1,2,0:0:0:0:
192,192,45912,1,8,0:0:0:0:
448,192,46212,1,2,0:0:0:0:
192,192,46512,1,2,0:0:0:0:
320,192,46512,1,8,0:0:0:0:
64,192,46812,128,2,47412:0:0:0:0:
320,192,47112,1,8,0:0:0:0:
448,192,47112,1,2,0:0:0:0:
192,192,47412,1,2,0:0:0:0:
320,192,47712,1,6,0:0:0:0:
448,192,47712,128,8,48012:0:0:0:0:
64,192,48012,1,2,0:0:0:0:
192,192,48012,128,4,48612:0:0:0:0:
320,192,48312,1,2,0:0:0:0:
448,192,48312,1,8,0:0:0:0:
64,192,48612,1,2,0:0:0:0:
192,192,48912,1,2,0:0:0:0:
448,192,48912,1,8,0:0:0:0:
320,192,49212,128,2,49812:0:0:0:0:
64,192,49512,1,8,0:0:0:0:
192,192,49512,1,2,0:0:0:0:
448,192,49812,1,2,0:0:0:0:
192,192,50112,1,8,0:0:0:0:
320,192,50112,1,2,0:0:0:0:
64,192,50412,128,2,51012:0:0:0:0:
320,192,50712,1,2,0:0:0:0:
448,192,50712,1,8,0:0:0:0:
192,192,51012,1,2,0:0:0:0:
64,192,51312,1,2,0:0:0:0:
448,192,51312,1,8,0:0:0:0:
320,192,51612,1,2,0:0:0:0:
448,192,51612,1,4,0:0:0:0:
64,192,51837,1,4,0:0:0:0:
192,192,51837,1,2,0:0:0:0:
320,192,52062,1,4,0:0:0:0:
448,192,52062,1,2,0:0:0:0:
64,192,52212,1,6,0:0:0:0:
448,192,52362,1,6,0:0:0:0:
64,192,52512,1,6,0:0:0:0:
192,192,52512,128,8,52812:0:0:0:0:
320,192,52812,1,2,0:0:0:0:
448,192,52812,128,4,53412:0:0:0:0:
64,192,53112,1,8,0:0:0:0:
192,192,53112,1,2,0:0:0:0:
64,192,53412,128,2,54012:0:0:0:0:
320,192,53712,1,8,0:0:0:0:
448,192,53712,1,2,0:0:0:0:
320,192,54012,128,2,54612:0:0:0:0:
64,192,54312,1,2,0:0:0:0:
192,192,54312,1,8,0:0:0:0:
192,192,54612,128,2,55212:0:0:0:0:
320,192,54912,1,2,0:0:0:0:
448,192,54912,1,8,0:0:0:0:
64,192,55212,1,2,0:0:0:0:
448,192,55212,128,4,55812:0:0:0:0:
64,192,55512,1,8,0:0:0:0:
192,192,55512,1,2,0:0:0:0:
320,192,55812,128,2,56412:0:0:0:0:
64,192,56112,1,8,0:0:0:0:
192,192,56112,1,2,0:0:0:0:
64,192,56412,128,2,57012:0:0:0:0:
320,192,56712,1,2,0:0:0:0:
448,192,56712,1,8,0:0:0:0:
192,192,57012,128,2,57312:0:0:0:0:
320,192,57312,128,10,57612:0:0:0:0:
448,192,57312,1,4,0:0:0:0:
64,192,57612,1,2,0:0:0:0:
192,192,57612,128,4,58212:0:0:0:0:
320,192,57912,1,8,0:0:0:0:
448,192,57912,1,2,0:0:0:0:
448,192,58212,128,2,58512:0:0:0:0:
64,192,58512,1,8,0:0:0:0:
320,192,58512,1,2,0:0:0:0:
192,192,58662,1,2,0:0:0:0:
320,192,58812,128,2,59412:0:0:0:0:
448,192,58812,1,4,0:0:0:0:
64,192,59112,1,2,0:0:0:0:
192,192,59112,1,8,0:0:0:0:
64,192,59412,1,2,0:0:0:0:
448,192,59562,1,2,0:0:0:0:
64,192,59712,1,2,0:0:0:0:
320,192,59712,1,8,0:0:0:0:
192,192,59862,1,2,0:0:0:0:
320,192,60012,1,2,0:0:0:0:
448,192,60012,128,4,60312:0:0:0:0:
64,192,60312,1,6,0:0:0:0:
192,192,60312,128,8,60612:0:0:0:0:
320,192,60612,128,4,60912:0:0:0:0:
448,192,60612,1,2,0:0:0:0:
64,192,60912,128,6,61212:0:0:0:0:
192,192,60912,1,8,0:0:0:0:
448,192,61212,128,2,61512:0:0:0:0:
192,192,61512,128,8,61812:0:0:0:0:
320,192,61812,128,2,62112:0:0:0:0:
64,192,62112,128,2,62412:0:0:0:0:
192,192,62112,1,4,0:0:0:0:
320,192,62412,1,2,0:0:0:0:
448,192,62412,1,4,0:0:0:0:
192,192,62712,1,8,0:0:0:0:
448,192,62712,1,2,0:0:0:0:
64,192,63012,1,2,0:0:0:0:
320,192,63012,1,0,0:0:0:0:
64,192,63312,1,8,0:0:0:0:
192,192,63312,1,2,0:0:0:0:
320,192,63612,1,2,0:0:0:0:
448,192,63612,1,0,0:0:0:0:
64,192,63912,1,2,0:0:0:0:
320,192,63912,1,8,0:0:0:0:
64,192,64212,1,2,0:0:0:0:
192,192,64212,1,0,0:0:0:0:
320,192,64512,1,2,0:0:0:0:
448,192,64512,1,8,0:0:0:0:
448,192,64812,128,2,65412:0:0:0:0:
64,192,65112,1,8,0:0:0:0:
192,192,65112,1,2,0:0:0:0:
192,192,65412,128,2,66012:0:0:0:0:
320,192,65712,1,8,0:0:0:0:
448,192,65712,1,2,0:0:0:0:
320,192,66012,128,2,66612:0:0:0:0:
64,192,66312,1,2,0:0:0:0:
192,192,66312,1,8,0:0:0:0:
64,192,66612,128,2,66912:0:0:0:0:
192,192,66912,128,10,67212:0:0:0:0:
448,192,66912,1,4,0:0:0:0:
320,192,67212,1,2,0:0:0:0:
448,192,67212,1,4,0:0:0:0:
64,192,67512,1,8,0:0:0:0:
320,192,67512,1,2,0:0:0:0:
64,192,67812,1,2,0:0:0:0:
192,192,67812,1,0,0:0:0:0:
320,192,68112,1,8,0:0:0:0:
448,192,68112,1,2,0:0:0:0:
192,192,68412,1,2,0:0:0:0:
448,192,68412,1,0,0:0:0:0:
64,192,68712,1,2,0:0:0:0:
192,192,68712,1,8,0:0:0:0:
320,192,69012,1,2,0:0:0:0:
448,192,69012,1,0,0:0:0:0:
64,192,69312,1,2,0:0:0:0:
320,192,69312,1,8,0:0:0:0:
64,192,69612,128,2,70212:0:0:0:0:
320,192,69912,1,8,0:0:0:0:
448,192,69912,1,2,0:0:0:0:
192,192,70212,128,2,70512:0:0:0:0:
320,192,70512,1,8,0:0:0:0:
448,192,70512,1,2,0:0:0:0:
64,192,70812,1,2,0:0:0:0:
192,192,70812,1,4,0:0:0:0:
320,192,71037,1,4,0:0:0:0:
448,192,71037,1,2,0:0:0:0:
64,192,71262,1,4,0:0:0:0:
192,192,71262,1,2,0:0:0:0:
448,192,71412,1,6,0:0:0:0:
64,192,71562,1,6,0:0:0:0:
320,192,71712,128,6,72012:0:0:0:0:
448,192,71712,1,8,0:0:0:0:
64,192,72012,1,4,0:0:0:0:
192,192,72012,1,2,0:0:0:0:
320,192,72312,1,2,0:0:0:0:
448,192,72312,1,8,0:0:0:0:
64,192,72612,1,2,0:0:0:0:
320,192,72612,1,0,0:0:0:0:
64,192,72912,1,2,0:0:0:0:
192,192,72912,1,8,0:0:0:0:
320,192,73212,1,2,0:0:0:0:
448,192,73212,1,0,0:0:0:0:
192,192,73512,1,8,0:0:0:0:
448,192,73512,1,2,0:0:0:0:
64,192,73812,1,2,0:0:0:0:
192,192,73812,1,0,0:0:0:0:
320,192,74112,1,8,0:0:0:0:
448,192,74112,1,2,0:0:0:0:
64,192,74412,128,2,75012:0:0:0:0:
192,192,74412,1,4,0:0:0:0:
320,192,74712,1,2,0:0:0:0:
448,192,74712,1,8,0:0:0:0:
448,192,75012,128,2,75612:0:0:0:0:
64,192,75312,1,2,0:0:0:0:
192,192,75312,1,8,0:0:0:0:
192,192,75612,128,2,76212:0:0:0:0:
320,192,75912,1,8,0:0:0:0:
448,192,75912,1,2,0:0:0:0:
448,192,76212,128,2,76512:0:0:0:0:
64,192,76512,1,10,0:0:0:0:
320,192,76512,128,4,76812:0:0:0:0:
64,192,76812,1,2,0:0:0:0:
192,192,76812,1,4,0:0:0:0:
192,192,77112,1,2,0:0:0:0:
448,192,77112,1,8,0:0:0:0:
64,192,77412,1,2,0:0:0:0:
448,192,77412,1,0,0:0:0:0:
320,192,77712,1,10,0:0:0:0:
192,192,77862,1,2,0:0:0:0:
64,192,78012,1,2,0:0:0:0:
448,192,78012,1,4,0:0:0:0:
320,192,78312,1,8,0:0:0:0:
448,192,78312,1,2,0:0:0:0:
64,192,78612,1,2,0:0:0:0:
192,192,78762,1,2,0:0:0:0:
448,192,78912,1,10,0:0:0:0:
320,192,79062,1,2,0:0:0:0:
64,192,79212,128,2,79512:0:0:0:0:
192,192,79212,1,4,0:0:0:0:
320,192,79512,128,6,79812:0:0:0:0:
448,192,79512,1,8,0:0:0:0:
64,192,79812,1,2,0:0:0:0:
192,192,79812,128,4,80112:0:0:0:0:
320,192,80112,1,6,0:0:0:0:
448,192,80112,128,8,80412:0:0:0:0:
64,192,80412,128,2,80712:0:0:0:0:
320,192,80712,128,8,81012:0:0:0:0:
192,192,81012,128,2,81312:0:0:0:0:
448,192,81312,1,8,0:0:0:0:
64,192,81612,1,4,0:0:0:0:
320,192,81612,128,2,82812:0:0:0:0:
192,192,82062,1,2,0:0:0:0:
64,192,82812,128,8,83412:0:0:0:0:
448,192,83412,128,8,84012:0:0:0:0:
192,192,84012,128,2,85212:0:0:0:0:
320,192,84462,1,2,0:0:0:0:
448,192,85212,128,8,85812:0:0:0:0:
64,192,85812,128,8,86412:0:0:0:0:
320,192,86412,128,2,87612:0:0:0:0:
192,192,86862,1,2,0:0:0:0:
64,192,87612,128,8,88212:0:0:0:0:
448,192,88212,128,8,88812:0:0:0:0:
192,192,88812,128,2,90012:0:0:0:0:
448,192,89262,1,2,0:0:0:0:
320,192,90012,128,8,90612:0:0:0:0:
64,192,90612,128,8,91212:0:0:0:0:
192,192,91212,128,2,92412:0:0:0:0:
448,192,91212,1,4,0:0:0:0:
448,192,92412,128,0,93012:0:0:0:0:
64,192,93012,128,0,93612:0:0:0:0:
320,192,93612,128,0,94812:0:0:0:0:
192,192,94812,128,0,95412:0:0:0:0:
448,192,95412,128,0,96012:0:0:0:0:
64,192,96012,128,0,97212:0:0:0:0:
320,192,97212,128,0,97812:0:0:0:0:
192,192,97812,128,0,98412:0:0:0:0:
448,192,98412,128,0,99612:0:0:0:0:
192,192,99612,128,2,99912:0:0:0:0:
320,192,99912,128,8,100212:0:0:0:0:
64,192,100212,128,2,100512:0:0:0:0:
448,192,100512,1,8,0:0:0:0:
192,192,100812,1,4,0:0:0:25:soft-hitfinish.wav
448,192,100812,128,0,101112:0:0:0:0:
64,192,101112,128,0,101412:0:0:0:0:
320,192,101412,1,0,0:0:0:0:
192,192,101712,1,0,0:0:0:0:
448,192,102012,1,0,0:0:0:0:
320,192,102312,128,0,102612:0:0:0:0:
64,192,102612,1,0,0:0:0:0:
192,192,102912,1,0,0:0:0:0:
448,192,103212,1,0,0:0:0:0:
192,192,103512,128,0,103812:0:0:0:0:
320,192,103812,128,0,104112:0:0:0:0:
64,192,104112,128,0,104412:0:0:0:0:
192,192,104412,1,0,0:0:0:0:
448,192,104712,128,0,105012:0:0:0:0:
64,192,105012,1,0,0:0:0:0:
320,192,105312,1,0,0:0:0:0:
192,192,105612,128,0,105912:0:0:0:0:
448,192,105912,128,0,106212:0:0:0:0:
320,192,106212,1,0,0:0:0:0:
64,192,106512,1,0,0:0:0:0:
448,192,106812,1,0,0:0:0:0:
192,192,107112,128,0,107412:0:0:0:0:
448,192,107412,1,0,0:0:0:0:
320,192,107712,1,0,0:0:0:0:
64,192,108012,1,0,0:0:0:0:
320,192,108312,128,0,108612:0:0:0:0:
192,192,108612,128,0,108912:0:0:0:0:
448,192,108912,128,0,109212:0:0:0:0:
320,192,109212,128,0,109512:0:0:0:0:
64,192,109512,128,0,109812:0:0:0:0:
448,192,109812,128,0,110112:0:0:0:0:
192,192,110112,128,0,110412:0:0:0:0:
320,192,110412,1,4,0:0:0:35:soft-hitfinish.wav
448,192,110412,1,2,0:0:0:35:soft-hitwhistle.wav
64,192,110712,1,8,0:0:0:0:
448,192,110712,1,0,0:0:0:0:
64,192,111012,1,8,0:0:0:0:
192,192,111012,1,0,0:0:0:0:
320,192,111312,1,8,0:0:0:0:
448,192,111312,1,0,0:0:0:0:
64,192,111612,1,8,0:0:0:0:
448,192,111612,1,0,0:0:0:0:
64,192,111912,128,8,112212:0:0:0:0:
192,192,111912,1,0,0:0:0:0:
320,192,112212,1,8,0:0:0:0:
448,192,112212,1,0,0:0:0:0:
192,192,112512,1,8,0:0:0:0:
320,192,112512,1,0,0:0:0:0:
64,192,112812,1,2,0:0:0:0:
448,192,112812,1,4,0:0:0:0:
320,192,113112,128,8,113412:0:0:0:0:
448,192,113112,1,0,0:0:0:0:
64,192,113412,1,8,0:0:0:0:
192,192,113412,1,0,0:0:0:0:
320,192,113712,1,8,0:0:0:0:
448,192,113712,1,0,0:0:0:0:
64,192,114012,1,8,0:0:0:0:
448,192,114012,1,0,0:0:0:0:
64,192,114312,1,8,0:0:0:0:
192,192,114312,1,0,0:0:0:0:
320,192,114612,1,8,0:0:0:0:
448,192,114612,1,0,0:0:0:0:
64,192,114912,1,10,0:0:0:0:
192,192,114912,128,4,115212:0:0:0:0:
320,192,115212,1,2,0:0:0:0:
448,192,115212,1,4,0:0:0:0:
64,192,115362,1,2,0:0:0:0:
320,192,115512,1,2,0:0:0:0:
192,192,115662,1,2,0:0:0:0:
448,192,115812,1,2,0:0:0:0:
320,192,115962,1,2,0:0:0:0:
192,192,116112,1,2,0:0:0:0:
448,192,116262,1,2,0:0:0:0:
64,192,116412,1,2,0:0:0:0:
320,192,116412,1,4,0:0:0:0:
192,192,116562,1,2,0:0:0:0:
320,192,116712,1,2,0:0:0:0:
64,192,116862,1,2,0:0:0:0:
192,192,117012,1,2,0:0:0:0:
448,192,117162,1,2,0:0:0:0:
320,192,117312,1,2,0:0:0:0:
192,192,117462,1,2,0:0:0:0:
64,192,117612,1,2,0:0:0:0:
448,192,117612,1,4,0:0:0:0:
320,192,117762,1,2,0:0:0:0:
64,192,117912,1,2,0:0:0:0:
192,192,117912,1,0,0:0:0:0:
448,192,118062,1,2,0:0:0:0:
192,192,118212,1,2,0:0:0:0:
320,192,118212,1,0,0:0:0:0:
64,192,118362,1,2,0:0:0:0:
320,192,118512,1,2,0:0:0:0:
448,192,118512,1,0,0:0:0:0:
192,192,118662,1,2,0:0:0:0:
448,192,118812,1,2,0:0:0:0:
192,192,119112,128,8,119412:0:0:0:0:
320,192,119412,128,2,119712:0:0:0:0:
64,192,119712,1,8,0:0:0:0:
192,192,120012,1,4,0:0:0:0:
448,192,120012,1,2,0:0:0:0:
320,192,120312,1,8,0:0:0:0:
448,192,120312,1,2,0:0:0:0:
64,192,120612,1,2,0:0:0:0:
192,192,120612,1,0,0:0:0:0:
64,192,120912,1,8,0:0:0:0:
448,192,120912,1,2,0:0:0:0:
320,192,121212,1,2,0:0:0:0:
448,192,121212,1,0,0:0:0:0:
64,192,121512,1,2,0:0:0:0:
192,192,121512,128,8,121812:0:0:0:0:
320,192,121812,1,2,0:0:0:0:
448,192,121812,1,0,0:0:0:0:
64,192,122112,1,2,0:0:0:0:
448,192,122112,1,8,0:0:0:0:
64,192,122412,1,2,0:0:0:0:
192,192,122412,1,0,0:0:0:0:
320,192,122712,128,8,123012:0:0:0:0:
448,192,122712,1,2,0:0:0:0:
64,192,123012,1,2,0:0:0:0:
192,192,123012,128,0,123312:0:0:0:0:
320,192,123312,1,8,0:0:0:0:
448,192,123312,128,2,123612:0:0:0:0:
64,192,123612,128,2,123912:0:0:0:0:
320,192,123612,1,0,0:0:0:0:
192,192,123912,1,2,0:0:0:0:
448,192,123912,1,8,0:0:0:0:
320,192,124212,1,2,0:0:0:0:
448,192,124212,1,0,0:0:0:0:
64,192,124512,1,10,0:0:0:0:
192,192,124512,128,4,124812:0:0:0:0:
320,192,124812,1,2,0:0:0:0:
448,192,124812,1,4,0:0:0:0:
64,192,125112,1,8,0:0:0:0:
192,192,125112,1,2,0:0:0:0:
320,192,125412,1,2,0:0:0:0:
448,192,125412,1,0,0:0:0:0:
64,192,125712,1,8,0:0:0:0:
448,192,125712,1,2,0:0:0:0:
64,192,126012,1,2,0:0:0:0:
192,192,126012,1,0,0:0:0:0:
320,192,126312,128,2,126612:0:0:0:0:
448,192,126312,1,8,0:0:0:0:
64,192,126612,1,2,0:0:0:0:
192,192,126612,1,0,0:0:0:0:
64,192,126912,1,2,0:0:0:0:
448,192,126912,1,8,0:0:0:0:
320,192,127212,1,2,0:0:0:0:
448,192,127212,1,4,0:0:0:0:
64,192,127512,1,8,0:0:0:0:
192,192,127512,128,2,127812:0:0:0:0:
320,192,127812,1,2,0:0:0:0:
448,192,127812,128,0,128112:0:0:0:0:
64,192,128112,1,10,0:0:0:0:
192,192,128262,1,0,0:0:0:0:
320,192,128412,128,2,128712:0:0:0:0:
448,192,128412,1,4,0:0:0:0:
64,192,128712,128,12,129012:0:0:0:0:
192,192,128712,1,2,0:0:0:0:
320,192,129012,1,4,0:0:0:0:
448,192,129012,128,2,129312:0:0:0:0:
64,192,129312,1,6,0:0:0:0:
192,192,129312,128,8,129612:0:0:0:0:
320,192,129612,1,4,0:0:0:0:
448,192,129612,1,2,0:0:0:0:
64,192,129912,1,2,0:0:0:0:
448,192,129912,1,8,0:0:0:0:
64,192,130212,1,2,0:0:0:0:
192,192,130212,1,0,0:0:0:0:
192,192,130512,1,2,0:0:0:0:
448,192,130512,1,8,0:0:0:0:
320,192,130812,1,2,0:0:0:0:
448,192,130812,1,0,0:0:0:0:
64,192,131112,1,8,0:0:0:0:
192,192,131112,128,2,131412:0:0:0:0:
320,192,131412,1,2,0:0:0:0:
448,192,131412,1,0,0:0:0:0:
64,192,131712,1,8,0:0:0:0:
448,192,131712,1,2,0:0:0:0:
64,192,132012,1,2,0:0:0:0:
192,192,132012,1,4,0:0:0:0:
320,192,132312,128,2,132612:0:0:0:0:
448,192,132312,1,8,0:0:0:0:
64,192,132612,1,2,0:0:0:0:
192,192,132612,128,0,132912:0:0:0:0:
320,192,132912,1,2,0:0:0:0:
448,192,132912,128,8,133212:0:0:0:0:
64,192,133212,128,2,133512:0:0:0:0:
320,192,133212,1,0,0:0:0:0:
192,192,133512,1,8,0:0:0:0:
448,192,133512,1,2,0:0:0:0:
320,192,133812,1,2,0:0:0:0:
448,192,133812,1,0,0:0:0:0:
64,192,134112,1,10,0:0:0:0:
192,192,134112,128,4,134412:0:0:0:0:
320,192,134412,1,2,0:0:0:0:
448,192,134412,1,4,0:0:0:0:
64,192,134712,1,2,0:0:0:0:
192,192,134712,1,8,0:0:0:0:
320,192,135012,1,2,0:0:0:0:
448,192,135012,1,0,0:0:0:0:
64,192,135312,1,2,0:0:0:0:
448,192,135312,1,8,0:0:0:0:
64,192,135612,1,2,0:0:0:0:
192,192,135612,1,4,0:0:0:0:
320,192,135912,128,8,136212:0:0:0:0:
448,192,135912,1,2,0:0:0:0:
64,192,136212,1,2,0:0:0:0:
192,192,136212,1,0,0:0:0:0:
64,192,136512,1,8,0:0:0:0:
448,192,136512,1,2,0:0:0:0:
320,192,136812,128,2,137112:0:0:0:0:
448,192,136812,1,4,0:0:0:0:
64,192,137112,128,10,137412:0:0:0:0:
192,192,137112,1,4,0:0:0:0:
320,192,137412,1,2,0:0:0:0:
448,192,137412,128,4,137712:0:0:0:0:
64,192,137712,1,10,0:0:0:0:
192,192,137712,128,4,138012:0:0:0:0:
448,192,138012,128,2,138312:0:0:0:0:
64,192,138312,128,8,138612:0:0:0:0:
320,192,138612,128,2,138912:0:0:0:0:
192,192,138912,1,8,0:0:0:0:
64,192,139212,1,2,0:0:0:0:
448,192,139212,128,4,139512:0:0:0:0:
192,192,139512,128,2,139812:0:0:0:0:
320,192,139512,1,8,0:0:0:0:
320,192,139812,1,2,0:0:0:0:
448,192,139812,1,0,0:0:0:0:
64,192,140112,1,2,0:0:0:0:
448,192,140112,1,8,0:0:0:0:
192,192,140412,1,2,0:0:0:0:
320,192,140412,1,0,0:0:0:0:
64,192,140712,128,8,141012:0:0:0:0:
320,192,140712,1,2,0:0:0:0:
192,192,141012,1,2,0:0:0:0:
448,192,141012,1,0,0:0:0:0:
320,192,141312,1,8,0:0:0:0:
448,192,141312,1,2,0:0:0:0:
64,192,141612,1,2,0:0:0:0:
192,192,141612,1,0,0:0:0:0:
192,192,141912,1,2,0:0:0:0:
448,192,141912,128,8,142212:0:0:0:0:
64,192,142212,1,2,0:0:0:0:
320,192,142212,128,0,142512:0:0:0:0:
64,192,142512,1,2,0:0:0:0:
192,192,142512,128,8,142812:0:0:0:0:
320,192,142812,1,2,0:0:0:0:
448,192,142812,1,0,0:0:0:0:
64,192,143037,1,0,0:0:0:0:
448,192,143262,1,0,0:0:0:0:
192,192,143412,1,2,0:0:0:0:
320,192,143412,128,0,143712:0:0:0:0:
64,192,143712,128,12,144012:0:0:0:0:
448,192,143712,1,2,0:0:0:0:
192,192,144012,1,4,0:0:0:0:
448,192,144012,128,2,144312:0:0:0:0:
192,192,144312,128,2,144612:0:0:0:0:
320,192,144312,1,8,0:0:0:0:
320,192,144612,1,2,0:0:0:0:
448,192,144612,1,0,0:0:0:0:
64,192,144912,1,2,0:0:0:0:
448,192,144912,1,8,0:0:0:0:
192,192,145212,1,2,0:0:0:0:
320,192,145212,1,0,0:0:0:0:
64,192,145512,128,8,145812:0:0:0:0:
320,192,145512,1,2,0:0:0:0:
192,192,145812,1,2,0:0:0:0:
448,192,145812,1,0,0:0:0:0:
320,192,146112,1,8,0:0:0:0:
448,192,146112,1,2,0:0:0:0:
64,192,146412,1,2,0:0:0:0:
192,192,146412,1,4,0:0:0:0:
192,192,146712,1,2,0:0:0:0:
448,192,146712,128,8,147012:0:0:0:0:
64,192,147012,1,2,0:0:0:0:
320,192,147012,128,0,147312:0:0:0:0:
64,192,147312,1,2,0:0:0:0:
192,192,147312,128,8,147612:0:0:0:0:
320,192,147612,1,4,0:0:0:0:
448,192,147612,1,2,0:0:0:0:
64,192,147837,1,2,0:0:0:0:
192,192,147837,1,4,0:0:0:0:
320,192,148062,1,2,0:0:0:0:
448,192,148062,1,4,0:0:0:0:
64,192,148212,1,6,0:0:0:0:
448,192,148362,1,6,0:0:0:0:
64,192,148512,128,12,148812:0:0:0:0:
192,192,148512,1,2,0:0:0:0:
320,192,148812,1,2,0:0:0:0:
448,192,148812,128,4,149112:0:0:0:0:
64,192,149112,1,8,0:0:0:0:
192,192,149112,128,2,149412:0:0:0:0:
320,192,149412,1,2,0:0:0:0:
448,192,149412,1,0,0:0:0:0:
64,192,149712,1,8,0:0:0:0:
448,192,149712,1,2,0:0:0:0:
192,192,150012,1,2,0:0:0:0:
320,192,150012,1,0,0:0:0:0:
64,192,150312,128,2,150612:0:0:0:0:
320,192,150312,1,8,0:0:0:0:
192,192,150612,1,2,0:0:0:0:
448,192,150612,1,0,0:0:0:0:
320,192,150912,1,2,0:0:0:0:
448,192,150912,1,8,0:0:0:0:
64,192,151212,1,4,0:0:0:0:
192,192,151212,1,2,0:0:0:0:
192,192,151512,1,8,0:0:0:0:
448,192,151512,128,2,151812:0:0:0:0:
64,192,151812,1,2,0:0:0:0:
320,192,151812,128,0,152112:0:0:0:0:
64,192,152112,1,8,0:0:0:0:
192,192,152112,128,2,152412:0:0:0:0:
320,192,152412,1,2,0:0:0:0:
448,192,152412,1,0,0:0:0:0:
64,192,152637,1,0,0:0:0:0:
448,192,152862,1,0,0:0:0:0:
192,192,153012,1,2,0:0:0:0:
320,192,153012,128,0,153312:0:0:0:0:
64,192,153312,128,6,153612:0:0:0:0:
448,192,153312,1,8,0:0:0:0:
192,192,153612,1,4,0:0:0:0:
320,192,153612,1,2,0:0:0:0:
320,192,153912,1,8,0:0:0:0:
448,192,153912,1,2,0:0:0:0:
64,192,154212,1,2,0:0:0:0:
192,192,154212,1,0,0:0:0:0:
64,192,154512,1,8,0:0:0:0:
448,192,154512,1,2,0:0:0:0:
320,192,154812,1,4,0:0:0:0:
448,192,154812,1,2,0:0:0:0:
64,192,155112,1,2,0:0:0:0:
320,192,155112,1,8,0:0:0:0:
64,192,155412,1,2,0:0:0:0:
192,192,155412,1,0,0:0:0:0:
192,192,155712,1,2,0:0:0:0:
448,192,155712,1,8,0:0:0:0:
320,192,156012,128,4,156312:0:0:0:0:
448,192,156012,1,2,0:0:0:0:
64,192,156312,128,10,156612:0:0:0:0:
192,192,156312,1,4,0:0:0:0:
320,192,156612,1,2,0:0:0:0:
448,192,156612,128,4,156912:0:0:0:0:
64,192,156912,1,10,0:0:0:0:
192,192,156912,128,4,157212:0:0:0:0:
320,192,157212,1,2,0:0:0:0:
448,192,157212,1,0,0:0:0:0:
64,192,157362,1,2,0:0:0:0:
192,192,157512,1,2,0:0:0:0:
448,192,157512,1,0,0:0:0:0:
320,192,157662,1,2,0:0:0:0:
64,192,157812,1,2,0:0:0:0:
192,192,157812,1,0,0:0:0:0:
448,192,157962,1,2,0:0:0:0:
64,192,158112,1,2,0:0:0:0:
320,192,158112,1,8,0:0:0:0:
192,192,158412,1,2,0:0:0:0:
448,192,158412,1,4,0:0:0:0:
320,192,158862,1,2,0:0:0:0:
64,192,159012,1,2,0:0:0:0:
192,192,159012,1,8,0:0:0:0:
448,192,159462,1,2,0:0:0:0:
320,192,159612,1,2,0:0:0:0:
192,192,159837,1,2,0:0:0:0:
320,192,160062,1,2,0:0:0:0:
64,192,160212,1,8,0:0:0:0:
448,192,160212,1,2,0:0:0:0:
64,192,160512,1,2,0:0:0:0:
192,192,160512,1,8,0:0:0:0:
320,192,160812,1,2,0:0:0:0:
448,192,160812,1,4,0:0:0:0:
192,192,161262,1,2,0:0:0:0:
320,192,161412,1,2,0:0:0:0:
448,192,161412,1,8,0:0:0:0:
64,192,161862,1,2,0:0:0:0:
192,192,162012,1,2,0:0:0:0:
320,192,162237,1,2,0:0:0:0:
192,192,162462,1,2,0:0:0:0:
64,192,162612,1,2,0:0:0:0:
448,192,162612,1,8,0:0:0:0:
320,192,162762,128,2,162912:0:0:0:0:
192,192,162912,128,6,163212:0:0:0:0:
320,192,163212,1,4,0:0:0:0:
448,192,163212,1,2,0:0:0:0:
192,192,163662,1,2,0:0:0:0:
320,192,163812,1,2,0:0:0:0:
448,192,163812,1,8,0:0:0:0:
64,192,164262,1,2,0:0:0:0:
192,192,164412,1,2,0:0:0:0:
320,192,164637,1,2,0:0:0:0:
192,192,164862,1,2,0:0:0:0:
64,192,165012,1,2,0:0:0:0:
448,192,165012,1,8,0:0:0:0:
320,192,165312,1,2,0:0:0:0:
448,192,165312,1,8,0:0:0:0:
64,192,165612,1,2,0:0:0:0:
192,192,165612,1,4,0:0:0:0:
320,192,166062,1,2,0:0:0:0:
64,192,166212,1,2,0:0:0:0:
192,192,166212,1,8,0:0:0:0:
448,192,166512,128,6,166812:0:0:0:0:
64,192,166812,1,2,0:0:0:0:
192,192,166812,128,4,167112:0:0:0:0:
320,192,167112,128,2,167412:0:0:0:0:
448,192,167112,1,4,0:0:0:0:
64,192,167412,128,2,167712:0:0:0:0:
192,192,167412,1,4,0:0:0:0:
320,192,167712,1,6,0:0:0:0:
448,192,167712,128,8,168012:0:0:0:0:
64,192,168012,1,4,0:0:0:25:soft-hitfinish.wav
192,192,168012,128,2,168312:0:0:0:25:soft-hitwhistle.wav
448,192,168312,128,0,168612:0:0:0:0:
320,192,168612,1,0,0:0:0:0:
64,192,168912,1,0,0:0:0:0:
448,192,169212,1,0,0:0:0:0:
192,192,169512,128,0,169812:0:0:0:0:
448,192,169812,1,0,0:0:0:0:
320,192,170112,1,0,0:0:0:0:
64,192,170412,1,0,0:0:0:0:
320,192,170712,128,0,171012:0:0:0:0:
192,192,171012,128,0,171312:0:0:0:0:
448,192,171312,128,0,171612:0:0:0:0:
320,192,171612,1,0,0:0:0:0:
64,192,171912,128,0,172212:0:0:0:0:
448,192,172212,1,0,0:0:0:0:
192,192,172512,1,0,0:0:0:0:
320,192,172812,128,0,173112:0:0:0:0:
64,192,173112,128,0,173412:0:0:0:0:
192,192,173412,1,0,0:0:0:0:
448,192,173712,1,0,0:0:0:0:
64,192,174012,1,0,0:0:0:0:
320,192,174312,128,0,174612:0:0:0:0:
64,192,174612,1,0,0:0:0:0:
192,192,174912,1,0,0:0:0:0:
448,192,175212,1,0,0:0:0:0:
192,192,175512,128,0,175812:0:0:0:0:
320,192,175812,128,0,176112:0:0:0:0:
64,192,176112,128,0,176412:0:0:0:0:
192,192,176412,128,0,176712:0:0:0:0:
448,192,176712,128,0,177012:0:0:0:0:
64,192,177012,128,0,177312:0:0:0:0:
320,192,177312,128,0,177612:0:0:0:0:
64,192,177612,128,0,182412:0:0:0:0:
192,192,177612,128,0,182412:0:0:0:0:
