osu file format v14

[General]
AudioFilename: audio.mp3
AudioLeadIn: 0
PreviewTime: 100812
Countdown: 0
SampleSet: Soft
StackLeniency: 0.7
Mode: 3
LetterboxInBreaks: 0
SpecialStyle: 0
WidescreenStoryboard: 1

[Editor]
Bookmarks: 2412,12012,21612,31212,33612,36012,38412,40812,43212,48012,52812,57612,62412,72012,81612,91212,100812,110412,115212,120012,129612,139212,144012,148812,153612,156012,158412,168012,177612
DistanceSpacing: 3
BeatDivisor: 4
GridSize: 16
TimelineZoom: 1.499999

[Metadata]
Title:Odin
TitleUnicode:Odin
Artist:Gram
ArtistUnicode:Gram
Creator:cai_ji_ccc
Version:GOD
Source:WACCA Reverse
Tags:mappers' guild mg electronic instrumental video game featured artist fa j-core hardcore tano*c djgenki dj genki gnkcd-015 comic market c97 ln long notes
BeatmapID:4115385
BeatmapSetID:1981845

[Difficulty]
HPDrainRate:8.5
CircleSize:4
OverallDifficulty:8
ApproachRate:5
SliderMultiplier:1.4
SliderTickRate:1

[Events]
//Background and Video events
0,0,"1682330744763.jpg",0,0
//Break Periods
//Storyboard Layer 0 (Background)
//Storyboard Layer 1 (Fail)
//Storyboard Layer 2 (Pass)
//Storyboard Layer 3 (Foreground)
//Storyboard Layer 4 (Overlay)
//Storyboard Sound Samples

[TimingPoints]
2412,300,4,2,1,35,1,0
62412,-100,4,2,1,35,0,1
81612,-100,4,2,1,35,0,0
120012,-100,4,2,1,35,0,1
138012,-100,4,2,1,35,0,0
139212,-100,4,2,1,35,0,1
158412,-100,4,2,1,35,0,0

[HitObjects]
64,192,2412,128,2,2462:0:0:0:20:soft-hitwhistle.wav
448,192,2412,128,0,2462:0:0:0:0:
192,192,2562,128,0,2612:0:0:0:0:
320,192,2712,128,0,2762:0:0:0:0:
64,192,2862,128,0,2912:0:0:0:0:
192,192,3012,128,0,3062:0:0:0:0:
448,192,3012,128,0,3062:0:0:0:0:
320,192,3162,128,0,3212:0:0:0:0:
64,192,3312,128,0,3362:0:0:0:0:
192,192,3312,128,0,3362:0:0:0:0:
448,192,3462,128,0,3512:0:0:0:0:
192,192,3612,128,0,3662:0:0:0:0:
320,192,3612,128,0,3662:0:0:0:0:
64,192,3762,128,0,3812:0:0:0:0:
448,192,3912,128,0,3962:0:0:0:0:
192,192,4062,128,0,4112:0:0:0:0:
320,192,4212,128,0,4262:0:0:0:0:
448,192,4212,128,0,4262:0:0:0:0:
64,192,4362,128,0,4412:0:0:0:0:
192,192,4512,128,0,4562:0:0:0:0:
320,192,4512,128,0,4562:0:0:0:0:
448,192,4662,128,0,4712:0:0:0:0:
64,192,4812,128,0,4862:0:0:0:0:
192,192,4812,128,0,4862:0:0:0:0:
448,192,4962,128,0,5012:0:0:0:0:
64,192,5112,128,0,5162:0:0:0:0:
320,192,5112,128,0,5162:0:0:0:0:
192,192,5262,128,0,5312:0:0:0:0:
320,192,5412,128,0,5462:0:0:0:0:
448,192,5412,128,0,5462:0:0:0:0:
64,192,5562,128,0,5612:0:0:0:0:
448,192,5562,128,0,5612:0:0:0:0:
64,192,5712,128,0,5762:0:0:0:0:
192,192,5712,128,0,5762:0:0:0:0:
192,192,5862,128,0,5912:0:0:0:0:
320,192,5862,128,0,5912:0:0:0:0:
320,192,6012,128,0,6062:0:0:0:0:
448,192,6012,128,0,6062:0:0:0:0:
192,192,6162,128,0,6212:0:0:0:0:
64,192,6312,128,0,6362:0:0:0:0:
448,192,6312,128,0,6362:0:0:0:0:
320,192,6462,128,0,6512:0:0:0:0:
448,192,6462,128,0,6512:0:0:0:0:
64,192,6612,128,0,6662:0:0:0:0:
320,192,6612,128,0,6662:0:0:0:0:
192,192,6762,128,0,6812:0:0:0:0:
448,192,6912,128,0,6962:0:0:0:0:
320,192,7062,128,0,7112:0:0:0:0:
64,192,7212,128,0,7287:0:0:0:0:
192,192,7212,128,0,7287:0:0:0:0:
320,192,7362,128,0,7437:0:0:0:0:
64,192,7512,128,0,7587:0:0:0:0:
448,192,7512,128,0,7587:0:0:0:0:
192,192,7662,128,0,7737:0:0:0:0:
64,192,7812,128,0,7887:0:0:0:0:
320,192,7812,128,0,7887:0:0:0:0:
64,192,7962,128,0,8037:0:0:0:0:
192,192,8112,128,0,8187:0:0:0:0:
448,192,8112,128,0,8187:0:0:0:0:
448,192,8262,128,0,8337:0:0:0:0:
64,192,8412,128,0,8487:0:0:0:0:
320,192,8412,128,0,8487:0:0:0:0:
320,192,8562,128,0,8637:0:0:0:0:
64,192,8712,128,0,8787:0:0:0:0:
192,192,8712,128,0,8787:0:0:0:0:
192,192,8862,128,0,8937:0:0:0:0:
320,192,8862,128,0,8937:0:0:0:0:
320,192,9012,128,0,9087:0:0:0:0:
448,192,9012,128,0,9087:0:0:0:0:
448,192,9162,128,0,9237:0:0:0:0:
64,192,9312,128,0,9387:0:0:0:0:
320,192,9312,128,0,9387:0:0:0:0:
64,192,9462,128,0,9537:0:0:0:0:
192,192,9612,128,0,9687:0:0:0:0:
448,192,9612,128,0,9687:0:0:0:0:
192,192,9762,128,0,9837:0:0:0:0:
320,192,9912,128,0,9987:0:0:0:0:
448,192,9912,128,0,9987:0:0:0:0:
64,192,10062,128,0,10137:0:0:0:0:
320,192,10062,128,0,10137:0:0:0:0:
64,192,10212,128,0,10287:0:0:0:0:
448,192,10212,128,0,10287:0:0:0:0:
192,192,10362,128,0,10437:0:0:0:0:
448,192,10362,128,0,10437:0:0:0:0:
64,192,10512,128,0,10587:0:0:0:0:
320,192,10512,128,0,10587:0:0:0:0:
64,192,10662,128,0,10737:0:0:0:0:
192,192,10662,128,0,10737:0:0:0:0:
320,192,10812,128,0,12012:0:0:0:0:
448,192,10812,128,0,10887:0:0:0:0:
64,192,10962,128,0,11037:0:0:0:0:
448,192,10962,128,0,11037:0:0:0:0:
64,192,11112,128,0,11187:0:0:0:0:
192,192,11112,128,0,11187:0:0:0:0:
192,192,11262,128,0,11337:0:0:0:0:
448,192,11262,128,0,11337:0:0:0:0:
64,192,11412,128,0,11487:0:0:0:0:
448,192,11412,128,0,11487:0:0:0:0:
64,192,11562,128,0,11637:0:0:0:0:
192,192,11562,128,0,11637:0:0:0:0:
192,192,11712,128,0,11787:0:0:0:0:
448,192,11712,128,0,11787:0:0:0:0:
448,192,11862,128,0,11937:0:0:0:0:
64,192,12012,128,4,12162:0:0:0:35:soft-hitfinish.wav
192,192,12012,1,2,0:0:0:35:soft-hitwhistle.wav
448,192,12012,128,0,12162:0:0:0:0:
192,192,12162,128,0,12312:0:0:0:0:
320,192,12237,128,0,12387:0:0:0:0:
64,192,12312,128,0,12462:0:0:0:0:
448,192,12312,128,0,12462:0:0:0:0:
192,192,12462,128,0,12612:0:0:0:0:
64,192,12612,128,2,12762:0:0:0:0:
320,192,12612,128,4,12762:0:0:0:0:
448,192,12612,128,0,12912:0:0:0:0:
192,192,12762,1,0,0:0:0:0:
64,192,12912,128,2,13062:0:0:0:0:
192,192,12912,128,4,13212:0:0:0:0:
320,192,12912,128,0,13062:0:0:0:0:
448,192,13062,1,0,0:0:0:0:
64,192,13212,128,2,13362:0:0:0:0:
320,192,13212,128,4,13362:0:0:0:0:
448,192,13212,128,0,13512:0:0:0:0:
192,192,13362,1,0,0:0:0:0:
64,192,13512,128,0,13662:0:0:0:0:
320,192,13512,128,0,13587:0:0:0:0:
192,192,13587,128,0,13737:0:0:0:0:
448,192,13662,128,0,13737:0:0:0:0:
320,192,13737,128,0,13812:0:0:0:0:
64,192,13812,128,2,14112:0:0:0:0:
192,192,13812,128,4,13962:0:0:0:0:
448,192,13812,128,0,13962:0:0:0:0:
320,192,13962,1,0,0:0:0:0:
192,192,14112,128,2,14262:0:0:0:0:
320,192,14112,128,4,14412:0:0:0:0:
448,192,14112,128,0,14262:0:0:0:0:
64,192,14262,1,0,0:0:0:0:
64,192,14412,128,2,14712:0:0:0:0:
192,192,14412,128,4,14562:0:0:0:0:
448,192,14412,128,0,14562:0:0:0:0:
320,192,14562,1,0,0:0:0:0:
192,192,14712,128,0,14787:0:0:0:0:
448,192,14712,128,0,14862:0:0:0:0:
320,192,14787,128,0,14937:0:0:0:0:
64,192,14862,128,0,14937:0:0:0:0:
192,192,14937,128,0,15012:0:0:0:0:
64,192,15012,128,2,15087:0:0:0:0:
320,192,15012,128,4,15087:0:0:0:0:
448,192,15012,128,0,15237:0:0:0:0:
64,192,15162,128,2,15237:0:0:0:0:
192,192,15162,128,4,15237:0:0:0:0:
320,192,15162,128,0,15387:0:0:0:0:
64,192,15312,128,2,15387:0:0:0:0:
192,192,15312,128,4,15537:0:0:0:0:
448,192,15312,128,0,15387:0:0:0:0:
64,192,15462,128,0,15687:0:0:0:0:
320,192,15462,128,0,15537:0:0:0:0:
192,192,15612,128,2,15687:0:0:0:0:
320,192,15612,128,4,15687:0:0:0:0:
448,192,15612,128,0,15912:0:0:0:0:
64,192,15837,128,2,15912:0:0:0:0:
192,192,15837,128,4,16062:0:0:0:0:
320,192,15837,128,0,15912:0:0:0:0:
64,192,16062,128,2,16137:0:0:0:0:
320,192,16062,128,4,16287:0:0:0:0:
448,192,16062,128,0,16137:0:0:0:0:
64,192,16212,128,2,16287:0:0:0:0:
192,192,16212,128,4,16287:0:0:0:0:
448,192,16212,128,0,16287:0:0:0:0:
448,192,16362,1,2,0:0:0:0:
320,192,16399,1,2,0:0:0:0:
192,192,16437,1,2,0:0:0:0:
64,192,16474,1,2,0:0:0:0:
320,192,16512,1,2,0:0:0:0:
448,192,16512,1,4,0:0:0:0:
64,192,16587,1,2,0:0:0:0:
192,192,16587,1,0,0:0:0:0:
320,192,16662,1,2,0:0:0:0:
448,192,16662,1,0,0:0:0:0:
192,192,16737,1,2,0:0:0:0:
64,192,16812,128,2,16962:0:0:0:0:
320,192,16812,1,4,0:0:0:0:
448,192,16812,128,0,16962:0:0:0:0:
320,192,16962,128,0,17112:0:0:0:0:
192,192,17037,128,0,17187:0:0:0:0:
64,192,17112,128,0,17262:0:0:0:0:
448,192,17112,128,0,17262:0:0:0:0:
320,192,17262,128,0,17412:0:0:0:0:
64,192,17412,128,2,17712:0:0:0:0:
192,192,17412,128,4,17562:0:0:0:0:
448,192,17412,128,0,17562:0:0:0:0:
320,192,17562,1,0,0:0:0:0:
192,192,17712,128,2,17862:0:0:0:0:
320,192,17712,128,4,18012:0:0:0:0:
448,192,17712,128,0,17862:0:0:0:0:
64,192,17862,1,0,0:0:0:0:
64,192,18012,128,2,18312:0:0:0:0:
192,192,18012,128,4,18162:0:0:0:0:
448,192,18012,128,0,18162:0:0:0:0:
320,192,18162,1,0,0:0:0:0:
192,192,18312,128,0,18387:0:0:0:0:
448,192,18312,128,0,18462:0:0:0:0:
320,192,18387,128,0,18537:0:0:0:0:
64,192,18462,128,0,18537:0:0:0:0:
192,192,18537,128,0,18612:0:0:0:0:
64,192,18612,128,2,18762:0:0:0:0:
320,192,18612,128,4,18762:0:0:0:0:
448,192,18612,128,0,18912:0:0:0:0:
192,192,18762,1,0,0:0:0:0:
64,192,18912,128,2,19062:0:0:0:0:
192,192,18912,128,4,19212:0:0:0:0:
320,192,18912,128,0,19062:0:0:0:0:
448,192,19062,1,0,0:0:0:0:
64,192,19212,128,2,19362:0:0:0:0:
320,192,19212,128,4,19362:0:0:0:0:
448,192,19212,128,0,19512:0:0:0:0:
192,192,19362,1,0,0:0:0:0:
64,192,19512,128,0,19662:0:0:0:0:
320,192,19512,128,0,19587:0:0:0:0:
192,192,19587,128,0,19737:0:0:0:0:
448,192,19662,128,0,19737:0:0:0:0:
320,192,19737,128,0,19812:0:0:0:0:
64,192,19812,128,2,20037:0:0:0:0:
192,192,19812,128,4,19887:0:0:0:0:
448,192,19812,128,0,19887:0:0:0:0:
192,192,19962,128,2,20187:0:0:0:0:
320,192,19962,128,4,20037:0:0:0:0:
448,192,19962,128,0,20037:0:0:0:0:
64,192,20112,128,2,20187:0:0:0:0:
320,192,20112,128,4,20337:0:0:0:0:
448,192,20112,128,0,20187:0:0:0:0:
192,192,20262,128,0,20337:0:0:0:0:
448,192,20262,128,0,20487:0:0:0:0:
64,192,20412,128,4,20637:0:0:0:0:
192,192,20412,128,2,20487:0:0:0:0:
320,192,20412,128,0,20487:0:0:0:0:
192,192,20562,128,2,20637:0:0:0:0:
320,192,20562,128,4,20637:0:0:0:0:
448,192,20562,128,0,20712:0:0:0:0:
64,192,20712,128,8,20862:0:0:0:0:
192,192,20712,128,2,20787:0:0:0:0:
320,192,20712,128,4,20787:0:0:0:0:
320,192,20862,128,2,20937:0:0:0:0:
448,192,20862,128,0,20937:0:0:0:0:
192,192,20937,128,2,21087:0:0:0:0:
64,192,21012,128,2,21162:0:0:0:0:
320,192,21012,128,8,21087:0:0:0:0:
448,192,21012,128,4,21087:0:0:0:0:
192,192,21162,128,2,21237:0:0:0:0:
448,192,21162,128,0,21312:0:0:0:0:
320,192,21237,128,2,21312:0:0:0:0:
64,192,21312,128,2,21387:0:0:0:0:
192,192,21312,128,4,21387:0:0:0:0:
320,192,21387,128,2,21462:0:0:0:0:
448,192,21387,128,0,21462:0:0:0:0:
64,192,21462,128,2,21537:0:0:0:0:
192,192,21462,128,0,21537:0:0:0:0:
320,192,21537,128,2,21612:0:0:0:0:
64,192,21612,1,2,0:0:0:0:
192,192,21612,128,4,21762:0:0:0:0:
448,192,21612,128,0,22812:0:0:0:0:
320,192,21762,128,0,21912:0:0:0:0:
64,192,21912,128,0,22062:0:0:0:0:
192,192,22062,128,0,22212:0:0:0:0:
64,192,22212,128,0,22362:0:0:0:0:
320,192,22212,128,0,22362:0:0:0:0:
192,192,22362,1,0,0:0:0:0:
64,192,22512,128,0,22662:0:0:0:0:
192,192,22512,128,0,22662:0:0:0:0:
320,192,22662,1,0,0:0:0:0:
64,192,22812,128,0,24012:0:0:0:0:
320,192,22812,128,0,23112:0:0:0:0:
192,192,22962,1,0,0:0:0:0:
448,192,23112,128,0,23262:0:0:0:0:
192,192,23262,128,0,23412:0:0:0:0:
320,192,23412,128,0,23562:0:0:0:0:
448,192,23412,128,0,23562:0:0:0:0:
192,192,23562,1,0,0:0:0:0:
192,192,23712,128,0,23862:0:0:0:0:
448,192,23712,128,0,23862:0:0:0:0:
320,192,23862,1,0,0:0:0:0:
320,192,24012,128,0,24312:0:0:0:0:
448,192,24012,128,0,25212:0:0:0:0:
192,192,24162,1,0,0:0:0:0:
64,192,24312,128,0,24462:0:0:0:0:
320,192,24462,128,0,24612:0:0:0:0:
64,192,24612,128,0,24762:0:0:0:0:
192,192,24612,128,0,24762:0:0:0:0:
320,192,24762,128,0,24912:0:0:0:0:
64,192,24912,128,0,25062:0:0:0:0:
192,192,25062,128,0,25212:0:0:0:0:
64,192,25212,128,0,25512:0:0:0:0:
320,192,25212,128,0,26412:0:0:0:0:
448,192,25362,1,0,0:0:0:0:
192,192,25512,128,0,25662:0:0:0:0:
448,192,25662,128,0,25812:0:0:0:0:
64,192,25812,1,0,0:0:0:0:
192,192,25812,128,0,26112:0:0:0:0:
448,192,25962,1,0,0:0:0:0:
64,192,26112,1,0,0:0:0:0:
448,192,26112,1,0,0:0:0:0:
192,192,26262,1,0,0:0:0:0:
64,192,26412,1,2,0:0:0:0:
192,192,26412,128,4,27612:0:0:0:0:
448,192,26412,128,0,26562:0:0:0:0:
320,192,26562,128,0,26712:0:0:0:0:
64,192,26712,128,0,26862:0:0:0:0:
448,192,26862,128,0,27012:0:0:0:0:
64,192,27012,128,0,27162:0:0:0:0:
320,192,27012,128,0,27162:0:0:0:0:
448,192,27162,1,0,0:0:0:0:
320,192,27312,128,0,27462:0:0:0:0:
448,192,27312,128,0,27462:0:0:0:0:
64,192,27462,1,0,0:0:0:0:
64,192,27612,128,0,28812:0:0:0:0:
320,192,27612,128,0,27912:0:0:0:0:
192,192,27762,1,0,0:0:0:0:
448,192,27912,128,0,28062:0:0:0:0:
320,192,28062,128,0,28212:0:0:0:0:
192,192,28212,128,0,28362:0:0:0:0:
448,192,28212,128,0,28362:0:0:0:0:
320,192,28362,1,0,0:0:0:0:
320,192,28512,128,0,28662:0:0:0:0:
448,192,28512,128,0,28662:0:0:0:0:
192,192,28662,1,0,0:0:0:0:
192,192,28812,128,0,29112:0:0:0:0:
448,192,28812,128,0,30012:0:0:0:0:
320,192,28962,1,0,0:0:0:0:
64,192,29112,128,0,29262:0:0:0:0:
320,192,29262,128,0,29412:0:0:0:0:
64,192,29412,128,0,29562:0:0:0:0:
192,192,29412,128,0,29562:0:0:0:0:
320,192,29562,128,0,29712:0:0:0:0:
64,192,29712,128,0,29862:0:0:0:0:
192,192,29862,128,0,30012:0:0:0:0:
64,192,30012,1,0,0:0:0:0:
320,192,30012,128,0,30162:0:0:0:0:
192,192,30162,128,0,30312:0:0:0:0:
448,192,30162,1,0,0:0:0:0:
320,192,30312,1,0,0:0:0:0:
448,192,30312,128,0,30462:0:0:0:0:
64,192,30462,128,0,30612:0:0:0:0:
192,192,30462,1,0,0:0:0:0:
448,192,30612,1,2,0:0:0:0:
320,192,30649,1,2,0:0:0:0:
192,192,30687,1,2,0:0:0:0:
64,192,30724,1,2,0:0:0:0:
320,192,30762,1,2,0:0:0:0:
448,192,30762,1,0,0:0:0:0:
64,192,30837,1,2,0:0:0:0:
192,192,30837,1,0,0:0:0:0:
320,192,30912,1,2,0:0:0:0:
448,192,30912,1,4,0:0:0:0:
64,192,30987,1,2,0:0:0:0:
192,192,30987,1,0,0:0:0:0:
320,192,31062,1,2,0:0:0:0:
448,192,31062,1,0,0:0:0:0:
192,192,31137,1,2,0:0:0:0:
64,192,31212,128,2,31362:0:0:0:0:
320,192,31212,128,4,31512:0:0:0:0:
448,192,31212,1,0,0:0:0:0:
192,192,31362,128,0,31662:0:0:0:0:
64,192,31512,128,8,31812:0:0:0:0:
448,192,31512,1,0,0:0:0:0:
320,192,31662,128,0,31812:0:0:0:0:
192,192,31812,1,8,0:0:0:0:
448,192,31812,128,0,32262:0:0:0:0:
192,192,31962,1,0,0:0:0:0:
64,192,32112,128,8,32562:0:0:0:0:
320,192,32112,1,0,0:0:0:0:
320,192,32262,1,0,0:0:0:0:
192,192,32412,1,8,0:0:0:0:
448,192,32412,128,0,32712:0:0:0:0:
192,192,32562,1,0,0:0:0:0:
64,192,32712,128,8,33012:0:0:0:0:
320,192,32712,128,0,32862:0:0:0:0:
192,192,32862,128,0,33012:0:0:0:0:
320,192,33012,128,8,33462:0:0:0:0:
448,192,33012,1,0,0:0:0:0:
448,192,33162,1,0,0:0:0:0:
64,192,33312,1,8,0:0:0:0:
192,192,33312,128,0,33762:0:0:0:0:
64,192,33462,1,0,0:0:0:0:
64,192,33612,1,2,0:0:0:0:
320,192,33612,128,4,33912:0:0:0:0:
448,192,33612,1,0,0:0:0:0:
448,192,33762,1,0,0:0:0:0:
64,192,33912,128,8,34062:0:0:0:0:
192,192,33912,128,0,34212:0:0:0:0:
448,192,34062,128,0,34362:0:0:0:0:
64,192,34212,128,8,34362:0:0:0:0:
320,192,34212,128,0,34512:0:0:0:0:
192,192,34362,128,0,34662:0:0:0:0:
64,192,34512,128,8,34812:0:0:0:0:
448,192,34512,128,0,34662:0:0:0:0:
320,192,34662,128,0,34812:0:0:0:0:
192,192,34812,1,8,0:0:0:0:
448,192,34812,128,0,35112:0:0:0:0:
192,192,34962,1,0,0:0:0:0:
64,192,35112,128,8,35412:0:0:0:0:
320,192,35112,128,0,35262:0:0:0:0:
192,192,35262,128,0,35412:0:0:0:0:
448,192,35412,1,8,0:0:0:0:
320,192,35449,1,8,0:0:0:0:
192,192,35487,1,8,0:0:0:0:
64,192,35524,1,8,0:0:0:0:
320,192,35562,1,2,0:0:0:0:
448,192,35562,1,0,0:0:0:0:
64,192,35637,1,2,0:0:0:0:
192,192,35637,1,0,0:0:0:0:
320,192,35712,1,2,0:0:0:0:
448,192,35712,1,8,0:0:0:0:
64,192,35787,1,2,0:0:0:0:
192,192,35787,1,0,0:0:0:0:
320,192,35862,1,2,0:0:0:0:
448,192,35862,1,0,0:0:0:0:
192,192,35937,1,2,0:0:0:0:
64,192,36012,128,2,36237:0:0:0:0:
320,192,36012,128,4,36087:0:0:0:0:
448,192,36012,128,0,36087:0:0:0:0:
192,192,36162,128,8,36387:0:0:0:0:
320,192,36162,128,0,36237:0:0:0:0:
448,192,36162,128,0,36237:0:0:0:0:
64,192,36312,128,8,36537:0:0:0:0:
320,192,36312,128,0,36387:0:0:0:0:
448,192,36312,128,0,36387:0:0:0:0:
192,192,36462,128,8,36687:0:0:0:0:
320,192,36462,128,0,36537:0:0:0:0:
448,192,36462,128,0,36537:0:0:0:0:
64,192,36612,128,8,36687:0:0:0:0:
320,192,36612,128,0,36837:0:0:0:0:
448,192,36612,128,0,36987:0:0:0:0:
64,192,36762,128,8,36837:0:0:0:0:
192,192,36762,128,0,36837:0:0:0:0:
64,192,36912,128,8,36987:0:0:0:0:
192,192,36912,128,0,37137:0:0:0:0:
320,192,36912,128,0,37287:0:0:0:0:
64,192,37062,128,8,37137:0:0:0:0:
448,192,37062,128,0,37137:0:0:0:0:
64,192,37212,128,4,37437:0:0:0:0:
192,192,37212,128,2,37587:0:0:0:0:
448,192,37212,128,0,37287:0:0:0:0:
320,192,37362,128,8,37437:0:0:0:0:
448,192,37362,128,0,37437:0:0:0:0:
64,192,37512,128,8,37587:0:0:0:0:
320,192,37512,128,0,37587:0:0:0:0:
448,192,37512,128,0,37737:0:0:0:0:
64,192,37662,128,8,37737:0:0:0:0:
192,192,37662,128,0,37737:0:0:0:0:
320,192,37662,128,0,37887:0:0:0:0:
64,192,37812,128,8,38187:0:0:0:0:
192,192,37812,128,0,38037:0:0:0:0:
448,192,37812,128,0,37887:0:0:0:0:
320,192,37962,128,8,38037:0:0:0:0:
448,192,37962,128,0,38037:0:0:0:0:
192,192,38112,128,8,38412:0:0:0:0:
320,192,38112,128,0,38337:0:0:0:0:
448,192,38112,128,0,38187:0:0:0:0:
64,192,38262,128,8,38337:0:0:0:0:
448,192,38262,128,0,38337:0:0:0:0:
64,192,38412,128,4,38562:0:0:0:0:
320,192,38412,128,2,38487:0:0:0:0:
448,192,38412,128,0,38487:0:0:0:0:
192,192,38487,128,8,38562:0:0:0:0:
320,192,38562,128,8,38637:0:0:0:0:
448,192,38562,128,0,38637:0:0:0:0:
192,192,38637,128,8,38712:0:0:0:0:
64,192,38712,128,2,38787:0:0:0:0:
320,192,38712,128,4,38862:0:0:0:0:
448,192,38712,128,0,38787:0:0:0:0:
192,192,38787,128,8,38937:0:0:0:0:
64,192,38862,128,8,38937:0:0:0:0:
448,192,38862,128,0,38937:0:0:0:0:
320,192,38937,128,8,39012:0:0:0:0:
64,192,39012,128,4,39087:0:0:0:0:
192,192,39012,128,2,39087:0:0:0:0:
448,192,39012,128,0,39162:0:0:0:0:
320,192,39087,128,8,39162:0:0:0:0:
64,192,39162,128,8,39237:0:0:0:0:
192,192,39162,128,0,39237:0:0:0:0:
320,192,39237,128,8,39312:0:0:0:0:
64,192,39312,128,4,39387:0:0:0:0:
192,192,39312,128,2,39462:0:0:0:0:
448,192,39312,128,0,39387:0:0:0:0:
320,192,39387,128,8,39537:0:0:0:0:
64,192,39462,128,8,39537:0:0:0:0:
448,192,39462,128,0,39537:0:0:0:0:
192,192,39537,128,8,39612:0:0:0:0:
320,192,39612,128,0,39687:0:0:0:0:
448,192,39612,128,0,39687:0:0:0:0:
192,192,39762,128,0,39837:0:0:0:0:
320,192,39762,128,0,39837:0:0:0:0:
64,192,39912,128,0,39987:0:0:0:0:
192,192,39912,128,0,39987:0:0:0:0:
320,192,40062,128,0,40137:0:0:0:0:
448,192,40062,128,0,40137:0:0:0:0:
64,192,40212,128,0,40287:0:0:0:0:
448,192,40212,128,0,40287:0:0:0:0:
192,192,40362,128,0,40437:0:0:0:0:
320,192,40362,128,0,40437:0:0:0:0:
64,192,40512,128,0,40587:0:0:0:0:
192,192,40512,128,0,40587:0:0:0:0:
320,192,40662,128,0,40737:0:0:0:0:
64,192,40812,1,4,0:0:0:0:
192,192,40812,1,2,0:0:0:0:
448,192,40812,128,0,41112:0:0:0:0:
320,192,41112,128,0,41187:0:0:0:0:
64,192,41187,128,0,41262:0:0:0:0:
192,192,41262,128,0,41337:0:0:0:0:
448,192,41337,128,0,41412:0:0:0:0:
320,192,41412,128,0,41487:0:0:0:0:
64,192,41487,128,0,41562:0:0:0:0:
192,192,41562,128,0,41637:0:0:0:0:
448,192,41637,128,0,41787:0:0:0:0:
320,192,41712,128,0,41862:0:0:0:0:
64,192,41787,128,0,41937:0:0:0:0:
192,192,41862,128,0,42012:0:0:0:0:
448,192,41937,128,0,42087:0:0:0:0:
320,192,42012,128,0,42162:0:0:0:0:
192,192,42087,128,0,42237:0:0:0:0:
64,192,42162,128,0,42312:0:0:0:0:
448,192,42237,128,0,42462:0:0:0:0:
320,192,42312,128,0,42537:0:0:0:0:
192,192,42387,128,0,42612:0:0:0:0:
64,192,42462,128,0,42687:0:0:0:0:
448,192,42537,128,0,42762:0:0:0:0:
320,192,42612,128,0,42837:0:0:0:0:
192,192,42687,128,0,42912:0:0:0:0:
64,192,42762,128,0,42912:0:0:0:0:
320,192,42912,1,8,0:0:0:0:
448,192,42912,1,0,0:0:0:0:
64,192,43212,1,4,0:0:0:0:
192,192,43212,1,2,0:0:0:0:
448,192,43212,1,0,0:0:0:0:
320,192,43287,1,0,0:0:0:0:
64,192,43362,1,0,0:0:0:0:
320,192,43437,1,0,0:0:0:0:
64,192,43512,1,8,0:0:0:0:
192,192,43512,1,2,0:0:0:0:
448,192,43512,1,0,0:0:0:0:
320,192,43587,1,0,0:0:0:0:
192,192,43662,1,0,0:0:0:0:
448,192,43737,1,0,0:0:0:0:
64,192,43812,1,2,0:0:0:0:
320,192,43812,1,0,0:0:0:0:
192,192,43887,1,0,0:0:0:0:
448,192,43962,1,0,0:0:0:0:
192,192,44037,1,0,0:0:0:0:
64,192,44112,1,8,0:0:0:0:
320,192,44112,1,2,0:0:0:0:
448,192,44112,1,0,0:0:0:0:
192,192,44187,1,0,0:0:0:0:
320,192,44262,1,0,0:0:0:0:
64,192,44337,1,0,0:0:0:0:
192,192,44412,1,2,0:0:0:0:
448,192,44412,1,0,0:0:0:0:
320,192,44487,1,0,0:0:0:0:
64,192,44562,1,0,0:0:0:0:
320,192,44637,1,0,0:0:0:0:
64,192,44712,1,8,0:0:0:0:
192,192,44712,1,2,0:0:0:0:
448,192,44712,1,0,0:0:0:0:
320,192,44787,1,0,0:0:0:0:
192,192,44862,1,0,0:0:0:0:
64,192,44937,1,0,0:0:0:0:
320,192,45012,1,2,0:0:0:0:
448,192,45012,1,0,0:0:0:0:
192,192,45087,1,0,0:0:0:0:
448,192,45162,1,0,0:0:0:0:
320,192,45237,1,0,0:0:0:0:
64,192,45312,1,8,0:0:0:0:
192,192,45312,1,2,0:0:0:0:
448,192,45312,1,0,0:0:0:0:
320,192,45387,1,0,0:0:0:0:
64,192,45462,1,0,0:0:0:0:
192,192,45537,1,0,0:0:0:0:
320,192,45612,1,2,0:0:0:0:
448,192,45612,1,0,0:0:0:0:
64,192,45687,1,0,0:0:0:0:
192,192,45762,1,0,0:0:0:0:
448,192,45837,1,0,0:0:0:0:
64,192,45912,1,2,0:0:0:0:
192,192,45912,1,8,0:0:0:0:
320,192,45912,1,0,0:0:0:0:
448,192,45987,1,0,0:0:0:0:
320,192,46062,1,0,0:0:0:0:
64,192,46137,1,0,0:0:0:0:
192,192,46212,1,2,0:0:0:0:
448,192,46212,1,0,0:0:0:0:
320,192,46287,1,0,0:0:0:0:
64,192,46362,1,0,0:0:0:0:
320,192,46437,1,0,0:0:0:0:
64,192,46512,1,2,0:0:0:0:
192,192,46512,1,8,0:0:0:0:
448,192,46512,1,0,0:0:0:0:
320,192,46587,1,0,0:0:0:0:
192,192,46662,1,0,0:0:0:0:
448,192,46737,1,0,0:0:0:0:
64,192,46812,1,2,0:0:0:0:
320,192,46812,1,0,0:0:0:0:
192,192,46887,1,0,0:0:0:0:
448,192,46962,1,0,0:0:0:0:
192,192,47037,1,0,0:0:0:0:
64,192,47112,1,8,0:0:0:0:
320,192,47112,1,2,0:0:0:0:
448,192,47112,1,0,0:0:0:0:
192,192,47187,1,0,0:0:0:0:
320,192,47262,1,0,0:0:0:0:
448,192,47337,1,0,0:0:0:0:
64,192,47412,1,2,0:0:0:0:
192,192,47412,1,0,0:0:0:0:
320,192,47487,1,0,0:0:0:0:
192,192,47562,1,0,0:0:0:0:
64,192,47637,1,0,0:0:0:0:
320,192,47712,1,6,0:0:0:0:
448,192,47712,1,8,0:0:0:0:
64,192,47787,1,2,0:0:0:0:
192,192,47787,1,0,0:0:0:0:
320,192,47862,1,2,0:0:0:0:
448,192,47862,1,0,0:0:0:0:
192,192,47937,1,2,0:0:0:0:
64,192,48012,1,2,0:0:0:0:
320,192,48012,1,4,0:0:0:0:
448,192,48012,1,0,0:0:0:0:
192,192,48087,1,0,0:0:0:0:
448,192,48162,1,0,0:0:0:0:
192,192,48237,1,0,0:0:0:0:
64,192,48312,1,2,0:0:0:0:
320,192,48312,1,8,0:0:0:0:
448,192,48312,1,0,0:0:0:0:
192,192,48387,1,0,0:0:0:0:
320,192,48462,1,0,0:0:0:0:
64,192,48537,1,0,0:0:0:0:
192,192,48612,1,2,0:0:0:0:
448,192,48612,1,0,0:0:0:0:
320,192,48687,1,0,0:0:0:0:
64,192,48762,1,0,0:0:0:0:
320,192,48837,1,0,0:0:0:0:
64,192,48912,1,2,0:0:0:0:
192,192,48912,1,8,0:0:0:0:
448,192,48912,1,0,0:0:0:0:
320,192,48987,1,0,0:0:0:0:
192,192,49062,1,0,0:0:0:0:
448,192,49137,1,0,0:0:0:0:
64,192,49212,1,2,0:0:0:0:
320,192,49212,1,0,0:0:0:0:
192,192,49287,1,0,0:0:0:0:
448,192,49362,1,0,0:0:0:0:
192,192,49437,1,0,0:0:0:0:
64,192,49512,1,8,0:0:0:0:
320,192,49512,1,2,0:0:0:0:
448,192,49512,1,0,0:0:0:0:
192,192,49587,1,0,0:0:0:0:
320,192,49662,1,0,0:0:0:0:
448,192,49737,1,0,0:0:0:0:
64,192,49812,1,2,0:0:0:0:
192,192,49812,1,0,0:0:0:0:
320,192,49887,1,0,0:0:0:0:
64,192,49962,1,0,0:0:0:0:
192,192,50037,1,0,0:0:0:0:
64,192,50112,1,8,0:0:0:0:
320,192,50112,1,2,0:0:0:0:
448,192,50112,1,0,0:0:0:0:
192,192,50187,1,0,0:0:0:0:
448,192,50262,1,0,0:0:0:0:
320,192,50337,1,0,0:0:0:0:
64,192,50412,1,2,0:0:0:0:
192,192,50412,1,0,0:0:0:0:
448,192,50487,1,0,0:0:0:0:
320,192,50562,1,0,0:0:0:0:
64,192,50637,1,0,0:0:0:0:
192,192,50712,1,2,0:0:0:0:
320,192,50712,1,8,0:0:0:0:
448,192,50712,1,0,0:0:0:0:
64,192,50787,1,0,0:0:0:0:
192,192,50862,1,0,0:0:0:0:
448,192,50937,1,0,0:0:0:0:
64,192,51012,1,2,0:0:0:0:
320,192,51012,1,0,0:0:0:0:
192,192,51087,1,0,0:0:0:0:
448,192,51162,1,0,0:0:0:0:
192,192,51237,1,0,0:0:0:0:
64,192,51312,1,2,0:0:0:0:
320,192,51312,1,8,0:0:0:0:
448,192,51312,1,0,0:0:0:0:
192,192,51387,1,0,0:0:0:0:
320,192,51462,1,0,0:0:0:0:
64,192,51537,1,0,0:0:0:0:
192,192,51612,1,2,0:0:0:0:
320,192,51612,1,4,0:0:0:0:
448,192,51612,1,0,0:0:0:0:
64,192,51687,1,0,0:0:0:0:
448,192,51762,1,0,0:0:0:0:
64,192,51837,1,4,0:0:0:0:
192,192,51837,1,2,0:0:0:0:
320,192,51837,1,0,0:0:0:0:
448,192,51912,1,8,0:0:0:0:
64,192,52062,1,4,0:0:0:0:
192,192,52062,1,2,0:0:0:0:
320,192,52062,1,0,0:0:0:0:
192,192,52212,1,4,0:0:0:0:
320,192,52212,1,2,0:0:0:0:
448,192,52212,1,0,0:0:0:0:
64,192,52362,1,4,0:0:0:0:
192,192,52362,1,2,0:0:0:0:
448,192,52362,1,0,0:0:0:0:
320,192,52512,1,6,0:0:0:0:
448,192,52512,1,8,0:0:0:0:
64,192,52587,1,2,0:0:0:0:
192,192,52587,1,0,0:0:0:0:
320,192,52662,1,2,0:0:0:0:
448,192,52662,1,0,0:0:0:0:
192,192,52737,1,2,0:0:0:0:
64,192,52812,1,2,0:0:0:0:
320,192,52812,128,4,52887:0:0:0:0:
448,192,52812,128,0,52887:0:0:0:0:
192,192,52887,1,0,0:0:0:0:
320,192,52962,128,0,53037:0:0:0:0:
448,192,52962,128,0,53037:0:0:0:0:
64,192,53037,1,0,0:0:0:0:
192,192,53112,128,8,53187:0:0:0:0:
448,192,53112,128,2,53187:0:0:0:0:
320,192,53187,1,0,0:0:0:0:
64,192,53262,128,0,53337:0:0:0:0:
448,192,53262,128,0,53337:0:0:0:0:
320,192,53337,1,0,0:0:0:0:
64,192,53412,128,2,53487:0:0:0:0:
192,192,53412,128,0,53487:0:0:0:0:
448,192,53487,1,0,0:0:0:0:
64,192,53562,128,0,53637:0:0:0:0:
192,192,53562,128,0,53637:0:0:0:0:
320,192,53637,1,0,0:0:0:0:
64,192,53712,128,8,53787:0:0:0:0:
448,192,53712,128,2,53787:0:0:0:0:
192,192,53787,1,0,0:0:0:0:
64,192,53862,128,0,53937:0:0:0:0:
320,192,53862,128,0,53937:0:0:0:0:
192,192,53937,1,0,0:0:0:0:
320,192,54012,128,2,54087:0:0:0:0:
448,192,54012,128,0,54087:0:0:0:0:
64,192,54087,1,0,0:0:0:0:
320,192,54162,128,0,54237:0:0:0:0:
448,192,54162,128,0,54237:0:0:0:0:
192,192,54237,1,0,0:0:0:0:
64,192,54312,128,2,54387:0:0:0:0:
448,192,54312,128,8,54387:0:0:0:0:
320,192,54387,1,0,0:0:0:0:
192,192,54462,128,0,54537:0:0:0:0:
448,192,54462,128,0,54537:0:0:0:0:
320,192,54537,1,0,0:0:0:0:
64,192,54612,128,2,54687:0:0:0:0:
192,192,54612,128,0,54687:0:0:0:0:
448,192,54687,1,0,0:0:0:0:
64,192,54762,128,0,54837:0:0:0:0:
192,192,54762,128,0,54837:0:0:0:0:
320,192,54837,1,0,0:0:0:0:
64,192,54912,128,2,54987:0:0:0:0:
448,192,54912,128,8,54987:0:0:0:0:
192,192,54987,1,0,0:0:0:0:
64,192,55062,128,0,55137:0:0:0:0:
320,192,55062,128,0,55137:0:0:0:0:
192,192,55137,1,0,0:0:0:0:
64,192,55212,1,2,0:0:0:0:
320,192,55212,128,4,55287:0:0:0:0:
448,192,55212,128,0,55287:0:0:0:0:
192,192,55287,1,0,0:0:0:0:
320,192,55362,128,0,55437:0:0:0:0:
448,192,55362,128,0,55437:0:0:0:0:
64,192,55437,1,0,0:0:0:0:
192,192,55512,128,8,55587:0:0:0:0:
448,192,55512,128,2,55587:0:0:0:0:
320,192,55587,1,0,0:0:0:0:
64,192,55662,128,0,55737:0:0:0:0:
448,192,55662,128,0,55737:0:0:0:0:
320,192,55737,1,0,0:0:0:0:
64,192,55812,128,2,55887:0:0:0:0:
192,192,55812,128,0,55887:0:0:0:0:
448,192,55887,1,0,0:0:0:0:
64,192,55962,128,0,56037:0:0:0:0:
192,192,55962,128,0,56037:0:0:0:0:
320,192,56037,1,0,0:0:0:0:
64,192,56112,128,8,56187:0:0:0:0:
448,192,56112,128,2,56187:0:0:0:0:
192,192,56187,1,0,0:0:0:0:
64,192,56262,128,0,56337:0:0:0:0:
320,192,56262,128,0,56337:0:0:0:0:
192,192,56337,1,0,0:0:0:0:
320,192,56412,128,2,56487:0:0:0:0:
448,192,56412,128,0,56487:0:0:0:0:
64,192,56487,1,0,0:0:0:0:
320,192,56562,128,0,56637:0:0:0:0:
448,192,56562,128,0,56637:0:0:0:0:
192,192,56637,1,0,0:0:0:0:
64,192,56712,128,2,56787:0:0:0:0:
448,192,56712,128,8,56787:0:0:0:0:
320,192,56787,1,0,0:0:0:0:
192,192,56862,128,0,56937:0:0:0:0:
448,192,56862,128,0,56937:0:0:0:0:
320,192,56937,1,0,0:0:0:0:
64,192,57012,128,2,57087:0:0:0:0:
192,192,57012,128,0,57087:0:0:0:0:
448,192,57087,1,0,0:0:0:0:
64,192,57162,128,0,57237:0:0:0:0:
192,192,57162,128,0,57237:0:0:0:0:
320,192,57237,1,0,0:0:0:0:
64,192,57312,128,10,57387:0:0:0:0:
448,192,57312,128,4,57387:0:0:0:0:
192,192,57387,1,2,0:0:0:0:
64,192,57462,128,2,57537:0:0:0:0:
320,192,57462,128,0,57537:0:0:0:0:
448,192,57462,1,0,0:0:0:0:
192,192,57537,1,2,0:0:0:0:
64,192,57612,128,2,57762:0:0:0:0:
320,192,57612,128,4,57687:0:0:0:0:
448,192,57612,128,0,57687:0:0:0:0:
192,192,57687,128,0,57762:0:0:0:0:
320,192,57762,128,0,57912:0:0:0:0:
448,192,57762,128,0,57837:0:0:0:0:
64,192,57837,128,0,57912:0:0:0:0:
192,192,57912,128,8,58062:0:0:0:0:
448,192,57912,128,2,57987:0:0:0:0:
320,192,57987,128,0,58062:0:0:0:0:
64,192,58062,128,0,58137:0:0:0:0:
448,192,58062,128,0,58212:0:0:0:0:
320,192,58137,128,0,58212:0:0:0:0:
64,192,58212,128,2,58287:0:0:0:0:
192,192,58212,128,0,58287:0:0:0:0:
448,192,58287,128,0,58362:0:0:0:0:
64,192,58362,128,0,58437:0:0:0:0:
192,192,58362,128,0,58512:0:0:0:0:
320,192,58437,128,0,58512:0:0:0:0:
64,192,58512,128,8,58662:0:0:0:0:
448,192,58512,128,2,58587:0:0:0:0:
192,192,58587,128,0,58662:0:0:0:0:
320,192,58662,128,2,58737:0:0:0:0:
448,192,58662,128,0,58737:0:0:0:0:
192,192,58737,128,2,58812:0:0:0:0:
64,192,58812,128,2,58962:0:0:0:0:
320,192,58812,128,4,58887:0:0:0:0:
448,192,58812,128,0,58887:0:0:0:0:
192,192,58887,128,0,58962:0:0:0:0:
320,192,58962,128,0,59112:0:0:0:0:
448,192,58962,128,0,59037:0:0:0:0:
64,192,59037,128,0,59112:0:0:0:0:
192,192,59112,128,2,59262:0:0:0:0:
448,192,59112,128,8,59187:0:0:0:0:
320,192,59187,128,0,59262:0:0:0:0:
64,192,59262,128,0,59337:0:0:0:0:
448,192,59262,128,0,59412:0:0:0:0:
320,192,59337,128,0,59412:0:0:0:0:
64,192,59412,128,2,59487:0:0:0:0:
192,192,59412,128,0,59487:0:0:0:0:
448,192,59487,128,0,59562:0:0:0:0:
64,192,59562,128,2,59637:0:0:0:0:
192,192,59562,128,0,59637:0:0:0:0:
320,192,59637,128,2,59712:0:0:0:0:
448,192,59637,128,0,59712:0:0:0:0:
64,192,59712,128,2,59787:0:0:0:0:
192,192,59712,128,8,59862:0:0:0:0:
320,192,59787,128,0,59862:0:0:0:0:
64,192,59862,128,2,59937:0:0:0:0:
448,192,59862,128,0,59937:0:0:0:0:
192,192,59937,128,2,60012:0:0:0:0:
64,192,60012,128,2,60162:0:0:0:0:
320,192,60012,128,4,60087:0:0:0:0:
448,192,60012,128,0,60087:0:0:0:0:
192,192,60087,128,2,60162:0:0:0:0:
320,192,60162,128,2,60237:0:0:0:0:
448,192,60162,128,0,60237:0:0:0:0:
192,192,60237,128,2,60312:0:0:0:0:
64,192,60312,128,4,60387:0:0:0:0:
320,192,60312,128,2,60462:0:0:0:0:
448,192,60312,128,8,60387:0:0:0:0:
192,192,60387,128,2,60537:0:0:0:0:
64,192,60462,128,2,60537:0:0:0:0:
448,192,60462,128,0,60537:0:0:0:0:
320,192,60537,128,2,60612:0:0:0:0:
64,192,60612,128,4,60687:0:0:0:0:
192,192,60612,128,2,60687:0:0:0:0:
448,192,60612,128,0,60762:0:0:0:0:
320,192,60687,128,2,60762:0:0:0:0:
64,192,60762,128,2,60837:0:0:0:0:
192,192,60762,128,0,60837:0:0:0:0:
320,192,60837,128,2,60912:0:0:0:0:
64,192,60912,128,4,60987:0:0:0:0:
192,192,60912,128,2,61062:0:0:0:0:
448,192,60912,128,8,60987:0:0:0:0:
320,192,60987,128,2,61137:0:0:0:0:
64,192,61062,128,2,61137:0:0:0:0:
448,192,61062,128,0,61137:0:0:0:0:
192,192,61137,128,2,61212:0:0:0:0:
320,192,61212,128,2,61287:0:0:0:0:
448,192,61212,128,0,61287:0:0:0:0:
64,192,61362,128,2,61437:0:0:0:0:
192,192,61362,128,0,61437:0:0:0:0:
448,192,61437,1,2,0:0:0:0:
64,192,61512,128,8,61587:0:0:0:0:
320,192,61512,128,0,61587:0:0:0:0:
320,192,61662,128,2,61737:0:0:0:0:
448,192,61662,128,0,61737:0:0:0:0:
192,192,61737,1,8,0:0:0:0:
64,192,61812,128,2,61887:0:0:0:0:
448,192,61812,128,0,61887:0:0:0:0:
320,192,61887,1,8,0:0:0:0:
64,192,61962,128,2,62037:0:0:0:0:
192,192,61962,128,0,62037:0:0:0:0:
320,192,62037,1,2,0:0:0:0:
64,192,62112,1,2,0:0:0:0:
448,192,62112,1,4,0:0:0:0:
192,192,62187,1,2,0:0:0:0:
320,192,62187,1,0,0:0:0:0:
64,192,62262,1,2,0:0:0:0:
448,192,62262,1,0,0:0:0:0:
192,192,62337,1,2,0:0:0:0:
64,192,62412,128,2,62562:0:0:0:0:
320,192,62412,128,4,62487:0:0:0:0:
448,192,62412,128,0,62487:0:0:0:0:
192,192,62487,128,0,62637:0:0:0:0:
448,192,62562,128,0,62637:0:0:0:0:
320,192,62637,128,0,62712:0:0:0:0:
64,192,62712,128,8,62787:0:0:0:0:
192,192,62712,128,2,62787:0:0:0:0:
448,192,62712,128,0,62787:0:0:0:0:
320,192,62787,128,0,62862:0:0:0:0:
64,192,62862,128,0,62937:0:0:0:0:
192,192,62937,128,0,63012:0:0:0:0:
64,192,63012,128,2,63087:0:0:0:0:
448,192,63012,128,0,63162:0:0:0:0:
320,192,63087,128,0,63237:0:0:0:0:
192,192,63162,128,0,63237:0:0:0:0:
448,192,63237,128,0,63312:0:0:0:0:
64,192,63312,128,8,63387:0:0:0:0:
192,192,63312,128,2,63387:0:0:0:0:
320,192,63312,128,0,63387:0:0:0:0:
448,192,63387,128,0,63462:0:0:0:0:
192,192,63462,128,0,63612:0:0:0:0:
320,192,63537,128,0,63687:0:0:0:0:
64,192,63612,128,2,63762:0:0:0:0:
448,192,63612,128,0,63687:0:0:0:0:
192,192,63687,128,0,63837:0:0:0:0:
320,192,63762,128,0,63837:0:0:0:0:
64,192,63837,128,0,63912:0:0:0:0:
192,192,63912,128,2,63987:0:0:0:0:
320,192,63912,128,8,63987:0:0:0:0:
448,192,63912,128,0,63987:0:0:0:0:
64,192,63987,128,0,64062:0:0:0:0:
320,192,64062,128,0,64212:0:0:0:0:
448,192,64137,128,0,64287:0:0:0:0:
64,192,64212,128,2,64287:0:0:0:0:
192,192,64212,128,0,64362:0:0:0:0:
320,192,64287,128,0,64437:0:0:0:0:
64,192,64362,128,0,64437:0:0:0:0:
192,192,64437,128,0,64512:0:0:0:0:
64,192,64512,128,2,64662:0:0:0:0:
320,192,64512,128,8,64662:0:0:0:0:
448,192,64512,128,0,64587:0:0:0:0:
192,192,64587,128,0,64737:0:0:0:0:
448,192,64662,128,0,64812:0:0:0:0:
320,192,64737,128,0,64887:0:0:0:0:
64,192,64812,128,2,64962:0:0:0:0:
192,192,64812,128,0,64962:0:0:0:0:
448,192,64887,128,0,65037:0:0:0:0:
320,192,64962,128,0,65037:0:0:0:0:
64,192,65037,128,0,65112:0:0:0:0:
192,192,65112,128,8,65187:0:0:0:0:
320,192,65112,128,2,65262:0:0:0:0:
448,192,65112,128,0,65262:0:0:0:0:
64,192,65187,128,0,65337:0:0:0:0:
192,192,65262,128,0,65412:0:0:0:0:
448,192,65337,128,0,65487:0:0:0:0:
64,192,65412,128,2,65562:0:0:0:0:
320,192,65412,128,0,65562:0:0:0:0:
192,192,65487,128,0,65637:0:0:0:0:
448,192,65562,128,0,65637:0:0:0:0:
320,192,65637,128,0,65712:0:0:0:0:
64,192,65712,128,8,65787:0:0:0:0:
192,192,65712,128,2,65862:0:0:0:0:
448,192,65712,128,0,65862:0:0:0:0:
320,192,65787,128,0,65937:0:0:0:0:
64,192,65862,128,0,65937:0:0:0:0:
192,192,65937,128,0,66087:0:0:0:0:
64,192,66012,128,2,66162:0:0:0:0:
448,192,66012,128,0,66162:0:0:0:0:
320,192,66087,128,0,66162:0:0:0:0:
192,192,66162,128,0,66237:0:0:0:0:
320,192,66237,128,0,66312:0:0:0:0:
64,192,66312,128,2,66462:0:0:0:0:
192,192,66312,128,8,66387:0:0:0:0:
448,192,66312,128,0,66462:0:0:0:0:
320,192,66387,128,0,66537:0:0:0:0:
192,192,66462,128,0,66612:0:0:0:0:
64,192,66537,128,0,66687:0:0:0:0:
320,192,66612,128,2,66687:0:0:0:0:
448,192,66612,128,0,66762:0:0:0:0:
192,192,66687,128,0,66837:0:0:0:0:
320,192,66762,128,0,66912:0:0:0:0:
448,192,66837,128,0,66912:0:0:0:0:
64,192,66912,128,10,66987:0:0:0:0:
192,192,66912,128,4,66987:0:0:0:0:
320,192,66987,128,2,67062:0:0:0:0:
448,192,66987,128,0,67137:0:0:0:0:
64,192,67062,128,2,67137:0:0:0:0:
192,192,67062,128,0,67137:0:0:0:0:
320,192,67137,128,2,67212:0:0:0:0:
64,192,67212,128,2,67287:0:0:0:0:
192,192,67212,128,4,67287:0:0:0:0:
448,192,67212,128,0,67362:0:0:0:0:
320,192,67287,128,0,67437:0:0:0:0:
64,192,67362,128,0,67437:0:0:0:0:
192,192,67437,128,0,67512:0:0:0:0:
64,192,67512,128,8,67587:0:0:0:0:
320,192,67512,128,2,67587:0:0:0:0:
448,192,67512,128,0,67587:0:0:0:0:
192,192,67587,128,0,67662:0:0:0:0:
448,192,67662,128,0,67737:0:0:0:0:
320,192,67737,128,0,67812:0:0:0:0:
64,192,67812,128,2,67962:0:0:0:0:
448,192,67812,128,0,67887:0:0:0:0:
192,192,67887,128,0,68037:0:0:0:0:
320,192,67962,128,0,68037:0:0:0:0:
64,192,68037,128,0,68112:0:0:0:0:
192,192,68112,128,8,68187:0:0:0:0:
320,192,68112,128,2,68187:0:0:0:0:
448,192,68112,128,0,68187:0:0:0:0:
64,192,68187,128,0,68262:0:0:0:0:
320,192,68262,128,0,68412:0:0:0:0:
192,192,68337,128,0,68487:0:0:0:0:
64,192,68412,128,2,68487:0:0:0:0:
448,192,68412,128,0,68562:0:0:0:0:
320,192,68487,128,0,68637:0:0:0:0:
192,192,68562,128,0,68637:0:0:0:0:
448,192,68637,128,0,68712:0:0:0:0:
64,192,68712,128,2,68787:0:0:0:0:
192,192,68712,128,8,68787:0:0:0:0:
320,192,68712,128,0,68787:0:0:0:0:
448,192,68787,128,0,68862:0:0:0:0:
192,192,68862,128,0,69012:0:0:0:0:
64,192,68937,128,0,69087:0:0:0:0:
320,192,69012,128,2,69162:0:0:0:0:
448,192,69012,128,0,69087:0:0:0:0:
192,192,69087,128,0,69237:0:0:0:0:
448,192,69162,128,0,69237:0:0:0:0:
320,192,69237,128,0,69312:0:0:0:0:
64,192,69312,128,2,69387:0:0:0:0:
192,192,69312,128,8,69462:0:0:0:0:
448,192,69312,128,0,69462:0:0:0:0:
320,192,69387,128,0,69537:0:0:0:0:
64,192,69462,128,0,69612:0:0:0:0:
192,192,69537,128,0,69687:0:0:0:0:
320,192,69612,128,2,69762:0:0:0:0:
448,192,69612,128,0,69762:0:0:0:0:
64,192,69687,128,0,69837:0:0:0:0:
192,192,69762,128,0,69837:0:0:0:0:
448,192,69837,128,0,69912:0:0:0:0:
64,192,69912,128,8,70062:0:0:0:0:
192,192,69912,128,2,70062:0:0:0:0:
320,192,69912,128,0,69987:0:0:0:0:
448,192,69987,128,0,70137:0:0:0:0:
320,192,70062,128,0,70212:0:0:0:0:
64,192,70137,128,0,70287:0:0:0:0:
192,192,70212,128,2,70362:0:0:0:0:
448,192,70212,128,0,70362:0:0:0:0:
320,192,70287,128,0,70437:0:0:0:0:
64,192,70362,128,0,70437:0:0:0:0:
192,192,70437,128,0,70512:0:0:0:0:
64,192,70512,128,8,70662:0:0:0:0:
320,192,70512,128,2,70662:0:0:0:0:
448,192,70512,128,0,70587:0:0:0:0:
192,192,70587,128,0,70737:0:0:0:0:
448,192,70662,128,0,70737:0:0:0:0:
320,192,70737,128,0,70812:0:0:0:0:
64,192,70812,128,2,70887:0:0:0:0:
192,192,70812,128,4,70887:0:0:0:0:
448,192,70812,128,0,70962:0:0:0:0:
320,192,70962,128,0,71037:0:0:0:0:
64,192,71037,128,4,71112:0:0:0:0:
192,192,71037,128,2,71187:0:0:0:0:
320,192,71112,128,8,71187:0:0:0:0:
448,192,71112,128,0,71187:0:0:0:0:
64,192,71262,128,4,71337:0:0:0:0:
192,192,71262,128,2,71337:0:0:0:0:
448,192,71262,128,0,71487:0:0:0:0:
64,192,71412,128,4,71637:0:0:0:0:
192,192,71412,128,2,71487:0:0:0:0:
320,192,71412,128,0,71487:0:0:0:0:
192,192,71562,128,4,71637:0:0:0:0:
320,192,71562,128,2,71637:0:0:0:0:
448,192,71562,128,0,71637:0:0:0:0:
320,192,71712,128,6,71787:0:0:0:0:
448,192,71712,128,8,71787:0:0:0:0:
64,192,71787,128,2,71937:0:0:0:0:
192,192,71787,128,0,71862:0:0:0:0:
320,192,71862,128,2,71937:0:0:0:0:
448,192,71862,128,0,71937:0:0:0:0:
192,192,71937,128,2,72012:0:0:0:0:
64,192,72012,128,4,72162:0:0:0:0:
320,192,72012,128,2,72087:0:0:0:0:
448,192,72012,128,0,72087:0:0:0:0:
192,192,72087,128,0,72237:0:0:0:0:
448,192,72162,128,0,72237:0:0:0:0:
320,192,72237,128,0,72312:0:0:0:0:
64,192,72312,128,2,72387:0:0:0:0:
192,192,72312,128,8,72387:0:0:0:0:
448,192,72312,128,0,72387:0:0:0:0:
320,192,72387,128,0,72462:0:0:0:0:
64,192,72462,128,0,72537:0:0:0:0:
192,192,72537,128,0,72612:0:0:0:0:
64,192,72612,128,2,72687:0:0:0:0:
448,192,72612,128,0,72762:0:0:0:0:
320,192,72687,128,0,72837:0:0:0:0:
192,192,72762,128,0,72837:0:0:0:0:
448,192,72837,128,0,72912:0:0:0:0:
64,192,72912,128,2,72987:0:0:0:0:
192,192,72912,128,8,72987:0:0:0:0:
320,192,72912,128,0,72987:0:0:0:0:
448,192,72987,128,0,73062:0:0:0:0:
192,192,73062,128,0,73212:0:0:0:0:
320,192,73137,128,0,73287:0:0:0:0:
64,192,73212,128,2,73362:0:0:0:0:
448,192,73212,128,0,73287:0:0:0:0:
192,192,73287,128,0,73437:0:0:0:0:
320,192,73362,128,0,73437:0:0:0:0:
64,192,73437,128,0,73512:0:0:0:0:
192,192,73512,128,8,73587:0:0:0:0:
320,192,73512,128,2,73587:0:0:0:0:
448,192,73512,128,0,73587:0:0:0:0:
64,192,73587,128,0,73662:0:0:0:0:
320,192,73662,128,0,73812:0:0:0:0:
448,192,73737,128,0,73887:0:0:0:0:
64,192,73812,128,2,73887:0:0:0:0:
192,192,73812,128,0,73962:0:0:0:0:
320,192,73887,128,0,74037:0:0:0:0:
64,192,73962,128,0,74037:0:0:0:0:
192,192,74037,128,0,74112:0:0:0:0:
64,192,74112,128,8,74262:0:0:0:0:
320,192,74112,128,2,74262:0:0:0:0:
448,192,74112,128,0,74187:0:0:0:0:
192,192,74187,128,0,74337:0:0:0:0:
448,192,74262,128,0,74337:0:0:0:0:
320,192,74337,128,0,74412:0:0:0:0:
64,192,74412,128,2,74487:0:0:0:0:
192,192,74412,128,4,74562:0:0:0:0:
448,192,74412,128,0,74562:0:0:0:0:
320,192,74487,128,0,74637:0:0:0:0:
64,192,74562,128,0,74637:0:0:0:0:
192,192,74637,128,0,74712:0:0:0:0:
64,192,74712,128,2,74862:0:0:0:0:
320,192,74712,128,8,74862:0:0:0:0:
448,192,74712,128,0,74787:0:0:0:0:
192,192,74787,128,0,74937:0:0:0:0:
448,192,74862,128,0,75012:0:0:0:0:
320,192,74937,128,0,75087:0:0:0:0:
64,192,75012,128,2,75162:0:0:0:0:
192,192,75012,128,0,75162:0:0:0:0:
448,192,75087,128,0,75237:0:0:0:0:
320,192,75162,128,0,75237:0:0:0:0:
192,192,75237,128,0,75312:0:0:0:0:
64,192,75312,128,2,75462:0:0:0:0:
320,192,75312,128,8,75462:0:0:0:0:
448,192,75312,128,0,75387:0:0:0:0:
192,192,75387,128,0,75537:0:0:0:0:
448,192,75462,128,0,75537:0:0:0:0:
320,192,75537,128,0,75687:0:0:0:0:
64,192,75612,128,2,75762:0:0:0:0:
192,192,75612,128,0,75762:0:0:0:0:
448,192,75687,128,0,75762:0:0:0:0:
320,192,75762,128,0,75837:0:0:0:0:
192,192,75837,128,0,75912:0:0:0:0:
64,192,75912,128,8,76062:0:0:0:0:
320,192,75912,128,2,75987:0:0:0:0:
448,192,75912,128,0,76062:0:0:0:0:
192,192,75987,128,0,76137:0:0:0:0:
320,192,76062,128,0,76212:0:0:0:0:
64,192,76137,128,0,76287:0:0:0:0:
192,192,76212,128,2,76287:0:0:0:0:
448,192,76212,128,0,76362:0:0:0:0:
320,192,76287,128,0,76437:0:0:0:0:
192,192,76362,128,0,76512:0:0:0:0:
64,192,76437,128,0,76512:0:0:0:0:
320,192,76512,128,10,76587:0:0:0:0:
448,192,76512,128,4,76587:0:0:0:0:
64,192,76587,128,2,76737:0:0:0:0:
192,192,76587,128,0,76662:0:0:0:0:
320,192,76662,128,2,76737:0:0:0:0:
448,192,76662,128,0,76737:0:0:0:0:
192,192,76737,128,2,76812:0:0:0:0:
64,192,76812,128,2,76962:0:0:0:0:
320,192,76812,128,4,76887:0:0:0:0:
448,192,76812,128,0,76887:0:0:0:0:
192,192,76887,128,0,77037:0:0:0:0:
448,192,76962,128,0,77037:0:0:0:0:
320,192,77037,128,0,77112:0:0:0:0:
64,192,77112,128,2,77187:0:0:0:0:
192,192,77112,128,8,77187:0:0:0:0:
448,192,77112,128,0,77187:0:0:0:0:
320,192,77187,128,0,77262:0:0:0:0:
64,192,77262,128,0,77337:0:0:0:0:
192,192,77337,128,0,77412:0:0:0:0:
64,192,77412,128,2,77487:0:0:0:0:
448,192,77412,128,0,77562:0:0:0:0:
320,192,77487,128,0,77637:0:0:0:0:
192,192,77562,128,0,77637:0:0:0:0:
64,192,77637,128,0,77712:0:0:0:0:
192,192,77712,128,2,77787:0:0:0:0:
320,192,77712,128,8,77787:0:0:0:0:
448,192,77712,128,0,77787:0:0:0:0:
64,192,77787,128,0,77862:0:0:0:0:
320,192,77862,128,2,77937:0:0:0:0:
448,192,77862,128,0,77937:0:0:0:0:
192,192,77937,128,2,78012:0:0:0:0:
64,192,78012,128,2,78162:0:0:0:0:
320,192,78012,128,4,78162:0:0:0:0:
448,192,78012,128,0,78087:0:0:0:0:
192,192,78087,128,0,78237:0:0:0:0:
448,192,78162,128,0,78237:0:0:0:0:
320,192,78237,128,0,78312:0:0:0:0:
64,192,78312,128,8,78387:0:0:0:0:
192,192,78312,128,2,78387:0:0:0:0:
448,192,78312,128,0,78387:0:0:0:0:
320,192,78387,128,0,78462:0:0:0:0:
192,192,78462,128,0,78612:0:0:0:0:
64,192,78537,128,0,78687:0:0:0:0:
320,192,78612,128,2,78762:0:0:0:0:
448,192,78612,128,0,78687:0:0:0:0:
192,192,78687,128,0,78762:0:0:0:0:
64,192,78762,128,2,78837:0:0:0:0:
448,192,78762,128,0,78837:0:0:0:0:
192,192,78837,128,2,78987:0:0:0:0:
320,192,78837,128,0,78912:0:0:0:0:
64,192,78912,128,8,78987:0:0:0:0:
448,192,78912,128,2,79062:0:0:0:0:
320,192,78987,128,0,79062:0:0:0:0:
64,192,79062,128,2,79137:0:0:0:0:
192,192,79062,128,0,79137:0:0:0:0:
320,192,79137,128,2,79212:0:0:0:0:
64,192,79212,128,2,79287:0:0:0:0:
192,192,79212,128,4,79287:0:0:0:0:
448,192,79212,128,0,79362:0:0:0:0:
320,192,79287,128,2,79362:0:0:0:0:
64,192,79362,128,2,79437:0:0:0:0:
192,192,79362,128,0,79437:0:0:0:0:
320,192,79437,128,2,79512:0:0:0:0:
64,192,79512,128,4,79587:0:0:0:0:
192,192,79512,128,2,79662:0:0:0:0:
448,192,79512,128,8,79587:0:0:0:0:
320,192,79587,128,2,79737:0:0:0:0:
64,192,79662,128,2,79737:0:0:0:0:
448,192,79662,128,0,79737:0:0:0:0:
192,192,79737,128,2,79812:0:0:0:0:
64,192,79812,128,2,79962:0:0:0:0:
320,192,79812,128,4,79887:0:0:0:0:
448,192,79812,128,0,79887:0:0:0:0:
192,192,79887,128,2,79962:0:0:0:0:
320,192,79962,128,2,80037:0:0:0:0:
448,192,79962,128,0,80037:0:0:0:0:
192,192,80037,128,2,80112:0:0:0:0:
64,192,80112,128,4,80187:0:0:0:0:
320,192,80112,128,2,80262:0:0:0:0:
448,192,80112,128,8,80187:0:0:0:0:
192,192,80187,128,2,80337:0:0:0:0:
64,192,80262,128,2,80337:0:0:0:0:
448,192,80262,128,0,80337:0:0:0:0:
320,192,80337,128,2,80412:0:0:0:0:
64,192,80412,1,2,0:0:0:0:
192,192,80412,1,0,0:0:0:0:
448,192,80562,1,2,0:0:0:0:
192,192,80637,1,2,0:0:0:0:
320,192,80712,1,8,0:0:0:0:
448,192,80712,1,0,0:0:0:0:
64,192,80862,1,2,0:0:0:0:
320,192,80937,1,8,0:0:0:0:
192,192,81012,1,2,0:0:0:0:
448,192,81087,1,8,0:0:0:0:
64,192,81162,1,2,0:0:0:0:
320,192,81237,1,2,0:0:0:0:
64,192,81312,1,8,0:0:0:0:
192,192,81312,1,0,0:0:0:0:
448,192,81312,1,0,0:0:0:0:
64,192,81612,1,4,0:0:0:0:
320,192,81612,1,2,0:0:0:0:
448,192,81612,128,0,82812:0:0:0:0:
64,192,82062,1,2,0:0:0:0:
192,192,82062,1,0,0:0:0:0:
320,192,82512,1,0,0:0:0:0:
192,192,82662,1,0,0:0:0:0:
64,192,82812,128,8,83412:0:0:0:0:
320,192,82812,1,0,0:0:0:0:
320,192,83262,1,0,0:0:0:0:
192,192,83412,1,8,0:0:0:0:
448,192,83412,128,0,84012:0:0:0:0:
320,192,83862,1,2,0:0:0:0:
64,192,84012,1,2,0:0:0:0:
192,192,84012,128,0,85212:0:0:0:0:
320,192,84462,1,2,0:0:0:0:
448,192,84462,1,0,0:0:0:0:
448,192,84912,1,0,0:0:0:0:
320,192,85062,1,0,0:0:0:0:
64,192,85212,1,8,0:0:0:0:
448,192,85212,128,0,85812:0:0:0:0:
192,192,85662,1,0,0:0:0:0:
64,192,85812,1,8,0:0:0:0:
320,192,85812,128,0,86412:0:0:0:0:
448,192,86262,1,2,0:0:0:0:
64,192,86412,1,2,0:0:0:0:
192,192,86412,128,0,87612:0:0:0:0:
320,192,86862,1,2,0:0:0:0:
448,192,86862,1,0,0:0:0:0:
64,192,87312,1,0,0:0:0:0:
320,192,87462,1,0,0:0:0:0:
64,192,87612,1,8,0:0:0:0:
448,192,87612,128,0,88212:0:0:0:0:
192,192,88062,1,0,0:0:0:0:
64,192,88212,128,8,88812:0:0:0:0:
320,192,88212,1,0,0:0:0:0:
192,192,88512,1,0,0:0:0:0:
320,192,88662,1,0,0:0:0:0:
192,192,88812,128,2,90012:0:0:0:0:
448,192,88812,1,0,0:0:0:0:
320,192,89262,1,2,0:0:0:0:
448,192,89262,1,0,0:0:0:0:
320,192,89712,1,0,0:0:0:0:
64,192,89862,1,0,0:0:0:0:
320,192,90012,128,8,91062:0:0:0:0:
448,192,90012,1,0,0:0:0:0:
192,192,90462,1,0,0:0:0:0:
64,192,90612,128,8,91062:0:0:0:0:
448,192,90612,128,0,91062:0:0:0:0:
64,192,91212,128,2,92337:0:0:0:0:
192,192,91212,128,4,91737:0:0:0:0:
320,192,91212,128,0,91587:0:0:0:0:
448,192,91212,128,0,92037:0:0:0:0:
320,192,91662,128,0,92337:0:0:0:0:
192,192,91812,128,0,92937:0:0:0:0:
448,192,92112,128,0,92937:0:0:0:0:
64,192,92412,128,0,93537:0:0:0:0:
320,192,92412,128,0,93387:0:0:0:0:
192,192,93012,128,0,93537:0:0:0:0:
448,192,93012,128,0,93987:0:0:0:0:
320,192,93462,128,0,94737:0:0:0:0:
64,192,93612,128,0,94137:0:0:0:0:
192,192,93612,128,0,94737:0:0:0:0:
448,192,94062,128,0,94587:0:0:0:0:
64,192,94212,128,0,95187:0:0:0:0:
448,192,94662,128,0,95937:0:0:0:0:
192,192,94812,128,0,95787:0:0:0:0:
320,192,94812,128,0,95337:0:0:0:0:
64,192,95262,128,0,95937:0:0:0:0:
320,192,95412,128,0,96387:0:0:0:0:
192,192,95862,128,0,96537:0:0:0:0:
64,192,96012,128,0,97137:0:0:0:0:
448,192,96012,128,0,96837:0:0:0:0:
320,192,96462,128,0,96987:0:0:0:0:
192,192,96612,128,0,97137:0:0:0:0:
448,192,96912,128,0,97737:0:0:0:0:
320,192,97062,128,0,97587:0:0:0:0:
64,192,97212,128,0,97737:0:0:0:0:
192,192,97212,128,0,98187:0:0:0:0:
320,192,97662,128,0,98037:0:0:0:0:
64,192,97812,128,0,98337:0:0:0:0:
448,192,97812,128,0,98337:0:0:0:0:
320,192,98112,128,0,98787:0:0:0:0:
192,192,98262,128,0,98637:0:0:0:0:
64,192,98412,128,0,98937:0:0:0:0:
448,192,98412,128,0,99237:0:0:0:0:
192,192,98712,128,0,99387:0:0:0:0:
320,192,98862,128,0,99537:0:0:0:0:
64,192,99012,128,0,99612:0:0:0:0:
448,192,99312,128,0,99537:0:0:0:0:
192,192,99462,128,0,99612:0:0:0:0:
320,192,99612,1,2,0:0:0:0:
448,192,99612,1,0,0:0:0:0:
64,192,99762,1,2,0:0:0:0:
320,192,99837,1,2,0:0:0:0:
64,192,99912,1,8,0:0:0:0:
192,192,99912,1,0,0:0:0:0:
448,192,100062,1,2,0:0:0:0:
192,192,100137,1,8,0:0:0:0:
320,192,100212,1,2,0:0:0:0:
64,192,100287,1,8,0:0:0:0:
448,192,100362,1,2,0:0:0:0:
192,192,100437,1,2,0:0:0:0:
64,192,100512,1,8,0:0:0:0:
320,192,100512,1,0,0:0:0:0:
448,192,100512,1,0,0:0:0:0:
64,192,100812,128,4,100887:0:0:0:25:soft-hitfinish.wav
192,192,100812,1,0,0:0:0:0:
448,192,100812,128,0,100887:0:0:0:0:
320,192,100962,128,0,101037:0:0:0:0:
64,192,101112,128,0,101187:0:0:0:0:
192,192,101112,128,0,101187:0:0:0:0:
448,192,101262,128,0,101337:0:0:0:0:
64,192,101412,128,0,101487:0:0:0:0:
320,192,101412,128,0,101487:0:0:0:0:
64,192,101562,128,0,101637:0:0:0:0:
192,192,101712,128,0,101787:0:0:0:0:
448,192,101712,128,0,101787:0:0:0:0:
448,192,101862,128,0,101937:0:0:0:0:
64,192,102012,128,0,102087:0:0:0:0:
320,192,102012,128,0,102087:0:0:0:0:
320,192,102162,128,0,102237:0:0:0:0:
64,192,102312,128,0,102387:0:0:0:0:
192,192,102312,128,0,102387:0:0:0:0:
192,192,102462,128,0,102537:0:0:0:0:
320,192,102462,128,0,102537:0:0:0:0:
320,192,102612,128,0,102687:0:0:0:0:
448,192,102612,128,0,102687:0:0:0:0:
448,192,102762,128,0,102837:0:0:0:0:
64,192,102912,128,0,102987:0:0:0:0:
320,192,102912,128,0,102987:0:0:0:0:
64,192,103062,128,0,103137:0:0:0:0:
192,192,103212,128,0,103287:0:0:0:0:
448,192,103212,128,0,103287:0:0:0:0:
192,192,103362,128,0,103437:0:0:0:0:
320,192,103512,128,0,103587:0:0:0:0:
448,192,103512,128,0,103587:0:0:0:0:
64,192,103662,128,0,103737:0:0:0:0:
320,192,103662,128,0,103737:0:0:0:0:
64,192,103812,128,0,103887:0:0:0:0:
448,192,103812,128,0,103887:0:0:0:0:
192,192,103962,128,0,104037:0:0:0:0:
320,192,103962,128,0,104037:0:0:0:0:
192,192,104112,128,0,104187:0:0:0:0:
448,192,104112,128,0,104187:0:0:0:0:
320,192,104262,128,0,104337:0:0:0:0:
448,192,104262,128,0,104337:0:0:0:0:
64,192,104412,128,0,104487:0:0:0:0:
192,192,104412,128,0,104487:0:0:0:0:
64,192,104562,128,0,104637:0:0:0:0:
320,192,104712,128,0,104787:0:0:0:0:
448,192,104712,128,0,104787:0:0:0:0:
64,192,104862,128,0,104937:0:0:0:0:
192,192,104862,128,0,104937:0:0:0:0:
192,192,105012,128,0,105087:0:0:0:0:
448,192,105012,128,0,105087:0:0:0:0:
320,192,105162,128,0,105237:0:0:0:0:
64,192,105312,128,0,105387:0:0:0:0:
448,192,105312,128,0,105387:0:0:0:0:
192,192,105462,128,0,105537:0:0:0:0:
320,192,105612,128,0,105687:0:0:0:0:
448,192,105612,128,0,105687:0:0:0:0:
192,192,105762,128,0,105837:0:0:0:0:
64,192,105912,128,0,105987:0:0:0:0:
448,192,105912,128,0,105987:0:0:0:0:
320,192,106062,128,0,106137:0:0:0:0:
192,192,106212,128,0,106287:0:0:0:0:
448,192,106212,128,0,106287:0:0:0:0:
448,192,106362,128,0,106437:0:0:0:0:
64,192,106512,128,0,106587:0:0:0:0:
320,192,106512,128,0,106587:0:0:0:0:
64,192,106662,128,0,106737:0:0:0:0:
192,192,106812,128,0,106887:0:0:0:0:
448,192,106812,128,0,106887:0:0:0:0:
192,192,106962,128,0,107037:0:0:0:0:
320,192,107112,128,0,107187:0:0:0:0:
448,192,107112,128,0,107187:0:0:0:0:
192,192,107262,128,0,107337:0:0:0:0:
320,192,107262,128,0,107337:0:0:0:0:
64,192,107412,128,0,107487:0:0:0:0:
192,192,107412,128,0,107487:0:0:0:0:
64,192,107562,128,0,107637:0:0:0:0:
192,192,107712,128,0,107787:0:0:0:0:
448,192,107712,128,0,107787:0:0:0:0:
448,192,107862,128,0,107937:0:0:0:0:
64,192,108012,128,0,108087:0:0:0:0:
320,192,108012,128,0,108087:0:0:0:0:
320,192,108162,128,0,108237:0:0:0:0:
64,192,108312,128,0,108387:0:0:0:0:
192,192,108312,128,0,108387:0:0:0:0:
192,192,108462,128,0,108537:0:0:0:0:
448,192,108462,128,0,108537:0:0:0:0:
64,192,108612,128,0,108687:0:0:0:0:
448,192,108612,128,0,108687:0:0:0:0:
192,192,108762,128,0,108837:0:0:0:0:
320,192,108762,128,0,108837:0:0:0:0:
192,192,108912,128,0,108987:0:0:0:0:
448,192,108912,128,0,108987:0:0:0:0:
320,192,109062,128,0,109137:0:0:0:0:
448,192,109062,128,0,109137:0:0:0:0:
64,192,109212,128,0,109287:0:0:0:0:
192,192,109212,128,0,110412:0:0:0:0:
448,192,109362,128,0,109437:0:0:0:0:
320,192,109512,128,0,109587:0:0:0:0:
448,192,109512,128,0,109587:0:0:0:0:
64,192,109662,128,0,109737:0:0:0:0:
320,192,109662,128,0,109737:0:0:0:0:
64,192,109812,128,0,109887:0:0:0:0:
448,192,109812,128,0,109887:0:0:0:0:
320,192,109962,128,0,110037:0:0:0:0:
448,192,109962,128,0,110037:0:0:0:0:
64,192,110112,128,0,110187:0:0:0:0:
320,192,110112,128,0,110187:0:0:0:0:
64,192,110262,128,0,110337:0:0:0:0:
64,192,110412,1,4,0:0:0:35:soft-hitfinish.wav
320,192,110412,1,2,0:0:0:35:soft-hitwhistle.wav
448,192,110412,128,0,110487:0:0:0:0:
192,192,110487,1,0,0:0:0:0:
320,192,110562,128,0,110637:0:0:0:0:
192,192,110637,1,0,0:0:0:0:
64,192,110712,128,8,110787:0:0:0:0:
448,192,110712,1,0,0:0:0:0:
320,192,110787,1,0,0:0:0:0:
192,192,110862,128,0,110937:0:0:0:0:
64,192,110937,1,0,0:0:0:0:
320,192,111012,128,8,111087:0:0:0:0:
448,192,111012,128,0,111087:0:0:0:0:
192,192,111087,1,0,0:0:0:0:
320,192,111162,1,0,0:0:0:0:
448,192,111237,1,0,0:0:0:0:
64,192,111312,128,8,111387:0:0:0:0:
192,192,111312,128,0,111387:0:0:0:0:
320,192,111387,1,0,0:0:0:0:
192,192,111462,1,0,0:0:0:0:
64,192,111537,1,0,0:0:0:0:
320,192,111612,128,8,111687:0:0:0:0:
448,192,111612,128,0,111687:0:0:0:0:
192,192,111687,1,0,0:0:0:0:
320,192,111762,1,0,0:0:0:0:
448,192,111837,1,0,0:0:0:0:
64,192,111912,128,8,112062:0:0:0:0:
192,192,111912,128,0,111987:0:0:0:0:
320,192,111987,128,0,112137:0:0:0:0:
192,192,112062,128,0,112212:0:0:0:0:
64,192,112137,128,0,112287:0:0:0:0:
320,192,112212,128,8,112287:0:0:0:0:
448,192,112212,128,0,112287:0:0:0:0:
192,192,112287,1,0,0:0:0:0:
448,192,112362,1,0,0:0:0:0:
320,192,112437,1,0,0:0:0:0:
64,192,112512,128,8,112587:0:0:0:0:
192,192,112512,128,0,112587:0:0:0:0:
320,192,112587,1,0,0:0:0:0:
64,192,112662,1,0,0:0:0:0:
192,192,112737,1,0,0:0:0:0:
64,192,112812,128,2,112887:0:0:0:0:
320,192,112812,128,4,112887:0:0:0:0:
448,192,112812,128,0,112887:0:0:0:0:
192,192,112887,1,0,0:0:0:0:
320,192,112962,1,0,0:0:0:0:
64,192,113037,1,0,0:0:0:0:
320,192,113112,128,8,113187:0:0:0:0:
448,192,113112,128,0,113262:0:0:0:0:
192,192,113187,128,0,113337:0:0:0:0:
320,192,113262,128,0,113412:0:0:0:0:
448,192,113337,128,0,113487:0:0:0:0:
64,192,113412,128,8,113637:0:0:0:0:
192,192,113412,128,0,113487:0:0:0:0:
320,192,113562,128,0,113637:0:0:0:0:
448,192,113562,128,0,113787:0:0:0:0:
64,192,113712,128,8,113937:0:0:0:0:
320,192,113712,128,0,113787:0:0:0:0:
192,192,113862,128,0,113937:0:0:0:0:
448,192,113862,128,0,114087:0:0:0:0:
64,192,114012,128,8,114162:0:0:0:0:
320,192,114012,128,0,114162:0:0:0:0:
192,192,114087,128,0,114237:0:0:0:0:
448,192,114162,128,0,114312:0:0:0:0:
320,192,114237,128,0,114387:0:0:0:0:
64,192,114312,128,8,114462:0:0:0:0:
192,192,114312,128,0,114462:0:0:0:0:
448,192,114462,128,0,114612:0:0:0:0:
320,192,114537,128,0,114612:0:0:0:0:
64,192,114612,128,8,114687:0:0:0:0:
192,192,114612,128,0,114762:0:0:0:0:
448,192,114687,128,0,114837:0:0:0:0:
320,192,114762,128,0,114912:0:0:0:0:
192,192,114837,128,0,114912:0:0:0:0:
64,192,114912,128,10,114987:0:0:0:0:
448,192,114912,128,4,114987:0:0:0:0:
192,192,114987,128,2,115062:0:0:0:0:
320,192,114987,128,0,115137:0:0:0:0:
64,192,115062,128,2,115137:0:0:0:0:
448,192,115062,128,0,115137:0:0:0:0:
192,192,115137,128,2,115212:0:0:0:0:
64,192,115212,128,2,115362:0:0:0:0:
320,192,115212,128,4,115287:0:0:0:0:
448,192,115212,128,0,115287:0:0:0:0:
192,192,115287,128,2,115362:0:0:0:0:
320,192,115362,128,2,115512:0:0:0:0:
448,192,115362,128,0,115437:0:0:0:0:
192,192,115437,128,2,115512:0:0:0:0:
64,192,115512,128,2,115587:0:0:0:0:
448,192,115512,128,0,115587:0:0:0:0:
192,192,115587,128,2,115737:0:0:0:0:
320,192,115587,128,0,115662:0:0:0:0:
64,192,115662,128,2,115737:0:0:0:0:
448,192,115662,128,0,115812:0:0:0:0:
320,192,115737,128,2,115812:0:0:0:0:
64,192,115812,128,2,115887:0:0:0:0:
192,192,115812,128,0,115887:0:0:0:0:
320,192,115887,128,2,115962:0:0:0:0:
448,192,115887,128,0,116037:0:0:0:0:
64,192,115962,128,2,116037:0:0:0:0:
192,192,115962,128,0,116112:0:0:0:0:
320,192,116037,128,2,116112:0:0:0:0:
64,192,116112,128,2,116187:0:0:0:0:
448,192,116112,128,0,116187:0:0:0:0:
192,192,116187,128,2,116262:0:0:0:0:
320,192,116187,128,0,116337:0:0:0:0:
64,192,116262,128,2,116337:0:0:0:0:
448,192,116262,128,0,116337:0:0:0:0:
192,192,116337,128,2,116412:0:0:0:0:
64,192,116412,128,2,116562:0:0:0:0:
320,192,116412,128,4,116487:0:0:0:0:
448,192,116412,128,0,116487:0:0:0:0:
192,192,116487,128,2,116562:0:0:0:0:
320,192,116562,128,2,116712:0:0:0:0:
448,192,116562,128,0,116637:0:0:0:0:
192,192,116637,128,2,116712:0:0:0:0:
64,192,116712,128,2,116787:0:0:0:0:
448,192,116712,128,0,116787:0:0:0:0:
192,192,116787,128,2,116937:0:0:0:0:
320,192,116787,128,0,116862:0:0:0:0:
64,192,116862,128,2,116937:0:0:0:0:
448,192,116862,128,0,117012:0:0:0:0:
320,192,116937,128,2,117012:0:0:0:0:
64,192,117012,128,2,117087:0:0:0:0:
192,192,117012,128,0,117087:0:0:0:0:
320,192,117087,128,2,117162:0:0:0:0:
448,192,117087,128,0,117237:0:0:0:0:
64,192,117162,128,2,117237:0:0:0:0:
192,192,117162,128,0,117312:0:0:0:0:
320,192,117237,128,2,117312:0:0:0:0:
64,192,117312,128,2,117387:0:0:0:0:
448,192,117312,128,0,117387:0:0:0:0:
192,192,117387,128,2,117462:0:0:0:0:
320,192,117387,128,0,117537:0:0:0:0:
64,192,117462,128,2,117537:0:0:0:0:
448,192,117462,128,0,117537:0:0:0:0:
192,192,117537,128,2,117612:0:0:0:0:
64,192,117612,1,2,0:0:0:0:
448,192,117612,1,4,0:0:0:0:
320,192,117649,1,2,0:0:0:0:
192,192,117687,1,2,0:0:0:0:
64,192,117724,1,2,0:0:0:0:
448,192,117762,1,2,0:0:0:0:
320,192,117799,1,2,0:0:0:0:
192,192,117837,1,2,0:0:0:0:
64,192,117874,1,2,0:0:0:0:
448,192,117912,1,2,0:0:0:0:
320,192,117949,1,2,0:0:0:0:
192,192,117987,1,2,0:0:0:0:
64,192,118024,1,2,0:0:0:0:
448,192,118062,1,2,0:0:0:0:
320,192,118099,1,2,0:0:0:0:
192,192,118137,1,2,0:0:0:0:
64,192,118174,1,2,0:0:0:0:
448,192,118212,128,2,118287:0:0:0:0:
320,192,118249,128,2,118324:0:0:0:0:
192,192,118287,128,2,118362:0:0:0:0:
64,192,118324,128,2,118399:0:0:0:0:
448,192,118362,128,2,118437:0:0:0:0:
320,192,118399,128,2,118474:0:0:0:0:
192,192,118437,128,2,118512:0:0:0:0:
64,192,118474,128,2,118549:0:0:0:0:
448,192,118512,128,2,118587:0:0:0:0:
320,192,118549,128,2,118624:0:0:0:0:
192,192,118587,128,2,118662:0:0:0:0:
64,192,118624,128,2,118699:0:0:0:0:
448,192,118662,128,2,118737:0:0:0:0:
320,192,118699,128,2,118774:0:0:0:0:
192,192,118737,128,2,118812:0:0:0:0:
64,192,118774,128,2,118849:0:0:0:0:
320,192,118812,128,2,118887:0:0:0:0:
448,192,118812,128,0,118887:0:0:0:0:
192,192,118962,128,2,119037:0:0:0:0:
448,192,118962,128,0,119037:0:0:0:0:
320,192,119037,1,2,0:0:0:0:
64,192,119112,128,8,119187:0:0:0:0:
192,192,119112,128,0,119187:0:0:0:0:
64,192,119262,128,2,119337:0:0:0:0:
320,192,119262,128,0,119337:0:0:0:0:
192,192,119337,1,8,0:0:0:0:
320,192,119412,128,2,119487:0:0:0:0:
448,192,119412,128,0,119487:0:0:0:0:
64,192,119487,1,8,0:0:0:0:
192,192,119562,128,2,119637:0:0:0:0:
448,192,119562,128,0,119637:0:0:0:0:
320,192,119637,1,2,0:0:0:0:
64,192,119712,128,8,119787:0:0:0:0:
192,192,119712,128,0,119787:0:0:0:0:
448,192,119712,1,0,0:0:0:0:
64,192,120012,128,4,120162:0:0:0:0:
320,192,120012,128,2,120087:0:0:0:0:
448,192,120012,128,0,120162:0:0:0:0:
192,192,120087,128,0,120162:0:0:0:0:
320,192,120162,128,0,120237:0:0:0:0:
64,192,120237,128,0,120312:0:0:0:0:
192,192,120312,128,8,120462:0:0:0:0:
448,192,120312,128,2,120462:0:0:0:0:
320,192,120387,128,0,120462:0:0:0:0:
64,192,120462,128,0,120537:0:0:0:0:
192,192,120537,128,0,120612:0:0:0:0:
64,192,120612,128,2,120762:0:0:0:0:
320,192,120612,128,0,120762:0:0:0:0:
192,192,120687,128,0,120762:0:0:0:0:
448,192,120762,128,0,120837:0:0:0:0:
320,192,120837,128,0,120912:0:0:0:0:
192,192,120912,128,8,121062:0:0:0:0:
448,192,120912,128,2,121062:0:0:0:0:
320,192,120987,128,0,121062:0:0:0:0:
64,192,121062,128,0,121137:0:0:0:0:
192,192,121137,128,0,121212:0:0:0:0:
320,192,121212,128,2,121362:0:0:0:0:
448,192,121212,128,0,121362:0:0:0:0:
64,192,121287,128,0,121362:0:0:0:0:
192,192,121362,128,0,121437:0:0:0:0:
320,192,121437,128,0,121512:0:0:0:0:
64,192,121512,128,2,121587:0:0:0:0:
448,192,121512,128,8,121587:0:0:0:0:
192,192,121587,128,0,121662:0:0:0:0:
320,192,121587,128,0,121737:0:0:0:0:
64,192,121662,128,0,121812:0:0:0:0:
448,192,121662,128,0,121737:0:0:0:0:
192,192,121737,128,0,121887:0:0:0:0:
320,192,121812,128,2,121962:0:0:0:0:
448,192,121812,128,0,121962:0:0:0:0:
64,192,121887,128,0,121962:0:0:0:0:
192,192,121962,128,0,122037:0:0:0:0:
320,192,122037,128,0,122112:0:0:0:0:
64,192,122112,128,2,122262:0:0:0:0:
192,192,122112,128,8,122262:0:0:0:0:
448,192,122187,128,0,122262:0:0:0:0:
320,192,122262,128,0,122337:0:0:0:0:
192,192,122337,128,0,122412:0:0:0:0:
320,192,122412,128,2,122562:0:0:0:0:
448,192,122412,128,0,122562:0:0:0:0:
64,192,122487,128,0,122562:0:0:0:0:
192,192,122562,128,0,122637:0:0:0:0:
320,192,122637,128,0,122712:0:0:0:0:
64,192,122712,128,8,122787:0:0:0:0:
192,192,122712,128,2,122787:0:0:0:0:
320,192,122787,128,0,122862:0:0:0:0:
448,192,122787,128,0,122937:0:0:0:0:
64,192,122862,128,0,122937:0:0:0:0:
192,192,122862,128,0,122937:0:0:0:0:
320,192,122937,128,0,123087:0:0:0:0:
64,192,123012,128,2,123237:0:0:0:0:
192,192,123012,128,0,123087:0:0:0:0:
448,192,123012,128,0,123087:0:0:0:0:
192,192,123162,128,0,123387:0:0:0:0:
320,192,123162,128,0,123237:0:0:0:0:
448,192,123162,128,0,123237:0:0:0:0:
64,192,123312,128,8,123387:0:0:0:0:
320,192,123312,128,2,123537:0:0:0:0:
448,192,123312,128,0,123387:0:0:0:0:
64,192,123462,128,0,123537:0:0:0:0:
192,192,123462,128,0,123537:0:0:0:0:
448,192,123462,128,0,123687:0:0:0:0:
64,192,123612,128,2,123762:0:0:0:0:
320,192,123612,128,0,123687:0:0:0:0:
192,192,123687,128,0,123762:0:0:0:0:
320,192,123762,128,0,123837:0:0:0:0:
64,192,123837,128,0,123912:0:0:0:0:
448,192,123837,128,0,123987:0:0:0:0:
192,192,123912,128,2,123987:0:0:0:0:
320,192,123912,128,8,123987:0:0:0:0:
64,192,123987,128,0,124062:0:0:0:0:
192,192,124062,128,0,124212:0:0:0:0:
448,192,124062,128,0,124137:0:0:0:0:
320,192,124137,128,0,124212:0:0:0:0:
64,192,124212,128,2,124362:0:0:0:0:
448,192,124212,128,0,124362:0:0:0:0:
192,192,124287,128,0,124362:0:0:0:0:
320,192,124362,128,0,124437:0:0:0:0:
448,192,124437,128,0,124512:0:0:0:0:
64,192,124512,128,10,124587:0:0:0:0:
192,192,124512,128,4,124587:0:0:0:0:
320,192,124587,128,2,124662:0:0:0:0:
448,192,124587,128,0,124737:0:0:0:0:
64,192,124662,128,2,124737:0:0:0:0:
192,192,124662,128,0,124737:0:0:0:0:
320,192,124737,128,2,124812:0:0:0:0:
64,192,124812,128,2,124962:0:0:0:0:
192,192,124812,128,4,124887:0:0:0:0:
448,192,124812,128,0,124962:0:0:0:0:
320,192,124887,128,0,124962:0:0:0:0:
192,192,124962,128,0,125037:0:0:0:0:
448,192,125037,128,0,125112:0:0:0:0:
64,192,125112,128,8,125262:0:0:0:0:
320,192,125112,128,2,125262:0:0:0:0:
192,192,125187,128,0,125262:0:0:0:0:
448,192,125262,128,0,125337:0:0:0:0:
320,192,125337,128,0,125412:0:0:0:0:
192,192,125412,128,2,125562:0:0:0:0:
448,192,125412,128,0,125562:0:0:0:0:
320,192,125487,128,0,125562:0:0:0:0:
64,192,125562,128,0,125637:0:0:0:0:
192,192,125637,128,0,125712:0:0:0:0:
64,192,125712,128,8,125862:0:0:0:0:
320,192,125712,128,2,125862:0:0:0:0:
192,192,125787,128,0,125862:0:0:0:0:
448,192,125862,128,0,125937:0:0:0:0:
320,192,125937,128,0,126012:0:0:0:0:
64,192,126012,128,2,126162:0:0:0:0:
192,192,126012,128,0,126162:0:0:0:0:
448,192,126087,128,0,126162:0:0:0:0:
320,192,126162,128,0,126237:0:0:0:0:
192,192,126237,128,0,126312:0:0:0:0:
64,192,126312,128,2,126387:0:0:0:0:
448,192,126312,128,8,126387:0:0:0:0:
192,192,126387,128,0,126462:0:0:0:0:
320,192,126387,128,0,126537:0:0:0:0:
64,192,126462,128,0,126612:0:0:0:0:
448,192,126462,128,0,126537:0:0:0:0:
192,192,126537,128,0,126687:0:0:0:0:
320,192,126612,128,2,126762:0:0:0:0:
448,192,126612,128,0,126762:0:0:0:0:
64,192,126687,128,0,126762:0:0:0:0:
192,192,126762,128,0,126837:0:0:0:0:
320,192,126837,128,0,126912:0:0:0:0:
64,192,126912,128,2,127062:0:0:0:0:
192,192,126912,128,8,127062:0:0:0:0:
448,192,126987,128,0,127062:0:0:0:0:
320,192,127062,128,0,127137:0:0:0:0:
192,192,127137,128,0,127212:0:0:0:0:
64,192,127212,128,2,127362:0:0:0:0:
320,192,127212,128,4,127287:0:0:0:0:
448,192,127212,128,0,127362:0:0:0:0:
192,192,127287,128,0,127362:0:0:0:0:
320,192,127362,128,0,127437:0:0:0:0:
448,192,127437,128,0,127512:0:0:0:0:
64,192,127512,128,8,127587:0:0:0:0:
192,192,127512,128,2,127587:0:0:0:0:
320,192,127587,128,0,127737:0:0:0:0:
448,192,127587,128,0,127662:0:0:0:0:
64,192,127662,128,0,127737:0:0:0:0:
192,192,127662,128,0,127737:0:0:0:0:
448,192,127737,128,0,127887:0:0:0:0:
64,192,127812,128,2,128037:0:0:0:0:
192,192,127812,128,0,127887:0:0:0:0:
320,192,127812,128,0,127887:0:0:0:0:
192,192,127962,128,0,128187:0:0:0:0:
320,192,127962,128,0,128037:0:0:0:0:
448,192,127962,128,0,128037:0:0:0:0:
64,192,128112,128,8,128187:0:0:0:0:
320,192,128112,128,2,128337:0:0:0:0:
448,192,128112,128,0,128187:0:0:0:0:
64,192,128262,128,0,128337:0:0:0:0:
192,192,128262,128,0,128337:0:0:0:0:
448,192,128337,128,0,128487:0:0:0:0:
64,192,128412,128,2,128637:0:0:0:0:
192,192,128412,128,4,128487:0:0:0:0:
320,192,128412,128,0,128487:0:0:0:0:
192,192,128562,128,2,128637:0:0:0:0:
320,192,128562,128,4,128637:0:0:0:0:
448,192,128562,128,0,128637:0:0:0:0:
64,192,128712,128,8,128787:0:0:0:0:
320,192,128712,128,4,128787:0:0:0:0:
448,192,128712,128,2,128937:0:0:0:0:
64,192,128862,128,4,128937:0:0:0:0:
192,192,128862,128,2,128937:0:0:0:0:
320,192,128862,128,0,128937:0:0:0:0:
64,192,129012,128,4,129087:0:0:0:0:
192,192,129012,128,2,129237:0:0:0:0:
448,192,129012,128,0,129087:0:0:0:0:
64,192,129162,128,4,129237:0:0:0:0:
320,192,129162,128,2,129237:0:0:0:0:
448,192,129162,128,0,129237:0:0:0:0:
64,192,129312,128,6,129387:0:0:0:0:
448,192,129312,128,8,129387:0:0:0:0:
192,192,129387,128,2,129537:0:0:0:0:
320,192,129387,128,0,129462:0:0:0:0:
64,192,129462,128,2,129537:0:0:0:0:
448,192,129462,128,0,129537:0:0:0:0:
320,192,129537,128,2,129612:0:0:0:0:
64,192,129612,128,4,129762:0:0:0:0:
192,192,129612,128,2,129687:0:0:0:0:
448,192,129612,128,0,129762:0:0:0:0:
320,192,129687,128,0,129762:0:0:0:0:
192,192,129762,128,0,129837:0:0:0:0:
320,192,129837,128,0,129912:0:0:0:0:
64,192,129912,128,2,130062:0:0:0:0:
448,192,129912,128,8,130062:0:0:0:0:
192,192,129987,128,0,130062:0:0:0:0:
320,192,130062,128,0,130137:0:0:0:0:
448,192,130137,128,0,130212:0:0:0:0:
64,192,130212,128,2,130362:0:0:0:0:
192,192,130212,128,0,130362:0:0:0:0:
448,192,130287,128,0,130362:0:0:0:0:
320,192,130362,128,0,130437:0:0:0:0:
192,192,130437,128,0,130512:0:0:0:0:
320,192,130512,128,2,130662:0:0:0:0:
448,192,130512,128,8,130662:0:0:0:0:
64,192,130587,128,0,130662:0:0:0:0:
192,192,130662,128,0,130737:0:0:0:0:
320,192,130737,128,0,130812:0:0:0:0:
64,192,130812,128,2,130962:0:0:0:0:
448,192,130812,128,0,130962:0:0:0:0:
192,192,130887,128,0,130962:0:0:0:0:
320,192,130962,128,0,131037:0:0:0:0:
192,192,131037,128,0,131112:0:0:0:0:
64,192,131112,128,8,131187:0:0:0:0:
448,192,131112,128,2,131187:0:0:0:0:
192,192,131187,128,0,131337:0:0:0:0:
320,192,131187,128,0,131262:0:0:0:0:
64,192,131262,128,0,131337:0:0:0:0:
448,192,131262,128,0,131412:0:0:0:0:
320,192,131337,128,0,131487:0:0:0:0:
64,192,131412,128,2,131562:0:0:0:0:
192,192,131412,128,0,131562:0:0:0:0:
448,192,131487,128,0,131562:0:0:0:0:
320,192,131562,128,0,131637:0:0:0:0:
192,192,131637,128,0,131712:0:0:0:0:
320,192,131712,128,8,131862:0:0:0:0:
448,192,131712,128,2,131862:0:0:0:0:
64,192,131787,128,0,131862:0:0:0:0:
192,192,131862,128,0,131937:0:0:0:0:
320,192,131937,128,0,132012:0:0:0:0:
64,192,132012,128,2,132162:0:0:0:0:
192,192,132012,128,4,132087:0:0:0:0:
448,192,132012,128,0,132162:0:0:0:0:
320,192,132087,128,0,132162:0:0:0:0:
192,192,132162,128,0,132237:0:0:0:0:
64,192,132237,128,0,132312:0:0:0:0:
320,192,132312,128,2,132387:0:0:0:0:
448,192,132312,128,8,132387:0:0:0:0:
64,192,132387,128,0,132462:0:0:0:0:
192,192,132387,128,0,132537:0:0:0:0:
320,192,132462,128,0,132537:0:0:0:0:
448,192,132462,128,0,132537:0:0:0:0:
64,192,132537,128,0,132687:0:0:0:0:
192,192,132612,128,2,132687:0:0:0:0:
320,192,132612,128,0,132687:0:0:0:0:
448,192,132612,128,0,132837:0:0:0:0:
64,192,132762,128,0,132837:0:0:0:0:
192,192,132762,128,0,132837:0:0:0:0:
320,192,132762,128,0,132987:0:0:0:0:
64,192,132912,128,2,132987:0:0:0:0:
192,192,132912,128,8,133137:0:0:0:0:
448,192,132912,128,0,132987:0:0:0:0:
64,192,133062,128,0,133287:0:0:0:0:
320,192,133062,128,0,133137:0:0:0:0:
448,192,133062,128,0,133137:0:0:0:0:
192,192,133212,128,2,133362:0:0:0:0:
448,192,133212,128,0,133362:0:0:0:0:
320,192,133287,128,0,133362:0:0:0:0:
64,192,133362,128,0,133437:0:0:0:0:
320,192,133437,128,0,133587:0:0:0:0:
448,192,133437,128,0,133512:0:0:0:0:
64,192,133512,128,8,133587:0:0:0:0:
192,192,133512,128,2,133587:0:0:0:0:
448,192,133587,128,0,133662:0:0:0:0:
64,192,133662,128,0,133737:0:0:0:0:
320,192,133662,128,0,133812:0:0:0:0:
192,192,133737,128,0,133812:0:0:0:0:
64,192,133812,128,2,133962:0:0:0:0:
448,192,133812,128,0,133887:0:0:0:0:
320,192,133887,128,0,133962:0:0:0:0:
192,192,133962,128,0,134037:0:0:0:0:
320,192,134037,128,0,134112:0:0:0:0:
64,192,134112,128,10,134187:0:0:0:0:
448,192,134112,128,4,134187:0:0:0:0:
192,192,134187,128,2,134262:0:0:0:0:
320,192,134187,128,0,134262:0:0:0:0:
64,192,134262,128,2,134337:0:0:0:0:
448,192,134262,128,0,134337:0:0:0:0:
192,192,134337,128,2,134412:0:0:0:0:
64,192,134412,128,2,134562:0:0:0:0:
320,192,134412,128,4,134487:0:0:0:0:
448,192,134412,128,0,134562:0:0:0:0:
192,192,134487,128,0,134562:0:0:0:0:
320,192,134562,128,0,134637:0:0:0:0:
64,192,134637,128,0,134712:0:0:0:0:
192,192,134712,128,2,134862:0:0:0:0:
320,192,134712,128,8,134862:0:0:0:0:
448,192,134712,128,0,134787:0:0:0:0:
64,192,134787,128,0,134862:0:0:0:0:
448,192,134862,128,0,134937:0:0:0:0:
320,192,134937,128,0,135012:0:0:0:0:
64,192,135012,128,2,135162:0:0:0:0:
192,192,135012,128,0,135162:0:0:0:0:
448,192,135087,128,0,135162:0:0:0:0:
320,192,135162,128,0,135237:0:0:0:0:
192,192,135237,128,0,135312:0:0:0:0:
64,192,135312,128,2,135462:0:0:0:0:
320,192,135312,128,8,135387:0:0:0:0:
448,192,135312,128,0,135462:0:0:0:0:
192,192,135387,128,0,135462:0:0:0:0:
320,192,135462,128,0,135537:0:0:0:0:
64,192,135537,128,0,135612:0:0:0:0:
192,192,135612,128,2,135762:0:0:0:0:
320,192,135612,128,4,135762:0:0:0:0:
448,192,135612,128,0,135687:0:0:0:0:
64,192,135687,128,0,135762:0:0:0:0:
448,192,135762,128,0,135837:0:0:0:0:
320,192,135837,128,0,135912:0:0:0:0:
64,192,135912,128,8,135987:0:0:0:0:
192,192,135912,128,2,135987:0:0:0:0:
320,192,135987,128,0,136137:0:0:0:0:
448,192,135987,128,0,136062:0:0:0:0:
64,192,136062,128,0,136137:0:0:0:0:
192,192,136062,128,0,136212:0:0:0:0:
448,192,136137,128,0,136287:0:0:0:0:
64,192,136212,128,2,136362:0:0:0:0:
320,192,136212,128,0,136362:0:0:0:0:
192,192,136287,128,0,136362:0:0:0:0:
448,192,136362,128,0,136437:0:0:0:0:
320,192,136437,128,0,136512:0:0:0:0:
64,192,136512,128,8,136587:0:0:0:0:
192,192,136512,128,2,136662:0:0:0:0:
448,192,136512,128,0,136662:0:0:0:0:
320,192,136587,128,0,136662:0:0:0:0:
64,192,136662,128,0,136737:0:0:0:0:
192,192,136737,128,0,136812:0:0:0:0:
64,192,136812,128,2,136962:0:0:0:0:
320,192,136812,128,4,136887:0:0:0:0:
448,192,136812,128,0,136887:0:0:0:0:
192,192,136887,128,2,136962:0:0:0:0:
320,192,136962,128,2,137037:0:0:0:0:
448,192,136962,128,0,137037:0:0:0:0:
192,192,137037,128,2,137112:0:0:0:0:
64,192,137112,128,2,137187:0:0:0:0:
320,192,137112,128,8,137262:0:0:0:0:
448,192,137112,128,4,137187:0:0:0:0:
192,192,137187,128,2,137337:0:0:0:0:
64,192,137262,128,2,137337:0:0:0:0:
448,192,137262,128,0,137337:0:0:0:0:
320,192,137337,128,2,137412:0:0:0:0:
64,192,137412,128,2,137487:0:0:0:0:
192,192,137412,128,4,137487:0:0:0:0:
448,192,137412,128,0,137562:0:0:0:0:
320,192,137487,128,2,137562:0:0:0:0:
64,192,137562,128,2,137637:0:0:0:0:
192,192,137562,128,0,137637:0:0:0:0:
320,192,137637,128,2,137712:0:0:0:0:
64,192,137712,128,2,137787:0:0:0:0:
192,192,137712,128,8,137787:0:0:0:0:
448,192,137712,128,4,137787:0:0:0:0:
320,192,137787,128,2,137937:0:0:0:0:
64,192,137862,128,2,137937:0:0:0:0:
448,192,137862,128,0,137937:0:0:0:0:
192,192,137937,128,2,138012:0:0:0:0:
320,192,138012,128,2,138087:0:0:0:0:
448,192,138012,128,0,138087:0:0:0:0:
64,192,138162,128,2,138237:0:0:0:0:
192,192,138162,128,0,138237:0:0:0:0:
320,192,138237,1,2,0:0:0:0:
64,192,138312,128,8,138387:0:0:0:0:
448,192,138312,128,0,138387:0:0:0:0:
192,192,138462,128,2,138537:0:0:0:0:
320,192,138462,128,0,138537:0:0:0:0:
64,192,138537,1,8,0:0:0:0:
320,192,138612,128,2,138687:0:0:0:0:
448,192,138612,128,0,138687:0:0:0:0:
192,192,138687,1,8,0:0:0:0:
64,192,138762,128,2,138837:0:0:0:0:
448,192,138762,128,0,138837:0:0:0:0:
320,192,138837,1,2,0:0:0:0:
64,192,138912,128,8,138987:0:0:0:0:
192,192,138912,128,0,138987:0:0:0:0:
448,192,138912,1,0,0:0:0:0:
64,192,139212,1,2,0:0:0:0:
320,192,139212,128,4,139362:0:0:0:0:
448,192,139212,128,0,139362:0:0:0:0:
64,192,139362,128,0,139512:0:0:0:0:
192,192,139437,128,0,139587:0:0:0:0:
320,192,139512,128,2,139662:0:0:0:0:
448,192,139512,128,8,139662:0:0:0:0:
64,192,139662,128,0,139737:0:0:0:0:
192,192,139662,128,0,139812:0:0:0:0:
64,192,139812,128,2,139887:0:0:0:0:
320,192,139812,128,0,139962:0:0:0:0:
448,192,139812,128,0,140037:0:0:0:0:
192,192,139962,128,0,140037:0:0:0:0:
320,192,140037,128,0,140112:0:0:0:0:
64,192,140112,128,2,140337:0:0:0:0:
192,192,140112,128,8,140262:0:0:0:0:
448,192,140112,128,0,140187:0:0:0:0:
320,192,140262,128,0,140337:0:0:0:0:
192,192,140337,128,0,140412:0:0:0:0:
64,192,140412,128,2,140637:0:0:0:0:
320,192,140412,128,0,140562:0:0:0:0:
448,192,140412,128,0,140712:0:0:0:0:
192,192,140562,128,0,140637:0:0:0:0:
320,192,140637,128,0,140712:0:0:0:0:
64,192,140712,128,8,140787:0:0:0:0:
192,192,140712,128,2,140787:0:0:0:0:
320,192,140787,128,0,140937:0:0:0:0:
448,192,140787,128,0,140862:0:0:0:0:
64,192,140862,128,0,140937:0:0:0:0:
192,192,140862,128,0,140937:0:0:0:0:
448,192,140937,128,0,141012:0:0:0:0:
64,192,141012,128,2,141162:0:0:0:0:
192,192,141012,128,0,141237:0:0:0:0:
320,192,141012,128,0,141087:0:0:0:0:
448,192,141162,128,0,141237:0:0:0:0:
64,192,141237,128,0,141312:0:0:0:0:
192,192,141312,128,8,141387:0:0:0:0:
320,192,141312,128,2,141537:0:0:0:0:
448,192,141312,128,0,141462:0:0:0:0:
64,192,141462,128,0,141537:0:0:0:0:
448,192,141537,128,0,141612:0:0:0:0:
64,192,141612,128,2,141762:0:0:0:0:
192,192,141612,128,0,141912:0:0:0:0:
320,192,141612,128,0,141837:0:0:0:0:
448,192,141762,128,0,141837:0:0:0:0:
64,192,141837,128,0,141912:0:0:0:0:
320,192,141912,128,2,141987:0:0:0:0:
448,192,141912,128,8,141987:0:0:0:0:
64,192,141987,128,0,142137:0:0:0:0:
192,192,141987,128,0,142062:0:0:0:0:
320,192,142062,128,0,142137:0:0:0:0:
448,192,142062,128,0,142137:0:0:0:0:
192,192,142137,128,0,142287:0:0:0:0:
64,192,142212,128,2,142287:0:0:0:0:
320,192,142212,128,0,142287:0:0:0:0:
448,192,142212,128,0,142437:0:0:0:0:
64,192,142362,128,0,142437:0:0:0:0:
192,192,142362,128,0,142437:0:0:0:0:
320,192,142362,128,0,142587:0:0:0:0:
64,192,142512,128,2,142587:0:0:0:0:
192,192,142512,128,8,142737:0:0:0:0:
448,192,142512,128,0,142587:0:0:0:0:
64,192,142662,128,0,142887:0:0:0:0:
320,192,142662,128,0,142737:0:0:0:0:
448,192,142662,128,0,142737:0:0:0:0:
192,192,142812,128,2,142962:0:0:0:0:
320,192,142812,128,0,142962:0:0:0:0:
448,192,142812,128,0,142962:0:0:0:0:
64,192,142962,1,0,0:0:0:0:
320,192,143037,128,0,143187:0:0:0:0:
448,192,143037,128,0,143187:0:0:0:0:
64,192,143112,128,8,143187:0:0:0:0:
192,192,143112,128,2,143187:0:0:0:0:
192,192,143262,128,0,143412:0:0:0:0:
448,192,143262,128,0,143412:0:0:0:0:
64,192,143412,128,2,143562:0:0:0:0:
320,192,143412,128,0,143562:0:0:0:0:
192,192,143487,128,0,143637:0:0:0:0:
448,192,143562,128,0,143712:0:0:0:0:
320,192,143637,128,0,143712:0:0:0:0:
64,192,143712,128,12,143787:0:0:0:0:
192,192,143712,128,2,143787:0:0:0:0:
320,192,143787,128,2,143862:0:0:0:0:
448,192,143787,128,0,143937:0:0:0:0:
64,192,143862,128,2,143937:0:0:0:0:
192,192,143862,128,0,143937:0:0:0:0:
320,192,143937,128,2,144012:0:0:0:0:
64,192,144012,128,4,144162:0:0:0:0:
192,192,144012,128,2,144162:0:0:0:0:
448,192,144012,1,0,0:0:0:0:
448,192,144162,128,0,144312:0:0:0:0:
320,192,144237,128,0,144387:0:0:0:0:
64,192,144312,128,2,144462:0:0:0:0:
192,192,144312,128,8,144462:0:0:0:0:
320,192,144462,128,0,144612:0:0:0:0:
448,192,144462,128,0,144537:0:0:0:0:
64,192,144612,128,2,144837:0:0:0:0:
192,192,144612,128,0,144762:0:0:0:0:
448,192,144612,128,0,144687:0:0:0:0:
320,192,144762,128,0,144837:0:0:0:0:
192,192,144837,128,0,144912:0:0:0:0:
64,192,144912,128,2,144987:0:0:0:0:
320,192,144912,128,8,145062:0:0:0:0:
448,192,144912,128,0,145137:0:0:0:0:
192,192,145062,128,0,145137:0:0:0:0:
320,192,145137,128,0,145212:0:0:0:0:
64,192,145212,128,2,145512:0:0:0:0:
192,192,145212,128,0,145362:0:0:0:0:
448,192,145212,128,0,145437:0:0:0:0:
320,192,145362,128,0,145437:0:0:0:0:
192,192,145437,128,0,145512:0:0:0:0:
320,192,145512,128,8,145587:0:0:0:0:
448,192,145512,128,2,145587:0:0:0:0:
64,192,145587,128,0,145662:0:0:0:0:
192,192,145587,128,0,145737:0:0:0:0:
320,192,145662,128,0,145737:0:0:0:0:
448,192,145662,128,0,145737:0:0:0:0:
64,192,145737,128,0,145812:0:0:0:0:
192,192,145812,128,2,145887:0:0:0:0:
320,192,145812,128,0,146037:0:0:0:0:
448,192,145812,128,0,145962:0:0:0:0:
64,192,145962,128,0,146037:0:0:0:0:
448,192,146037,128,0,146112:0:0:0:0:
64,192,146112,128,8,146262:0:0:0:0:
192,192,146112,128,2,146337:0:0:0:0:
320,192,146112,128,0,146187:0:0:0:0:
448,192,146262,128,0,146337:0:0:0:0:
64,192,146337,128,0,146412:0:0:0:0:
192,192,146412,128,2,146637:0:0:0:0:
320,192,146412,128,4,146712:0:0:0:0:
448,192,146412,128,0,146562:0:0:0:0:
64,192,146562,128,0,146637:0:0:0:0:
448,192,146637,128,0,146712:0:0:0:0:
64,192,146712,128,2,146787:0:0:0:0:
192,192,146712,128,8,146787:0:0:0:0:
320,192,146787,128,0,146862:0:0:0:0:
448,192,146787,128,0,146937:0:0:0:0:
64,192,146862,128,0,146937:0:0:0:0:
192,192,146862,128,0,146937:0:0:0:0:
320,192,146937,128,0,147087:0:0:0:0:
64,192,147012,128,2,147237:0:0:0:0:
192,192,147012,128,0,147087:0:0:0:0:
448,192,147012,128,0,147087:0:0:0:0:
192,192,147162,128,0,147312:0:0:0:0:
320,192,147162,128,0,147237:0:0:0:0:
448,192,147162,128,0,147237:0:0:0:0:
64,192,147312,128,2,147387:0:0:0:0:
448,192,147312,128,8,147387:0:0:0:0:
192,192,147387,128,2,147462:0:0:0:0:
320,192,147387,128,0,147537:0:0:0:0:
64,192,147462,128,2,147537:0:0:0:0:
448,192,147462,128,0,147537:0:0:0:0:
192,192,147537,128,2,147687:0:0:0:0:
64,192,147612,128,4,147687:0:0:0:0:
320,192,147612,128,2,147687:0:0:0:0:
448,192,147612,128,0,147762:0:0:0:0:
320,192,147762,128,0,147837:0:0:0:0:
64,192,147837,128,2,147912:0:0:0:0:
192,192,147837,128,4,147987:0:0:0:0:
320,192,147912,128,8,147987:0:0:0:0:
448,192,147912,128,0,147987:0:0:0:0:
64,192,148062,128,2,148137:0:0:0:0:
192,192,148062,128,4,148137:0:0:0:0:
448,192,148062,128,0,148287:0:0:0:0:
64,192,148212,128,2,148437:0:0:0:0:
192,192,148212,128,4,148287:0:0:0:0:
320,192,148212,128,0,148287:0:0:0:0:
192,192,148362,128,2,148437:0:0:0:0:
320,192,148362,128,4,148437:0:0:0:0:
448,192,148362,128,0,148437:0:0:0:0:
320,192,148512,128,12,148587:0:0:0:0:
448,192,148512,128,2,148587:0:0:0:0:
64,192,148587,128,2,148737:0:0:0:0:
192,192,148587,128,0,148662:0:0:0:0:
320,192,148662,128,2,148737:0:0:0:0:
448,192,148662,128,0,148737:0:0:0:0:
192,192,148737,128,2,148812:0:0:0:0:
64,192,148812,1,2,0:0:0:0:
320,192,148812,128,4,148962:0:0:0:0:
448,192,148812,128,0,148962:0:0:0:0:
64,192,148962,128,0,149112:0:0:0:0:
192,192,149037,128,0,149187:0:0:0:0:
320,192,149112,128,8,149262:0:0:0:0:
448,192,149112,128,2,149262:0:0:0:0:
64,192,149262,128,0,149337:0:0:0:0:
192,192,149262,128,0,149412:0:0:0:0:
64,192,149412,128,2,149487:0:0:0:0:
320,192,149412,128,0,149562:0:0:0:0:
448,192,149412,128,0,149637:0:0:0:0:
192,192,149562,128,0,149637:0:0:0:0:
320,192,149637,128,0,149712:0:0:0:0:
64,192,149712,128,8,149937:0:0:0:0:
192,192,149712,128,2,149862:0:0:0:0:
448,192,149712,128,0,149787:0:0:0:0:
320,192,149862,128,0,149937:0:0:0:0:
192,192,149937,128,0,150012:0:0:0:0:
64,192,150012,128,2,150237:0:0:0:0:
320,192,150012,128,0,150162:0:0:0:0:
448,192,150012,128,0,150312:0:0:0:0:
192,192,150162,128,0,150237:0:0:0:0:
320,192,150237,128,0,150312:0:0:0:0:
64,192,150312,128,2,150387:0:0:0:0:
192,192,150312,128,8,150387:0:0:0:0:
320,192,150387,128,0,150537:0:0:0:0:
448,192,150387,128,0,150462:0:0:0:0:
64,192,150462,128,0,150537:0:0:0:0:
192,192,150462,128,0,150537:0:0:0:0:
448,192,150537,128,0,150612:0:0:0:0:
64,192,150612,128,2,150762:0:0:0:0:
192,192,150612,128,0,150837:0:0:0:0:
320,192,150612,128,0,150687:0:0:0:0:
448,192,150762,128,0,150837:0:0:0:0:
64,192,150837,128,0,150912:0:0:0:0:
192,192,150912,128,2,150987:0:0:0:0:
320,192,150912,128,8,151137:0:0:0:0:
448,192,150912,128,0,151062:0:0:0:0:
64,192,151062,128,0,151137:0:0:0:0:
448,192,151137,128,0,151212:0:0:0:0:
64,192,151212,128,4,151362:0:0:0:0:
192,192,151212,128,2,151512:0:0:0:0:
320,192,151212,128,0,151437:0:0:0:0:
448,192,151362,128,0,151437:0:0:0:0:
64,192,151437,128,0,151512:0:0:0:0:
320,192,151512,128,8,151587:0:0:0:0:
448,192,151512,128,2,151587:0:0:0:0:
64,192,151587,128,0,151737:0:0:0:0:
192,192,151587,128,0,151662:0:0:0:0:
320,192,151662,128,0,151737:0:0:0:0:
448,192,151662,128,0,151737:0:0:0:0:
192,192,151737,128,0,151887:0:0:0:0:
64,192,151812,128,2,151887:0:0:0:0:
320,192,151812,128,0,151887:0:0:0:0:
448,192,151812,128,0,152037:0:0:0:0:
64,192,151962,128,0,152037:0:0:0:0:
192,192,151962,128,0,152037:0:0:0:0:
320,192,151962,128,0,152187:0:0:0:0:
64,192,152112,128,8,152187:0:0:0:0:
192,192,152112,128,2,152337:0:0:0:0:
448,192,152112,128,0,152187:0:0:0:0:
64,192,152262,128,0,152487:0:0:0:0:
320,192,152262,128,0,152337:0:0:0:0:
448,192,152262,128,0,152337:0:0:0:0:
192,192,152412,128,2,152562:0:0:0:0:
320,192,152412,128,0,152562:0:0:0:0:
448,192,152412,128,0,152562:0:0:0:0:
64,192,152562,1,0,0:0:0:0:
320,192,152637,128,0,152787:0:0:0:0:
448,192,152637,128,0,152787:0:0:0:0:
64,192,152712,128,2,152787:0:0:0:0:
192,192,152712,128,8,152787:0:0:0:0:
192,192,152862,128,0,153012:0:0:0:0:
448,192,152862,128,0,153012:0:0:0:0:
64,192,153012,128,2,153162:0:0:0:0:
320,192,153012,128,0,153162:0:0:0:0:
192,192,153087,128,0,153237:0:0:0:0:
448,192,153162,128,0,153312:0:0:0:0:
320,192,153237,128,0,153312:0:0:0:0:
64,192,153312,128,6,153387:0:0:0:0:
192,192,153312,128,8,153387:0:0:0:0:
320,192,153387,128,2,153537:0:0:0:0:
448,192,153387,128,0,153462:0:0:0:0:
64,192,153462,128,2,153537:0:0:0:0:
192,192,153462,128,0,153537:0:0:0:0:
448,192,153537,128,2,153612:0:0:0:0:
64,192,153612,128,4,153687:0:0:0:0:
192,192,153612,128,2,153687:0:0:0:0:
320,192,153612,128,0,153762:0:0:0:0:
448,192,153687,128,0,153762:0:0:0:0:
64,192,153762,128,2,153837:0:0:0:0:
192,192,153762,128,0,153837:0:0:0:0:
320,192,153837,128,0,153912:0:0:0:0:
448,192,153837,128,0,153987:0:0:0:0:
64,192,153912,128,8,153987:0:0:0:0:
192,192,153912,128,2,154062:0:0:0:0:
320,192,153987,128,0,154062:0:0:0:0:
64,192,154062,128,2,154212:0:0:0:0:
448,192,154062,128,0,154137:0:0:0:0:
192,192,154137,128,0,154212:0:0:0:0:
320,192,154212,128,2,154362:0:0:0:0:
448,192,154212,128,0,154287:0:0:0:0:
64,192,154287,128,0,154437:0:0:0:0:
192,192,154362,128,2,154437:0:0:0:0:
448,192,154362,128,0,154512:0:0:0:0:
320,192,154437,128,0,154512:0:0:0:0:
64,192,154512,128,8,154587:0:0:0:0:
192,192,154512,128,2,154662:0:0:0:0:
448,192,154587,128,0,154737:0:0:0:0:
64,192,154662,128,2,154737:0:0:0:0:
320,192,154662,128,0,154737:0:0:0:0:
192,192,154737,128,0,154812:0:0:0:0:
64,192,154812,128,4,154962:0:0:0:0:
320,192,154812,128,2,154887:0:0:0:0:
448,192,154812,128,0,154887:0:0:0:0:
192,192,154887,128,0,155037:0:0:0:0:
320,192,154962,128,2,155112:0:0:0:0:
448,192,154962,128,0,155037:0:0:0:0:
64,192,155037,128,0,155112:0:0:0:0:
192,192,155112,128,2,155187:0:0:0:0:
448,192,155112,128,8,155187:0:0:0:0:
64,192,155187,128,0,155337:0:0:0:0:
320,192,155187,128,0,155262:0:0:0:0:
192,192,155262,128,2,155337:0:0:0:0:
448,192,155262,128,0,155337:0:0:0:0:
320,192,155337,128,0,155412:0:0:0:0:
64,192,155412,128,2,155487:0:0:0:0:
192,192,155412,128,0,155487:0:0:0:0:
448,192,155412,128,0,155562:0:0:0:0:
320,192,155487,128,0,155637:0:0:0:0:
64,192,155562,128,2,155637:0:0:0:0:
192,192,155562,128,0,155637:0:0:0:0:
448,192,155637,128,0,155712:0:0:0:0:
192,192,155712,128,2,155862:0:0:0:0:
320,192,155712,128,8,155787:0:0:0:0:
64,192,155787,128,0,155937:0:0:0:0:
320,192,155862,128,2,155937:0:0:0:0:
448,192,155862,128,0,155937:0:0:0:0:
192,192,155937,128,0,156012:0:0:0:0:
64,192,156012,128,4,156162:0:0:0:0:
320,192,156012,128,2,156087:0:0:0:0:
448,192,156012,128,0,156087:0:0:0:0:
192,192,156087,128,2,156162:0:0:0:0:
320,192,156162,128,2,156237:0:0:0:0:
448,192,156162,128,0,156237:0:0:0:0:
192,192,156237,128,2,156312:0:0:0:0:
64,192,156312,128,8,156387:0:0:0:0:
320,192,156312,128,2,156462:0:0:0:0:
448,192,156312,128,4,156387:0:0:0:0:
192,192,156387,128,2,156537:0:0:0:0:
64,192,156462,128,2,156537:0:0:0:0:
448,192,156462,128,0,156537:0:0:0:0:
320,192,156537,128,2,156612:0:0:0:0:
64,192,156612,128,2,156687:0:0:0:0:
192,192,156612,128,4,156687:0:0:0:0:
448,192,156612,128,0,156762:0:0:0:0:
320,192,156687,128,2,156762:0:0:0:0:
64,192,156762,128,2,156837:0:0:0:0:
192,192,156762,128,0,156837:0:0:0:0:
320,192,156837,128,2,156912:0:0:0:0:
64,192,156912,128,8,156987:0:0:0:0:
192,192,156912,128,2,157062:0:0:0:0:
448,192,156912,128,4,156987:0:0:0:0:
320,192,156987,128,2,157137:0:0:0:0:
64,192,157062,128,2,157137:0:0:0:0:
448,192,157062,128,0,157137:0:0:0:0:
192,192,157137,128,2,157212:0:0:0:0:
448,192,157212,1,2,0:0:0:0:
320,192,157249,1,2,0:0:0:0:
64,192,157287,1,2,0:0:0:0:
192,192,157324,1,2,0:0:0:0:
448,192,157362,1,2,0:0:0:0:
320,192,157399,1,2,0:0:0:0:
64,192,157437,1,2,0:0:0:0:
192,192,157474,1,2,0:0:0:0:
448,192,157512,1,2,0:0:0:0:
320,192,157549,1,2,0:0:0:0:
64,192,157587,1,2,0:0:0:0:
192,192,157624,1,2,0:0:0:0:
448,192,157662,128,2,157737:0:0:0:0:
320,192,157699,128,2,157774:0:0:0:0:
192,192,157737,128,2,157812:0:0:0:0:
64,192,157774,128,2,157849:0:0:0:0:
448,192,157812,128,2,157887:0:0:0:0:
320,192,157849,128,2,157924:0:0:0:0:
192,192,157887,128,2,157962:0:0:0:0:
64,192,157924,128,2,157999:0:0:0:0:
448,192,157962,128,2,158037:0:0:0:0:
320,192,157999,128,2,158074:0:0:0:0:
192,192,158037,128,2,158112:0:0:0:0:
64,192,158074,128,2,158149:0:0:0:0:
320,192,158112,1,2,0:0:0:0:
448,192,158112,1,8,0:0:0:0:
64,192,158412,128,2,158562:0:0:0:0:
192,192,158412,1,4,0:0:0:0:
448,192,158412,128,0,158862:0:0:0:0:
320,192,158562,128,0,158712:0:0:0:0:
192,192,158712,128,0,158862:0:0:0:0:
64,192,158862,1,2,0:0:0:0:
320,192,158862,1,0,0:0:0:0:
192,192,158937,1,2,0:0:0:0:
64,192,159012,128,2,159462:0:0:0:0:
320,192,159012,1,8,0:0:0:0:
448,192,159012,1,0,0:0:0:0:
448,192,159162,1,0,0:0:0:0:
192,192,159312,128,0,159462:0:0:0:0:
320,192,159312,1,0,0:0:0:0:
320,192,159462,1,2,0:0:0:0:
448,192,159462,1,0,0:0:0:0:
64,192,159537,1,2,0:0:0:0:
192,192,159537,1,0,0:0:0:0:
320,192,159612,1,2,0:0:0:0:
448,192,159612,128,0,159837:0:0:0:0:
64,192,159762,1,0,0:0:0:0:
192,192,159837,1,2,0:0:0:0:
320,192,159837,1,0,0:0:0:0:
64,192,159912,128,0,160062:0:0:0:0:
448,192,159912,1,0,0:0:0:0:
192,192,160062,1,2,0:0:0:0:
320,192,160062,128,0,160212:0:0:0:0:
64,192,160212,1,8,0:0:0:0:
192,192,160212,128,2,160362:0:0:0:0:
448,192,160212,1,0,0:0:0:0:
320,192,160362,1,2,0:0:0:0:
448,192,160362,1,0,0:0:0:0:
64,192,160437,1,2,0:0:0:0:
192,192,160512,1,2,0:0:0:0:
320,192,160512,1,8,0:0:0:0:
448,192,160512,128,0,160662:0:0:0:0:
64,192,160662,1,2,0:0:0:0:
192,192,160662,1,0,0:0:0:0:
320,192,160737,1,2,0:0:0:0:
64,192,160812,128,2,161262:0:0:0:0:
192,192,160812,1,4,0:0:0:0:
448,192,160812,1,0,0:0:0:0:
320,192,160962,1,0,0:0:0:0:
192,192,161112,128,0,161262:0:0:0:0:
448,192,161112,1,0,0:0:0:0:
320,192,161262,1,2,0:0:0:0:
448,192,161262,1,0,0:0:0:0:
192,192,161337,1,2,0:0:0:0:
64,192,161412,1,2,0:0:0:0:
320,192,161412,1,8,0:0:0:0:
448,192,161412,128,0,161562:0:0:0:0:
192,192,161562,1,0,0:0:0:0:
320,192,161562,128,0,161712:0:0:0:0:
64,192,161712,1,0,0:0:0:0:
192,192,161712,128,0,161862:0:0:0:0:
320,192,161862,1,2,0:0:0:0:
448,192,161862,1,0,0:0:0:0:
64,192,161937,1,2,0:0:0:0:
192,192,161937,1,0,0:0:0:0:
320,192,162012,1,2,0:0:0:0:
448,192,162012,128,0,162237:0:0:0:0:
64,192,162162,1,0,0:0:0:0:
192,192,162237,1,2,0:0:0:0:
320,192,162237,1,0,0:0:0:0:
64,192,162312,128,0,162462:0:0:0:0:
448,192,162312,1,0,0:0:0:0:
192,192,162462,128,2,162612:0:0:0:0:
320,192,162462,1,0,0:0:0:0:
64,192,162612,1,2,0:0:0:0:
320,192,162612,128,8,162762:0:0:0:0:
448,192,162612,1,0,0:0:0:0:
64,192,162762,1,2,0:0:0:0:
192,192,162762,1,0,0:0:0:0:
448,192,162837,1,2,0:0:0:0:
64,192,162912,1,2,0:0:0:0:
192,192,162912,1,4,0:0:0:0:
320,192,162912,1,0,0:0:0:0:
448,192,162987,1,2,0:0:0:0:
64,192,163062,1,2,0:0:0:0:
320,192,163062,1,0,0:0:0:0:
192,192,163137,1,2,0:0:0:0:
64,192,163212,128,4,163662:0:0:0:0:
320,192,163212,1,2,0:0:0:0:
448,192,163212,128,0,163362:0:0:0:0:
192,192,163362,128,0,163512:0:0:0:0:
320,192,163512,128,0,163662:0:0:0:0:
192,192,163662,1,2,0:0:0:0:
448,192,163662,1,0,0:0:0:0:
320,192,163737,1,2,0:0:0:0:
64,192,163812,1,2,0:0:0:0:
192,192,163812,1,8,0:0:0:0:
448,192,163812,128,0,164262:0:0:0:0:
64,192,163962,1,0,0:0:0:0:
192,192,164112,1,0,0:0:0:0:
320,192,164112,128,0,164262:0:0:0:0:
64,192,164262,1,2,0:0:0:0:
192,192,164262,1,0,0:0:0:0:
320,192,164337,1,2,0:0:0:0:
448,192,164337,1,0,0:0:0:0:
64,192,164412,128,2,164637:0:0:0:0:
192,192,164412,1,0,0:0:0:0:
448,192,164562,1,0,0:0:0:0:
192,192,164637,1,2,0:0:0:0:
320,192,164637,1,0,0:0:0:0:
64,192,164712,1,0,0:0:0:0:
448,192,164712,128,0,164862:0:0:0:0:
192,192,164862,128,2,165012:0:0:0:0:
320,192,164862,1,0,0:0:0:0:
64,192,165012,1,2,0:0:0:0:
320,192,165012,128,8,165162:0:0:0:0:
448,192,165012,1,0,0:0:0:0:
64,192,165162,1,2,0:0:0:0:
192,192,165162,1,0,0:0:0:0:
448,192,165237,1,2,0:0:0:0:
64,192,165312,128,2,165462:0:0:0:0:
192,192,165312,1,8,0:0:0:0:
320,192,165312,1,0,0:0:0:0:
320,192,165462,1,2,0:0:0:0:
448,192,165462,1,0,0:0:0:0:
192,192,165537,1,2,0:0:0:0:
64,192,165612,1,2,0:0:0:0:
320,192,165612,1,4,0:0:0:0:
448,192,165612,128,0,166062:0:0:0:0:
192,192,165762,1,0,0:0:0:0:
64,192,165912,1,0,0:0:0:0:
320,192,165912,128,0,166062:0:0:0:0:
64,192,166062,1,2,0:0:0:0:
192,192,166062,1,0,0:0:0:0:
320,192,166137,1,2,0:0:0:0:
64,192,166212,128,2,166362:0:0:0:0:
192,192,166212,1,8,0:0:0:0:
448,192,166212,1,0,0:0:0:0:
192,192,166362,128,0,166512:0:0:0:0:
320,192,166362,1,0,0:0:0:0:
320,192,166512,1,2,0:0:0:0:
448,192,166512,1,4,0:0:0:0:
64,192,166587,1,2,0:0:0:0:
192,192,166587,1,0,0:0:0:0:
320,192,166662,1,2,0:0:0:0:
448,192,166662,1,0,0:0:0:0:
192,192,166737,1,2,0:0:0:0:
64,192,166812,128,2,166887:0:0:0:0:
320,192,166812,128,4,166887:0:0:0:0:
448,192,166812,128,0,167037:0:0:0:0:
64,192,166962,128,4,167037:0:0:0:0:
192,192,166962,128,2,167037:0:0:0:0:
320,192,166962,128,0,167037:0:0:0:0:
64,192,167112,128,2,167337:0:0:0:0:
192,192,167112,128,4,167187:0:0:0:0:
448,192,167112,128,0,167187:0:0:0:0:
192,192,167262,128,2,167337:0:0:0:0:
320,192,167262,128,4,167337:0:0:0:0:
448,192,167262,128,0,167337:0:0:0:0:
64,192,167412,128,2,167487:0:0:0:0:
192,192,167412,128,4,167487:0:0:0:0:
448,192,167412,128,0,167487:0:0:0:0:
320,192,167487,1,8,0:0:0:0:
64,192,167562,128,2,167637:0:0:0:0:
192,192,167562,128,4,167637:0:0:0:0:
448,192,167562,128,0,167637:0:0:0:0:
320,192,167637,1,8,0:0:0:0:
64,192,167712,1,6,0:0:0:0:
448,192,167712,1,8,0:0:0:0:
192,192,167787,1,2,0:0:0:0:
320,192,167787,1,0,0:0:0:0:
64,192,167862,1,2,0:0:0:0:
448,192,167862,1,0,0:0:0:0:
192,192,167937,1,2,0:0:0:0:
64,192,168012,128,4,168087:0:0:0:25:soft-hitfinish.wav
320,192,168012,1,2,0:0:0:25:soft-hitwhistle.wav
448,192,168012,128,0,168087:0:0:0:0:
192,192,168162,128,0,168237:0:0:0:0:
320,192,168312,128,0,168387:0:0:0:0:
448,192,168312,128,0,168387:0:0:0:0:
64,192,168462,128,0,168537:0:0:0:0:
192,192,168612,128,0,168687:0:0:0:0:
448,192,168612,128,0,168687:0:0:0:0:
448,192,168762,128,0,168837:0:0:0:0:
64,192,168912,128,0,168987:0:0:0:0:
320,192,168912,128,0,168987:0:0:0:0:
64,192,169062,128,0,169137:0:0:0:0:
192,192,169212,128,0,169287:0:0:0:0:
448,192,169212,128,0,169287:0:0:0:0:
192,192,169362,128,0,169437:0:0:0:0:
320,192,169512,128,0,169587:0:0:0:0:
448,192,169512,128,0,169587:0:0:0:0:
192,192,169662,128,0,169737:0:0:0:0:
320,192,169662,128,0,169737:0:0:0:0:
64,192,169812,128,0,169887:0:0:0:0:
192,192,169812,128,0,169887:0:0:0:0:
64,192,169962,128,0,170037:0:0:0:0:
192,192,170112,128,0,170187:0:0:0:0:
448,192,170112,128,0,170187:0:0:0:0:
448,192,170262,128,0,170337:0:0:0:0:
64,192,170412,128,0,170487:0:0:0:0:
320,192,170412,128,0,170487:0:0:0:0:
320,192,170562,128,0,170637:0:0:0:0:
64,192,170712,128,0,170787:0:0:0:0:
192,192,170712,128,0,170787:0:0:0:0:
192,192,170862,128,0,170937:0:0:0:0:
448,192,170862,128,0,170937:0:0:0:0:
64,192,171012,128,0,171087:0:0:0:0:
448,192,171012,128,0,171087:0:0:0:0:
192,192,171162,128,0,171237:0:0:0:0:
320,192,171162,128,0,171237:0:0:0:0:
64,192,171312,128,0,171387:0:0:0:0:
320,192,171312,128,0,171387:0:0:0:0:
64,192,171462,128,0,171537:0:0:0:0:
192,192,171462,128,0,171537:0:0:0:0:
320,192,171612,128,0,171687:0:0:0:0:
448,192,171612,128,0,171687:0:0:0:0:
448,192,171762,128,0,171837:0:0:0:0:
64,192,171912,128,0,171987:0:0:0:0:
192,192,171912,128,0,171987:0:0:0:0:
320,192,172062,128,0,172137:0:0:0:0:
448,192,172062,128,0,172137:0:0:0:0:
64,192,172212,128,0,172287:0:0:0:0:
320,192,172212,128,0,172287:0:0:0:0:
192,192,172362,128,0,172437:0:0:0:0:
64,192,172512,128,0,172587:0:0:0:0:
448,192,172512,128,0,172587:0:0:0:0:
320,192,172662,128,0,172737:0:0:0:0:
64,192,172812,128,0,172887:0:0:0:0:
192,192,172812,128,0,172887:0:0:0:0:
320,192,172962,128,0,173037:0:0:0:0:
64,192,173112,128,0,173187:0:0:0:0:
448,192,173112,128,0,173187:0:0:0:0:
192,192,173262,128,0,173337:0:0:0:0:
64,192,173412,128,0,173487:0:0:0:0:
320,192,173412,128,0,173487:0:0:0:0:
64,192,173562,128,0,173637:0:0:0:0:
192,192,173712,128,0,173787:0:0:0:0:
448,192,173712,128,0,173787:0:0:0:0:
448,192,173862,128,0,173937:0:0:0:0:
64,192,174012,128,0,174087:0:0:0:0:
320,192,174012,128,0,174087:0:0:0:0:
320,192,174162,128,0,174237:0:0:0:0:
64,192,174312,128,0,174387:0:0:0:0:
192,192,174312,128,0,174387:0:0:0:0:
192,192,174462,128,0,174537:0:0:0:0:
320,192,174462,128,0,174537:0:0:0:0:
320,192,174612,128,0,174687:0:0:0:0:
448,192,174612,128,0,174687:0:0:0:0:
448,192,174762,128,0,174837:0:0:0:0:
64,192,174912,128,0,174987:0:0:0:0:
320,192,174912,128,0,174987:0:0:0:0:
64,192,175062,128,0,175137:0:0:0:0:
192,192,175212,128,0,175287:0:0:0:0:
448,192,175212,128,0,175287:0:0:0:0:
192,192,175362,128,0,175437:0:0:0:0:
320,192,175512,128,0,175587:0:0:0:0:
448,192,175512,128,0,175587:0:0:0:0:
64,192,175662,128,0,175737:0:0:0:0:
320,192,175662,128,0,175737:0:0:0:0:
64,192,175812,128,0,175887:0:0:0:0:
448,192,175812,128,0,175887:0:0:0:0:
192,192,175962,128,0,176037:0:0:0:0:
320,192,175962,128,0,176037:0:0:0:0:
64,192,176112,128,0,176187:0:0:0:0:
320,192,176112,128,0,176187:0:0:0:0:
64,192,176262,128,0,176337:0:0:0:0:
192,192,176262,128,0,176337:0:0:0:0:
320,192,176412,128,0,176487:0:0:0:0:
448,192,176412,128,0,176487:0:0:0:0:
64,192,176562,128,0,176637:0:0:0:0:
320,192,176712,128,0,176787:0:0:0:0:
192,192,176862,128,0,176937:0:0:0:0:
448,192,177012,128,0,177087:0:0:0:0:
320,192,177162,128,0,177237:0:0:0:0:
192,192,177312,128,0,177387:0:0:0:0:
320,192,177462,128,0,177537:0:0:0:0:
64,192,177612,128,0,182412:0:0:0:0:
192,192,177612,128,0,182412:0:0:0:0:
448,192,177612,128,0,182412:0:0:0:0:
320,192,181212,128,0,182412:0:0:0:0:
