osu file format v14

[General]
AudioFilename: audio.mp3
AudioLeadIn: 0
PreviewTime: 100812
Countdown: 0
SampleSet: Soft
StackLeniency: 0.7
Mode: 3
LetterboxInBreaks: 0
SpecialStyle: 0
WidescreenStoryboard: 1

[Editor]
Bookmarks: 2412,12012,21612,31212,33612,36012,38412,40812,43212,48012,52812,57612,62412,72012,81612,91212,100812,110412,115212,120012,129612,139212,144012,148812,153612,156012,158412,168012,177612
DistanceSpacing: 3
BeatDivisor: 4
GridSize: 16
TimelineZoom: 1.1

[Metadata]
Title:Odin
TitleUnicode:Odin
Artist:Gram
ArtistUnicode:Gram
Creator:cai_ji_ccc
Version:EXPERT
Source:WACCA Reverse
Tags:mappers' guild mg electronic instrumental video game featured artist fa j-core hardcore tano*c djgenki dj genki gnkcd-015 comic market c97 ln long notes
BeatmapID:4115478
BeatmapSetID:1981845

[Difficulty]
HPDrainRate:8
CircleSize:4
OverallDifficulty:8
ApproachRate:5
SliderMultiplier:1.4
SliderTickRate:1

[Events]
//Background and Video events
0,0,"1682330744763.jpg",0,0
//Break Periods
//Storyboard Layer 0 (Background)
//Storyboard Layer 1 (Fail)
//Storyboard Layer 2 (Pass)
//Storyboard Layer 3 (Foreground)
//Storyboard Layer 4 (Overlay)
//Storyboard Sound Samples

[TimingPoints]
2412,300.0,4,2,1,35,1,0
62412,-100.0,4,2,1,35,0,1
81612,-100.0,4,2,1,35,0,0
120012,-100.0,4,2,1,35,0,1
138012,-100.0,4,2,1,35,0,0
139212,-100.0,4,2,1,35,0,1
158412,-100.0,4,2,1,35,0,0

[HitObjects]
64,192,2412,1,2,0:0:0:20:soft-hitwhistle.wav
448,192,2412,1,0,0:0:0:0:
320,192,2562,1,0,0:0:0:0:
192,192,2712,1,0,0:0:0:0:
448,192,2862,1,0,0:0:0:0:
64,192,3012,1,0,0:0:0:0:
320,192,3012,1,0,0:0:0:0:
192,192,3162,1,0,0:0:0:0:
320,192,3312,1,0,0:0:0:0:
448,192,3312,1,0,0:0:0:0:
64,192,3462,1,0,0:0:0:0:
192,192,3612,1,0,0:0:0:0:
448,192,3612,1,0,0:0:0:0:
64,192,3912,1,0,0:0:0:0:
192,192,3912,1,0,0:0:0:0:
448,192,4062,1,0,0:0:0:0:
64,192,4212,1,0,0:0:0:0:
320,192,4212,1,0,0:0:0:0:
192,192,4362,1,0,0:0:0:0:
320,192,4512,1,0,0:0:0:0:
448,192,4512,1,0,0:0:0:0:
64,192,4662,1,0,0:0:0:0:
192,192,4812,1,0,0:0:0:0:
448,192,4812,1,0,0:0:0:0:
192,192,5112,1,0,0:0:0:0:
320,192,5112,1,0,0:0:0:0:
64,192,5262,1,0,0:0:0:0:
320,192,5412,1,0,0:0:0:0:
448,192,5412,1,0,0:0:0:0:
192,192,5562,1,0,0:0:0:0:
64,192,5712,1,0,0:0:0:0:
448,192,5712,1,0,0:0:0:0:
192,192,5862,1,0,0:0:0:0:
320,192,6012,1,0,0:0:0:0:
448,192,6012,1,0,0:0:0:0:
64,192,6312,1,0,0:0:0:0:
320,192,6312,1,0,0:0:0:0:
448,192,6462,1,0,0:0:0:0:
64,192,6612,1,0,0:0:0:0:
192,192,6612,1,0,0:0:0:0:
320,192,6762,1,0,0:0:0:0:
192,192,6912,1,0,0:0:0:0:
64,192,7062,1,0,0:0:0:0:
320,192,7212,1,0,0:0:0:0:
448,192,7212,1,0,0:0:0:0:
192,192,7362,1,0,0:0:0:0:
448,192,7512,1,0,0:0:0:0:
320,192,7662,1,0,0:0:0:0:
64,192,7812,1,0,0:0:0:0:
192,192,7812,1,0,0:0:0:0:
448,192,7962,1,0,0:0:0:0:
192,192,8112,1,0,0:0:0:0:
320,192,8112,1,0,0:0:0:0:
64,192,8262,1,0,0:0:0:0:
320,192,8412,1,0,0:0:0:0:
448,192,8412,1,0,0:0:0:0:
64,192,8712,1,0,0:0:0:0:
448,192,8712,1,0,0:0:0:0:
192,192,8862,1,0,0:0:0:0:
320,192,9012,1,0,0:0:0:0:
448,192,9012,1,0,0:0:0:0:
64,192,9162,1,0,0:0:0:0:
192,192,9312,1,0,0:0:0:0:
320,192,9312,1,0,0:0:0:0:
448,192,9462,1,0,0:0:0:0:
64,192,9612,1,0,0:0:0:0:
192,192,9612,1,0,0:0:0:0:
64,192,9912,1,0,0:0:0:0:
448,192,9912,1,0,0:0:0:0:
320,192,10062,1,0,0:0:0:0:
192,192,10212,1,0,0:0:0:0:
448,192,10212,1,0,0:0:0:0:
320,192,10362,1,0,0:0:0:0:
64,192,10512,1,0,0:0:0:0:
192,192,10512,1,0,0:0:0:0:
448,192,10662,1,0,0:0:0:0:
64,192,10812,1,0,0:0:0:0:
320,192,10812,128,0,12012:0:0:0:0:
192,192,10962,1,0,0:0:0:0:
448,192,11112,1,0,0:0:0:0:
64,192,11262,1,0,0:0:0:0:
192,192,11412,1,0,0:0:0:0:
64,192,11562,1,0,0:0:0:0:
448,192,11712,1,0,0:0:0:0:
192,192,11862,1,0,0:0:0:0:
64,192,12012,1,4,0:0:0:35:soft-hitfinish.wav
192,192,12012,1,2,0:0:0:35:soft-hitwhistle.wav
448,192,12012,1,0,0:0:0:0:
320,192,12162,1,0,0:0:0:0:
64,192,12237,1,0,0:0:0:0:
192,192,12312,1,0,0:0:0:0:
448,192,12312,1,0,0:0:0:0:
320,192,12462,1,0,0:0:0:0:
64,192,12612,128,2,12762:0:0:0:0:
192,192,12612,1,4,0:0:0:0:
448,192,12612,1,0,0:0:0:0:
448,192,12762,1,0,0:0:0:0:
64,192,12912,1,2,0:0:0:0:
192,192,12912,1,4,0:0:0:0:
320,192,12912,128,0,13062:0:0:0:0:
192,192,13062,1,0,0:0:0:0:
64,192,13212,128,2,13362:0:0:0:0:
320,192,13212,1,4,0:0:0:0:
448,192,13212,1,0,0:0:0:0:
320,192,13362,1,0,0:0:0:0:
192,192,13512,1,0,0:0:0:0:
448,192,13512,1,0,0:0:0:0:
64,192,13587,1,0,0:0:0:0:
320,192,13662,1,0,0:0:0:0:
192,192,13737,1,0,0:0:0:0:
64,192,13812,1,2,0:0:0:0:
320,192,13812,1,4,0:0:0:0:
448,192,13812,128,0,13962:0:0:0:0:
64,192,13962,1,0,0:0:0:0:
192,192,14112,128,2,14262:0:0:0:0:
320,192,14112,1,4,0:0:0:0:
448,192,14112,1,0,0:0:0:0:
320,192,14262,1,0,0:0:0:0:
64,192,14412,1,2,0:0:0:0:
192,192,14412,1,4,0:0:0:0:
448,192,14412,128,0,14562:0:0:0:0:
192,192,14562,1,0,0:0:0:0:
64,192,14712,1,0,0:0:0:0:
320,192,14712,1,0,0:0:0:0:
448,192,14787,1,0,0:0:0:0:
192,192,14862,1,0,0:0:0:0:
320,192,14937,1,0,0:0:0:0:
64,192,15012,1,2,0:0:0:0:
192,192,15012,1,4,0:0:0:0:
448,192,15012,1,0,0:0:0:0:
64,192,15162,1,2,0:0:0:0:
320,192,15162,1,4,0:0:0:0:
192,192,15312,1,2,0:0:0:0:
320,192,15312,1,4,0:0:0:0:
448,192,15312,1,0,0:0:0:0:
192,192,15462,1,0,0:0:0:0:
64,192,15612,1,2,0:0:0:0:
320,192,15612,1,4,0:0:0:0:
448,192,15612,1,0,0:0:0:0:
64,192,15837,1,2,0:0:0:0:
192,192,15837,1,4,0:0:0:0:
448,192,15837,1,0,0:0:0:0:
192,192,16062,1,2,0:0:0:0:
320,192,16062,1,4,0:0:0:0:
448,192,16062,1,0,0:0:0:0:
64,192,16212,1,2,0:0:0:0:
192,192,16212,1,4,0:0:0:0:
448,192,16212,1,0,0:0:0:0:
320,192,16362,128,2,16512:0:0:0:0:
448,192,16362,1,0,0:0:0:0:
64,192,16512,1,2,0:0:0:0:
192,192,16512,1,4,0:0:0:0:
448,192,16587,1,2,0:0:0:0:
64,192,16662,1,2,0:0:0:0:
320,192,16662,1,0,0:0:0:0:
192,192,16737,1,2,0:0:0:0:
64,192,16812,1,2,0:0:0:0:
320,192,16812,1,4,0:0:0:0:
448,192,16812,1,0,0:0:0:0:
192,192,16962,1,0,0:0:0:0:
448,192,17037,1,0,0:0:0:0:
64,192,17112,1,0,0:0:0:0:
320,192,17112,1,0,0:0:0:0:
192,192,17262,1,0,0:0:0:0:
64,192,17412,1,2,0:0:0:0:
320,192,17412,1,4,0:0:0:0:
448,192,17412,128,0,17562:0:0:0:0:
64,192,17562,1,0,0:0:0:0:
192,192,17712,128,2,17862:0:0:0:0:
320,192,17712,1,4,0:0:0:0:
448,192,17712,1,0,0:0:0:0:
320,192,17862,1,0,0:0:0:0:
64,192,18012,1,2,0:0:0:0:
192,192,18012,1,4,0:0:0:0:
448,192,18012,128,0,18162:0:0:0:0:
192,192,18162,1,0,0:0:0:0:
64,192,18312,1,0,0:0:0:0:
320,192,18312,1,0,0:0:0:0:
448,192,18387,1,0,0:0:0:0:
192,192,18462,1,0,0:0:0:0:
320,192,18537,1,0,0:0:0:0:
64,192,18612,128,2,18762:0:0:0:0:
192,192,18612,1,4,0:0:0:0:
448,192,18612,1,0,0:0:0:0:
448,192,18762,1,0,0:0:0:0:
64,192,18912,1,2,0:0:0:0:
192,192,18912,1,4,0:0:0:0:
320,192,18912,128,0,19062:0:0:0:0:
192,192,19062,1,0,0:0:0:0:
64,192,19212,128,2,19362:0:0:0:0:
320,192,19212,1,4,0:0:0:0:
448,192,19212,1,0,0:0:0:0:
320,192,19362,1,0,0:0:0:0:
192,192,19512,1,0,0:0:0:0:
448,192,19512,1,0,0:0:0:0:
64,192,19587,1,0,0:0:0:0:
320,192,19662,1,0,0:0:0:0:
192,192,19737,1,0,0:0:0:0:
64,192,19812,1,2,0:0:0:0:
320,192,19812,1,4,0:0:0:0:
448,192,19812,1,0,0:0:0:0:
192,192,19962,1,2,0:0:0:0:
448,192,19962,1,4,0:0:0:0:
64,192,20112,1,2,0:0:0:0:
192,192,20112,1,4,0:0:0:0:
320,192,20112,1,0,0:0:0:0:
320,192,20262,1,0,0:0:0:0:
64,192,20412,1,4,0:0:0:0:
192,192,20412,1,2,0:0:0:0:
448,192,20412,1,0,0:0:0:0:
192,192,20562,1,2,0:0:0:0:
320,192,20562,1,4,0:0:0:0:
64,192,20712,1,8,0:0:0:0:
320,192,20712,1,2,0:0:0:0:
448,192,20712,1,4,0:0:0:0:
192,192,20862,1,2,0:0:0:0:
448,192,20862,1,0,0:0:0:0:
320,192,20937,1,2,0:0:0:0:
64,192,21012,1,10,0:0:0:0:
192,192,21012,1,4,0:0:0:0:
320,192,21162,1,2,0:0:0:0:
448,192,21162,1,0,0:0:0:0:
192,192,21237,1,2,0:0:0:0:
64,192,21312,1,2,0:0:0:0:
448,192,21312,1,4,0:0:0:0:
320,192,21387,1,2,0:0:0:0:
64,192,21462,1,2,0:0:0:0:
192,192,21462,1,0,0:0:0:0:
320,192,21537,1,2,0:0:0:0:
64,192,21612,1,2,0:0:0:0:
192,192,21612,1,4,0:0:0:0:
448,192,21612,128,0,22812:0:0:0:0:
320,192,21762,1,0,0:0:0:0:
64,192,21912,1,0,0:0:0:0:
192,192,22062,1,0,0:0:0:0:
64,192,22212,1,0,0:0:0:0:
320,192,22212,1,0,0:0:0:0:
320,192,22362,1,0,0:0:0:0:
64,192,22512,1,0,0:0:0:0:
192,192,22512,1,0,0:0:0:0:
192,192,22662,1,0,0:0:0:0:
64,192,22812,128,0,24012:0:0:0:0:
320,192,22812,1,0,0:0:0:0:
192,192,23112,1,0,0:0:0:0:
448,192,23262,1,0,0:0:0:0:
192,192,23412,1,0,0:0:0:0:
320,192,23412,1,0,0:0:0:0:
192,192,23562,1,0,0:0:0:0:
320,192,23712,1,0,0:0:0:0:
448,192,23712,1,0,0:0:0:0:
320,192,23862,1,0,0:0:0:0:
192,192,24012,1,0,0:0:0:0:
448,192,24012,128,0,25212:0:0:0:0:
320,192,24312,1,0,0:0:0:0:
64,192,24462,1,0,0:0:0:0:
192,192,24612,1,0,0:0:0:0:
320,192,24612,1,0,0:0:0:0:
64,192,24762,1,0,0:0:0:0:
192,192,24912,1,0,0:0:0:0:
320,192,25062,1,0,0:0:0:0:
64,192,25212,1,0,0:0:0:0:
192,192,25212,128,0,26412:0:0:0:0:
448,192,25512,1,0,0:0:0:0:
64,192,25662,1,0,0:0:0:0:
320,192,25812,1,0,0:0:0:0:
448,192,25812,1,0,0:0:0:0:
320,192,26112,1,0,0:0:0:0:
64,192,26412,1,2,0:0:0:0:
320,192,26412,128,4,27612:0:0:0:0:
448,192,26412,1,0,0:0:0:0:
192,192,26562,1,0,0:0:0:0:
448,192,26712,1,0,0:0:0:0:
64,192,26862,1,0,0:0:0:0:
192,192,27012,1,0,0:0:0:0:
448,192,27012,1,0,0:0:0:0:
448,192,27162,1,0,0:0:0:0:
64,192,27312,1,0,0:0:0:0:
192,192,27312,1,0,0:0:0:0:
192,192,27462,1,0,0:0:0:0:
64,192,27612,128,0,28812:0:0:0:0:
448,192,27612,1,0,0:0:0:0:
192,192,27912,1,0,0:0:0:0:
448,192,28062,1,0,0:0:0:0:
192,192,28212,1,0,0:0:0:0:
320,192,28212,1,0,0:0:0:0:
320,192,28362,1,0,0:0:0:0:
192,192,28512,1,0,0:0:0:0:
448,192,28512,1,0,0:0:0:0:
192,192,28662,1,0,0:0:0:0:
320,192,28812,1,0,0:0:0:0:
448,192,28812,128,0,30012:0:0:0:0:
192,192,29112,1,0,0:0:0:0:
320,192,29262,1,0,0:0:0:0:
64,192,29412,1,0,0:0:0:0:
192,192,29412,1,0,0:0:0:0:
320,192,29562,1,0,0:0:0:0:
64,192,29712,1,0,0:0:0:0:
192,192,29862,1,0,0:0:0:0:
64,192,30012,1,0,0:0:0:0:
320,192,30012,1,0,0:0:0:0:
64,192,30162,1,0,0:0:0:0:
192,192,30312,1,0,0:0:0:0:
448,192,30312,1,0,0:0:0:0:
192,192,30462,1,0,0:0:0:0:
320,192,30612,128,2,30762:0:0:0:0:
448,192,30612,1,0,0:0:0:0:
64,192,30762,1,2,0:0:0:0:
192,192,30762,1,0,0:0:0:0:
448,192,30837,1,2,0:0:0:0:
64,192,30912,1,2,0:0:0:0:
320,192,30912,1,4,0:0:0:0:
192,192,30987,1,2,0:0:0:0:
320,192,31062,1,2,0:0:0:0:
448,192,31062,1,0,0:0:0:0:
192,192,31137,1,2,0:0:0:0:
64,192,31212,1,2,0:0:0:0:
320,192,31212,1,4,0:0:0:0:
448,192,31212,1,0,0:0:0:0:
64,192,31362,1,0,0:0:0:0:
192,192,31512,1,8,0:0:0:0:
320,192,31512,1,0,0:0:0:0:
448,192,31512,1,0,0:0:0:0:
320,192,31662,1,0,0:0:0:0:
64,192,31812,128,8,31962:0:0:0:0:
192,192,31812,1,0,0:0:0:0:
448,192,31812,1,0,0:0:0:0:
448,192,31962,1,0,0:0:0:0:
64,192,32112,1,8,0:0:0:0:
192,192,32112,1,0,0:0:0:0:
320,192,32112,128,0,32262:0:0:0:0:
192,192,32262,1,0,0:0:0:0:
64,192,32412,128,8,32562:0:0:0:0:
320,192,32412,1,0,0:0:0:0:
448,192,32412,1,0,0:0:0:0:
320,192,32562,1,0,0:0:0:0:
64,192,32712,1,8,0:0:0:0:
192,192,32712,1,0,0:0:0:0:
448,192,32712,1,0,0:0:0:0:
320,192,32862,1,0,0:0:0:0:
64,192,33012,1,8,0:0:0:0:
192,192,33012,1,0,0:0:0:0:
448,192,33012,128,0,33162:0:0:0:0:
64,192,33162,1,0,0:0:0:0:
192,192,33312,128,8,33462:0:0:0:0:
320,192,33312,1,0,0:0:0:0:
448,192,33312,1,0,0:0:0:0:
320,192,33462,1,0,0:0:0:0:
64,192,33612,1,2,0:0:0:0:
192,192,33612,1,4,0:0:0:0:
448,192,33612,128,0,33762:0:0:0:0:
192,192,33762,1,0,0:0:0:0:
64,192,33912,1,8,0:0:0:0:
320,192,33912,1,0,0:0:0:0:
448,192,33912,1,0,0:0:0:0:
320,192,34062,1,0,0:0:0:0:
64,192,34212,1,8,0:0:0:0:
192,192,34212,1,0,0:0:0:0:
448,192,34212,1,0,0:0:0:0:
64,192,34362,1,0,0:0:0:0:
192,192,34512,1,8,0:0:0:0:
320,192,34512,1,0,0:0:0:0:
448,192,34512,1,0,0:0:0:0:
320,192,34662,1,0,0:0:0:0:
64,192,34812,1,8,0:0:0:0:
192,192,34812,1,0,0:0:0:0:
448,192,34812,128,0,34962:0:0:0:0:
192,192,34962,1,0,0:0:0:0:
64,192,35112,1,8,0:0:0:0:
320,192,35112,1,0,0:0:0:0:
448,192,35112,1,0,0:0:0:0:
448,192,35262,1,0,0:0:0:0:
64,192,35412,128,8,35562:0:0:0:0:
192,192,35412,1,0,0:0:0:0:
320,192,35562,1,2,0:0:0:0:
448,192,35562,1,0,0:0:0:0:
192,192,35637,1,2,0:0:0:0:
64,192,35712,1,2,0:0:0:0:
448,192,35712,1,8,0:0:0:0:
320,192,35787,1,2,0:0:0:0:
64,192,35862,1,2,0:0:0:0:
192,192,35862,1,0,0:0:0:0:
320,192,35937,1,2,0:0:0:0:
64,192,36012,1,2,0:0:0:0:
192,192,36012,1,4,0:0:0:0:
448,192,36012,1,0,0:0:0:0:
320,192,36162,1,8,0:0:0:0:
448,192,36162,1,0,0:0:0:0:
64,192,36312,1,8,0:0:0:0:
320,192,36312,1,0,0:0:0:0:
64,192,36462,1,8,0:0:0:0:
192,192,36462,1,0,0:0:0:0:
320,192,36612,128,8,36762:0:0:0:0:
448,192,36612,128,0,36762:0:0:0:0:
64,192,36762,1,8,0:0:0:0:
192,192,36762,1,0,0:0:0:0:
64,192,36912,128,8,37062:0:0:0:0:
192,192,36912,128,0,37062:0:0:0:0:
320,192,37062,1,8,0:0:0:0:
448,192,37062,1,0,0:0:0:0:
64,192,37212,1,4,0:0:0:0:
320,192,37212,128,2,37362:0:0:0:0:
448,192,37212,128,0,37362:0:0:0:0:
64,192,37362,1,8,0:0:0:0:
192,192,37362,1,0,0:0:0:0:
192,192,37512,1,8,0:0:0:0:
320,192,37512,1,0,0:0:0:0:
320,192,37662,1,8,0:0:0:0:
448,192,37662,1,0,0:0:0:0:
64,192,37812,128,8,37962:0:0:0:0:
192,192,37812,128,0,37962:0:0:0:0:
320,192,37962,1,8,0:0:0:0:
448,192,37962,1,0,0:0:0:0:
320,192,38112,128,8,38262:0:0:0:0:
448,192,38112,128,0,38262:0:0:0:0:
64,192,38262,1,8,0:0:0:0:
192,192,38262,1,0,0:0:0:0:
64,192,38412,1,4,0:0:0:0:
448,192,38412,1,2,0:0:0:0:
320,192,38487,1,8,0:0:0:0:
64,192,38562,1,8,0:0:0:0:
192,192,38562,1,0,0:0:0:0:
448,192,38637,1,8,0:0:0:0:
192,192,38712,1,2,0:0:0:0:
320,192,38712,1,4,0:0:0:0:
64,192,38787,1,8,0:0:0:0:
320,192,38862,1,8,0:0:0:0:
448,192,38862,1,0,0:0:0:0:
192,192,38937,1,8,0:0:0:0:
64,192,39012,1,4,0:0:0:0:
448,192,39012,1,2,0:0:0:0:
320,192,39087,1,8,0:0:0:0:
64,192,39162,1,8,0:0:0:0:
192,192,39162,1,0,0:0:0:0:
448,192,39237,1,8,0:0:0:0:
192,192,39312,1,4,0:0:0:0:
320,192,39312,1,2,0:0:0:0:
64,192,39387,1,8,0:0:0:0:
320,192,39462,1,8,0:0:0:0:
448,192,39462,1,0,0:0:0:0:
192,192,39537,1,8,0:0:0:0:
64,192,39612,1,0,0:0:0:0:
448,192,39612,1,0,0:0:0:0:
320,192,39762,1,0,0:0:0:0:
192,192,39912,1,0,0:0:0:0:
448,192,39912,1,0,0:0:0:0:
320,192,40062,1,0,0:0:0:0:
64,192,40212,1,0,0:0:0:0:
192,192,40212,1,0,0:0:0:0:
448,192,40362,1,0,0:0:0:0:
64,192,40512,1,0,0:0:0:0:
320,192,40512,1,0,0:0:0:0:
192,192,40662,1,0,0:0:0:0:
64,192,40812,1,4,0:0:0:0:
320,192,40812,1,2,0:0:0:0:
448,192,40812,1,0,0:0:0:0:
448,192,41112,1,0,0:0:0:0:
320,192,41187,1,0,0:0:0:0:
192,192,41262,1,0,0:0:0:0:
448,192,41337,1,0,0:0:0:0:
320,192,41412,1,0,0:0:0:0:
64,192,41487,1,0,0:0:0:0:
192,192,41562,1,0,0:0:0:0:
320,192,41637,1,0,0:0:0:0:
64,192,41712,1,0,0:0:0:0:
192,192,41787,1,0,0:0:0:0:
448,192,41862,1,0,0:0:0:0:
320,192,41937,1,0,0:0:0:0:
192,192,42012,1,0,0:0:0:0:
448,192,42087,1,0,0:0:0:0:
64,192,42162,1,0,0:0:0:0:
192,192,42237,1,0,0:0:0:0:
320,192,42312,1,0,0:0:0:0:
64,192,42387,1,0,0:0:0:0:
448,192,42462,1,0,0:0:0:0:
320,192,42537,1,0,0:0:0:0:
192,192,42612,1,0,0:0:0:0:
320,192,42687,1,0,0:0:0:0:
64,192,42762,1,0,0:0:0:0:
192,192,42837,1,0,0:0:0:0:
320,192,42912,1,8,0:0:0:0:
448,192,42912,1,0,0:0:0:0:
64,192,43212,1,4,0:0:0:0:
192,192,43212,1,2,0:0:0:0:
448,192,43212,1,0,0:0:0:0:
320,192,43287,1,0,0:0:0:0:
192,192,43362,1,0,0:0:0:0:
448,192,43437,1,0,0:0:0:0:
64,192,43512,1,8,0:0:0:0:
320,192,43512,1,2,0:0:0:0:
192,192,43587,1,0,0:0:0:0:
320,192,43662,1,0,0:0:0:0:
64,192,43737,1,0,0:0:0:0:
192,192,43812,1,2,0:0:0:0:
448,192,43887,1,0,0:0:0:0:
320,192,43962,1,0,0:0:0:0:
192,192,44037,1,0,0:0:0:0:
64,192,44112,1,8,0:0:0:0:
448,192,44112,1,2,0:0:0:0:
320,192,44187,1,0,0:0:0:0:
192,192,44262,1,0,0:0:0:0:
448,192,44337,1,0,0:0:0:0:
64,192,44412,1,2,0:0:0:0:
320,192,44487,1,0,0:0:0:0:
192,192,44562,1,0,0:0:0:0:
448,192,44637,1,0,0:0:0:0:
64,192,44712,1,8,0:0:0:0:
320,192,44712,1,2,0:0:0:0:
192,192,44787,1,0,0:0:0:0:
320,192,44862,1,0,0:0:0:0:
448,192,44937,1,0,0:0:0:0:
192,192,45012,1,2,0:0:0:0:
64,192,45087,1,0,0:0:0:0:
320,192,45162,1,0,0:0:0:0:
192,192,45237,1,0,0:0:0:0:
64,192,45312,1,8,0:0:0:0:
448,192,45312,1,2,0:0:0:0:
320,192,45387,1,0,0:0:0:0:
192,192,45462,1,0,0:0:0:0:
448,192,45537,1,0,0:0:0:0:
64,192,45612,1,2,0:0:0:0:
192,192,45687,1,0,0:0:0:0:
320,192,45762,1,0,0:0:0:0:
64,192,45837,1,0,0:0:0:0:
192,192,45912,1,2,0:0:0:0:
448,192,45912,1,8,0:0:0:0:
320,192,45987,1,0,0:0:0:0:
192,192,46062,1,0,0:0:0:0:
64,192,46137,1,0,0:0:0:0:
448,192,46212,1,2,0:0:0:0:
320,192,46287,1,0,0:0:0:0:
192,192,46362,1,0,0:0:0:0:
448,192,46437,1,0,0:0:0:0:
64,192,46512,1,2,0:0:0:0:
320,192,46512,1,8,0:0:0:0:
192,192,46587,1,0,0:0:0:0:
320,192,46662,1,0,0:0:0:0:
448,192,46737,1,0,0:0:0:0:
64,192,46812,1,2,0:0:0:0:
320,192,46887,1,0,0:0:0:0:
192,192,46962,1,0,0:0:0:0:
448,192,47037,1,0,0:0:0:0:
64,192,47112,1,8,0:0:0:0:
320,192,47112,1,2,0:0:0:0:
192,192,47187,1,0,0:0:0:0:
448,192,47262,1,0,0:0:0:0:
320,192,47337,1,0,0:0:0:0:
64,192,47412,1,2,0:0:0:0:
192,192,47487,1,0,0:0:0:0:
320,192,47562,1,0,0:0:0:0:
192,192,47637,1,0,0:0:0:0:
64,192,47712,1,6,0:0:0:0:
448,192,47712,1,8,0:0:0:0:
320,192,47787,1,2,0:0:0:0:
64,192,47862,1,2,0:0:0:0:
192,192,47862,1,0,0:0:0:0:
320,192,47937,1,2,0:0:0:0:
64,192,48012,1,2,0:0:0:0:
192,192,48012,1,4,0:0:0:0:
448,192,48012,1,0,0:0:0:0:
320,192,48087,1,0,0:0:0:0:
192,192,48162,1,0,0:0:0:0:
448,192,48237,1,0,0:0:0:0:
64,192,48312,1,2,0:0:0:0:
320,192,48312,1,8,0:0:0:0:
192,192,48387,1,0,0:0:0:0:
320,192,48462,1,0,0:0:0:0:
64,192,48537,1,0,0:0:0:0:
192,192,48612,1,2,0:0:0:0:
448,192,48687,1,0,0:0:0:0:
320,192,48762,1,0,0:0:0:0:
192,192,48837,1,0,0:0:0:0:
64,192,48912,1,2,0:0:0:0:
448,192,48912,1,8,0:0:0:0:
320,192,48987,1,0,0:0:0:0:
192,192,49062,1,0,0:0:0:0:
448,192,49137,1,0,0:0:0:0:
64,192,49212,1,2,0:0:0:0:
320,192,49287,1,0,0:0:0:0:
192,192,49362,1,0,0:0:0:0:
448,192,49437,1,0,0:0:0:0:
64,192,49512,1,8,0:0:0:0:
320,192,49512,1,2,0:0:0:0:
192,192,49587,1,0,0:0:0:0:
320,192,49662,1,0,0:0:0:0:
448,192,49737,1,0,0:0:0:0:
192,192,49812,1,2,0:0:0:0:
64,192,49887,1,0,0:0:0:0:
320,192,49962,1,0,0:0:0:0:
192,192,50037,1,0,0:0:0:0:
64,192,50112,1,8,0:0:0:0:
448,192,50112,1,2,0:0:0:0:
320,192,50187,1,0,0:0:0:0:
192,192,50262,1,0,0:0:0:0:
320,192,50337,1,0,0:0:0:0:
448,192,50412,1,2,0:0:0:0:
64,192,50487,1,0,0:0:0:0:
192,192,50562,1,0,0:0:0:0:
320,192,50637,1,0,0:0:0:0:
64,192,50712,1,2,0:0:0:0:
448,192,50712,1,8,0:0:0:0:
192,192,50787,1,0,0:0:0:0:
320,192,50862,1,0,0:0:0:0:
192,192,50937,1,0,0:0:0:0:
64,192,51012,1,2,0:0:0:0:
320,192,51087,1,0,0:0:0:0:
192,192,51162,1,0,0:0:0:0:
448,192,51237,1,0,0:0:0:0:
64,192,51312,1,2,0:0:0:0:
320,192,51312,1,8,0:0:0:0:
192,192,51387,1,0,0:0:0:0:
448,192,51462,1,0,0:0:0:0:
320,192,51537,1,0,0:0:0:0:
64,192,51612,1,2,0:0:0:0:
192,192,51612,1,4,0:0:0:0:
448,192,51612,1,0,0:0:0:0:
192,192,51762,1,0,0:0:0:0:
64,192,51837,1,4,0:0:0:0:
448,192,51837,1,2,0:0:0:0:
320,192,51912,1,8,0:0:0:0:
64,192,52062,1,4,0:0:0:0:
192,192,52062,1,2,0:0:0:0:
448,192,52062,1,0,0:0:0:0:
192,192,52212,1,4,0:0:0:0:
320,192,52212,1,2,0:0:0:0:
64,192,52362,1,4,0:0:0:0:
320,192,52362,1,2,0:0:0:0:
448,192,52362,1,0,0:0:0:0:
64,192,52512,1,6,0:0:0:0:
192,192,52512,1,8,0:0:0:0:
448,192,52587,1,2,0:0:0:0:
64,192,52662,1,2,0:0:0:0:
320,192,52662,1,0,0:0:0:0:
192,192,52737,1,2,0:0:0:0:
64,192,52812,1,2,0:0:0:0:
320,192,52812,1,4,0:0:0:0:
448,192,52812,1,0,0:0:0:0:
192,192,52887,1,0,0:0:0:0:
320,192,52962,1,0,0:0:0:0:
64,192,53037,1,0,0:0:0:0:
192,192,53112,1,8,0:0:0:0:
448,192,53112,1,2,0:0:0:0:
320,192,53187,1,0,0:0:0:0:
192,192,53262,1,0,0:0:0:0:
64,192,53337,1,0,0:0:0:0:
320,192,53412,1,2,0:0:0:0:
448,192,53412,1,0,0:0:0:0:
64,192,53487,1,0,0:0:0:0:
192,192,53562,1,0,0:0:0:0:
320,192,53637,1,0,0:0:0:0:
64,192,53712,1,8,0:0:0:0:
448,192,53712,1,2,0:0:0:0:
320,192,53787,1,0,0:0:0:0:
192,192,53862,1,0,0:0:0:0:
448,192,53937,1,0,0:0:0:0:
64,192,54012,1,2,0:0:0:0:
320,192,54012,1,0,0:0:0:0:
192,192,54087,1,0,0:0:0:0:
320,192,54162,1,0,0:0:0:0:
448,192,54237,1,0,0:0:0:0:
64,192,54312,1,2,0:0:0:0:
192,192,54312,1,8,0:0:0:0:
320,192,54387,1,0,0:0:0:0:
192,192,54462,1,0,0:0:0:0:
64,192,54537,1,0,0:0:0:0:
320,192,54612,1,2,0:0:0:0:
448,192,54612,1,0,0:0:0:0:
192,192,54687,1,0,0:0:0:0:
448,192,54762,1,0,0:0:0:0:
320,192,54837,1,0,0:0:0:0:
64,192,54912,1,2,0:0:0:0:
192,192,54912,1,8,0:0:0:0:
448,192,54987,1,0,0:0:0:0:
320,192,55062,1,0,0:0:0:0:
192,192,55137,1,0,0:0:0:0:
64,192,55212,1,2,0:0:0:0:
320,192,55212,1,4,0:0:0:0:
448,192,55212,1,0,0:0:0:0:
192,192,55287,1,0,0:0:0:0:
320,192,55362,1,0,0:0:0:0:
448,192,55437,1,0,0:0:0:0:
64,192,55512,1,8,0:0:0:0:
192,192,55512,1,2,0:0:0:0:
320,192,55587,1,0,0:0:0:0:
192,192,55662,1,0,0:0:0:0:
448,192,55737,1,0,0:0:0:0:
64,192,55812,1,2,0:0:0:0:
320,192,55812,1,0,0:0:0:0:
192,192,55887,1,0,0:0:0:0:
320,192,55962,1,0,0:0:0:0:
192,192,56037,1,0,0:0:0:0:
64,192,56112,1,8,0:0:0:0:
448,192,56112,1,2,0:0:0:0:
320,192,56187,1,0,0:0:0:0:
192,192,56262,1,0,0:0:0:0:
64,192,56337,1,0,0:0:0:0:
320,192,56412,1,2,0:0:0:0:
448,192,56412,1,0,0:0:0:0:
192,192,56487,1,0,0:0:0:0:
320,192,56562,1,0,0:0:0:0:
192,192,56637,1,0,0:0:0:0:
64,192,56712,1,2,0:0:0:0:
448,192,56712,1,8,0:0:0:0:
320,192,56787,1,0,0:0:0:0:
192,192,56862,1,0,0:0:0:0:
64,192,56937,1,0,0:0:0:0:
320,192,57012,1,2,0:0:0:0:
448,192,57012,1,0,0:0:0:0:
192,192,57087,1,0,0:0:0:0:
448,192,57162,1,0,0:0:0:0:
320,192,57237,1,0,0:0:0:0:
64,192,57312,1,10,0:0:0:0:
192,192,57312,1,4,0:0:0:0:
320,192,57387,1,2,0:0:0:0:
64,192,57462,1,2,0:0:0:0:
448,192,57462,1,0,0:0:0:0:
192,192,57537,1,2,0:0:0:0:
64,192,57612,1,2,0:0:0:0:
320,192,57612,1,4,0:0:0:0:
448,192,57612,1,0,0:0:0:0:
192,192,57687,1,0,0:0:0:0:
320,192,57762,1,0,0:0:0:0:
64,192,57837,1,0,0:0:0:0:
192,192,57912,1,8,0:0:0:0:
448,192,57912,1,2,0:0:0:0:
320,192,57987,1,0,0:0:0:0:
192,192,58062,1,0,0:0:0:0:
64,192,58137,1,0,0:0:0:0:
320,192,58212,1,2,0:0:0:0:
448,192,58212,1,0,0:0:0:0:
192,192,58287,1,0,0:0:0:0:
448,192,58362,1,0,0:0:0:0:
320,192,58437,1,0,0:0:0:0:
64,192,58512,1,8,0:0:0:0:
192,192,58512,1,2,0:0:0:0:
320,192,58662,1,2,0:0:0:0:
448,192,58662,1,0,0:0:0:0:
192,192,58737,1,2,0:0:0:0:
64,192,58812,1,2,0:0:0:0:
320,192,58812,1,4,0:0:0:0:
448,192,58812,1,0,0:0:0:0:
192,192,58887,1,0,0:0:0:0:
448,192,58962,1,0,0:0:0:0:
320,192,59037,1,0,0:0:0:0:
64,192,59112,1,2,0:0:0:0:
192,192,59112,1,8,0:0:0:0:
448,192,59187,1,0,0:0:0:0:
320,192,59262,1,0,0:0:0:0:
64,192,59337,1,0,0:0:0:0:
192,192,59412,1,2,0:0:0:0:
448,192,59412,1,0,0:0:0:0:
320,192,59562,1,2,0:0:0:0:
448,192,59562,1,0,0:0:0:0:
64,192,59637,1,2,0:0:0:0:
192,192,59712,1,2,0:0:0:0:
320,192,59712,1,8,0:0:0:0:
64,192,59862,1,2,0:0:0:0:
448,192,59862,1,0,0:0:0:0:
320,192,59937,1,2,0:0:0:0:
64,192,60012,1,2,0:0:0:0:
192,192,60012,1,4,0:0:0:0:
448,192,60087,1,2,0:0:0:0:
64,192,60162,1,2,0:0:0:0:
320,192,60162,1,0,0:0:0:0:
192,192,60237,1,2,0:0:0:0:
320,192,60312,1,6,0:0:0:0:
448,192,60312,1,8,0:0:0:0:
64,192,60387,1,2,0:0:0:0:
192,192,60462,1,2,0:0:0:0:
448,192,60462,1,0,0:0:0:0:
320,192,60537,1,2,0:0:0:0:
64,192,60612,1,4,0:0:0:0:
192,192,60612,1,2,0:0:0:0:
448,192,60687,1,2,0:0:0:0:
64,192,60762,1,2,0:0:0:0:
320,192,60762,1,0,0:0:0:0:
192,192,60837,1,2,0:0:0:0:
320,192,60912,1,6,0:0:0:0:
448,192,60912,1,8,0:0:0:0:
64,192,60987,1,2,0:0:0:0:
192,192,61062,1,2,0:0:0:0:
448,192,61062,1,0,0:0:0:0:
320,192,61137,1,2,0:0:0:0:
64,192,61212,1,2,0:0:0:0:
192,192,61212,1,0,0:0:0:0:
448,192,61362,1,2,0:0:0:0:
192,192,61437,1,2,0:0:0:0:
320,192,61512,1,8,0:0:0:0:
64,192,61662,1,2,0:0:0:0:
448,192,61737,1,8,0:0:0:0:
192,192,61812,1,2,0:0:0:0:
320,192,61887,1,8,0:0:0:0:
64,192,61962,1,2,0:0:0:0:
192,192,62037,1,2,0:0:0:0:
320,192,62112,1,2,0:0:0:0:
448,192,62112,1,4,0:0:0:0:
64,192,62187,1,2,0:0:0:0:
192,192,62262,1,2,0:0:0:0:
448,192,62262,1,0,0:0:0:0:
320,192,62337,1,2,0:0:0:0:
64,192,62412,1,2,0:0:0:0:
192,192,62412,1,4,0:0:0:0:
448,192,62412,1,0,0:0:0:0:
320,192,62487,1,0,0:0:0:0:
192,192,62562,1,0,0:0:0:0:
64,192,62637,1,0,0:0:0:0:
320,192,62712,1,8,0:0:0:0:
448,192,62712,1,2,0:0:0:0:
192,192,62787,1,0,0:0:0:0:
320,192,62862,1,0,0:0:0:0:
448,192,62937,1,0,0:0:0:0:
64,192,63012,1,2,0:0:0:0:
192,192,63012,1,0,0:0:0:0:
320,192,63087,1,0,0:0:0:0:
192,192,63162,1,0,0:0:0:0:
320,192,63237,1,0,0:0:0:0:
64,192,63312,1,8,0:0:0:0:
448,192,63312,1,2,0:0:0:0:
192,192,63387,1,0,0:0:0:0:
320,192,63462,1,0,0:0:0:0:
64,192,63537,1,0,0:0:0:0:
192,192,63612,1,2,0:0:0:0:
448,192,63612,1,0,0:0:0:0:
320,192,63687,1,0,0:0:0:0:
192,192,63762,1,0,0:0:0:0:
320,192,63837,1,0,0:0:0:0:
64,192,63912,1,2,0:0:0:0:
448,192,63912,1,8,0:0:0:0:
192,192,63987,1,0,0:0:0:0:
320,192,64062,1,0,0:0:0:0:
448,192,64137,1,0,0:0:0:0:
64,192,64212,1,2,0:0:0:0:
192,192,64212,1,0,0:0:0:0:
320,192,64287,1,0,0:0:0:0:
192,192,64362,1,0,0:0:0:0:
448,192,64437,1,0,0:0:0:0:
64,192,64512,1,2,0:0:0:0:
320,192,64512,1,8,0:0:0:0:
192,192,64587,1,0,0:0:0:0:
448,192,64662,1,0,0:0:0:0:
320,192,64737,1,0,0:0:0:0:
64,192,64812,1,2,0:0:0:0:
192,192,64812,1,0,0:0:0:0:
320,192,64887,1,0,0:0:0:0:
448,192,64962,1,0,0:0:0:0:
192,192,65037,1,0,0:0:0:0:
64,192,65112,1,8,0:0:0:0:
320,192,65112,1,2,0:0:0:0:
448,192,65187,1,0,0:0:0:0:
192,192,65262,1,0,0:0:0:0:
64,192,65337,1,0,0:0:0:0:
320,192,65412,1,2,0:0:0:0:
448,192,65412,1,0,0:0:0:0:
192,192,65487,1,0,0:0:0:0:
448,192,65562,1,0,0:0:0:0:
320,192,65637,1,0,0:0:0:0:
64,192,65712,1,8,0:0:0:0:
192,192,65712,1,2,0:0:0:0:
320,192,65787,1,0,0:0:0:0:
64,192,65862,1,0,0:0:0:0:
192,192,65937,1,0,0:0:0:0:
320,192,66012,1,2,0:0:0:0:
448,192,66012,1,0,0:0:0:0:
64,192,66087,1,0,0:0:0:0:
192,192,66162,1,0,0:0:0:0:
448,192,66237,1,0,0:0:0:0:
64,192,66312,1,2,0:0:0:0:
320,192,66312,1,8,0:0:0:0:
448,192,66387,1,0,0:0:0:0:
192,192,66462,1,0,0:0:0:0:
320,192,66537,1,0,0:0:0:0:
64,192,66612,1,2,0:0:0:0:
448,192,66612,1,0,0:0:0:0:
192,192,66687,1,0,0:0:0:0:
320,192,66762,1,0,0:0:0:0:
192,192,66837,1,0,0:0:0:0:
64,192,66912,1,10,0:0:0:0:
448,192,66912,1,4,0:0:0:0:
320,192,66987,1,2,0:0:0:0:
64,192,67062,1,2,0:0:0:0:
192,192,67062,1,0,0:0:0:0:
320,192,67137,1,2,0:0:0:0:
64,192,67212,1,2,0:0:0:0:
192,192,67212,1,4,0:0:0:0:
448,192,67212,1,0,0:0:0:0:
320,192,67287,1,0,0:0:0:0:
192,192,67362,1,0,0:0:0:0:
64,192,67437,1,0,0:0:0:0:
320,192,67512,1,8,0:0:0:0:
448,192,67512,1,2,0:0:0:0:
192,192,67587,1,0,0:0:0:0:
320,192,67662,1,0,0:0:0:0:
448,192,67737,1,0,0:0:0:0:
64,192,67812,1,2,0:0:0:0:
192,192,67812,1,0,0:0:0:0:
320,192,67887,1,0,0:0:0:0:
192,192,67962,1,0,0:0:0:0:
320,192,68037,1,0,0:0:0:0:
64,192,68112,1,8,0:0:0:0:
448,192,68112,1,2,0:0:0:0:
192,192,68187,1,0,0:0:0:0:
320,192,68262,1,0,0:0:0:0:
64,192,68337,1,0,0:0:0:0:
192,192,68412,1,2,0:0:0:0:
448,192,68412,1,0,0:0:0:0:
320,192,68487,1,0,0:0:0:0:
192,192,68562,1,0,0:0:0:0:
320,192,68637,1,0,0:0:0:0:
64,192,68712,1,2,0:0:0:0:
448,192,68712,1,8,0:0:0:0:
192,192,68787,1,0,0:0:0:0:
320,192,68862,1,0,0:0:0:0:
448,192,68937,1,0,0:0:0:0:
64,192,69012,1,2,0:0:0:0:
192,192,69012,1,0,0:0:0:0:
320,192,69087,1,0,0:0:0:0:
192,192,69162,1,0,0:0:0:0:
448,192,69237,1,0,0:0:0:0:
64,192,69312,1,2,0:0:0:0:
320,192,69312,1,8,0:0:0:0:
192,192,69387,1,0,0:0:0:0:
448,192,69462,1,0,0:0:0:0:
320,192,69537,1,0,0:0:0:0:
64,192,69612,1,2,0:0:0:0:
192,192,69612,1,0,0:0:0:0:
320,192,69687,1,0,0:0:0:0:
448,192,69762,1,0,0:0:0:0:
192,192,69837,1,0,0:0:0:0:
64,192,69912,1,8,0:0:0:0:
320,192,69912,1,2,0:0:0:0:
448,192,69987,1,0,0:0:0:0:
192,192,70062,1,0,0:0:0:0:
64,192,70137,1,0,0:0:0:0:
320,192,70212,1,2,0:0:0:0:
448,192,70212,1,0,0:0:0:0:
192,192,70287,1,0,0:0:0:0:
448,192,70362,1,0,0:0:0:0:
320,192,70437,1,0,0:0:0:0:
64,192,70512,1,8,0:0:0:0:
192,192,70512,1,2,0:0:0:0:
320,192,70587,1,0,0:0:0:0:
64,192,70662,1,0,0:0:0:0:
192,192,70737,1,0,0:0:0:0:
64,192,70812,1,2,0:0:0:0:
320,192,70812,1,4,0:0:0:0:
448,192,70812,1,0,0:0:0:0:
320,192,70962,1,0,0:0:0:0:
64,192,71037,1,4,0:0:0:0:
448,192,71037,1,2,0:0:0:0:
192,192,71112,1,8,0:0:0:0:
64,192,71262,1,4,0:0:0:0:
320,192,71262,1,2,0:0:0:0:
448,192,71262,1,0,0:0:0:0:
192,192,71412,1,4,0:0:0:0:
320,192,71412,1,2,0:0:0:0:
64,192,71562,1,4,0:0:0:0:
192,192,71562,1,2,0:0:0:0:
448,192,71562,1,0,0:0:0:0:
64,192,71712,1,6,0:0:0:0:
320,192,71712,1,8,0:0:0:0:
192,192,71787,1,2,0:0:0:0:
320,192,71862,1,2,0:0:0:0:
448,192,71862,1,0,0:0:0:0:
192,192,71937,1,2,0:0:0:0:
64,192,72012,1,4,0:0:0:0:
320,192,72012,1,2,0:0:0:0:
448,192,72012,1,0,0:0:0:0:
192,192,72087,1,0,0:0:0:0:
448,192,72162,1,0,0:0:0:0:
320,192,72237,1,0,0:0:0:0:
64,192,72312,1,2,0:0:0:0:
192,192,72312,1,8,0:0:0:0:
320,192,72387,1,0,0:0:0:0:
192,192,72462,1,0,0:0:0:0:
64,192,72537,1,0,0:0:0:0:
320,192,72612,1,2,0:0:0:0:
448,192,72612,1,0,0:0:0:0:
192,192,72687,1,0,0:0:0:0:
320,192,72762,1,0,0:0:0:0:
192,192,72837,1,0,0:0:0:0:
64,192,72912,1,2,0:0:0:0:
448,192,72912,1,8,0:0:0:0:
320,192,72987,1,0,0:0:0:0:
192,192,73062,1,0,0:0:0:0:
448,192,73137,1,0,0:0:0:0:
64,192,73212,1,2,0:0:0:0:
320,192,73212,1,0,0:0:0:0:
192,192,73287,1,0,0:0:0:0:
320,192,73362,1,0,0:0:0:0:
192,192,73437,1,0,0:0:0:0:
64,192,73512,1,8,0:0:0:0:
448,192,73512,1,2,0:0:0:0:
320,192,73587,1,0,0:0:0:0:
192,192,73662,1,0,0:0:0:0:
64,192,73737,1,0,0:0:0:0:
320,192,73812,1,2,0:0:0:0:
448,192,73812,1,0,0:0:0:0:
192,192,73887,1,0,0:0:0:0:
320,192,73962,1,0,0:0:0:0:
64,192,74037,1,0,0:0:0:0:
192,192,74112,1,8,0:0:0:0:
448,192,74112,1,2,0:0:0:0:
320,192,74187,1,0,0:0:0:0:
64,192,74262,1,0,0:0:0:0:
192,192,74337,1,0,0:0:0:0:
64,192,74412,1,2,0:0:0:0:
320,192,74412,1,4,0:0:0:0:
448,192,74412,1,0,0:0:0:0:
192,192,74487,1,0,0:0:0:0:
448,192,74562,1,0,0:0:0:0:
320,192,74637,1,0,0:0:0:0:
192,192,74712,1,2,0:0:0:0:
448,192,74712,1,8,0:0:0:0:
64,192,74787,1,0,0:0:0:0:
320,192,74862,1,0,0:0:0:0:
448,192,74937,1,0,0:0:0:0:
64,192,75012,1,2,0:0:0:0:
192,192,75012,1,0,0:0:0:0:
320,192,75087,1,0,0:0:0:0:
64,192,75162,1,0,0:0:0:0:
192,192,75237,1,0,0:0:0:0:
320,192,75312,1,2,0:0:0:0:
448,192,75312,1,8,0:0:0:0:
192,192,75387,1,0,0:0:0:0:
448,192,75462,1,0,0:0:0:0:
320,192,75537,1,0,0:0:0:0:
64,192,75612,1,2,0:0:0:0:
192,192,75612,1,0,0:0:0:0:
448,192,75687,1,0,0:0:0:0:
320,192,75762,1,0,0:0:0:0:
64,192,75837,1,0,0:0:0:0:
192,192,75912,1,8,0:0:0:0:
448,192,75912,1,2,0:0:0:0:
64,192,75987,1,0,0:0:0:0:
320,192,76062,1,0,0:0:0:0:
192,192,76137,1,0,0:0:0:0:
64,192,76212,1,2,0:0:0:0:
448,192,76212,1,0,0:0:0:0:
320,192,76287,1,0,0:0:0:0:
192,192,76362,1,0,0:0:0:0:
320,192,76437,1,0,0:0:0:0:
64,192,76512,1,10,0:0:0:0:
448,192,76512,1,4,0:0:0:0:
192,192,76587,1,2,0:0:0:0:
320,192,76662,1,2,0:0:0:0:
448,192,76662,1,0,0:0:0:0:
192,192,76737,1,2,0:0:0:0:
64,192,76812,1,2,0:0:0:0:
320,192,76812,1,4,0:0:0:0:
448,192,76812,1,0,0:0:0:0:
192,192,76887,1,0,0:0:0:0:
320,192,76962,1,0,0:0:0:0:
64,192,77037,1,0,0:0:0:0:
192,192,77112,1,2,0:0:0:0:
448,192,77112,1,8,0:0:0:0:
320,192,77187,1,0,0:0:0:0:
192,192,77262,1,0,0:0:0:0:
64,192,77337,1,0,0:0:0:0:
320,192,77412,1,2,0:0:0:0:
448,192,77412,1,0,0:0:0:0:
192,192,77487,1,0,0:0:0:0:
320,192,77562,1,0,0:0:0:0:
64,192,77637,1,0,0:0:0:0:
192,192,77712,1,2,0:0:0:0:
448,192,77712,1,8,0:0:0:0:
64,192,77787,1,0,0:0:0:0:
320,192,77862,1,2,0:0:0:0:
448,192,77862,1,0,0:0:0:0:
192,192,77937,1,2,0:0:0:0:
64,192,78012,1,2,0:0:0:0:
320,192,78012,1,4,0:0:0:0:
448,192,78012,1,0,0:0:0:0:
192,192,78087,1,0,0:0:0:0:
320,192,78162,1,0,0:0:0:0:
448,192,78237,1,0,0:0:0:0:
64,192,78312,1,8,0:0:0:0:
192,192,78312,1,2,0:0:0:0:
320,192,78387,1,0,0:0:0:0:
192,192,78462,1,0,0:0:0:0:
448,192,78537,1,0,0:0:0:0:
64,192,78612,1,2,0:0:0:0:
320,192,78612,1,0,0:0:0:0:
192,192,78687,1,0,0:0:0:0:
64,192,78762,1,2,0:0:0:0:
448,192,78762,1,0,0:0:0:0:
320,192,78837,1,2,0:0:0:0:
64,192,78912,1,8,0:0:0:0:
192,192,78912,1,2,0:0:0:0:
320,192,78987,1,0,0:0:0:0:
192,192,79062,1,2,0:0:0:0:
448,192,79062,1,0,0:0:0:0:
320,192,79137,1,2,0:0:0:0:
64,192,79212,1,2,0:0:0:0:
192,192,79212,1,4,0:0:0:0:
448,192,79287,1,2,0:0:0:0:
64,192,79362,1,2,0:0:0:0:
320,192,79362,1,0,0:0:0:0:
192,192,79437,1,2,0:0:0:0:
320,192,79512,1,6,0:0:0:0:
448,192,79512,1,8,0:0:0:0:
64,192,79587,1,2,0:0:0:0:
192,192,79662,1,2,0:0:0:0:
448,192,79662,1,0,0:0:0:0:
320,192,79737,1,2,0:0:0:0:
64,192,79812,1,2,0:0:0:0:
192,192,79812,1,4,0:0:0:0:
448,192,79887,1,2,0:0:0:0:
64,192,79962,1,2,0:0:0:0:
320,192,79962,1,0,0:0:0:0:
192,192,80037,1,2,0:0:0:0:
320,192,80112,1,6,0:0:0:0:
448,192,80112,1,8,0:0:0:0:
64,192,80187,1,2,0:0:0:0:
192,192,80262,1,2,0:0:0:0:
448,192,80262,1,0,0:0:0:0:
320,192,80337,1,2,0:0:0:0:
64,192,80412,1,2,0:0:0:0:
192,192,80412,1,0,0:0:0:0:
448,192,80562,1,2,0:0:0:0:
192,192,80637,1,2,0:0:0:0:
320,192,80712,1,8,0:0:0:0:
64,192,80862,1,2,0:0:0:0:
448,192,80937,1,8,0:0:0:0:
192,192,81012,1,2,0:0:0:0:
320,192,81087,1,8,0:0:0:0:
64,192,81162,1,2,0:0:0:0:
192,192,81237,1,2,0:0:0:0:
320,192,81312,1,8,0:0:0:0:
448,192,81312,1,0,0:0:0:0:
64,192,81612,1,4,0:0:0:0:
192,192,81612,1,2,0:0:0:0:
448,192,81612,128,0,82812:0:0:0:0:
64,192,82062,1,2,0:0:0:0:
320,192,82062,1,0,0:0:0:0:
192,192,82512,1,0,0:0:0:0:
320,192,82662,1,0,0:0:0:0:
64,192,82812,128,8,83412:0:0:0:0:
192,192,82812,1,0,0:0:0:0:
320,192,83412,1,8,0:0:0:0:
448,192,83412,128,0,84012:0:0:0:0:
320,192,83862,1,2,0:0:0:0:
64,192,84012,1,2,0:0:0:0:
192,192,84012,128,0,85212:0:0:0:0:
320,192,84462,1,2,0:0:0:0:
448,192,84462,1,0,0:0:0:0:
64,192,85212,1,8,0:0:0:0:
448,192,85212,128,0,85812:0:0:0:0:
192,192,85662,1,0,0:0:0:0:
64,192,85812,1,8,0:0:0:0:
320,192,85812,128,0,86412:0:0:0:0:
448,192,86262,1,2,0:0:0:0:
64,192,86412,1,2,0:0:0:0:
192,192,86412,128,0,87612:0:0:0:0:
320,192,86862,1,2,0:0:0:0:
448,192,86862,1,0,0:0:0:0:
64,192,87312,1,0,0:0:0:0:
320,192,87462,1,0,0:0:0:0:
64,192,87612,1,8,0:0:0:0:
448,192,87612,128,0,88212:0:0:0:0:
64,192,88212,128,8,88812:0:0:0:0:
320,192,88212,1,0,0:0:0:0:
192,192,88512,1,0,0:0:0:0:
320,192,88662,1,0,0:0:0:0:
192,192,88812,128,2,90012:0:0:0:0:
448,192,88812,1,0,0:0:0:0:
320,192,89262,1,2,0:0:0:0:
448,192,89262,1,0,0:0:0:0:
320,192,89712,1,0,0:0:0:0:
64,192,89862,1,0,0:0:0:0:
320,192,90012,128,8,91212:0:0:0:0:
448,192,90012,1,0,0:0:0:0:
64,192,90612,1,8,0:0:0:0:
192,192,90612,1,0,0:0:0:0:
64,192,91212,1,2,0:0:0:0:
192,192,91212,1,4,0:0:0:0:
448,192,91212,128,0,92412:0:0:0:0:
64,192,92412,128,0,93612:0:0:0:0:
320,192,93012,128,0,93612:0:0:0:0:
192,192,93612,128,0,94812:0:0:0:0:
448,192,94812,128,0,96012:0:0:0:0:
64,192,95412,128,0,96012:0:0:0:0:
320,192,96012,128,0,97212:0:0:0:0:
64,192,97212,128,0,98412:0:0:0:0:
448,192,97812,128,0,98412:0:0:0:0:
192,192,98412,128,0,99612:0:0:0:0:
320,192,99612,1,2,0:0:0:0:
448,192,99612,1,0,0:0:0:0:
64,192,99762,1,2,0:0:0:0:
320,192,99837,1,2,0:0:0:0:
192,192,99912,1,8,0:0:0:0:
448,192,100062,1,2,0:0:0:0:
64,192,100137,1,8,0:0:0:0:
320,192,100212,1,2,0:0:0:0:
192,192,100287,1,8,0:0:0:0:
448,192,100362,1,2,0:0:0:0:
320,192,100437,1,2,0:0:0:0:
64,192,100512,1,8,0:0:0:0:
192,192,100512,1,0,0:0:0:0:
64,192,100812,1,4,0:0:0:25:soft-hitfinish.wav
448,192,100812,1,0,0:0:0:0:
320,192,100962,1,0,0:0:0:0:
192,192,101112,1,0,0:0:0:0:
448,192,101262,1,0,0:0:0:0:
64,192,101412,1,0,0:0:0:0:
320,192,101412,1,0,0:0:0:0:
192,192,101562,1,0,0:0:0:0:
320,192,101712,1,0,0:0:0:0:
448,192,101712,1,0,0:0:0:0:
64,192,101862,1,0,0:0:0:0:
192,192,102012,1,0,0:0:0:0:
448,192,102012,1,0,0:0:0:0:
64,192,102312,1,0,0:0:0:0:
192,192,102312,1,0,0:0:0:0:
448,192,102462,1,0,0:0:0:0:
64,192,102612,1,0,0:0:0:0:
320,192,102612,1,0,0:0:0:0:
192,192,102762,1,0,0:0:0:0:
320,192,102912,1,0,0:0:0:0:
448,192,102912,1,0,0:0:0:0:
64,192,103062,1,0,0:0:0:0:
192,192,103212,1,0,0:0:0:0:
448,192,103212,1,0,0:0:0:0:
192,192,103512,1,0,0:0:0:0:
320,192,103512,1,0,0:0:0:0:
64,192,103662,1,0,0:0:0:0:
320,192,103812,1,0,0:0:0:0:
448,192,103812,1,0,0:0:0:0:
192,192,103962,1,0,0:0:0:0:
64,192,104112,1,0,0:0:0:0:
448,192,104112,1,0,0:0:0:0:
192,192,104262,1,0,0:0:0:0:
320,192,104412,1,0,0:0:0:0:
448,192,104412,1,0,0:0:0:0:
64,192,104712,1,0,0:0:0:0:
320,192,104712,1,0,0:0:0:0:
448,192,104862,1,0,0:0:0:0:
64,192,105012,1,0,0:0:0:0:
192,192,105012,1,0,0:0:0:0:
320,192,105162,1,0,0:0:0:0:
192,192,105312,1,0,0:0:0:0:
64,192,105462,1,0,0:0:0:0:
320,192,105612,1,0,0:0:0:0:
448,192,105612,1,0,0:0:0:0:
192,192,105762,1,0,0:0:0:0:
448,192,105912,1,0,0:0:0:0:
320,192,106062,1,0,0:0:0:0:
64,192,106212,1,0,0:0:0:0:
192,192,106212,1,0,0:0:0:0:
448,192,106362,1,0,0:0:0:0:
192,192,106512,1,0,0:0:0:0:
320,192,106512,1,0,0:0:0:0:
64,192,106662,1,0,0:0:0:0:
320,192,106812,1,0,0:0:0:0:
448,192,106812,1,0,0:0:0:0:
64,192,107112,1,0,0:0:0:0:
448,192,107112,1,0,0:0:0:0:
192,192,107262,1,0,0:0:0:0:
320,192,107412,1,0,0:0:0:0:
448,192,107412,1,0,0:0:0:0:
64,192,107562,1,0,0:0:0:0:
192,192,107712,1,0,0:0:0:0:
320,192,107712,1,0,0:0:0:0:
448,192,107862,1,0,0:0:0:0:
64,192,108012,1,0,0:0:0:0:
192,192,108012,1,0,0:0:0:0:
64,192,108312,1,0,0:0:0:0:
448,192,108312,1,0,0:0:0:0:
320,192,108462,1,0,0:0:0:0:
192,192,108612,1,0,0:0:0:0:
448,192,108612,1,0,0:0:0:0:
320,192,108762,1,0,0:0:0:0:
64,192,108912,1,0,0:0:0:0:
192,192,108912,1,0,0:0:0:0:
448,192,109062,1,0,0:0:0:0:
64,192,109212,1,0,0:0:0:0:
320,192,109212,128,0,110412:0:0:0:0:
192,192,109362,1,0,0:0:0:0:
448,192,109512,1,0,0:0:0:0:
64,192,109662,1,0,0:0:0:0:
192,192,109812,1,0,0:0:0:0:
64,192,109962,1,0,0:0:0:0:
448,192,110112,1,0,0:0:0:0:
192,192,110262,1,0,0:0:0:0:
64,192,110412,1,4,0:0:0:35:soft-hitfinish.wav
192,192,110412,1,2,0:0:0:35:soft-hitwhistle.wav
448,192,110412,1,0,0:0:0:0:
320,192,110562,1,0,0:0:0:0:
448,192,110562,1,0,0:0:0:0:
64,192,110712,1,8,0:0:0:0:
192,192,110712,1,0,0:0:0:0:
448,192,110712,1,0,0:0:0:0:
192,192,110862,1,0,0:0:0:0:
320,192,110862,1,0,0:0:0:0:
64,192,111012,1,8,0:0:0:0:
320,192,111012,1,0,0:0:0:0:
448,192,111012,1,0,0:0:0:0:
64,192,111162,1,0,0:0:0:0:
192,192,111162,1,0,0:0:0:0:
192,192,111312,1,8,0:0:0:0:
320,192,111312,1,0,0:0:0:0:
448,192,111312,1,0,0:0:0:0:
320,192,111462,1,0,0:0:0:0:
448,192,111462,1,0,0:0:0:0:
64,192,111612,1,8,0:0:0:0:
192,192,111612,1,0,0:0:0:0:
448,192,111612,1,0,0:0:0:0:
64,192,111762,1,0,0:0:0:0:
320,192,111762,1,0,0:0:0:0:
192,192,111912,1,8,0:0:0:0:
448,192,111912,1,0,0:0:0:0:
64,192,111987,1,0,0:0:0:0:
320,192,112062,1,0,0:0:0:0:
192,192,112137,1,0,0:0:0:0:
64,192,112212,1,8,0:0:0:0:
320,192,112212,1,0,0:0:0:0:
448,192,112212,1,0,0:0:0:0:
192,192,112362,1,0,0:0:0:0:
320,192,112362,1,0,0:0:0:0:
64,192,112512,1,8,0:0:0:0:
192,192,112512,1,0,0:0:0:0:
448,192,112512,1,0,0:0:0:0:
320,192,112662,1,0,0:0:0:0:
448,192,112662,1,0,0:0:0:0:
64,192,112812,1,2,0:0:0:0:
192,192,112812,1,4,0:0:0:0:
320,192,112812,1,0,0:0:0:0:
64,192,112962,1,0,0:0:0:0:
192,192,112962,1,0,0:0:0:0:
64,192,113112,1,8,0:0:0:0:
320,192,113112,1,0,0:0:0:0:
448,192,113187,1,0,0:0:0:0:
192,192,113262,1,0,0:0:0:0:
320,192,113337,1,0,0:0:0:0:
64,192,113412,1,8,0:0:0:0:
192,192,113412,1,0,0:0:0:0:
448,192,113412,1,0,0:0:0:0:
320,192,113562,1,0,0:0:0:0:
448,192,113562,1,0,0:0:0:0:
64,192,113712,1,8,0:0:0:0:
192,192,113712,1,0,0:0:0:0:
320,192,113712,1,0,0:0:0:0:
64,192,113862,1,0,0:0:0:0:
192,192,113862,1,0,0:0:0:0:
64,192,114012,1,8,0:0:0:0:
320,192,114012,1,0,0:0:0:0:
448,192,114012,1,0,0:0:0:0:
192,192,114162,1,0,0:0:0:0:
320,192,114237,1,0,0:0:0:0:
64,192,114312,1,8,0:0:0:0:
192,192,114312,1,0,0:0:0:0:
448,192,114312,1,0,0:0:0:0:
64,192,114462,1,0,0:0:0:0:
320,192,114462,1,0,0:0:0:0:
192,192,114612,1,8,0:0:0:0:
448,192,114612,1,0,0:0:0:0:
64,192,114687,1,0,0:0:0:0:
320,192,114762,1,0,0:0:0:0:
192,192,114837,1,0,0:0:0:0:
320,192,114912,1,10,0:0:0:0:
448,192,114912,1,4,0:0:0:0:
64,192,114987,1,2,0:0:0:0:
192,192,115062,1,2,0:0:0:0:
448,192,115062,1,0,0:0:0:0:
320,192,115137,1,2,0:0:0:0:
64,192,115212,1,2,0:0:0:0:
192,192,115212,1,4,0:0:0:0:
448,192,115287,1,2,0:0:0:0:
64,192,115362,1,2,0:0:0:0:
320,192,115362,1,0,0:0:0:0:
192,192,115437,1,2,0:0:0:0:
320,192,115512,1,2,0:0:0:0:
448,192,115512,1,0,0:0:0:0:
64,192,115587,1,2,0:0:0:0:
192,192,115662,1,2,0:0:0:0:
448,192,115662,1,0,0:0:0:0:
320,192,115737,1,2,0:0:0:0:
64,192,115812,1,2,0:0:0:0:
192,192,115812,1,0,0:0:0:0:
320,192,115887,1,2,0:0:0:0:
64,192,115962,1,2,0:0:0:0:
448,192,115962,1,0,0:0:0:0:
192,192,116037,1,2,0:0:0:0:
320,192,116112,1,2,0:0:0:0:
448,192,116112,1,0,0:0:0:0:
64,192,116187,1,2,0:0:0:0:
192,192,116262,1,2,0:0:0:0:
448,192,116262,1,0,0:0:0:0:
320,192,116337,1,2,0:0:0:0:
64,192,116412,1,2,0:0:0:0:
192,192,116412,1,4,0:0:0:0:
448,192,116412,1,0,0:0:0:0:
320,192,116487,1,2,0:0:0:0:
64,192,116562,1,2,0:0:0:0:
192,192,116562,1,0,0:0:0:0:
448,192,116637,1,2,0:0:0:0:
64,192,116712,1,2,0:0:0:0:
320,192,116712,1,0,0:0:0:0:
192,192,116787,1,2,0:0:0:0:
320,192,116862,1,2,0:0:0:0:
448,192,116862,1,0,0:0:0:0:
192,192,116937,1,2,0:0:0:0:
64,192,117012,1,2,0:0:0:0:
448,192,117012,1,0,0:0:0:0:
320,192,117087,1,2,0:0:0:0:
64,192,117162,1,2,0:0:0:0:
192,192,117162,1,0,0:0:0:0:
448,192,117237,1,2,0:0:0:0:
192,192,117312,1,2,0:0:0:0:
320,192,117312,1,0,0:0:0:0:
64,192,117387,1,2,0:0:0:0:
320,192,117462,1,2,0:0:0:0:
448,192,117462,1,0,0:0:0:0:
192,192,117537,1,2,0:0:0:0:
64,192,117612,1,2,0:0:0:0:
448,192,117612,1,4,0:0:0:0:
320,192,117662,1,2,0:0:0:0:
192,192,117712,1,2,0:0:0:0:
64,192,117762,1,2,0:0:0:0:
448,192,117812,1,2,0:0:0:0:
320,192,117862,1,2,0:0:0:0:
192,192,117912,1,2,0:0:0:0:
64,192,117962,1,2,0:0:0:0:
448,192,118012,1,2,0:0:0:0:
320,192,118062,1,2,0:0:0:0:
192,192,118112,1,2,0:0:0:0:
64,192,118162,1,2,0:0:0:0:
448,192,118212,1,2,0:0:0:0:
320,192,118262,1,2,0:0:0:0:
192,192,118312,1,2,0:0:0:0:
64,192,118362,1,2,0:0:0:0:
448,192,118412,1,2,0:0:0:0:
320,192,118462,1,2,0:0:0:0:
192,192,118512,1,2,0:0:0:0:
64,192,118562,1,2,0:0:0:0:
448,192,118612,1,2,0:0:0:0:
320,192,118662,1,2,0:0:0:0:
192,192,118712,1,2,0:0:0:0:
64,192,118762,1,2,0:0:0:0:
320,192,118812,1,2,0:0:0:0:
448,192,118812,1,0,0:0:0:0:
192,192,118962,1,2,0:0:0:0:
448,192,119037,1,2,0:0:0:0:
320,192,119112,1,8,0:0:0:0:
64,192,119262,1,2,0:0:0:0:
448,192,119337,1,8,0:0:0:0:
192,192,119412,1,2,0:0:0:0:
320,192,119487,1,8,0:0:0:0:
64,192,119562,1,2,0:0:0:0:
192,192,119637,1,2,0:0:0:0:
320,192,119712,1,8,0:0:0:0:
448,192,119712,1,0,0:0:0:0:
64,192,120012,1,4,0:0:0:0:
192,192,120012,1,2,0:0:0:0:
448,192,120012,1,0,0:0:0:0:
320,192,120087,1,0,0:0:0:0:
192,192,120162,1,0,0:0:0:0:
448,192,120237,1,0,0:0:0:0:
64,192,120312,1,8,0:0:0:0:
320,192,120312,1,2,0:0:0:0:
192,192,120387,1,0,0:0:0:0:
448,192,120462,1,0,0:0:0:0:
320,192,120537,1,0,0:0:0:0:
64,192,120612,1,2,0:0:0:0:
192,192,120612,1,0,0:0:0:0:
448,192,120687,1,0,0:0:0:0:
320,192,120762,1,0,0:0:0:0:
192,192,120837,1,0,0:0:0:0:
320,192,120912,1,8,0:0:0:0:
448,192,120912,1,2,0:0:0:0:
64,192,120987,1,0,0:0:0:0:
192,192,121062,1,0,0:0:0:0:
320,192,121137,1,0,0:0:0:0:
64,192,121212,1,2,0:0:0:0:
192,192,121212,1,0,0:0:0:0:
448,192,121287,1,0,0:0:0:0:
320,192,121362,1,0,0:0:0:0:
192,192,121437,1,0,0:0:0:0:
320,192,121512,1,2,0:0:0:0:
448,192,121512,1,8,0:0:0:0:
64,192,121587,1,0,0:0:0:0:
192,192,121662,1,0,0:0:0:0:
448,192,121662,1,0,0:0:0:0:
320,192,121737,1,0,0:0:0:0:
64,192,121812,1,2,0:0:0:0:
192,192,121812,1,0,0:0:0:0:
448,192,121887,1,0,0:0:0:0:
320,192,121962,1,0,0:0:0:0:
192,192,122037,1,0,0:0:0:0:
320,192,122112,1,2,0:0:0:0:
448,192,122112,1,8,0:0:0:0:
64,192,122187,1,0,0:0:0:0:
192,192,122262,1,0,0:0:0:0:
320,192,122337,1,0,0:0:0:0:
64,192,122412,1,2,0:0:0:0:
192,192,122412,1,0,0:0:0:0:
448,192,122487,1,0,0:0:0:0:
320,192,122562,1,0,0:0:0:0:
192,192,122637,1,0,0:0:0:0:
320,192,122712,1,8,0:0:0:0:
448,192,122712,1,2,0:0:0:0:
64,192,122787,1,0,0:0:0:0:
192,192,122862,1,0,0:0:0:0:
448,192,122862,1,0,0:0:0:0:
320,192,122937,1,0,0:0:0:0:
64,192,123012,1,2,0:0:0:0:
192,192,123012,1,0,0:0:0:0:
320,192,123162,1,0,0:0:0:0:
448,192,123162,1,0,0:0:0:0:
64,192,123312,1,8,0:0:0:0:
192,192,123312,1,2,0:0:0:0:
448,192,123312,1,0,0:0:0:0:
192,192,123462,1,0,0:0:0:0:
320,192,123462,1,0,0:0:0:0:
64,192,123612,1,2,0:0:0:0:
448,192,123612,1,0,0:0:0:0:
320,192,123762,1,0,0:0:0:0:
192,192,123837,1,0,0:0:0:0:
64,192,123912,1,2,0:0:0:0:
320,192,123912,1,8,0:0:0:0:
448,192,123912,1,0,0:0:0:0:
192,192,124062,1,0,0:0:0:0:
448,192,124062,1,0,0:0:0:0:
64,192,124212,1,2,0:0:0:0:
320,192,124212,1,0,0:0:0:0:
192,192,124287,1,0,0:0:0:0:
448,192,124362,1,0,0:0:0:0:
320,192,124437,1,0,0:0:0:0:
64,192,124512,1,10,0:0:0:0:
192,192,124512,1,4,0:0:0:0:
448,192,124587,1,2,0:0:0:0:
64,192,124662,1,2,0:0:0:0:
320,192,124662,1,0,0:0:0:0:
192,192,124737,1,2,0:0:0:0:
64,192,124812,1,2,0:0:0:0:
320,192,124812,1,4,0:0:0:0:
448,192,124812,1,0,0:0:0:0:
192,192,124887,1,0,0:0:0:0:
448,192,124962,1,0,0:0:0:0:
320,192,125037,1,0,0:0:0:0:
64,192,125112,1,8,0:0:0:0:
192,192,125112,1,2,0:0:0:0:
448,192,125187,1,0,0:0:0:0:
320,192,125262,1,0,0:0:0:0:
192,192,125337,1,0,0:0:0:0:
64,192,125412,1,2,0:0:0:0:
448,192,125412,1,0,0:0:0:0:
320,192,125487,1,0,0:0:0:0:
192,192,125562,1,0,0:0:0:0:
320,192,125637,1,0,0:0:0:0:
64,192,125712,1,8,0:0:0:0:
448,192,125712,1,2,0:0:0:0:
192,192,125787,1,0,0:0:0:0:
320,192,125862,1,0,0:0:0:0:
448,192,125937,1,0,0:0:0:0:
64,192,126012,1,2,0:0:0:0:
192,192,126012,1,0,0:0:0:0:
320,192,126087,1,0,0:0:0:0:
192,192,126162,1,0,0:0:0:0:
64,192,126237,1,0,0:0:0:0:
320,192,126312,1,2,0:0:0:0:
448,192,126312,1,8,0:0:0:0:
64,192,126387,1,0,0:0:0:0:
192,192,126462,1,0,0:0:0:0:
448,192,126462,1,0,0:0:0:0:
320,192,126537,1,0,0:0:0:0:
64,192,126612,1,2,0:0:0:0:
192,192,126612,1,0,0:0:0:0:
448,192,126687,1,0,0:0:0:0:
320,192,126762,1,0,0:0:0:0:
64,192,126837,1,0,0:0:0:0:
192,192,126912,1,2,0:0:0:0:
448,192,126912,1,8,0:0:0:0:
320,192,126987,1,0,0:0:0:0:
64,192,127062,1,0,0:0:0:0:
192,192,127137,1,0,0:0:0:0:
64,192,127212,1,2,0:0:0:0:
320,192,127212,1,4,0:0:0:0:
448,192,127212,1,0,0:0:0:0:
192,192,127287,1,0,0:0:0:0:
320,192,127362,1,0,0:0:0:0:
64,192,127437,1,0,0:0:0:0:
192,192,127512,1,8,0:0:0:0:
448,192,127512,1,2,0:0:0:0:
320,192,127587,1,0,0:0:0:0:
64,192,127662,1,0,0:0:0:0:
192,192,127662,1,0,0:0:0:0:
448,192,127737,1,0,0:0:0:0:
64,192,127812,1,2,0:0:0:0:
320,192,127812,1,0,0:0:0:0:
192,192,127962,1,0,0:0:0:0:
320,192,127962,1,0,0:0:0:0:
64,192,128112,1,8,0:0:0:0:
192,192,128112,1,2,0:0:0:0:
448,192,128112,1,0,0:0:0:0:
320,192,128262,1,0,0:0:0:0:
448,192,128262,1,0,0:0:0:0:
192,192,128337,1,0,0:0:0:0:
64,192,128412,1,2,0:0:0:0:
320,192,128412,1,4,0:0:0:0:
448,192,128412,1,0,0:0:0:0:
64,192,128562,1,2,0:0:0:0:
192,192,128562,1,4,0:0:0:0:
192,192,128712,1,8,0:0:0:0:
320,192,128712,1,4,0:0:0:0:
448,192,128712,1,2,0:0:0:0:
320,192,128862,1,4,0:0:0:0:
448,192,128862,1,2,0:0:0:0:
64,192,129012,1,4,0:0:0:0:
192,192,129012,1,2,0:0:0:0:
448,192,129012,1,0,0:0:0:0:
192,192,129162,1,4,0:0:0:0:
320,192,129162,1,2,0:0:0:0:
64,192,129312,1,6,0:0:0:0:
448,192,129312,1,8,0:0:0:0:
320,192,129387,1,2,0:0:0:0:
192,192,129462,1,2,0:0:0:0:
320,192,129537,1,2,0:0:0:0:
64,192,129612,1,4,0:0:0:0:
192,192,129612,1,2,0:0:0:0:
448,192,129612,1,0,0:0:0:0:
320,192,129687,1,0,0:0:0:0:
192,192,129762,1,0,0:0:0:0:
448,192,129837,1,0,0:0:0:0:
64,192,129912,1,2,0:0:0:0:
320,192,129912,1,8,0:0:0:0:
192,192,129987,1,0,0:0:0:0:
448,192,130062,1,0,0:0:0:0:
320,192,130137,1,0,0:0:0:0:
64,192,130212,1,2,0:0:0:0:
192,192,130212,1,0,0:0:0:0:
448,192,130287,1,0,0:0:0:0:
320,192,130362,1,0,0:0:0:0:
192,192,130437,1,0,0:0:0:0:
320,192,130512,1,2,0:0:0:0:
448,192,130512,1,8,0:0:0:0:
64,192,130587,1,0,0:0:0:0:
192,192,130662,1,0,0:0:0:0:
320,192,130737,1,0,0:0:0:0:
64,192,130812,1,2,0:0:0:0:
192,192,130812,1,0,0:0:0:0:
448,192,130887,1,0,0:0:0:0:
320,192,130962,1,0,0:0:0:0:
192,192,131037,1,0,0:0:0:0:
320,192,131112,1,8,0:0:0:0:
448,192,131112,1,2,0:0:0:0:
64,192,131187,1,0,0:0:0:0:
192,192,131262,1,0,0:0:0:0:
448,192,131262,1,0,0:0:0:0:
320,192,131337,1,0,0:0:0:0:
64,192,131412,1,2,0:0:0:0:
192,192,131412,1,0,0:0:0:0:
448,192,131487,1,0,0:0:0:0:
320,192,131562,1,0,0:0:0:0:
192,192,131637,1,0,0:0:0:0:
320,192,131712,1,8,0:0:0:0:
448,192,131712,1,2,0:0:0:0:
64,192,131787,1,0,0:0:0:0:
192,192,131862,1,0,0:0:0:0:
320,192,131937,1,0,0:0:0:0:
64,192,132012,1,2,0:0:0:0:
192,192,132012,1,4,0:0:0:0:
448,192,132012,1,0,0:0:0:0:
320,192,132087,1,0,0:0:0:0:
64,192,132162,1,0,0:0:0:0:
192,192,132237,1,0,0:0:0:0:
320,192,132312,1,2,0:0:0:0:
448,192,132312,1,8,0:0:0:0:
192,192,132387,1,0,0:0:0:0:
64,192,132462,1,0,0:0:0:0:
320,192,132462,1,0,0:0:0:0:
448,192,132537,1,0,0:0:0:0:
64,192,132612,1,2,0:0:0:0:
192,192,132612,1,0,0:0:0:0:
192,192,132762,1,0,0:0:0:0:
448,192,132762,1,0,0:0:0:0:
64,192,132912,1,2,0:0:0:0:
320,192,132912,1,8,0:0:0:0:
448,192,132912,1,0,0:0:0:0:
192,192,133062,1,0,0:0:0:0:
320,192,133062,1,0,0:0:0:0:
64,192,133212,1,2,0:0:0:0:
192,192,133212,1,0,0:0:0:0:
320,192,133362,1,0,0:0:0:0:
192,192,133437,1,0,0:0:0:0:
64,192,133512,1,8,0:0:0:0:
320,192,133512,1,2,0:0:0:0:
448,192,133512,1,0,0:0:0:0:
192,192,133662,1,0,0:0:0:0:
448,192,133662,1,0,0:0:0:0:
64,192,133812,1,2,0:0:0:0:
320,192,133812,1,0,0:0:0:0:
192,192,133887,1,0,0:0:0:0:
448,192,133962,1,0,0:0:0:0:
320,192,134037,1,0,0:0:0:0:
64,192,134112,1,10,0:0:0:0:
192,192,134112,1,4,0:0:0:0:
448,192,134187,1,2,0:0:0:0:
64,192,134262,1,2,0:0:0:0:
320,192,134262,1,0,0:0:0:0:
192,192,134337,1,2,0:0:0:0:
64,192,134412,1,2,0:0:0:0:
320,192,134412,1,4,0:0:0:0:
448,192,134412,1,0,0:0:0:0:
192,192,134487,1,0,0:0:0:0:
448,192,134562,1,0,0:0:0:0:
320,192,134637,1,0,0:0:0:0:
64,192,134712,1,2,0:0:0:0:
192,192,134712,1,8,0:0:0:0:
448,192,134787,1,0,0:0:0:0:
320,192,134862,1,0,0:0:0:0:
64,192,134937,1,0,0:0:0:0:
192,192,135012,1,2,0:0:0:0:
448,192,135012,1,0,0:0:0:0:
320,192,135087,1,0,0:0:0:0:
192,192,135162,1,0,0:0:0:0:
448,192,135237,1,0,0:0:0:0:
64,192,135312,1,2,0:0:0:0:
320,192,135312,1,8,0:0:0:0:
192,192,135387,1,0,0:0:0:0:
320,192,135462,1,0,0:0:0:0:
64,192,135537,1,0,0:0:0:0:
192,192,135612,1,2,0:0:0:0:
320,192,135612,1,4,0:0:0:0:
448,192,135612,1,0,0:0:0:0:
64,192,135687,1,0,0:0:0:0:
448,192,135762,1,0,0:0:0:0:
320,192,135837,1,0,0:0:0:0:
64,192,135912,1,8,0:0:0:0:
192,192,135912,1,2,0:0:0:0:
448,192,135987,1,0,0:0:0:0:
64,192,136062,1,0,0:0:0:0:
320,192,136062,1,0,0:0:0:0:
192,192,136137,1,0,0:0:0:0:
320,192,136212,1,2,0:0:0:0:
448,192,136212,1,0,0:0:0:0:
192,192,136287,1,0,0:0:0:0:
64,192,136362,1,0,0:0:0:0:
320,192,136437,1,0,0:0:0:0:
192,192,136512,1,8,0:0:0:0:
448,192,136512,1,2,0:0:0:0:
64,192,136587,1,0,0:0:0:0:
320,192,136662,1,0,0:0:0:0:
192,192,136737,1,0,0:0:0:0:
320,192,136812,1,2,0:0:0:0:
448,192,136812,1,4,0:0:0:0:
64,192,136887,1,2,0:0:0:0:
192,192,136962,1,2,0:0:0:0:
448,192,136962,1,0,0:0:0:0:
320,192,137037,1,2,0:0:0:0:
64,192,137112,1,10,0:0:0:0:
192,192,137112,1,4,0:0:0:0:
448,192,137187,1,2,0:0:0:0:
64,192,137262,1,2,0:0:0:0:
320,192,137262,1,0,0:0:0:0:
192,192,137337,1,2,0:0:0:0:
320,192,137412,1,2,0:0:0:0:
448,192,137412,1,4,0:0:0:0:
64,192,137487,1,2,0:0:0:0:
192,192,137562,1,2,0:0:0:0:
448,192,137562,1,0,0:0:0:0:
320,192,137637,1,2,0:0:0:0:
64,192,137712,1,10,0:0:0:0:
192,192,137712,1,4,0:0:0:0:
448,192,137787,1,2,0:0:0:0:
64,192,137862,1,2,0:0:0:0:
320,192,137862,1,0,0:0:0:0:
192,192,137937,1,2,0:0:0:0:
320,192,138012,1,2,0:0:0:0:
448,192,138012,1,0,0:0:0:0:
64,192,138162,1,2,0:0:0:0:
320,192,138237,1,2,0:0:0:0:
192,192,138312,1,8,0:0:0:0:
448,192,138462,1,2,0:0:0:0:
64,192,138537,1,8,0:0:0:0:
320,192,138612,1,2,0:0:0:0:
192,192,138687,1,8,0:0:0:0:
448,192,138762,1,2,0:0:0:0:
320,192,138837,1,2,0:0:0:0:
64,192,138912,1,8,0:0:0:0:
192,192,138912,1,0,0:0:0:0:
64,192,139212,1,2,0:0:0:0:
320,192,139212,1,4,0:0:0:0:
448,192,139212,1,0,0:0:0:0:
192,192,139362,1,0,0:0:0:0:
320,192,139362,1,0,0:0:0:0:
64,192,139512,1,2,0:0:0:0:
192,192,139512,1,8,0:0:0:0:
448,192,139512,1,0,0:0:0:0:
320,192,139662,1,0,0:0:0:0:
448,192,139662,1,0,0:0:0:0:
64,192,139812,128,2,139962:0:0:0:0:
192,192,139812,128,0,139962:0:0:0:0:
320,192,139812,1,0,0:0:0:0:
448,192,139962,1,0,0:0:0:0:
192,192,140112,1,2,0:0:0:0:
320,192,140112,128,8,140262:0:0:0:0:
448,192,140112,128,0,140262:0:0:0:0:
64,192,140262,1,0,0:0:0:0:
64,192,140412,128,2,140637:0:0:0:0:
192,192,140412,128,0,140562:0:0:0:0:
448,192,140412,1,0,0:0:0:0:
320,192,140562,1,0,0:0:0:0:
192,192,140712,1,8,0:0:0:0:
448,192,140712,1,2,0:0:0:0:
64,192,140787,1,0,0:0:0:0:
320,192,140862,1,0,0:0:0:0:
192,192,140937,1,0,0:0:0:0:
64,192,141012,1,2,0:0:0:0:
320,192,141012,128,0,141162:0:0:0:0:
448,192,141012,128,0,141162:0:0:0:0:
192,192,141162,1,0,0:0:0:0:
64,192,141312,128,8,141462:0:0:0:0:
192,192,141312,128,2,141462:0:0:0:0:
320,192,141312,1,0,0:0:0:0:
448,192,141462,1,0,0:0:0:0:
192,192,141612,1,2,0:0:0:0:
320,192,141612,128,0,141837:0:0:0:0:
448,192,141612,128,0,141762:0:0:0:0:
64,192,141762,1,0,0:0:0:0:
192,192,141912,1,2,0:0:0:0:
448,192,141912,1,8,0:0:0:0:
320,192,141987,1,0,0:0:0:0:
64,192,142062,1,0,0:0:0:0:
192,192,142137,1,0,0:0:0:0:
64,192,142212,1,2,0:0:0:0:
320,192,142212,1,0,0:0:0:0:
448,192,142212,1,0,0:0:0:0:
64,192,142362,1,0,0:0:0:0:
192,192,142362,1,0,0:0:0:0:
192,192,142512,1,2,0:0:0:0:
320,192,142512,1,8,0:0:0:0:
448,192,142512,1,0,0:0:0:0:
320,192,142662,1,0,0:0:0:0:
448,192,142662,1,0,0:0:0:0:
64,192,142812,1,2,0:0:0:0:
192,192,142812,1,0,0:0:0:0:
448,192,142962,1,0,0:0:0:0:
64,192,143037,1,0,0:0:0:0:
192,192,143037,1,0,0:0:0:0:
320,192,143112,1,8,0:0:0:0:
448,192,143112,1,2,0:0:0:0:
64,192,143262,1,0,0:0:0:0:
320,192,143262,1,0,0:0:0:0:
64,192,143412,1,2,0:0:0:0:
192,192,143412,1,0,0:0:0:0:
448,192,143412,128,0,143712:0:0:0:0:
320,192,143562,1,0,0:0:0:0:
64,192,143712,1,12,0:0:0:0:
192,192,143712,1,2,0:0:0:0:
320,192,143787,1,2,0:0:0:0:
64,192,143862,1,2,0:0:0:0:
448,192,143862,1,0,0:0:0:0:
192,192,143937,1,2,0:0:0:0:
64,192,144012,1,4,0:0:0:0:
320,192,144012,1,2,0:0:0:0:
448,192,144012,1,0,0:0:0:0:
192,192,144162,1,0,0:0:0:0:
320,192,144162,1,0,0:0:0:0:
64,192,144312,1,2,0:0:0:0:
192,192,144312,1,8,0:0:0:0:
448,192,144312,1,0,0:0:0:0:
320,192,144462,1,0,0:0:0:0:
448,192,144462,1,0,0:0:0:0:
64,192,144612,128,2,144762:0:0:0:0:
192,192,144612,128,0,144762:0:0:0:0:
320,192,144612,1,0,0:0:0:0:
448,192,144762,1,0,0:0:0:0:
192,192,144912,1,2,0:0:0:0:
320,192,144912,128,8,145062:0:0:0:0:
448,192,144912,128,0,145062:0:0:0:0:
64,192,145062,1,0,0:0:0:0:
64,192,145212,128,2,145437:0:0:0:0:
192,192,145212,128,0,145362:0:0:0:0:
448,192,145212,1,0,0:0:0:0:
320,192,145362,1,0,0:0:0:0:
192,192,145512,1,8,0:0:0:0:
448,192,145512,1,2,0:0:0:0:
64,192,145587,1,0,0:0:0:0:
320,192,145662,1,0,0:0:0:0:
192,192,145737,1,0,0:0:0:0:
64,192,145812,1,2,0:0:0:0:
320,192,145812,128,0,145962:0:0:0:0:
448,192,145812,128,0,145962:0:0:0:0:
192,192,145962,1,0,0:0:0:0:
64,192,146112,128,8,146262:0:0:0:0:
192,192,146112,128,2,146262:0:0:0:0:
320,192,146112,1,0,0:0:0:0:
448,192,146262,1,0,0:0:0:0:
192,192,146412,1,2,0:0:0:0:
320,192,146412,128,4,146637:0:0:0:0:
448,192,146412,128,0,146562:0:0:0:0:
64,192,146562,1,0,0:0:0:0:
192,192,146712,1,2,0:0:0:0:
448,192,146712,1,8,0:0:0:0:
320,192,146787,1,0,0:0:0:0:
64,192,146862,1,0,0:0:0:0:
192,192,146937,1,0,0:0:0:0:
64,192,147012,1,2,0:0:0:0:
320,192,147012,1,0,0:0:0:0:
448,192,147012,1,0,0:0:0:0:
64,192,147162,1,0,0:0:0:0:
192,192,147162,1,0,0:0:0:0:
320,192,147312,1,2,0:0:0:0:
448,192,147312,1,8,0:0:0:0:
64,192,147387,1,2,0:0:0:0:
192,192,147462,1,2,0:0:0:0:
448,192,147462,1,0,0:0:0:0:
320,192,147537,1,2,0:0:0:0:
64,192,147612,1,4,0:0:0:0:
192,192,147612,1,2,0:0:0:0:
448,192,147612,1,0,0:0:0:0:
320,192,147762,1,0,0:0:0:0:
64,192,147837,1,2,0:0:0:0:
448,192,147837,1,4,0:0:0:0:
192,192,147912,1,8,0:0:0:0:
64,192,148062,1,2,0:0:0:0:
320,192,148062,1,4,0:0:0:0:
448,192,148062,1,0,0:0:0:0:
192,192,148212,1,2,0:0:0:0:
320,192,148212,1,4,0:0:0:0:
64,192,148362,1,2,0:0:0:0:
192,192,148362,1,4,0:0:0:0:
448,192,148362,1,0,0:0:0:0:
320,192,148512,1,12,0:0:0:0:
448,192,148512,1,2,0:0:0:0:
192,192,148587,1,2,0:0:0:0:
64,192,148662,1,2,0:0:0:0:
448,192,148662,1,0,0:0:0:0:
320,192,148737,1,2,0:0:0:0:
64,192,148812,1,2,0:0:0:0:
192,192,148812,1,4,0:0:0:0:
448,192,148812,1,0,0:0:0:0:
192,192,148962,1,0,0:0:0:0:
320,192,148962,1,0,0:0:0:0:
64,192,149112,1,8,0:0:0:0:
320,192,149112,1,2,0:0:0:0:
448,192,149112,1,0,0:0:0:0:
64,192,149262,1,0,0:0:0:0:
192,192,149262,1,0,0:0:0:0:
192,192,149412,1,2,0:0:0:0:
320,192,149412,128,0,149562:0:0:0:0:
448,192,149412,128,0,149562:0:0:0:0:
64,192,149562,1,0,0:0:0:0:
64,192,149712,128,8,149862:0:0:0:0:
192,192,149712,128,2,149862:0:0:0:0:
320,192,149712,1,0,0:0:0:0:
448,192,149862,1,0,0:0:0:0:
64,192,150012,1,2,0:0:0:0:
320,192,150012,128,0,150162:0:0:0:0:
448,192,150012,128,0,150237:0:0:0:0:
192,192,150162,1,0,0:0:0:0:
64,192,150312,1,2,0:0:0:0:
320,192,150312,1,8,0:0:0:0:
448,192,150387,1,0,0:0:0:0:
192,192,150462,1,0,0:0:0:0:
320,192,150537,1,0,0:0:0:0:
64,192,150612,128,2,150762:0:0:0:0:
192,192,150612,128,0,150762:0:0:0:0:
448,192,150612,1,0,0:0:0:0:
320,192,150762,1,0,0:0:0:0:
192,192,150912,1,2,0:0:0:0:
320,192,150912,128,8,151062:0:0:0:0:
448,192,150912,128,0,151062:0:0:0:0:
64,192,151062,1,0,0:0:0:0:
64,192,151212,128,4,151362:0:0:0:0:
192,192,151212,128,2,151437:0:0:0:0:
320,192,151212,1,0,0:0:0:0:
448,192,151362,1,0,0:0:0:0:
64,192,151512,1,8,0:0:0:0:
320,192,151512,1,2,0:0:0:0:
192,192,151587,1,0,0:0:0:0:
448,192,151662,1,0,0:0:0:0:
320,192,151737,1,0,0:0:0:0:
64,192,151812,1,2,0:0:0:0:
192,192,151812,1,0,0:0:0:0:
448,192,151812,1,0,0:0:0:0:
320,192,151962,1,0,0:0:0:0:
448,192,151962,1,0,0:0:0:0:
64,192,152112,1,8,0:0:0:0:
192,192,152112,1,2,0:0:0:0:
320,192,152112,1,0,0:0:0:0:
64,192,152262,1,0,0:0:0:0:
192,192,152262,1,0,0:0:0:0:
320,192,152412,1,2,0:0:0:0:
448,192,152412,1,0,0:0:0:0:
64,192,152562,1,0,0:0:0:0:
320,192,152637,1,0,0:0:0:0:
448,192,152637,1,0,0:0:0:0:
64,192,152712,1,2,0:0:0:0:
192,192,152712,1,8,0:0:0:0:
192,192,152862,1,0,0:0:0:0:
448,192,152862,1,0,0:0:0:0:
64,192,153012,128,2,153312:0:0:0:0:
320,192,153012,1,0,0:0:0:0:
448,192,153012,1,0,0:0:0:0:
192,192,153162,1,0,0:0:0:0:
320,192,153312,1,6,0:0:0:0:
448,192,153312,1,8,0:0:0:0:
192,192,153387,1,2,0:0:0:0:
64,192,153462,1,2,0:0:0:0:
448,192,153462,1,0,0:0:0:0:
320,192,153537,1,2,0:0:0:0:
64,192,153612,1,4,0:0:0:0:
192,192,153612,1,2,0:0:0:0:
448,192,153612,1,0,0:0:0:0:
192,192,153762,1,2,0:0:0:0:
320,192,153762,1,0,0:0:0:0:
64,192,153912,1,8,0:0:0:0:
320,192,153912,1,2,0:0:0:0:
448,192,153912,1,0,0:0:0:0:
192,192,154062,1,2,0:0:0:0:
320,192,154062,1,0,0:0:0:0:
64,192,154212,1,2,0:0:0:0:
192,192,154212,1,0,0:0:0:0:
448,192,154212,1,0,0:0:0:0:
320,192,154362,1,2,0:0:0:0:
448,192,154362,1,0,0:0:0:0:
64,192,154512,1,8,0:0:0:0:
192,192,154512,1,2,0:0:0:0:
320,192,154512,1,0,0:0:0:0:
64,192,154662,1,2,0:0:0:0:
192,192,154662,1,0,0:0:0:0:
64,192,154812,1,4,0:0:0:0:
320,192,154812,1,2,0:0:0:0:
448,192,154812,1,0,0:0:0:0:
320,192,154962,1,2,0:0:0:0:
448,192,154962,1,0,0:0:0:0:
64,192,155112,1,2,0:0:0:0:
448,192,155112,1,8,0:0:0:0:
192,192,155187,1,0,0:0:0:0:
320,192,155262,1,2,0:0:0:0:
64,192,155337,1,0,0:0:0:0:
192,192,155412,1,2,0:0:0:0:
320,192,155412,1,0,0:0:0:0:
448,192,155412,1,0,0:0:0:0:
64,192,155562,1,2,0:0:0:0:
192,192,155562,1,0,0:0:0:0:
64,192,155712,1,2,0:0:0:0:
320,192,155712,1,8,0:0:0:0:
448,192,155712,1,0,0:0:0:0:
320,192,155862,1,2,0:0:0:0:
448,192,155862,1,0,0:0:0:0:
64,192,156012,1,4,0:0:0:0:
192,192,156012,1,2,0:0:0:0:
448,192,156087,1,2,0:0:0:0:
64,192,156162,1,2,0:0:0:0:
320,192,156162,1,0,0:0:0:0:
192,192,156237,1,2,0:0:0:0:
320,192,156312,1,10,0:0:0:0:
448,192,156312,1,4,0:0:0:0:
64,192,156387,1,2,0:0:0:0:
192,192,156462,1,2,0:0:0:0:
448,192,156462,1,0,0:0:0:0:
320,192,156537,1,2,0:0:0:0:
64,192,156612,1,2,0:0:0:0:
192,192,156612,1,4,0:0:0:0:
448,192,156687,1,2,0:0:0:0:
64,192,156762,1,2,0:0:0:0:
320,192,156762,1,0,0:0:0:0:
192,192,156837,1,2,0:0:0:0:
320,192,156912,1,10,0:0:0:0:
448,192,156912,1,4,0:0:0:0:
64,192,156987,1,2,0:0:0:0:
192,192,157062,1,2,0:0:0:0:
448,192,157062,1,0,0:0:0:0:
320,192,157137,1,2,0:0:0:0:
64,192,157212,1,2,0:0:0:0:
192,192,157262,1,2,0:0:0:0:
448,192,157312,1,2,0:0:0:0:
320,192,157362,1,2,0:0:0:0:
64,192,157412,1,2,0:0:0:0:
192,192,157462,1,2,0:0:0:0:
448,192,157512,1,2,0:0:0:0:
320,192,157562,1,2,0:0:0:0:
64,192,157612,1,2,0:0:0:0:
192,192,157662,1,2,0:0:0:0:
448,192,157712,1,2,0:0:0:0:
320,192,157762,1,2,0:0:0:0:
64,192,157812,1,2,0:0:0:0:
192,192,157862,1,2,0:0:0:0:
448,192,157912,1,2,0:0:0:0:
320,192,157962,1,2,0:0:0:0:
64,192,158012,1,2,0:0:0:0:
192,192,158062,1,2,0:0:0:0:
320,192,158112,1,2,0:0:0:0:
448,192,158112,1,8,0:0:0:0:
64,192,158412,1,2,0:0:0:0:
192,192,158412,1,4,0:0:0:0:
448,192,158412,128,0,158562:0:0:0:0:
320,192,158562,128,0,158712:0:0:0:0:
192,192,158712,128,0,158862:0:0:0:0:
448,192,158862,1,2,0:0:0:0:
320,192,158937,1,2,0:0:0:0:
64,192,159012,128,2,159312:0:0:0:0:
192,192,159012,1,8,0:0:0:0:
320,192,159162,1,0,0:0:0:0:
448,192,159312,128,0,159462:0:0:0:0:
64,192,159462,1,2,0:0:0:0:
192,192,159537,1,2,0:0:0:0:
320,192,159612,128,2,159912:0:0:0:0:
448,192,159612,1,0,0:0:0:0:
64,192,159762,1,0,0:0:0:0:
448,192,159837,1,2,0:0:0:0:
192,192,159912,128,0,160062:0:0:0:0:
64,192,160062,128,2,160212:0:0:0:0:
320,192,160062,1,0,0:0:0:0:
192,192,160212,1,8,0:0:0:0:
448,192,160212,128,2,160362:0:0:0:0:
320,192,160362,1,2,0:0:0:0:
192,192,160437,1,2,0:0:0:0:
64,192,160512,128,2,160662:0:0:0:0:
448,192,160512,1,8,0:0:0:0:
192,192,160662,1,2,0:0:0:0:
320,192,160737,1,2,0:0:0:0:
64,192,160812,1,2,0:0:0:0:
192,192,160812,1,4,0:0:0:0:
448,192,160812,128,0,160962:0:0:0:0:
320,192,160962,1,0,0:0:0:0:
192,192,161112,128,0,161262:0:0:0:0:
448,192,161262,1,2,0:0:0:0:
320,192,161337,1,2,0:0:0:0:
64,192,161412,128,2,161562:0:0:0:0:
192,192,161412,1,8,0:0:0:0:
448,192,161562,128,0,161712:0:0:0:0:
320,192,161712,128,0,161862:0:0:0:0:
192,192,161862,1,2,0:0:0:0:
320,192,161937,1,2,0:0:0:0:
64,192,162012,128,2,162312:0:0:0:0:
448,192,162012,1,0,0:0:0:0:
320,192,162162,1,0,0:0:0:0:
192,192,162237,1,2,0:0:0:0:
448,192,162312,128,0,162462:0:0:0:0:
192,192,162462,1,2,0:0:0:0:
320,192,162462,128,0,162612:0:0:0:0:
64,192,162612,128,2,162762:0:0:0:0:
448,192,162612,1,8,0:0:0:0:
320,192,162762,1,2,0:0:0:0:
192,192,162837,1,2,0:0:0:0:
64,192,162912,1,2,0:0:0:0:
448,192,162912,1,4,0:0:0:0:
320,192,162987,1,2,0:0:0:0:
192,192,163062,1,2,0:0:0:0:
448,192,163062,1,0,0:0:0:0:
320,192,163137,1,2,0:0:0:0:
64,192,163212,1,4,0:0:0:0:
192,192,163212,1,2,0:0:0:0:
448,192,163212,128,0,163362:0:0:0:0:
320,192,163362,128,0,163512:0:0:0:0:
192,192,163512,128,0,163662:0:0:0:0:
448,192,163662,1,2,0:0:0:0:
320,192,163737,1,2,0:0:0:0:
64,192,163812,128,2,164112:0:0:0:0:
192,192,163812,1,8,0:0:0:0:
320,192,163962,1,0,0:0:0:0:
448,192,164112,128,0,164262:0:0:0:0:
64,192,164262,1,2,0:0:0:0:
192,192,164337,1,2,0:0:0:0:
320,192,164412,128,2,164562:0:0:0:0:
448,192,164412,1,0,0:0:0:0:
64,192,164562,1,0,0:0:0:0:
448,192,164637,1,2,0:0:0:0:
192,192,164712,128,0,164862:0:0:0:0:
64,192,164862,128,2,165012:0:0:0:0:
320,192,164862,1,0,0:0:0:0:
192,192,165012,1,2,0:0:0:0:
448,192,165012,128,8,165162:0:0:0:0:
320,192,165162,1,2,0:0:0:0:
192,192,165237,1,2,0:0:0:0:
64,192,165312,128,2,165462:0:0:0:0:
448,192,165312,1,8,0:0:0:0:
192,192,165462,1,2,0:0:0:0:
320,192,165537,1,2,0:0:0:0:
64,192,165612,1,2,0:0:0:0:
192,192,165612,1,4,0:0:0:0:
448,192,165612,128,0,165912:0:0:0:0:
320,192,165762,1,0,0:0:0:0:
64,192,165912,128,0,166062:0:0:0:0:
448,192,166062,1,2,0:0:0:0:
320,192,166137,1,2,0:0:0:0:
64,192,166212,1,2,0:0:0:0:
192,192,166212,128,8,166362:0:0:0:0:
448,192,166362,128,0,166512:0:0:0:0:
64,192,166512,1,2,0:0:0:0:
320,192,166512,1,4,0:0:0:0:
448,192,166587,1,2,0:0:0:0:
64,192,166662,1,2,0:0:0:0:
192,192,166662,1,0,0:0:0:0:
320,192,166737,1,2,0:0:0:0:
64,192,166812,1,2,0:0:0:0:
192,192,166812,1,4,0:0:0:0:
448,192,166812,1,0,0:0:0:0:
320,192,166962,1,4,0:0:0:0:
448,192,166962,1,2,0:0:0:0:
64,192,167112,1,2,0:0:0:0:
192,192,167112,1,4,0:0:0:0:
320,192,167112,1,0,0:0:0:0:
64,192,167262,1,2,0:0:0:0:
192,192,167262,1,4,0:0:0:0:
320,192,167412,1,2,0:0:0:0:
448,192,167412,1,4,0:0:0:0:
192,192,167487,1,8,0:0:0:0:
448,192,167562,1,6,0:0:0:0:
320,192,167637,1,8,0:0:0:0:
64,192,167712,1,6,0:0:0:0:
192,192,167712,1,8,0:0:0:0:
448,192,167787,1,2,0:0:0:0:
64,192,167862,1,2,0:0:0:0:
320,192,167862,1,0,0:0:0:0:
192,192,167937,1,2,0:0:0:0:
64,192,168012,1,4,0:0:0:25:soft-hitfinish.wav
320,192,168012,1,2,0:0:0:25:soft-hitwhistle.wav
448,192,168012,1,0,0:0:0:0:
192,192,168162,1,0,0:0:0:0:
320,192,168312,1,0,0:0:0:0:
64,192,168462,1,0,0:0:0:0:
192,192,168612,1,0,0:0:0:0:
448,192,168612,1,0,0:0:0:0:
320,192,168762,1,0,0:0:0:0:
64,192,168912,1,0,0:0:0:0:
192,192,168912,1,0,0:0:0:0:
448,192,169062,1,0,0:0:0:0:
64,192,169212,1,0,0:0:0:0:
320,192,169212,1,0,0:0:0:0:
320,192,169512,1,0,0:0:0:0:
448,192,169512,1,0,0:0:0:0:
64,192,169662,1,0,0:0:0:0:
192,192,169812,1,0,0:0:0:0:
448,192,169812,1,0,0:0:0:0:
320,192,169962,1,0,0:0:0:0:
64,192,170112,1,0,0:0:0:0:
192,192,170112,1,0,0:0:0:0:
448,192,170262,1,0,0:0:0:0:
64,192,170412,1,0,0:0:0:0:
320,192,170412,1,0,0:0:0:0:
192,192,170712,1,0,0:0:0:0:
320,192,170712,1,0,0:0:0:0:
448,192,170862,1,0,0:0:0:0:
64,192,171012,1,0,0:0:0:0:
192,192,171012,1,0,0:0:0:0:
320,192,171162,1,0,0:0:0:0:
64,192,171312,1,0,0:0:0:0:
448,192,171312,1,0,0:0:0:0:
320,192,171462,1,0,0:0:0:0:
64,192,171612,1,0,0:0:0:0:
192,192,171612,1,0,0:0:0:0:
192,192,171912,1,0,0:0:0:0:
448,192,171912,1,0,0:0:0:0:
64,192,172062,1,0,0:0:0:0:
320,192,172212,1,0,0:0:0:0:
448,192,172212,1,0,0:0:0:0:
192,192,172362,1,0,0:0:0:0:
320,192,172512,1,0,0:0:0:0:
448,192,172662,1,0,0:0:0:0:
64,192,172812,1,0,0:0:0:0:
192,192,172812,1,0,0:0:0:0:
320,192,172962,1,0,0:0:0:0:
64,192,173112,1,0,0:0:0:0:
192,192,173262,1,0,0:0:0:0:
320,192,173412,1,0,0:0:0:0:
448,192,173412,1,0,0:0:0:0:
64,192,173562,1,0,0:0:0:0:
192,192,173712,1,0,0:0:0:0:
320,192,173712,1,0,0:0:0:0:
448,192,173862,1,0,0:0:0:0:
64,192,174012,1,0,0:0:0:0:
192,192,174012,1,0,0:0:0:0:
64,192,174312,1,0,0:0:0:0:
448,192,174312,1,0,0:0:0:0:
320,192,174462,1,0,0:0:0:0:
64,192,174612,1,0,0:0:0:0:
192,192,174612,1,0,0:0:0:0:
448,192,174762,1,0,0:0:0:0:
192,192,174912,1,0,0:0:0:0:
320,192,174912,1,0,0:0:0:0:
64,192,175062,1,0,0:0:0:0:
320,192,175212,1,0,0:0:0:0:
448,192,175212,1,0,0:0:0:0:
64,192,175512,1,0,0:0:0:0:
448,192,175512,1,0,0:0:0:0:
192,192,175662,1,0,0:0:0:0:
64,192,175812,1,0,0:0:0:0:
320,192,175812,1,0,0:0:0:0:
192,192,175962,1,0,0:0:0:0:
320,192,176112,1,0,0:0:0:0:
448,192,176112,1,0,0:0:0:0:
64,192,176262,1,0,0:0:0:0:
448,192,176412,1,0,0:0:0:0:
192,192,176562,1,0,0:0:0:0:
320,192,176712,1,0,0:0:0:0:
64,192,176862,1,0,0:0:0:0:
192,192,177012,1,0,0:0:0:0:
448,192,177162,1,0,0:0:0:0:
320,192,177312,1,0,0:0:0:0:
192,192,177462,1,0,0:0:0:0:
64,192,177612,128,0,181212:0:0:0:0:
448,192,177612,128,0,182412:0:0:0:0:
320,192,181212,128,0,182412:0:0:0:0:
