osu file format v14

[General]
AudioFilename: audio.mp3
AudioLeadIn: 0
PreviewTime: 100812
Countdown: 0
SampleSet: Soft
StackLeniency: 0.7
Mode: 3
LetterboxInBreaks: 0
SpecialStyle: 0
WidescreenStoryboard: 1

[Editor]
Bookmarks: 2412,12012,21612,31212,33612,36012,38412,40812,43212,48012,52812,57612,62412,72012,81612,91212,100812,110412,115212,120012,129612,139212,144012,148812,153612,156012,158412,168012,177612
DistanceSpacing: 3
BeatDivisor: 2
GridSize: 16
TimelineZoom: 0.9999999

[Metadata]
Title:Odin
TitleUnicode:Odin
Artist:Gram
ArtistUnicode:Gram
Creator:cai_ji_ccc
Version:EASY
Source:WACCA Reverse
Tags:mappers' guild mg electronic instrumental video game featured artist fa j-core hardcore tano*c djgenki dj genki gnkcd-015 comic market c97 ln long notes
BeatmapID:4115477
BeatmapSetID:1981845

[Difficulty]
HPDrainRate:6.5
CircleSize:4
OverallDifficulty:6.5
ApproachRate:5
SliderMultiplier:1.4
SliderTickRate:1

[Events]
//Background and Video events
0,0,"1682330744763.jpg",0,0
//Break Periods
//Storyboard Layer 0 (Background)
//Storyboard Layer 1 (Fail)
//Storyboard Layer 2 (Pass)
//Storyboard Layer 3 (Foreground)
//Storyboard Layer 4 (Overlay)
//Storyboard Sound Samples

[TimingPoints]
2412,300.0,4,2,1,35,1,0
62412,-100.0,4,2,1,35,0,1
81612,-100.0,4,2,1,35,0,0
120012,-100.0,4,2,1,35,0,1
138012,-100.0,4,2,1,35,0,0
139212,-100.0,4,2,1,35,0,1
158412,-100.0,4,2,1,35,0,0

[HitObjects]
448,192,2412,1,2,0:0:0:20:soft-hitwhistle.wav
64,192,2712,1,0,0:0:0:0:
320,192,3012,1,0,0:0:0:0:
192,192,3312,1,0,0:0:0:0:
448,192,3612,1,0,0:0:0:0:
320,192,3912,1,0,0:0:0:0:
64,192,4212,1,0,0:0:0:0:
448,192,4512,1,0,0:0:0:0:
192,192,4812,1,0,0:0:0:0:
320,192,5112,1,0,0:0:0:0:
64,192,5412,1,0,0:0:0:0:
448,192,5712,1,0,0:0:0:0:
192,192,6012,128,0,6312:0:0:0:0:
320,192,6312,1,0,0:0:0:0:
64,192,6612,128,0,6912:0:0:0:0:
448,192,6912,1,0,0:0:0:0:
192,192,7212,1,0,0:0:0:0:
320,192,7512,1,0,0:0:0:0:
64,192,7812,1,0,0:0:0:0:
448,192,8112,1,0,0:0:0:0:
192,192,8412,1,0,0:0:0:0:
320,192,8712,1,0,0:0:0:0:
64,192,9012,1,0,0:0:0:0:
448,192,9312,1,0,0:0:0:0:
192,192,9612,1,0,0:0:0:0:
320,192,9912,1,0,0:0:0:0:
64,192,10212,1,0,0:0:0:0:
192,192,10512,1,0,0:0:0:0:
448,192,10812,1,0,0:0:0:0:
64,192,11112,1,0,0:0:0:0:
320,192,11412,1,0,0:0:0:0:
192,192,11712,1,0,0:0:0:0:
320,192,12012,1,4,0:0:0:35:soft-hitfinish.wav
448,192,12012,1,2,0:0:0:35:soft-hitwhistle.wav
64,192,12312,1,0,0:0:0:0:
448,192,12612,128,6,12912:0:0:0:0:
192,192,12912,128,6,13212:0:0:0:0:
448,192,13212,128,6,13512:0:0:0:0:
320,192,13512,1,0,0:0:0:0:
64,192,13812,128,6,14112:0:0:0:0:
320,192,14112,128,6,14412:0:0:0:0:
64,192,14412,128,6,14712:0:0:0:0:
192,192,14712,1,0,0:0:0:0:
448,192,15012,1,6,0:0:0:0:
320,192,15162,1,6,0:0:0:0:
192,192,15312,1,6,0:0:0:0:
448,192,15612,1,6,0:0:0:0:
64,192,15837,1,6,0:0:0:0:
448,192,16062,1,6,0:0:0:0:
64,192,16212,1,6,0:0:0:0:
320,192,16512,128,6,16812:0:0:0:0:
64,192,16812,1,2,0:0:0:0:
192,192,16812,1,4,0:0:0:0:
448,192,17112,1,0,0:0:0:0:
64,192,17412,128,6,17712:0:0:0:0:
320,192,17712,128,6,18012:0:0:0:0:
64,192,18012,128,6,18312:0:0:0:0:
192,192,18312,1,0,0:0:0:0:
448,192,18612,128,6,18912:0:0:0:0:
192,192,18912,128,6,19212:0:0:0:0:
448,192,19212,128,6,19512:0:0:0:0:
320,192,19512,1,0,0:0:0:0:
64,192,19812,1,6,0:0:0:0:
192,192,19962,1,6,0:0:0:0:
320,192,20112,1,6,0:0:0:0:
64,192,20412,128,6,20712:0:0:0:0:
448,192,20712,1,14,0:0:0:0:
320,192,20862,1,2,0:0:0:0:
192,192,21012,128,14,21312:0:0:0:0:
448,192,21312,128,6,21612:0:0:0:0:
64,192,21612,1,2,0:0:0:0:
320,192,21612,1,4,0:0:0:0:
192,192,21912,1,0,0:0:0:0:
448,192,22212,1,0,0:0:0:0:
64,192,22512,1,0,0:0:0:0:
320,192,22812,1,0,0:0:0:0:
192,192,23112,1,0,0:0:0:0:
448,192,23412,1,0,0:0:0:0:
64,192,23712,1,0,0:0:0:0:
320,192,24012,1,0,0:0:0:0:
192,192,24312,1,0,0:0:0:0:
448,192,24612,1,0,0:0:0:0:
64,192,24912,1,0,0:0:0:0:
320,192,25212,1,0,0:0:0:0:
192,192,25512,1,0,0:0:0:0:
448,192,25812,1,0,0:0:0:0:
320,192,26112,1,0,0:0:0:0:
64,192,26412,1,2,0:0:0:0:
192,192,26412,1,4,0:0:0:0:
448,192,26712,1,0,0:0:0:0:
64,192,27012,1,0,0:0:0:0:
320,192,27312,1,0,0:0:0:0:
192,192,27612,1,0,0:0:0:0:
448,192,27912,1,0,0:0:0:0:
64,192,28212,1,0,0:0:0:0:
320,192,28512,1,0,0:0:0:0:
192,192,28812,1,0,0:0:0:0:
448,192,29112,1,0,0:0:0:0:
64,192,29412,1,0,0:0:0:0:
320,192,29712,1,0,0:0:0:0:
192,192,30012,128,0,30312:0:0:0:0:
448,192,30312,128,0,30612:0:0:0:0:
64,192,30612,128,2,30912:0:0:0:0:
320,192,30912,128,6,31212:0:0:0:0:
64,192,31212,1,2,0:0:0:0:
192,192,31212,1,4,0:0:0:0:
448,192,31512,1,8,0:0:0:0:
64,192,31812,1,8,0:0:0:0:
448,192,32112,1,8,0:0:0:0:
192,192,32412,1,8,0:0:0:0:
320,192,32712,1,8,0:0:0:0:
192,192,33012,1,8,0:0:0:0:
320,192,33312,1,8,0:0:0:0:
64,192,33612,1,2,0:0:0:0:
448,192,33612,1,4,0:0:0:0:
192,192,33912,1,8,0:0:0:0:
448,192,34212,1,8,0:0:0:0:
192,192,34512,1,8,0:0:0:0:
320,192,34812,1,8,0:0:0:0:
64,192,35112,1,8,0:0:0:0:
320,192,35412,1,8,0:0:0:0:
64,192,35712,1,10,0:0:0:0:
192,192,36012,1,2,0:0:0:0:
448,192,36012,1,4,0:0:0:0:
448,192,36312,1,8,0:0:0:0:
448,192,36612,1,8,0:0:0:0:
448,192,36912,1,8,0:0:0:0:
64,192,37212,1,4,0:0:0:0:
320,192,37212,1,2,0:0:0:0:
64,192,37512,1,8,0:0:0:0:
64,192,37812,1,8,0:0:0:0:
64,192,38112,1,8,0:0:0:0:
320,192,38412,1,4,0:0:0:0:
448,192,38412,128,2,39612:0:0:0:0:
64,192,38712,1,6,0:0:0:0:
320,192,39012,1,6,0:0:0:0:
64,192,39312,1,6,0:0:0:0:
192,192,39612,128,0,40212:0:0:0:0:
320,192,40212,128,0,40812:0:0:0:0:
64,192,40812,128,4,42912:0:0:0:0:
448,192,40812,1,2,0:0:0:0:
320,192,42912,1,8,0:0:0:0:
192,192,43212,1,4,0:0:0:0:
448,192,43212,1,2,0:0:0:0:
64,192,43512,1,10,0:0:0:0:
320,192,43812,1,2,0:0:0:0:
192,192,44112,1,10,0:0:0:0:
448,192,44412,1,2,0:0:0:0:
320,192,44712,1,10,0:0:0:0:
64,192,45012,1,2,0:0:0:0:
192,192,45312,1,10,0:0:0:0:
320,192,45612,1,2,0:0:0:0:
448,192,45912,1,10,0:0:0:0:
320,192,46212,1,2,0:0:0:0:
192,192,46512,1,10,0:0:0:0:
64,192,46812,1,2,0:0:0:0:
448,192,47112,1,10,0:0:0:0:
320,192,47412,1,2,0:0:0:0:
192,192,47712,128,14,48012:0:0:0:0:
320,192,48012,1,2,0:0:0:0:
448,192,48012,1,4,0:0:0:0:
64,192,48312,1,10,0:0:0:0:
448,192,48612,1,2,0:0:0:0:
192,192,48912,1,10,0:0:0:0:
320,192,49212,1,2,0:0:0:0:
64,192,49512,1,10,0:0:0:0:
192,192,49812,1,2,0:0:0:0:
448,192,50112,1,10,0:0:0:0:
320,192,50412,1,2,0:0:0:0:
64,192,50712,1,10,0:0:0:0:
192,192,51012,1,2,0:0:0:0:
320,192,51312,1,10,0:0:0:0:
448,192,51612,1,6,0:0:0:0:
64,192,51837,1,6,0:0:0:0:
448,192,52062,1,6,0:0:0:0:
192,192,52212,1,6,0:0:0:0:
320,192,52362,1,6,0:0:0:0:
64,192,52512,128,14,52812:0:0:0:0:
192,192,52812,1,2,0:0:0:0:
448,192,52812,128,4,54012:0:0:0:0:
320,192,53112,1,10,0:0:0:0:
64,192,53412,1,2,0:0:0:0:
320,192,53712,1,10,0:0:0:0:
64,192,54012,128,2,55212:0:0:0:0:
320,192,54312,1,10,0:0:0:0:
192,192,54612,1,2,0:0:0:0:
448,192,54912,1,10,0:0:0:0:
192,192,55212,1,2,0:0:0:0:
320,192,55212,128,4,56412:0:0:0:0:
64,192,55512,1,10,0:0:0:0:
448,192,55812,1,2,0:0:0:0:
64,192,56112,1,10,0:0:0:0:
192,192,56412,128,2,57612:0:0:0:0:
448,192,56712,1,10,0:0:0:0:
64,192,57012,1,2,0:0:0:0:
320,192,57312,1,14,0:0:0:0:
64,192,57612,1,2,0:0:0:0:
448,192,57612,128,4,58812:0:0:0:0:
320,192,57912,1,10,0:0:0:0:
64,192,58212,1,2,0:0:0:0:
192,192,58512,1,10,0:0:0:0:
64,192,58812,128,2,60012:0:0:0:0:
320,192,58812,1,4,0:0:0:0:
192,192,59112,1,10,0:0:0:0:
448,192,59412,1,2,0:0:0:0:
192,192,59712,1,10,0:0:0:0:
320,192,60012,1,2,0:0:0:0:
448,192,60012,128,4,60612:0:0:0:0:
192,192,60312,1,14,0:0:0:0:
64,192,60612,128,6,61212:0:0:0:0:
320,192,60912,1,14,0:0:0:0:
192,192,61212,128,2,61812:0:0:0:0:
448,192,61812,1,2,0:0:0:0:
320,192,62112,128,6,62412:0:0:0:0:
64,192,62412,1,2,0:0:0:0:
192,192,62412,1,4,0:0:0:0:
448,192,62712,1,10,0:0:0:0:
64,192,63012,1,2,0:0:0:0:
320,192,63312,1,10,0:0:0:0:
192,192,63612,1,2,0:0:0:0:
448,192,63912,1,10,0:0:0:0:
320,192,64212,1,2,0:0:0:0:
192,192,64512,1,10,0:0:0:0:
64,192,64812,1,2,0:0:0:0:
448,192,65112,1,10,0:0:0:0:
192,192,65412,1,2,0:0:0:0:
320,192,65712,1,10,0:0:0:0:
64,192,66012,1,2,0:0:0:0:
192,192,66312,1,10,0:0:0:0:
320,192,66612,1,2,0:0:0:0:
448,192,66912,128,14,67212:0:0:0:0:
64,192,67212,1,2,0:0:0:0:
192,192,67212,1,4,0:0:0:0:
320,192,67512,1,10,0:0:0:0:
192,192,67812,1,2,0:0:0:0:
448,192,68112,1,10,0:0:0:0:
320,192,68412,1,2,0:0:0:0:
64,192,68712,1,10,0:0:0:0:
192,192,69012,1,2,0:0:0:0:
320,192,69312,1,10,0:0:0:0:
448,192,69612,1,2,0:0:0:0:
64,192,69912,1,10,0:0:0:0:
320,192,70212,1,2,0:0:0:0:
192,192,70512,1,10,0:0:0:0:
448,192,70812,1,6,0:0:0:0:
64,192,71037,1,6,0:0:0:0:
448,192,71262,1,6,0:0:0:0:
192,192,71412,1,6,0:0:0:0:
320,192,71562,1,6,0:0:0:0:
64,192,71712,128,14,72012:0:0:0:0:
320,192,72012,1,4,0:0:0:0:
448,192,72012,1,2,0:0:0:0:
192,192,72312,1,10,0:0:0:0:
448,192,72612,1,2,0:0:0:0:
192,192,72912,1,10,0:0:0:0:
320,192,73212,1,2,0:0:0:0:
64,192,73512,1,10,0:0:0:0:
192,192,73812,1,2,0:0:0:0:
320,192,74112,1,10,0:0:0:0:
64,192,74412,1,2,0:0:0:0:
448,192,74412,1,4,0:0:0:0:
192,192,74712,1,10,0:0:0:0:
320,192,75012,1,2,0:0:0:0:
192,192,75312,1,10,0:0:0:0:
448,192,75612,1,2,0:0:0:0:
320,192,75912,1,10,0:0:0:0:
192,192,76212,1,2,0:0:0:0:
64,192,76512,128,14,76812:0:0:0:0:
320,192,76812,1,2,0:0:0:0:
448,192,76812,1,4,0:0:0:0:
192,192,77112,1,10,0:0:0:0:
320,192,77412,1,2,0:0:0:0:
64,192,77712,1,10,0:0:0:0:
192,192,78012,1,2,0:0:0:0:
448,192,78012,1,4,0:0:0:0:
320,192,78312,1,10,0:0:0:0:
64,192,78612,1,2,0:0:0:0:
192,192,78912,1,10,0:0:0:0:
320,192,79212,1,2,0:0:0:0:
448,192,79212,128,4,80412:0:0:0:0:
64,192,79512,1,14,0:0:0:0:
320,192,79812,1,6,0:0:0:0:
64,192,80112,1,14,0:0:0:0:
192,192,80412,128,2,81012:0:0:0:0:
320,192,81012,128,2,81312:0:0:0:0:
192,192,81312,1,8,0:0:0:0:
64,192,81612,1,4,0:0:0:0:
448,192,81612,1,2,0:0:0:0:
192,192,82062,1,2,0:0:0:0:
448,192,82812,1,8,0:0:0:0:
320,192,83412,1,8,0:0:0:0:
192,192,84012,1,2,0:0:0:0:
320,192,84462,1,2,0:0:0:0:
64,192,85212,1,8,0:0:0:0:
448,192,85812,1,8,0:0:0:0:
192,192,86412,1,2,0:0:0:0:
320,192,86862,1,2,0:0:0:0:
64,192,87612,1,8,0:0:0:0:
448,192,88212,1,8,0:0:0:0:
192,192,88812,1,2,0:0:0:0:
320,192,89262,1,2,0:0:0:0:
64,192,90012,1,8,0:0:0:0:
448,192,90612,1,8,0:0:0:0:
64,192,91212,1,2,0:0:0:0:
320,192,91212,1,4,0:0:0:0:
192,192,92412,1,0,0:0:0:0:
448,192,93012,1,0,0:0:0:0:
64,192,93612,1,0,0:0:0:0:
320,192,94812,1,0,0:0:0:0:
192,192,95412,1,0,0:0:0:0:
448,192,96012,1,0,0:0:0:0:
320,192,97212,1,0,0:0:0:0:
64,192,97812,1,0,0:0:0:0:
448,192,98412,128,0,99612:0:0:0:0:
192,192,99612,128,2,100212:0:0:0:0:
320,192,100212,128,2,100512:0:0:0:0:
192,192,100512,1,8,0:0:0:0:
64,192,100812,1,4,0:0:0:25:soft-hitfinish.wav
448,192,100812,1,0,0:0:0:0:
320,192,101112,1,0,0:0:0:0:
192,192,101412,1,0,0:0:0:0:
320,192,101712,1,0,0:0:0:0:
64,192,102012,1,0,0:0:0:0:
192,192,102312,1,0,0:0:0:0:
448,192,102612,1,0,0:0:0:0:
64,192,102912,1,0,0:0:0:0:
320,192,103212,1,0,0:0:0:0:
192,192,103512,1,0,0:0:0:0:
448,192,103812,1,0,0:0:0:0:
64,192,104112,1,0,0:0:0:0:
320,192,104412,128,0,104712:0:0:0:0:
192,192,104712,1,0,0:0:0:0:
448,192,105012,128,0,105312:0:0:0:0:
64,192,105312,1,0,0:0:0:0:
320,192,105612,1,0,0:0:0:0:
192,192,105912,1,0,0:0:0:0:
448,192,106212,1,0,0:0:0:0:
64,192,106512,1,0,0:0:0:0:
320,192,106812,1,0,0:0:0:0:
192,192,107112,1,0,0:0:0:0:
448,192,107412,1,0,0:0:0:0:
64,192,107712,1,0,0:0:0:0:
320,192,108012,1,0,0:0:0:0:
192,192,108312,1,0,0:0:0:0:
448,192,108612,1,0,0:0:0:0:
320,192,108912,1,0,0:0:0:0:
64,192,109212,1,0,0:0:0:0:
448,192,109512,1,0,0:0:0:0:
192,192,109812,1,0,0:0:0:0:
320,192,110112,1,0,0:0:0:0:
64,192,110412,1,4,0:0:0:35:soft-hitfinish.wav
448,192,110412,1,2,0:0:0:35:soft-hitwhistle.wav
320,192,110712,1,8,0:0:0:0:
192,192,111012,1,8,0:0:0:0:
448,192,111312,1,8,0:0:0:0:
320,192,111612,1,8,0:0:0:0:
64,192,111912,1,8,0:0:0:0:
192,192,112212,1,8,0:0:0:0:
320,192,112512,1,8,0:0:0:0:
192,192,112812,1,2,0:0:0:0:
448,192,112812,1,4,0:0:0:0:
64,192,113112,1,8,0:0:0:0:
320,192,113412,1,8,0:0:0:0:
192,192,113712,1,8,0:0:0:0:
448,192,114012,1,8,0:0:0:0:
64,192,114312,1,8,0:0:0:0:
320,192,114612,1,8,0:0:0:0:
192,192,114912,128,14,115212:0:0:0:0:
64,192,115212,1,2,0:0:0:0:
448,192,115212,128,4,116412:0:0:0:0:
320,192,115512,1,2,0:0:0:0:
64,192,115812,1,2,0:0:0:0:
320,192,116112,1,2,0:0:0:0:
64,192,116412,128,2,117612:0:0:0:0:
192,192,116412,1,4,0:0:0:0:
448,192,116712,1,2,0:0:0:0:
192,192,117012,1,2,0:0:0:0:
448,192,117312,1,2,0:0:0:0:
192,192,117612,128,2,118212:0:0:0:0:
320,192,117612,1,4,0:0:0:0:
448,192,117912,1,2,0:0:0:0:
64,192,118212,1,2,0:0:0:0:
320,192,118212,128,0,118812:0:0:0:0:
192,192,118512,1,2,0:0:0:0:
448,192,118812,128,2,119412:0:0:0:0:
64,192,119412,128,2,119712:0:0:0:0:
192,192,119712,1,8,0:0:0:0:
320,192,120012,1,4,0:0:0:0:
448,192,120012,1,2,0:0:0:0:
64,192,120312,1,10,0:0:0:0:
448,192,120612,1,2,0:0:0:0:
192,192,120912,1,10,0:0:0:0:
320,192,121212,1,2,0:0:0:0:
64,192,121512,1,10,0:0:0:0:
448,192,121812,1,2,0:0:0:0:
192,192,122112,1,10,0:0:0:0:
320,192,122412,1,2,0:0:0:0:
64,192,122712,1,10,0:0:0:0:
448,192,123012,1,2,0:0:0:0:
192,192,123312,1,10,0:0:0:0:
320,192,123612,1,2,0:0:0:0:
64,192,123912,1,10,0:0:0:0:
192,192,124212,1,2,0:0:0:0:
448,192,124512,128,14,124812:0:0:0:0:
64,192,124812,1,2,0:0:0:0:
320,192,124812,1,4,0:0:0:0:
192,192,125112,1,10,0:0:0:0:
448,192,125412,1,2,0:0:0:0:
64,192,125712,1,10,0:0:0:0:
320,192,126012,1,2,0:0:0:0:
192,192,126312,1,10,0:0:0:0:
448,192,126612,1,2,0:0:0:0:
320,192,126912,1,10,0:0:0:0:
64,192,127212,1,2,0:0:0:0:
448,192,127212,1,4,0:0:0:0:
192,192,127512,1,10,0:0:0:0:
448,192,127812,1,2,0:0:0:0:
320,192,128112,1,10,0:0:0:0:
64,192,128412,128,6,128712:0:0:0:0:
448,192,128712,128,14,129012:0:0:0:0:
192,192,129012,128,6,129312:0:0:0:0:
320,192,129312,128,14,129612:0:0:0:0:
64,192,129612,1,4,0:0:0:0:
192,192,129612,1,2,0:0:0:0:
448,192,129912,1,10,0:0:0:0:
64,192,130212,1,2,0:0:0:0:
320,192,130512,1,10,0:0:0:0:
192,192,130812,1,2,0:0:0:0:
448,192,131112,1,10,0:0:0:0:
64,192,131412,1,2,0:0:0:0:
320,192,131712,1,10,0:0:0:0:
64,192,132012,1,2,0:0:0:0:
192,192,132012,1,4,0:0:0:0:
448,192,132312,1,10,0:0:0:0:
192,192,132612,1,2,0:0:0:0:
320,192,132912,1,10,0:0:0:0:
64,192,133212,1,2,0:0:0:0:
448,192,133512,1,10,0:0:0:0:
320,192,133812,1,2,0:0:0:0:
64,192,134112,128,14,134412:0:0:0:0:
192,192,134412,1,2,0:0:0:0:
448,192,134412,1,4,0:0:0:0:
320,192,134712,1,10,0:0:0:0:
64,192,135012,1,2,0:0:0:0:
448,192,135312,1,10,0:0:0:0:
64,192,135612,1,2,0:0:0:0:
320,192,135612,1,4,0:0:0:0:
192,192,135912,1,10,0:0:0:0:
320,192,136212,1,2,0:0:0:0:
192,192,136512,1,10,0:0:0:0:
64,192,136812,1,2,0:0:0:0:
448,192,136812,128,4,138012:0:0:0:0:
320,192,137112,1,14,0:0:0:0:
64,192,137412,1,6,0:0:0:0:
320,192,137712,1,14,0:0:0:0:
64,192,138012,128,2,138612:0:0:0:0:
320,192,138612,128,2,138912:0:0:0:0:
192,192,138912,1,8,0:0:0:0:
64,192,139212,1,2,0:0:0:0:
448,192,139212,1,4,0:0:0:0:
320,192,139512,1,10,0:0:0:0:
192,192,139812,128,2,140112:0:0:0:0:
448,192,140112,128,10,140412:0:0:0:0:
192,192,140412,128,2,140712:0:0:0:0:
448,192,140712,128,10,141012:0:0:0:0:
320,192,141012,128,2,141312:0:0:0:0:
64,192,141312,128,10,141612:0:0:0:0:
320,192,141612,128,2,141912:0:0:0:0:
64,192,141912,128,10,142212:0:0:0:0:
192,192,142212,1,2,0:0:0:0:
448,192,142512,1,10,0:0:0:0:
320,192,142812,1,2,0:0:0:0:
64,192,143037,1,0,0:0:0:0:
448,192,143262,1,0,0:0:0:0:
192,192,143412,1,2,0:0:0:0:
320,192,143712,128,14,144012:0:0:0:0:
64,192,144012,1,4,0:0:0:0:
448,192,144012,1,2,0:0:0:0:
192,192,144312,1,10,0:0:0:0:
320,192,144612,128,2,144912:0:0:0:0:
64,192,144912,128,10,145212:0:0:0:0:
320,192,145212,128,2,145512:0:0:0:0:
64,192,145512,128,10,145812:0:0:0:0:
192,192,145812,128,2,146112:0:0:0:0:
448,192,146112,128,10,146412:0:0:0:0:
64,192,146412,1,2,0:0:0:0:
192,192,146412,128,4,146712:0:0:0:0:
448,192,146712,128,10,147012:0:0:0:0:
320,192,147012,1,2,0:0:0:0:
192,192,147312,128,10,147612:0:0:0:0:
448,192,147612,1,6,0:0:0:0:
64,192,147837,1,6,0:0:0:0:
448,192,148062,1,6,0:0:0:0:
192,192,148212,1,6,0:0:0:0:
320,192,148362,1,6,0:0:0:0:
64,192,148512,128,14,148812:0:0:0:0:
320,192,148812,1,2,0:0:0:0:
448,192,148812,1,4,0:0:0:0:
192,192,149112,1,10,0:0:0:0:
320,192,149412,128,2,149712:0:0:0:0:
64,192,149712,128,10,150012:0:0:0:0:
320,192,150012,128,2,150312:0:0:0:0:
64,192,150312,128,10,150612:0:0:0:0:
192,192,150612,128,2,150912:0:0:0:0:
448,192,150912,128,10,151212:0:0:0:0:
64,192,151212,1,4,0:0:0:0:
192,192,151212,128,2,151512:0:0:0:0:
448,192,151512,128,10,151812:0:0:0:0:
320,192,151812,1,2,0:0:0:0:
192,192,152112,1,10,0:0:0:0:
64,192,152412,1,2,0:0:0:0:
320,192,152637,1,0,0:0:0:0:
192,192,152862,1,0,0:0:0:0:
448,192,153012,1,2,0:0:0:0:
64,192,153312,128,14,153612:0:0:0:0:
192,192,153612,1,4,0:0:0:0:
448,192,153612,128,2,154812:0:0:0:0:
320,192,153912,1,10,0:0:0:0:
64,192,154212,1,2,0:0:0:0:
320,192,154512,1,10,0:0:0:0:
64,192,154812,128,4,156012:0:0:0:0:
192,192,154812,1,2,0:0:0:0:
448,192,155112,1,10,0:0:0:0:
320,192,155412,1,2,0:0:0:0:
192,192,155712,1,10,0:0:0:0:
320,192,156012,1,4,0:0:0:0:
448,192,156012,128,2,157212:0:0:0:0:
64,192,156312,1,14,0:0:0:0:
320,192,156612,1,6,0:0:0:0:
64,192,156912,1,14,0:0:0:0:
192,192,157212,128,2,157512:0:0:0:0:
320,192,157512,128,2,157812:0:0:0:0:
64,192,157812,128,2,158112:0:0:0:0:
192,192,158112,1,10,0:0:0:0:
320,192,158412,1,2,0:0:0:0:
448,192,158412,1,4,0:0:0:0:
192,192,159012,1,10,0:0:0:0:
64,192,159612,1,2,0:0:0:0:
448,192,159837,1,2,0:0:0:0:
192,192,160062,1,2,0:0:0:0:
320,192,160212,1,10,0:0:0:0:
64,192,160512,1,10,0:0:0:0:
192,192,160812,1,2,0:0:0:0:
448,192,160812,1,4,0:0:0:0:
320,192,161412,1,10,0:0:0:0:
192,192,162012,1,2,0:0:0:0:
448,192,162237,1,2,0:0:0:0:
320,192,162462,1,2,0:0:0:0:
64,192,162612,1,10,0:0:0:0:
192,192,162912,128,6,163212:0:0:0:0:
320,192,163212,1,4,0:0:0:0:
448,192,163212,1,2,0:0:0:0:
64,192,163812,1,10,0:0:0:0:
448,192,164412,1,2,0:0:0:0:
192,192,164637,1,2,0:0:0:0:
320,192,164862,1,2,0:0:0:0:
64,192,165012,1,10,0:0:0:0:
448,192,165312,1,10,0:0:0:0:
64,192,165612,1,2,0:0:0:0:
320,192,165612,1,4,0:0:0:0:
192,192,166212,1,10,0:0:0:0:
448,192,166512,128,6,166812:0:0:0:0:
64,192,166812,128,2,167412:0:0:0:0:
192,192,166812,1,4,0:0:0:0:
320,192,167112,1,6,0:0:0:0:
448,192,167412,128,6,168012:0:0:0:0:
192,192,167712,1,14,0:0:0:0:
64,192,168012,1,4,0:0:0:25:soft-hitfinish.wav
320,192,168012,1,2,0:0:0:25:soft-hitwhistle.wav
192,192,168312,1,0,0:0:0:0:
320,192,168612,1,0,0:0:0:0:
192,192,168912,1,0,0:0:0:0:
448,192,169212,1,0,0:0:0:0:
320,192,169512,1,0,0:0:0:0:
64,192,169812,1,0,0:0:0:0:
448,192,170112,1,0,0:0:0:0:
192,192,170412,1,0,0:0:0:0:
320,192,170712,1,0,0:0:0:0:
64,192,171012,1,0,0:0:0:0:
448,192,171312,1,0,0:0:0:0:
192,192,171612,128,0,171912:0:0:0:0:
320,192,171912,1,0,0:0:0:0:
64,192,172212,128,0,172512:0:0:0:0:
448,192,172512,1,0,0:0:0:0:
192,192,172812,1,0,0:0:0:0:
320,192,173112,1,0,0:0:0:0:
64,192,173412,1,0,0:0:0:0:
448,192,173712,1,0,0:0:0:0:
192,192,174012,1,0,0:0:0:0:
320,192,174312,1,0,0:0:0:0:
64,192,174612,1,0,0:0:0:0:
448,192,174912,1,0,0:0:0:0:
192,192,175212,1,0,0:0:0:0:
320,192,175512,1,0,0:0:0:0:
64,192,175812,1,0,0:0:0:0:
192,192,176112,1,0,0:0:0:0:
448,192,176412,1,0,0:0:0:0:
64,192,176712,1,0,0:0:0:0:
320,192,177012,1,0,0:0:0:0:
192,192,177312,1,0,0:0:0:0:
448,192,177612,128,0,182412:0:0:0:0:
