osu file format v14

[General]
AudioFilename: audio.ogg
AudioLeadIn: 0
PreviewTime: 95863
Countdown: 0
SampleSet: Soft
StackLeniency: 0.7
Mode: 3
LetterboxInBreaks: 0
SpecialStyle: 0
WidescreenStoryboard: 1

[Editor]
DistanceSpacing: 0.5
BeatDivisor: 2
GridSize: 32
TimelineZoom: 1

[Metadata]
Title:Pumping Iron Power (feat. Joakim Broden from Sabaton)
TitleUnicode:Pumping Iron Power (feat. Joakim Brodén from Sabaton)
Artist:Grailknights
ArtistUnicode:Grailknights
Creator:MadBricktree
Version:Extra
Source:
Tags:english power metal chordjack knightfall intono records INTR-087-2 LC 27393 Willi Dammeier Wohlklangforschung Sebastian Khayat
BeatmapID:3982473
BeatmapSetID:1928408

[Difficulty]
HPDrainRate:8
CircleSize:7
OverallDifficulty:8.5
ApproachRate:5
SliderMultiplier:1.4
SliderTickRate:1

[Events]
//Background and Video events
0,0,"muscle.jpg",0,0
Video,-430,"muscle.mp4"
//Break Periods
//Storyboard Layer 0 (Background)
//Storyboard Layer 1 (Fail)
//Storyboard Layer 2 (Pass)
//Storyboard Layer 3 (Foreground)
//Storyboard Layer 4 (Overlay)
//Storyboard Sound Samples

[TimingPoints]
-35,272.727272727273,4,2,1,90,1,0

[HitObjects]
475,192,4328,5,0,0:0:0:0:
475,192,4465,1,0,0:0:0:0:
475,192,4601,1,0,0:0:0:0:
182,192,4737,1,0,0:0:0:0:
329,192,4874,1,0,0:0:0:0:
329,192,5010,1,0,0:0:0:0:
109,192,5146,1,0,0:0:0:0:
109,192,5283,1,0,0:0:0:0:
109,192,5419,1,0,0:0:0:0:
36,192,5555,1,0,0:0:0:0:
256,192,5692,1,0,0:0:0:0:
109,192,5828,1,0,0:0:0:0:
329,192,5965,1,0,0:0:0:0:
182,192,6101,1,0,0:0:0:0:
402,192,6237,1,0,0:0:0:0:
402,192,6374,1,0,0:0:0:0:
109,192,6510,1,0,0:0:0:0:
109,192,6646,1,0,0:0:0:0:
329,192,6783,1,0,0:0:0:0:
36,192,6919,1,0,0:0:0:0:
36,192,7055,1,0,0:0:0:0:
402,192,7192,1,0,0:0:0:0:
182,192,7328,1,0,0:0:0:0:
182,192,7465,1,0,0:0:0:0:
182,192,7601,1,0,0:0:0:0:
402,192,7737,1,0,0:0:0:0:
109,192,7874,1,0,0:0:0:0:
109,192,8010,1,0,0:0:0:0:
329,192,8146,1,0,0:0:0:0:
329,192,8283,1,0,0:0:0:0:
182,192,8419,1,0,0:0:0:0:
402,192,8555,1,0,0:0:0:0:
329,192,8692,1,0,0:0:0:0:
402,192,8692,1,0,0:0:0:0:
475,192,8692,1,0,0:0:0:0:
256,192,8692,1,0,0:0:0:0:
36,192,8692,1,4,0:0:0:0:
109,192,8692,1,8,0:0:0:0:
182,192,8692,1,0,0:0:0:0:
182,192,8828,1,0,0:0:0:0:
36,192,8828,1,0,0:0:0:0:
402,192,8965,1,0,0:0:0:0:
475,192,8965,1,0,0:0:0:0:
329,192,8965,1,0,0:0:0:0:
109,192,8965,1,2,0:0:0:0:
256,192,8965,1,0,0:0:0:0:
256,192,9101,1,0,0:0:0:0:
109,192,9101,1,0,0:0:0:0:
329,192,9237,1,0,0:0:0:0:
475,192,9237,1,0,0:0:0:0:
36,192,9237,1,8,0:0:0:0:
182,192,9237,1,0,0:0:0:0:
329,192,9374,1,0,0:0:0:0:
182,192,9374,1,0,0:0:0:0:
402,192,9510,1,0,0:0:0:0:
475,192,9510,1,0,0:0:0:0:
256,192,9510,1,0,0:0:0:0:
36,192,9510,1,2,0:0:0:0:
109,192,9510,1,0,0:0:0:0:
256,192,9646,1,0,0:0:0:0:
109,192,9646,1,0,0:0:0:0:
329,192,9783,1,0,0:0:0:0:
475,192,9783,1,0,0:0:0:0:
36,192,9783,1,8,0:0:0:0:
182,192,9783,1,0,0:0:0:0:
475,192,9919,1,0,0:0:0:0:
329,192,9919,1,0,0:0:0:0:
256,192,10055,1,0,0:0:0:0:
402,192,10055,1,0,0:0:0:0:
182,192,10055,1,0,0:0:0:0:
36,192,10055,1,2,0:0:0:0:
109,192,10055,1,0,0:0:0:0:
402,192,10192,1,0,0:0:0:0:
256,192,10192,1,0,0:0:0:0:
329,192,10328,1,0,0:0:0:0:
475,192,10328,1,0,0:0:0:0:
36,192,10328,1,8,0:0:0:0:
182,192,10328,1,0,0:0:0:0:
329,192,10465,1,0,0:0:0:0:
182,192,10465,1,0,0:0:0:0:
402,192,10601,1,0,0:0:0:0:
475,192,10601,1,0,0:0:0:0:
256,192,10601,1,0,0:0:0:0:
36,192,10601,1,2,0:0:0:0:
109,192,10601,1,0,0:0:0:0:
402,192,10737,1,0,0:0:0:0:
256,192,10737,1,0,0:0:0:0:
329,192,10874,1,0,0:0:0:0:
475,192,10874,1,0,0:0:0:0:
36,192,10874,1,8,0:0:0:0:
182,192,10874,1,0,0:0:0:0:
182,192,11010,1,0,0:0:0:0:
36,192,11010,1,0,0:0:0:0:
402,192,11146,1,0,0:0:0:0:
475,192,11146,1,0,0:0:0:0:
329,192,11146,1,0,0:0:0:0:
109,192,11146,1,2,0:0:0:0:
256,192,11146,1,0,0:0:0:0:
256,192,11283,1,0,0:0:0:0:
109,192,11283,1,0,0:0:0:0:
329,192,11419,1,0,0:0:0:0:
475,192,11419,1,0,0:0:0:0:
36,192,11419,1,8,0:0:0:0:
182,192,11419,1,0,0:0:0:0:
329,192,11555,1,0,0:0:0:0:
182,192,11555,1,0,0:0:0:0:
256,192,11692,1,0,0:0:0:0:
402,192,11692,1,0,0:0:0:0:
109,192,11692,1,0,0:0:0:0:
475,192,11692,1,0,0:0:0:0:
36,192,11692,1,2,0:0:0:0:
402,192,11828,1,0,0:0:0:0:
256,192,11828,1,0,0:0:0:0:
329,192,11965,1,0,0:0:0:0:
475,192,11965,1,0,0:0:0:0:
36,192,11965,1,8,0:0:0:0:
182,192,11965,1,0,0:0:0:0:
475,192,12101,1,0,0:0:0:0:
329,192,12101,1,0,0:0:0:0:
256,192,12237,1,0,0:0:0:0:
402,192,12237,1,0,0:0:0:0:
182,192,12237,1,0,0:0:0:0:
36,192,12237,1,2,0:0:0:0:
109,192,12237,1,0,0:0:0:0:
109,192,12374,1,0,0:0:0:0:
36,192,12374,1,0,0:0:0:0:
402,192,12510,1,0,0:0:0:0:
475,192,12510,1,0,0:0:0:0:
329,192,12510,1,0,0:0:0:0:
182,192,12510,1,8,0:0:0:0:
256,192,12510,1,0,0:0:0:0:
475,192,12646,1,0,0:0:0:0:
402,192,12646,1,0,0:0:0:0:
256,192,12646,1,0,0:0:0:0:
109,192,12783,1,0,0:0:0:0:
182,192,12783,1,0,0:0:0:0:
329,192,12783,1,0,0:0:0:0:
36,192,12783,1,2,0:0:0:0:
475,192,12919,1,0,0:0:0:0:
402,192,12919,1,0,0:0:0:0:
329,192,13055,1,0,0:0:0:0:
402,192,13055,1,0,0:0:0:0:
475,192,13055,1,0,0:0:0:0:
256,192,13055,1,0,0:0:0:0:
36,192,13055,1,4,0:0:0:0:
109,192,13055,1,8,0:0:0:0:
182,192,13055,1,0,0:0:0:0:
182,192,13192,1,0,0:0:0:0:
36,192,13192,1,0,0:0:0:0:
402,192,13328,1,0,0:0:0:0:
475,192,13328,1,0,0:0:0:0:
329,192,13328,1,0,0:0:0:0:
109,192,13328,1,2,0:0:0:0:
256,192,13328,1,0,0:0:0:0:
256,192,13465,1,0,0:0:0:0:
109,192,13465,1,0,0:0:0:0:
329,192,13601,1,0,0:0:0:0:
475,192,13601,1,0,0:0:0:0:
36,192,13601,1,8,0:0:0:0:
182,192,13601,1,0,0:0:0:0:
329,192,13737,1,0,0:0:0:0:
182,192,13737,1,0,0:0:0:0:
402,192,13874,1,0,0:0:0:0:
475,192,13874,1,0,0:0:0:0:
256,192,13874,1,0,0:0:0:0:
36,192,13874,1,2,0:0:0:0:
109,192,13874,1,0,0:0:0:0:
256,192,14010,1,0,0:0:0:0:
109,192,14010,1,0,0:0:0:0:
329,192,14146,1,0,0:0:0:0:
475,192,14146,1,0,0:0:0:0:
36,192,14146,1,8,0:0:0:0:
182,192,14146,1,0,0:0:0:0:
475,192,14283,1,0,0:0:0:0:
329,192,14283,1,0,0:0:0:0:
256,192,14419,1,0,0:0:0:0:
402,192,14419,1,0,0:0:0:0:
182,192,14419,1,0,0:0:0:0:
36,192,14419,1,2,0:0:0:0:
109,192,14419,1,0,0:0:0:0:
402,192,14555,1,0,0:0:0:0:
256,192,14555,1,0,0:0:0:0:
329,192,14692,1,0,0:0:0:0:
475,192,14692,1,0,0:0:0:0:
36,192,14692,1,8,0:0:0:0:
182,192,14692,1,0,0:0:0:0:
329,192,14828,1,0,0:0:0:0:
182,192,14828,1,0,0:0:0:0:
402,192,14965,1,0,0:0:0:0:
475,192,14965,1,0,0:0:0:0:
256,192,14965,1,0,0:0:0:0:
36,192,14965,1,2,0:0:0:0:
109,192,14965,1,0,0:0:0:0:
402,192,15101,1,0,0:0:0:0:
256,192,15101,1,0,0:0:0:0:
329,192,15237,1,0,0:0:0:0:
475,192,15237,1,0,0:0:0:0:
36,192,15237,1,8,0:0:0:0:
182,192,15237,1,0,0:0:0:0:
182,192,15374,1,0,0:0:0:0:
36,192,15374,1,0,0:0:0:0:
402,192,15510,1,0,0:0:0:0:
475,192,15510,1,0,0:0:0:0:
329,192,15510,1,0,0:0:0:0:
109,192,15510,1,2,0:0:0:0:
256,192,15510,1,0,0:0:0:0:
256,192,15646,1,0,0:0:0:0:
109,192,15646,1,0,0:0:0:0:
329,192,15783,1,0,0:0:0:0:
475,192,15783,1,0,0:0:0:0:
36,192,15783,1,8,0:0:0:0:
182,192,15783,1,0,0:0:0:0:
182,192,15919,1,0,0:0:0:0:
36,192,15919,1,0,0:0:0:0:
329,192,16055,1,0,0:0:0:0:
402,192,16055,1,0,0:0:0:0:
109,192,16055,1,2,0:0:0:0:
256,192,16055,1,0,0:0:0:0:
402,192,16192,1,0,0:0:0:0:
256,192,16192,1,0,0:0:0:0:
329,192,16328,1,0,0:0:0:0:
475,192,16328,1,0,0:0:0:0:
182,192,16328,1,0,0:0:0:0:
36,192,16328,1,2,0:0:0:0:
109,192,16328,1,0,0:0:0:0:
475,192,16465,1,0,0:0:0:0:
329,192,16465,1,8,0:0:0:0:
256,192,16601,1,0,0:0:0:0:
402,192,16601,1,0,0:0:0:0:
475,192,16601,1,0,0:0:0:0:
36,192,16601,1,2,0:0:0:0:
109,192,16601,1,0,0:0:0:0:
182,192,16601,1,0,0:0:0:0:
256,192,16737,1,8,0:0:0:0:
329,192,16874,1,0,0:0:0:0:
402,192,16874,1,0,0:0:0:0:
475,192,16874,1,0,0:0:0:0:
36,192,16874,1,2,0:0:0:0:
109,192,16874,1,0,0:0:0:0:
182,192,16874,1,0,0:0:0:0:
329,192,17010,1,0,0:0:0:0:
402,192,17010,1,0,0:0:0:0:
475,192,17010,1,0,0:0:0:0:
36,192,17010,1,2,0:0:0:0:
109,192,17010,1,0,0:0:0:0:
182,192,17010,1,0,0:0:0:0:
329,192,17146,1,0,0:0:0:0:
402,192,17146,1,0,0:0:0:0:
475,192,17146,1,0,0:0:0:0:
36,192,17146,1,2,0:0:0:0:
109,192,17146,1,0,0:0:0:0:
182,192,17146,1,0,0:0:0:0:
329,192,17283,1,0,0:0:0:0:
402,192,17283,1,0,0:0:0:0:
475,192,17283,1,0,0:0:0:0:
36,192,17283,1,2,0:0:0:0:
109,192,17283,1,0,0:0:0:0:
182,192,17283,1,0,0:0:0:0:
329,192,17419,1,0,0:0:0:0:
402,192,17419,1,0,0:0:0:0:
475,192,17419,1,0,0:0:0:0:
256,192,17419,1,0,0:0:0:0:
36,192,17419,1,4,0:0:0:0:
109,192,17419,1,8,0:0:0:0:
182,192,17419,1,0,0:0:0:0:
256,192,17555,1,0,0:0:0:0:
329,192,17692,1,0,0:0:0:0:
402,192,17692,1,0,0:0:0:0:
182,192,17692,1,0,0:0:0:0:
36,192,17692,1,2,0:0:0:0:
109,192,17692,1,0,0:0:0:0:
402,192,17828,1,0,0:0:0:0:
256,192,17828,1,0,0:0:0:0:
182,192,17965,1,0,0:0:0:0:
475,192,17965,1,0,0:0:0:0:
36,192,17965,1,8,0:0:0:0:
109,192,17965,1,0,0:0:0:0:
256,192,18101,1,0,0:0:0:0:
109,192,18101,1,0,0:0:0:0:
402,192,18237,1,0,0:0:0:0:
475,192,18237,1,0,0:0:0:0:
329,192,18237,1,0,0:0:0:0:
36,192,18237,1,2,0:0:0:0:
182,192,18237,1,0,0:0:0:0:
402,192,18374,1,0,0:0:0:0:
256,192,18374,1,0,0:0:0:0:
182,192,18510,1,0,0:0:0:0:
329,192,18510,1,0,0:0:0:0:
36,192,18510,1,8,0:0:0:0:
109,192,18510,1,0,0:0:0:0:
182,192,18646,1,0,0:0:0:0:
109,192,18646,1,0,0:0:0:0:
36,192,18646,1,0,0:0:0:0:
402,192,18783,1,0,0:0:0:0:
475,192,18783,1,0,0:0:0:0:
256,192,18783,1,2,0:0:0:0:
329,192,18783,1,0,0:0:0:0:
475,192,18919,1,0,0:0:0:0:
329,192,18919,1,0,0:0:0:0:
182,192,18919,1,0,0:0:0:0:
402,192,19055,1,0,0:0:0:0:
256,192,19055,1,0,0:0:0:0:
109,192,19055,1,8,0:0:0:0:
182,192,19192,1,0,0:0:0:0:
109,192,19192,1,0,0:0:0:0:
402,192,19328,1,0,0:0:0:0:
475,192,19328,1,0,0:0:0:0:
329,192,19328,1,0,0:0:0:0:
36,192,19328,1,2,0:0:0:0:
256,192,19328,1,0,0:0:0:0:
475,192,19465,1,0,0:0:0:0:
329,192,19465,1,0,0:0:0:0:
256,192,19601,1,0,0:0:0:0:
402,192,19601,1,0,0:0:0:0:
36,192,19601,1,8,0:0:0:0:
109,192,19601,1,0,0:0:0:0:
182,192,19737,1,0,0:0:0:0:
36,192,19737,1,0,0:0:0:0:
402,192,19874,1,0,0:0:0:0:
475,192,19874,1,0,0:0:0:0:
329,192,19874,1,0,0:0:0:0:
109,192,19874,1,2,0:0:0:0:
256,192,19874,1,0,0:0:0:0:
475,192,20010,1,0,0:0:0:0:
402,192,20010,1,0,0:0:0:0:
256,192,20010,1,0,0:0:0:0:
329,192,20146,1,0,0:0:0:0:
182,192,20146,1,0,0:0:0:0:
36,192,20146,1,8,0:0:0:0:
256,192,20283,1,0,0:0:0:0:
109,192,20283,1,0,0:0:0:0:
402,192,20419,1,0,0:0:0:0:
475,192,20419,1,0,0:0:0:0:
329,192,20419,1,0,0:0:0:0:
109,192,20419,1,2,0:0:0:0:
182,192,20419,1,0,0:0:0:0:
475,192,20555,1,0,0:0:0:0:
329,192,20555,1,0,0:0:0:0:
36,192,20555,1,0,0:0:0:0:
402,192,20692,1,0,0:0:0:0:
256,192,20692,1,0,0:0:0:0:
109,192,20692,1,8,0:0:0:0:
329,192,20828,1,0,0:0:0:0:
182,192,20828,1,0,0:0:0:0:
402,192,20965,1,0,0:0:0:0:
475,192,20965,1,0,0:0:0:0:
256,192,20965,1,0,0:0:0:0:
36,192,20965,1,2,0:0:0:0:
109,192,20965,1,0,0:0:0:0:
256,192,21101,1,0,0:0:0:0:
36,192,21101,1,0,0:0:0:0:
402,192,21237,1,0,0:0:0:0:
475,192,21237,1,0,0:0:0:0:
329,192,21237,1,0,0:0:0:0:
109,192,21237,1,8,0:0:0:0:
182,192,21237,1,0,0:0:0:0:
475,192,21374,1,0,0:0:0:0:
329,192,21374,1,0,0:0:0:0:
182,192,21374,1,0,0:0:0:0:
256,192,21510,1,0,0:0:0:0:
402,192,21510,1,0,0:0:0:0:
36,192,21510,1,2,0:0:0:0:
109,192,21510,1,0,0:0:0:0:
109,192,21646,1,0,0:0:0:0:
36,192,21646,1,0,0:0:0:0:
329,192,21783,1,0,0:0:0:0:
402,192,21783,1,0,0:0:0:0:
475,192,21783,1,0,0:0:0:0:
256,192,21783,1,0,0:0:0:0:
36,192,21783,1,4,0:0:0:0:
109,192,21783,1,8,0:0:0:0:
182,192,21783,1,0,0:0:0:0:
475,192,21919,1,0,0:0:0:0:
329,192,21919,1,0,0:0:0:0:
256,192,22055,1,0,0:0:0:0:
402,192,22055,1,0,0:0:0:0:
182,192,22055,1,0,0:0:0:0:
36,192,22055,1,2,0:0:0:0:
109,192,22055,1,0,0:0:0:0:
329,192,22192,1,0,0:0:0:0:
182,192,22192,1,0,0:0:0:0:
402,192,22328,1,0,0:0:0:0:
475,192,22328,1,0,0:0:0:0:
36,192,22328,1,8,0:0:0:0:
256,192,22328,1,0,0:0:0:0:
475,192,22465,1,0,0:0:0:0:
109,192,22465,1,0,0:0:0:0:
329,192,22601,1,0,0:0:0:0:
402,192,22601,1,0,0:0:0:0:
256,192,22601,1,0,0:0:0:0:
36,192,22601,1,2,0:0:0:0:
182,192,22601,1,0,0:0:0:0:
256,192,22737,1,0,0:0:0:0:
182,192,22737,1,0,0:0:0:0:
109,192,22737,1,0,0:0:0:0:
402,192,22874,1,0,0:0:0:0:
475,192,22874,1,0,0:0:0:0:
36,192,22874,1,8,0:0:0:0:
329,192,22874,1,0,0:0:0:0:
402,192,23010,1,0,0:0:0:0:
256,192,23010,1,0,0:0:0:0:
329,192,23146,1,0,0:0:0:0:
475,192,23146,1,0,0:0:0:0:
182,192,23146,1,0,0:0:0:0:
36,192,23146,1,2,0:0:0:0:
109,192,23146,1,0,0:0:0:0:
256,192,23283,1,0,0:0:0:0:
109,192,23283,1,0,0:0:0:0:
402,192,23419,1,0,0:0:0:0:
182,192,23419,1,0,0:0:0:0:
36,192,23419,1,8,0:0:0:0:
329,192,23555,1,0,0:0:0:0:
109,192,23555,1,0,0:0:0:0:
402,192,23692,1,0,0:0:0:0:
475,192,23692,1,0,0:0:0:0:
256,192,23692,1,0,0:0:0:0:
36,192,23692,1,2,0:0:0:0:
182,192,23692,1,0,0:0:0:0:
475,192,23828,1,0,0:0:0:0:
329,192,23828,1,0,0:0:0:0:
256,192,23965,1,0,0:0:0:0:
402,192,23965,1,0,0:0:0:0:
109,192,23965,1,8,0:0:0:0:
182,192,23965,1,0,0:0:0:0:
182,192,24101,1,0,0:0:0:0:
36,192,24101,1,0,0:0:0:0:
402,192,24237,1,0,0:0:0:0:
475,192,24237,1,0,0:0:0:0:
329,192,24237,1,0,0:0:0:0:
109,192,24237,1,2,0:0:0:0:
256,192,24237,1,0,0:0:0:0:
182,192,24374,1,0,0:0:0:0:
36,192,24374,1,0,0:0:0:0:
402,192,24510,1,0,0:0:0:0:
475,192,24510,1,0,0:0:0:0:
256,192,24510,1,8,0:0:0:0:
329,192,24510,1,0,0:0:0:0:
475,192,24646,1,0,0:0:0:0:
402,192,24646,1,0,0:0:0:0:
329,192,24646,1,0,0:0:0:0:
182,192,24783,1,0,0:0:0:0:
256,192,24783,1,0,0:0:0:0:
36,192,24783,1,2,0:0:0:0:
109,192,24783,1,0,0:0:0:0:
475,192,24919,1,0,0:0:0:0:
329,192,24919,1,0,0:0:0:0:
182,192,24919,1,0,0:0:0:0:
402,192,25055,1,0,0:0:0:0:
256,192,25055,1,0,0:0:0:0:
109,192,25055,1,8,0:0:0:0:
329,192,25192,1,0,0:0:0:0:
182,192,25192,1,0,0:0:0:0:
402,192,25328,1,0,0:0:0:0:
475,192,25328,1,0,0:0:0:0:
256,192,25328,1,0,0:0:0:0:
36,192,25328,1,2,0:0:0:0:
109,192,25328,1,0,0:0:0:0:
256,192,25465,1,0,0:0:0:0:
36,192,25465,1,0,0:0:0:0:
402,192,25601,1,0,0:0:0:0:
475,192,25601,1,0,0:0:0:0:
182,192,25601,1,8,0:0:0:0:
329,192,25601,1,0,0:0:0:0:
475,192,25737,1,0,0:0:0:0:
329,192,25737,1,0,0:0:0:0:
182,192,25737,1,0,0:0:0:0:
256,192,25874,1,0,0:0:0:0:
402,192,25874,1,0,0:0:0:0:
36,192,25874,1,2,0:0:0:0:
109,192,25874,1,0,0:0:0:0:
109,192,26010,1,0,0:0:0:0:
36,192,26010,1,0,0:0:0:0:
329,192,26146,1,0,0:0:0:0:
402,192,26146,1,0,0:0:0:0:
475,192,26146,1,0,0:0:0:0:
256,192,26146,1,0,0:0:0:0:
36,192,26146,1,4,0:0:0:0:
109,192,26146,1,8,0:0:0:0:
182,192,26146,1,0,0:0:0:0:
475,192,26283,1,0,0:0:0:0:
329,192,26283,1,0,0:0:0:0:
256,192,26419,1,0,0:0:0:0:
402,192,26419,1,0,0:0:0:0:
182,192,26419,1,0,0:0:0:0:
36,192,26419,1,2,0:0:0:0:
109,192,26419,1,0,0:0:0:0:
329,192,26555,1,0,0:0:0:0:
182,192,26555,1,0,0:0:0:0:
256,192,26692,1,0,0:0:0:0:
402,192,26692,1,0,0:0:0:0:
36,192,26692,1,8,0:0:0:0:
109,192,26692,1,0,0:0:0:0:
402,192,26828,1,0,0:0:0:0:
182,192,26828,1,0,0:0:0:0:
329,192,26965,1,0,0:0:0:0:
475,192,26965,1,0,0:0:0:0:
256,192,26965,1,0,0:0:0:0:
36,192,26965,1,2,0:0:0:0:
109,192,26965,1,0,0:0:0:0:
182,192,27101,1,0,0:0:0:0:
36,192,27101,1,0,0:0:0:0:
402,192,27237,1,0,0:0:0:0:
475,192,27237,1,0,0:0:0:0:
109,192,27237,1,8,0:0:0:0:
256,192,27237,1,0,0:0:0:0:
475,192,27374,1,0,0:0:0:0:
402,192,27374,1,0,0:0:0:0:
329,192,27374,1,0,0:0:0:0:
182,192,27510,1,0,0:0:0:0:
256,192,27510,1,0,0:0:0:0:
36,192,27510,1,2,0:0:0:0:
109,192,27510,1,0,0:0:0:0:
475,192,27646,1,0,0:0:0:0:
329,192,27646,1,0,0:0:0:0:
182,192,27646,1,0,0:0:0:0:
256,192,27783,1,0,0:0:0:0:
109,192,27783,1,0,0:0:0:0:
36,192,27783,1,8,0:0:0:0:
402,192,27919,1,0,0:0:0:0:
182,192,27919,1,0,0:0:0:0:
36,192,27919,1,0,0:0:0:0:
329,192,28055,1,0,0:0:0:0:
475,192,28055,1,0,0:0:0:0:
109,192,28055,1,2,0:0:0:0:
256,192,28055,1,0,0:0:0:0:
402,192,28192,1,0,0:0:0:0:
256,192,28192,1,0,0:0:0:0:
182,192,28328,1,0,0:0:0:0:
329,192,28328,1,0,0:0:0:0:
36,192,28328,1,8,0:0:0:0:
109,192,28328,1,0,0:0:0:0:
329,192,28465,1,0,0:0:0:0:
182,192,28465,1,0,0:0:0:0:
402,192,28601,1,0,0:0:0:0:
475,192,28601,1,0,0:0:0:0:
256,192,28601,1,0,0:0:0:0:
36,192,28601,1,2,0:0:0:0:
109,192,28601,1,0,0:0:0:0:
475,192,28737,1,0,0:0:0:0:
329,192,28737,1,0,0:0:0:0:
256,192,28874,1,0,0:0:0:0:
402,192,28874,1,0,0:0:0:0:
36,192,28874,1,8,0:0:0:0:
109,192,28874,1,0,0:0:0:0:
182,192,29010,1,0,0:0:0:0:
36,192,29010,1,0,0:0:0:0:
402,192,29146,1,0,0:0:0:0:
475,192,29146,1,0,0:0:0:0:
329,192,29146,1,0,0:0:0:0:
109,192,29146,1,2,0:0:0:0:
256,192,29146,1,0,0:0:0:0:
475,192,29283,1,0,0:0:0:0:
329,192,29283,1,0,0:0:0:0:
182,192,29419,1,0,0:0:0:0:
256,192,29419,1,0,0:0:0:0:
36,192,29419,1,8,0:0:0:0:
109,192,29419,1,0,0:0:0:0:
402,192,29555,1,0,0:0:0:0:
109,192,29555,1,0,0:0:0:0:
36,192,29555,1,0,0:0:0:0:
402,192,29692,1,0,0:0:0:0:
475,192,29692,1,0,0:0:0:0:
329,192,29692,1,0,0:0:0:0:
182,192,29692,1,2,0:0:0:0:
256,192,29692,1,0,0:0:0:0:
182,192,29828,1,0,0:0:0:0:
109,192,29828,1,0,0:0:0:0:
36,192,29828,1,0,0:0:0:0:
402,192,29965,1,0,0:0:0:0:
475,192,29965,1,0,0:0:0:0:
329,192,29965,1,0,0:0:0:0:
36,192,29965,1,8,0:0:0:0:
109,192,29965,1,0,0:0:0:0:
475,192,30101,1,0,0:0:0:0:
402,192,30101,1,0,0:0:0:0:
329,192,30101,1,0,0:0:0:0:
182,192,30237,1,0,0:0:0:0:
256,192,30237,1,0,0:0:0:0:
36,192,30237,1,2,0:0:0:0:
109,192,30237,1,0,0:0:0:0:
402,192,30374,1,0,0:0:0:0:
329,192,30374,1,0,0:0:0:0:
329,192,30510,1,0,0:0:0:0:
402,192,30510,1,0,0:0:0:0:
475,192,30510,1,0,0:0:0:0:
256,192,30510,1,0,0:0:0:0:
36,192,30510,1,4,0:0:0:0:
109,192,30510,1,8,0:0:0:0:
182,192,30510,1,0,0:0:0:0:
182,192,30646,1,0,0:0:0:0:
36,192,30646,1,0,0:0:0:0:
402,192,30783,1,0,0:0:0:0:
475,192,30783,1,0,0:0:0:0:
109,192,30783,1,2,0:0:0:0:
256,192,30783,1,0,0:0:0:0:
475,192,30919,1,0,0:0:0:0:
329,192,30919,1,0,0:0:0:0:
402,192,31055,1,0,0:0:0:0:
256,192,31055,1,0,0:0:0:0:
109,192,31055,1,8,0:0:0:0:
329,192,31192,1,0,0:0:0:0:
109,192,31192,1,0,0:0:0:0:
402,192,31328,1,0,0:0:0:0:
475,192,31328,1,0,0:0:0:0:
36,192,31328,1,2,0:0:0:0:
182,192,31328,1,0,0:0:0:0:
402,192,31465,1,0,0:0:0:0:
256,192,31465,1,0,0:0:0:0:
475,192,31601,1,0,0:0:0:0:
329,192,31601,1,0,0:0:0:0:
109,192,31601,1,8,0:0:0:0:
256,192,31737,1,0,0:0:0:0:
36,192,31737,1,0,0:0:0:0:
329,192,31874,1,0,0:0:0:0:
402,192,31874,1,0,0:0:0:0:
475,192,31874,1,0,0:0:0:0:
36,192,31874,1,2,0:0:0:0:
109,192,31874,1,0,0:0:0:0:
182,192,31874,1,0,0:0:0:0:
329,192,32010,1,0,0:0:0:0:
182,192,32010,1,0,0:0:0:0:
402,192,32146,1,0,0:0:0:0:
475,192,32146,1,0,0:0:0:0:
256,192,32146,1,0,0:0:0:0:
36,192,32146,1,8,0:0:0:0:
109,192,32146,1,0,0:0:0:0:
402,192,32283,1,0,0:0:0:0:
475,192,32283,1,0,0:0:0:0:
256,192,32283,1,0,0:0:0:0:
329,192,32283,1,0,0:0:0:0:
182,192,32419,1,0,0:0:0:0:
256,192,32419,1,0,0:0:0:0:
36,192,32419,1,2,0:0:0:0:
109,192,32419,1,0,0:0:0:0:
109,192,32555,1,0,0:0:0:0:
36,192,32555,1,0,0:0:0:0:
402,192,32692,1,0,0:0:0:0:
475,192,32692,1,0,0:0:0:0:
329,192,32692,1,0,0:0:0:0:
182,192,32692,1,8,0:0:0:0:
256,192,32692,1,0,0:0:0:0:
475,192,32828,1,0,0:0:0:0:
402,192,32828,1,0,0:0:0:0:
402,192,32965,1,0,0:0:0:0:
475,192,32965,1,0,0:0:0:0:
182,192,32965,1,2,0:0:0:0:
256,192,32965,1,0,0:0:0:0:
329,192,33101,1,0,0:0:0:0:
256,192,33101,1,0,0:0:0:0:
182,192,33237,1,0,0:0:0:0:
109,192,33237,1,0,0:0:0:0:
36,192,33237,1,8,0:0:0:0:
109,192,33374,1,0,0:0:0:0:
36,192,33374,1,0,0:0:0:0:
256,192,33510,1,0,0:0:0:0:
329,192,33510,1,0,0:0:0:0:
36,192,33510,1,2,0:0:0:0:
109,192,33510,1,0,0:0:0:0:
256,192,33646,1,0,0:0:0:0:
182,192,33646,1,0,0:0:0:0:
475,192,33783,1,0,0:0:0:0:
402,192,33783,1,0,0:0:0:0:
329,192,33783,1,2,0:0:0:0:
182,192,33851,1,0,0:0:0:0:
109,192,33851,1,0,0:0:0:0:
36,192,33851,1,8,0:0:0:0:
475,192,33919,1,0,0:0:0:0:
402,192,33919,1,0,0:0:0:0:
329,192,33919,1,2,0:0:0:0:
475,192,34055,1,0,0:0:0:0:
402,192,34055,1,0,0:0:0:0:
329,192,34055,1,2,0:0:0:0:
475,192,34192,1,0,0:0:0:0:
402,192,34192,1,0,0:0:0:0:
329,192,34192,1,2,0:0:0:0:
256,192,34260,1,8,0:0:0:0:
402,192,34328,1,0,0:0:0:0:
475,192,34328,1,0,0:0:0:0:
182,192,34328,1,0,0:0:0:0:
36,192,34328,1,2,0:0:0:0:
109,192,34328,1,0,0:0:0:0:
182,192,34465,1,0,0:0:0:0:
109,192,34465,1,0,0:0:0:0:
36,192,34465,1,2,0:0:0:0:
182,192,34601,1,0,0:0:0:0:
109,192,34601,1,0,0:0:0:0:
36,192,34601,1,2,0:0:0:0:
182,192,34737,1,0,0:0:0:0:
109,192,34737,1,0,0:0:0:0:
36,192,34737,1,2,0:0:0:0:
329,192,34874,1,0,0:0:0:0:
402,192,34874,1,0,0:0:0:0:
475,192,34874,1,0,0:0:0:0:
36,192,34874,1,8,0:0:0:0:
109,192,34874,1,0,0:0:0:0:
256,192,34874,1,0,0:0:0:0:
329,192,35146,1,0,0:0:0:0:
475,192,35146,1,0,0:0:0:0:
36,192,35146,1,8,0:0:0:0:
182,192,35146,1,0,0:0:0:0:
329,192,35283,1,0,0:0:0:0:
475,192,35283,1,0,0:0:0:0:
109,192,35283,1,8,0:0:0:0:
182,192,35283,1,0,0:0:0:0:
329,192,35419,1,0,0:0:0:0:
475,192,35419,1,0,0:0:0:0:
36,192,35419,1,8,0:0:0:0:
182,192,35419,1,0,0:0:0:0:
329,192,35692,1,0,0:0:0:0:
475,192,35692,1,0,0:0:0:0:
36,192,35692,1,8,0:0:0:0:
182,192,35692,1,0,0:0:0:0:
329,192,35965,1,0,0:0:0:0:
402,192,35965,1,0,0:0:0:0:
475,192,35965,1,0,0:0:0:0:
256,192,35965,1,0,0:0:0:0:
36,192,35965,1,2,0:0:0:0:
109,192,35965,1,0,0:0:0:0:
182,192,35965,1,0,0:0:0:0:
182,192,36101,1,0,0:0:0:0:
109,192,36101,1,0,0:0:0:0:
36,192,36101,1,8,0:0:0:0:
182,192,36237,1,0,0:0:0:0:
402,192,36237,1,0,0:0:0:0:
36,192,36237,1,8,0:0:0:0:
109,192,36237,1,0,0:0:0:0:
182,192,36374,1,0,0:0:0:0:
329,192,36374,1,0,0:0:0:0:
36,192,36374,1,8,0:0:0:0:
109,192,36374,1,0,0:0:0:0:
182,192,36510,1,0,0:0:0:0:
109,192,36510,1,0,0:0:0:0:
36,192,36510,1,8,0:0:0:0:
182,192,36783,1,0,0:0:0:0:
109,192,36783,1,0,0:0:0:0:
36,192,36783,1,8,0:0:0:0:
329,192,37055,1,0,0:0:0:0:
402,192,37055,1,0,0:0:0:0:
475,192,37055,1,0,0:0:0:0:
256,192,37055,1,0,0:0:0:0:
36,192,37055,1,4,0:0:0:0:
109,192,37055,1,0,0:0:0:0:
182,192,37055,1,0,0:0:0:0:
475,192,37192,1,0,0:0:0:0:
402,192,37192,1,0,0:0:0:0:
329,192,37192,1,8,0:0:0:0:
402,192,37328,1,0,0:0:0:0:
475,192,37328,1,0,0:0:0:0:
182,192,37328,1,8,0:0:0:0:
329,192,37328,1,0,0:0:0:0:
402,192,37465,1,0,0:0:0:0:
475,192,37465,1,0,0:0:0:0:
36,192,37465,1,8,0:0:0:0:
329,192,37465,1,0,0:0:0:0:
402,192,37601,1,0,0:0:0:0:
475,192,37601,1,0,0:0:0:0:
182,192,37601,1,8,0:0:0:0:
329,192,37601,1,0,0:0:0:0:
402,192,37874,1,0,0:0:0:0:
475,192,37874,1,0,0:0:0:0:
182,192,37874,1,8,0:0:0:0:
329,192,37874,1,0,0:0:0:0:
329,192,38146,1,0,0:0:0:0:
402,192,38146,1,0,0:0:0:0:
475,192,38146,1,0,0:0:0:0:
256,192,38146,1,0,0:0:0:0:
36,192,38146,1,2,0:0:0:0:
109,192,38146,1,0,0:0:0:0:
182,192,38146,1,0,0:0:0:0:
182,192,38283,1,0,0:0:0:0:
109,192,38283,1,0,0:0:0:0:
36,192,38283,1,8,0:0:0:0:
182,192,38419,1,0,0:0:0:0:
109,192,38419,1,0,0:0:0:0:
36,192,38419,1,8,0:0:0:0:
182,192,38555,1,0,0:0:0:0:
109,192,38555,1,0,0:0:0:0:
36,192,38555,1,8,0:0:0:0:
182,192,38692,1,0,0:0:0:0:
109,192,38692,1,0,0:0:0:0:
36,192,38692,1,8,0:0:0:0:
329,192,38965,1,0,0:0:0:0:
256,192,38965,1,0,0:0:0:0:
182,192,38965,1,8,0:0:0:0:
329,192,39237,1,0,0:0:0:0:
402,192,39237,1,0,0:0:0:0:
475,192,39237,1,0,0:0:0:0:
256,192,39237,1,0,0:0:0:0:
36,192,39237,1,4,0:0:0:0:
109,192,39237,1,8,0:0:0:0:
182,192,39237,1,0,0:0:0:0:
475,192,39374,1,0,0:0:0:0:
329,192,39374,1,0,0:0:0:0:
256,192,39510,1,0,0:0:0:0:
402,192,39510,1,0,0:0:0:0:
182,192,39510,1,0,0:0:0:0:
36,192,39510,1,2,0:0:0:0:
109,192,39510,1,0,0:0:0:0:
256,192,39646,1,0,0:0:0:0:
109,192,39646,1,0,0:0:0:0:
329,192,39783,1,0,0:0:0:0:
475,192,39783,1,0,0:0:0:0:
36,192,39783,1,8,0:0:0:0:
182,192,39783,1,0,0:0:0:0:
475,192,39919,1,0,0:0:0:0:
329,192,39919,1,0,0:0:0:0:
256,192,40055,1,0,0:0:0:0:
402,192,40055,1,0,0:0:0:0:
182,192,40055,1,0,0:0:0:0:
36,192,40055,1,2,0:0:0:0:
109,192,40055,1,0,0:0:0:0:
475,192,40192,1,0,0:0:0:0:
182,192,40192,1,0,0:0:0:0:
36,192,40192,1,0,0:0:0:0:
402,192,40328,1,0,0:0:0:0:
256,192,40328,1,0,0:0:0:0:
109,192,40328,1,8,0:0:0:0:
329,192,40465,1,0,0:0:0:0:
182,192,40465,1,0,0:0:0:0:
402,192,40601,1,0,0:0:0:0:
475,192,40601,1,0,0:0:0:0:
256,192,40601,1,0,0:0:0:0:
36,192,40601,1,2,0:0:0:0:
109,192,40601,1,0,0:0:0:0:
475,192,40737,1,0,0:0:0:0:
329,192,40737,1,0,0:0:0:0:
256,192,40874,1,0,0:0:0:0:
402,192,40874,1,0,0:0:0:0:
36,192,40874,1,8,0:0:0:0:
182,192,40874,1,0,0:0:0:0:
182,192,41010,1,0,0:0:0:0:
36,192,41010,1,0,0:0:0:0:
402,192,41146,1,0,0:0:0:0:
475,192,41146,1,0,0:0:0:0:
329,192,41146,1,0,0:0:0:0:
109,192,41146,1,2,0:0:0:0:
256,192,41146,1,0,0:0:0:0:
475,192,41283,1,0,0:0:0:0:
329,192,41283,1,0,0:0:0:0:
256,192,41419,1,0,0:0:0:0:
402,192,41419,1,0,0:0:0:0:
36,192,41419,1,8,0:0:0:0:
109,192,41419,1,0,0:0:0:0:
329,192,41555,1,0,0:0:0:0:
182,192,41555,1,0,0:0:0:0:
402,192,41692,1,0,0:0:0:0:
475,192,41692,1,0,0:0:0:0:
256,192,41692,1,0,0:0:0:0:
36,192,41692,1,2,0:0:0:0:
109,192,41692,1,0,0:0:0:0:
182,192,41828,1,0,0:0:0:0:
109,192,41828,1,0,0:0:0:0:
36,192,41828,1,0,0:0:0:0:
256,192,41965,1,0,0:0:0:0:
109,192,41965,1,0,0:0:0:0:
36,192,41965,1,8,0:0:0:0:
475,192,42101,1,0,0:0:0:0:
402,192,42101,1,0,0:0:0:0:
329,192,42101,1,0,0:0:0:0:
402,192,42237,1,0,0:0:0:0:
475,192,42237,1,0,0:0:0:0:
329,192,42237,1,0,0:0:0:0:
182,192,42237,1,2,0:0:0:0:
256,192,42237,1,0,0:0:0:0:
475,192,42374,1,0,0:0:0:0:
402,192,42374,1,0,0:0:0:0:
182,192,42510,1,0,0:0:0:0:
109,192,42510,1,0,0:0:0:0:
36,192,42510,1,2,0:0:0:0:
475,192,42601,1,0,0:0:0:0:
402,192,42601,1,0,0:0:0:0:
329,192,42601,1,2,0:0:0:0:
256,192,42692,1,0,0:0:0:0:
182,192,42692,1,0,0:0:0:0:
109,192,42692,1,2,0:0:0:0:
475,192,42783,1,0,0:0:0:0:
402,192,42783,1,0,0:0:0:0:
329,192,42783,1,2,0:0:0:0:
182,192,42874,1,0,0:0:0:0:
109,192,42874,1,0,0:0:0:0:
36,192,42874,1,2,0:0:0:0:
402,192,42965,1,0,0:0:0:0:
329,192,42965,1,0,0:0:0:0:
256,192,42965,1,2,0:0:0:0:
182,192,43055,1,0,0:0:0:0:
109,192,43055,1,0,0:0:0:0:
36,192,43055,1,8,0:0:0:0:
329,192,43146,1,0,0:0:0:0:
402,192,43237,1,0,0:0:0:0:
475,192,43328,1,0,0:0:0:0:
109,192,43328,1,8,0:0:0:0:
182,192,43419,1,0,0:0:0:0:
256,192,43510,1,0,0:0:0:0:
329,192,43601,1,0,0:0:0:0:
402,192,43601,1,0,0:0:0:0:
475,192,43601,1,0,0:0:0:0:
36,192,43601,1,2,0:0:0:0:
109,192,43601,1,4,0:0:0:0:
182,192,43601,1,0,0:0:0:0:
329,192,43737,1,0,0:0:0:0:
402,192,43737,1,0,0:0:0:0:
475,192,43737,1,0,0:0:0:0:
36,192,43737,1,2,0:0:0:0:
109,192,43737,1,0,0:0:0:0:
182,192,43737,1,0,0:0:0:0:
329,192,43874,1,0,0:0:0:0:
402,192,43874,1,0,0:0:0:0:
475,192,43874,1,0,0:0:0:0:
36,192,43874,1,2,0:0:0:0:
109,192,43874,1,0,0:0:0:0:
182,192,43874,1,0,0:0:0:0:
36,192,44146,1,8,0:0:0:0:
329,192,44419,1,0,0:0:0:0:
402,192,44419,1,0,0:0:0:0:
475,192,44419,1,0,0:0:0:0:
109,192,44419,1,2,0:0:0:0:
182,192,44419,1,0,0:0:0:0:
256,192,44419,1,0,0:0:0:0:
329,192,44555,1,0,0:0:0:0:
402,192,44555,1,0,0:0:0:0:
475,192,44555,1,0,0:0:0:0:
109,192,44555,1,2,0:0:0:0:
182,192,44555,1,0,0:0:0:0:
256,192,44555,1,0,0:0:0:0:
256,192,44692,1,8,0:0:0:0:
329,192,44828,1,0,0:0:0:0:
402,192,44828,1,0,0:0:0:0:
475,192,44828,1,0,0:0:0:0:
36,192,44828,1,2,0:0:0:0:
109,192,44828,1,0,0:0:0:0:
182,192,44828,1,0,0:0:0:0:
329,192,44965,1,0,0:0:0:0:
402,192,44965,1,0,0:0:0:0:
475,192,44965,1,0,0:0:0:0:
36,192,44965,1,2,0:0:0:0:
109,192,44965,1,0,0:0:0:0:
182,192,44965,1,0,0:0:0:0:
256,192,45237,1,0,0:0:0:0:
329,192,45237,1,0,0:0:0:0:
402,192,45237,1,0,0:0:0:0:
36,192,45237,1,2,0:0:0:0:
109,192,45237,1,0,0:0:0:0:
182,192,45237,1,0,0:0:0:0:
36,192,45374,1,0,0:0:0:0:
329,192,45510,1,0,0:0:0:0:
402,192,45510,1,0,0:0:0:0:
475,192,45510,1,0,0:0:0:0:
109,192,45510,1,2,0:0:0:0:
182,192,45510,1,0,0:0:0:0:
256,192,45510,1,0,0:0:0:0:
256,192,45646,1,2,0:0:0:0:
329,192,45783,1,0,0:0:0:0:
402,192,45783,1,0,0:0:0:0:
475,192,45783,1,0,0:0:0:0:
36,192,45783,1,2,0:0:0:0:
109,192,45783,1,0,0:0:0:0:
182,192,45783,1,0,0:0:0:0:
329,192,45919,1,0,0:0:0:0:
402,192,45919,1,0,0:0:0:0:
475,192,45919,1,0,0:0:0:0:
36,192,45919,1,2,0:0:0:0:
109,192,45919,1,0,0:0:0:0:
182,192,45919,1,0,0:0:0:0:
329,192,46055,1,0,0:0:0:0:
402,192,46055,1,0,0:0:0:0:
475,192,46055,1,0,0:0:0:0:
36,192,46055,1,2,0:0:0:0:
109,192,46055,1,0,0:0:0:0:
182,192,46055,1,0,0:0:0:0:
36,192,46328,1,8,0:0:0:0:
329,192,46601,1,0,0:0:0:0:
402,192,46601,1,0,0:0:0:0:
475,192,46601,1,0,0:0:0:0:
109,192,46601,1,2,0:0:0:0:
182,192,46601,1,0,0:0:0:0:
256,192,46601,1,0,0:0:0:0:
329,192,46737,1,0,0:0:0:0:
402,192,46737,1,0,0:0:0:0:
475,192,46737,1,0,0:0:0:0:
109,192,46737,1,2,0:0:0:0:
182,192,46737,1,0,0:0:0:0:
256,192,46737,1,0,0:0:0:0:
329,192,46874,1,8,0:0:0:0:
256,192,47010,1,0,0:0:0:0:
402,192,47010,1,0,0:0:0:0:
475,192,47010,1,0,0:0:0:0:
36,192,47010,1,2,0:0:0:0:
109,192,47010,1,0,0:0:0:0:
182,192,47010,1,0,0:0:0:0:
256,192,47146,1,0,0:0:0:0:
402,192,47146,1,0,0:0:0:0:
475,192,47146,1,0,0:0:0:0:
36,192,47146,1,2,0:0:0:0:
109,192,47146,1,0,0:0:0:0:
182,192,47146,1,0,0:0:0:0:
329,192,47419,1,0,0:0:0:0:
402,192,47419,1,0,0:0:0:0:
475,192,47419,1,0,0:0:0:0:
109,192,47419,1,2,0:0:0:0:
182,192,47419,1,0,0:0:0:0:
256,192,47419,1,0,0:0:0:0:
475,192,47555,1,0,0:0:0:0:
256,192,47692,1,0,0:0:0:0:
329,192,47692,1,0,0:0:0:0:
402,192,47692,1,0,0:0:0:0:
36,192,47692,1,2,0:0:0:0:
109,192,47692,1,0,0:0:0:0:
182,192,47692,1,0,0:0:0:0:
36,192,47828,1,0,0:0:0:0:
329,192,47965,1,0,0:0:0:0:
402,192,47965,1,0,0:0:0:0:
475,192,47965,1,0,0:0:0:0:
109,192,47965,1,2,0:0:0:0:
182,192,47965,1,0,0:0:0:0:
256,192,47965,1,0,0:0:0:0:
329,192,48101,1,0,0:0:0:0:
402,192,48101,1,0,0:0:0:0:
475,192,48101,1,0,0:0:0:0:
109,192,48101,1,2,0:0:0:0:
182,192,48101,1,0,0:0:0:0:
256,192,48101,1,0,0:0:0:0:
329,192,48237,1,0,0:0:0:0:
402,192,48237,1,0,0:0:0:0:
475,192,48237,1,0,0:0:0:0:
109,192,48237,1,2,0:0:0:0:
182,192,48237,1,0,0:0:0:0:
256,192,48237,1,0,0:0:0:0:
256,192,48510,1,8,0:0:0:0:
329,192,48783,1,0,0:0:0:0:
402,192,48783,1,0,0:0:0:0:
475,192,48783,1,0,0:0:0:0:
36,192,48783,1,2,0:0:0:0:
109,192,48783,1,0,0:0:0:0:
182,192,48783,1,0,0:0:0:0:
329,192,48919,1,0,0:0:0:0:
402,192,48919,1,0,0:0:0:0:
475,192,48919,1,0,0:0:0:0:
36,192,48919,1,2,0:0:0:0:
109,192,48919,1,0,0:0:0:0:
182,192,48919,1,0,0:0:0:0:
182,192,49055,1,8,0:0:0:0:
329,192,49192,1,0,0:0:0:0:
402,192,49192,1,0,0:0:0:0:
475,192,49192,1,0,0:0:0:0:
36,192,49192,1,2,0:0:0:0:
109,192,49192,1,0,0:0:0:0:
256,192,49192,1,0,0:0:0:0:
329,192,49328,1,0,0:0:0:0:
402,192,49328,1,0,0:0:0:0:
475,192,49328,1,0,0:0:0:0:
36,192,49328,1,2,0:0:0:0:
109,192,49328,1,0,0:0:0:0:
256,192,49328,1,0,0:0:0:0:
256,192,49601,1,0,0:0:0:0:
329,192,49601,1,0,0:0:0:0:
402,192,49601,1,0,0:0:0:0:
36,192,49601,1,2,0:0:0:0:
109,192,49601,1,4,0:0:0:0:
182,192,49601,1,0,0:0:0:0:
182,192,49737,1,0,0:0:0:0:
329,192,49874,1,0,0:0:0:0:
402,192,49874,1,0,0:0:0:0:
475,192,49874,1,0,0:0:0:0:
36,192,49874,1,2,0:0:0:0:
109,192,49874,1,0,0:0:0:0:
256,192,49874,1,0,0:0:0:0:
329,192,50010,1,2,0:0:0:0:
256,192,50146,1,0,0:0:0:0:
402,192,50146,1,0,0:0:0:0:
475,192,50146,1,0,0:0:0:0:
36,192,50146,1,2,0:0:0:0:
109,192,50146,1,0,0:0:0:0:
182,192,50146,1,0,0:0:0:0:
256,192,50283,1,0,0:0:0:0:
402,192,50283,1,0,0:0:0:0:
475,192,50283,1,0,0:0:0:0:
36,192,50283,1,2,0:0:0:0:
109,192,50283,1,0,0:0:0:0:
182,192,50283,1,0,0:0:0:0:
256,192,50419,1,0,0:0:0:0:
402,192,50419,1,0,0:0:0:0:
475,192,50419,1,0,0:0:0:0:
36,192,50419,1,2,0:0:0:0:
109,192,50419,1,0,0:0:0:0:
182,192,50419,1,0,0:0:0:0:
36,192,50692,1,8,0:0:0:0:
329,192,50965,1,0,0:0:0:0:
402,192,50965,1,0,0:0:0:0:
475,192,50965,1,0,0:0:0:0:
109,192,50965,1,2,0:0:0:0:
182,192,50965,1,0,0:0:0:0:
256,192,50965,1,0,0:0:0:0:
329,192,51101,1,0,0:0:0:0:
402,192,51101,1,0,0:0:0:0:
475,192,51101,1,0,0:0:0:0:
109,192,51101,1,2,0:0:0:0:
182,192,51101,1,0,0:0:0:0:
256,192,51101,1,0,0:0:0:0:
475,192,51237,1,8,0:0:0:0:
256,192,51374,1,0,0:0:0:0:
329,192,51374,1,0,0:0:0:0:
402,192,51374,1,0,0:0:0:0:
36,192,51374,1,2,0:0:0:0:
109,192,51374,1,0,0:0:0:0:
182,192,51374,1,0,0:0:0:0:
256,192,51510,1,0,0:0:0:0:
329,192,51510,1,0,0:0:0:0:
402,192,51510,1,0,0:0:0:0:
36,192,51510,1,2,0:0:0:0:
109,192,51510,1,0,0:0:0:0:
182,192,51510,1,0,0:0:0:0:
256,192,51646,1,0,0:0:0:0:
329,192,51783,1,0,0:0:0:0:
402,192,51783,1,0,0:0:0:0:
475,192,51783,1,0,0:0:0:0:
36,192,51783,1,2,0:0:0:0:
109,192,51783,1,0,0:0:0:0:
182,192,51783,1,0,0:0:0:0:
329,192,51919,1,0,0:0:0:0:
402,192,51919,1,0,0:0:0:0:
475,192,51919,1,0,0:0:0:0:
36,192,51919,1,2,0:0:0:0:
109,192,51919,1,0,0:0:0:0:
182,192,51919,1,0,0:0:0:0:
329,192,52055,1,0,0:0:0:0:
402,192,52055,1,0,0:0:0:0:
475,192,52055,1,0,0:0:0:0:
36,192,52055,1,2,0:0:0:0:
109,192,52055,1,0,0:0:0:0:
182,192,52055,1,0,0:0:0:0:
329,192,52192,1,0,0:0:0:0:
402,192,52192,1,0,0:0:0:0:
475,192,52192,1,0,0:0:0:0:
36,192,52192,1,2,0:0:0:0:
109,192,52192,1,0,0:0:0:0:
182,192,52192,1,0,0:0:0:0:
329,192,52328,1,0,0:0:0:0:
402,192,52328,1,0,0:0:0:0:
475,192,52328,1,0,0:0:0:0:
256,192,52328,1,0,0:0:0:0:
36,192,52328,1,4,0:0:0:0:
109,192,52328,1,8,0:0:0:0:
182,192,52328,1,0,0:0:0:0:
256,192,52465,1,0,0:0:0:0:
329,192,52601,1,0,0:0:0:0:
475,192,52601,1,0,0:0:0:0:
36,192,52601,1,2,0:0:0:0:
182,192,52601,1,0,0:0:0:0:
475,192,52737,1,0,0:0:0:0:
329,192,52737,1,0,0:0:0:0:
256,192,52874,1,0,0:0:0:0:
402,192,52874,1,0,0:0:0:0:
36,192,52874,1,8,0:0:0:0:
109,192,52874,1,0,0:0:0:0:
182,192,53010,1,0,0:0:0:0:
36,192,53010,1,0,0:0:0:0:
402,192,53146,1,0,0:0:0:0:
475,192,53146,1,0,0:0:0:0:
329,192,53146,1,0,0:0:0:0:
109,192,53146,1,2,0:0:0:0:
256,192,53146,1,0,0:0:0:0:
402,192,53283,1,0,0:0:0:0:
475,192,53283,1,0,0:0:0:0:
182,192,53283,1,0,0:0:0:0:
329,192,53283,1,0,0:0:0:0:
256,192,53419,1,0,0:0:0:0:
109,192,53419,1,0,0:0:0:0:
36,192,53419,1,8,0:0:0:0:
402,192,53555,1,0,0:0:0:0:
182,192,53555,1,0,0:0:0:0:
36,192,53555,1,0,0:0:0:0:
329,192,53692,1,0,0:0:0:0:
475,192,53692,1,0,0:0:0:0:
256,192,53692,1,0,0:0:0:0:
109,192,53692,1,2,0:0:0:0:
182,192,53692,1,0,0:0:0:0:
475,192,53828,1,0,0:0:0:0:
329,192,53828,1,0,0:0:0:0:
256,192,53965,1,0,0:0:0:0:
402,192,53965,1,0,0:0:0:0:
182,192,53965,1,0,0:0:0:0:
36,192,53965,1,8,0:0:0:0:
109,192,53965,1,0,0:0:0:0:
329,192,54101,1,0,0:0:0:0:
256,192,54101,1,0,0:0:0:0:
402,192,54237,1,0,0:0:0:0:
475,192,54237,1,0,0:0:0:0:
182,192,54237,1,0,0:0:0:0:
36,192,54237,1,2,0:0:0:0:
109,192,54237,1,0,0:0:0:0:
256,192,54374,1,0,0:0:0:0:
182,192,54374,1,0,0:0:0:0:
109,192,54374,1,0,0:0:0:0:
402,192,54510,1,0,0:0:0:0:
475,192,54510,1,0,0:0:0:0:
329,192,54510,1,0,0:0:0:0:
36,192,54510,1,4,0:0:0:0:
256,192,54510,1,8,0:0:0:0:
475,192,54646,1,0,0:0:0:0:
402,192,54646,1,0,0:0:0:0:
329,192,54646,1,0,0:0:0:0:
182,192,54783,1,0,0:0:0:0:
256,192,54783,1,0,0:0:0:0:
36,192,54783,1,2,0:0:0:0:
109,192,54783,1,0,0:0:0:0:
182,192,54919,1,0,0:0:0:0:
36,192,54919,1,0,0:0:0:0:
402,192,55055,1,0,0:0:0:0:
475,192,55055,1,0,0:0:0:0:
109,192,55055,1,8,0:0:0:0:
256,192,55055,1,0,0:0:0:0:
475,192,55192,1,0,0:0:0:0:
329,192,55192,1,0,0:0:0:0:
256,192,55328,1,0,0:0:0:0:
402,192,55328,1,0,0:0:0:0:
182,192,55328,1,0,0:0:0:0:
36,192,55328,1,2,0:0:0:0:
109,192,55328,1,0,0:0:0:0:
182,192,55465,1,0,0:0:0:0:
256,192,55465,1,0,0:0:0:0:
36,192,55465,1,0,0:0:0:0:
109,192,55465,1,0,0:0:0:0:
475,192,55601,1,0,0:0:0:0:
402,192,55601,1,0,0:0:0:0:
36,192,55601,1,8,0:0:0:0:
475,192,55737,1,0,0:0:0:0:
402,192,55737,1,0,0:0:0:0:
329,192,55737,1,0,0:0:0:0:
402,192,55874,1,0,0:0:0:0:
475,192,55874,1,0,0:0:0:0:
329,192,55874,1,0,0:0:0:0:
109,192,55874,1,2,0:0:0:0:
256,192,55874,1,0,0:0:0:0:
182,192,56010,1,0,0:0:0:0:
109,192,56010,1,0,0:0:0:0:
402,192,56146,1,0,0:0:0:0:
475,192,56146,1,0,0:0:0:0:
329,192,56146,1,0,0:0:0:0:
36,192,56146,1,8,0:0:0:0:
256,192,56146,1,4,0:0:0:0:
475,192,56283,1,0,0:0:0:0:
329,192,56283,1,0,0:0:0:0:
256,192,56419,1,0,0:0:0:0:
402,192,56419,1,0,0:0:0:0:
182,192,56419,1,0,0:0:0:0:
36,192,56419,1,2,0:0:0:0:
109,192,56419,1,4,0:0:0:0:
182,192,56555,1,0,0:0:0:0:
36,192,56555,1,0,0:0:0:0:
402,192,56692,1,0,0:0:0:0:
475,192,56692,1,0,0:0:0:0:
329,192,56692,1,0,0:0:0:0:
109,192,56692,1,8,0:0:0:0:
256,192,56692,1,0,0:0:0:0:
475,192,56828,1,0,0:0:0:0:
402,192,56828,1,0,0:0:0:0:
256,192,56828,1,0,0:0:0:0:
182,192,56965,1,0,0:0:0:0:
329,192,56965,1,0,0:0:0:0:
36,192,56965,1,2,0:0:0:0:
109,192,56965,1,0,0:0:0:0:
256,192,57101,1,0,0:0:0:0:
109,192,57101,1,0,0:0:0:0:
329,192,57237,1,0,0:0:0:0:
475,192,57237,1,0,0:0:0:0:
36,192,57237,1,8,0:0:0:0:
182,192,57237,1,0,0:0:0:0:
402,192,57374,1,0,0:0:0:0:
329,192,57374,1,0,0:0:0:0:
256,192,57510,1,0,0:0:0:0:
475,192,57510,1,0,0:0:0:0:
182,192,57510,1,0,0:0:0:0:
36,192,57510,1,2,0:0:0:0:
109,192,57510,1,0,0:0:0:0:
182,192,57646,1,0,0:0:0:0:
329,192,57646,1,0,0:0:0:0:
36,192,57646,1,0,0:0:0:0:
109,192,57646,1,0,0:0:0:0:
475,192,57783,1,0,0:0:0:0:
402,192,57783,1,0,0:0:0:0:
256,192,57783,1,8,0:0:0:0:
256,192,57919,1,0,0:0:0:0:
109,192,57919,1,0,0:0:0:0:
36,192,57919,1,0,0:0:0:0:
402,192,58055,1,0,0:0:0:0:
475,192,58055,1,0,0:0:0:0:
329,192,58055,1,0,0:0:0:0:
109,192,58055,1,2,0:0:0:0:
182,192,58055,1,0,0:0:0:0:
329,192,58192,1,0,0:0:0:0:
256,192,58192,1,0,0:0:0:0:
402,192,58328,1,0,0:0:0:0:
475,192,58328,1,0,0:0:0:0:
182,192,58328,1,0,0:0:0:0:
36,192,58328,1,8,0:0:0:0:
109,192,58328,1,4,0:0:0:0:
402,192,58465,1,0,0:0:0:0:
329,192,58465,1,0,0:0:0:0:
256,192,58465,1,0,0:0:0:0:
256,192,58601,1,0,0:0:0:0:
329,192,58601,1,0,0:0:0:0:
182,192,58601,1,0,0:0:0:0:
36,192,58601,1,2,0:0:0:0:
109,192,58601,1,4,0:0:0:0:
182,192,58737,1,0,0:0:0:0:
109,192,58737,1,0,0:0:0:0:
36,192,58737,1,0,0:0:0:0:
475,192,58874,1,0,0:0:0:0:
402,192,58874,1,0,0:0:0:0:
256,192,58874,1,8,0:0:0:0:
475,192,59010,1,0,0:0:0:0:
329,192,59010,1,0,0:0:0:0:
256,192,59146,1,0,0:0:0:0:
109,192,59146,1,0,0:0:0:0:
36,192,59146,1,2,0:0:0:0:
182,192,59283,1,0,0:0:0:0:
36,192,59283,1,0,0:0:0:0:
329,192,59419,1,0,0:0:0:0:
475,192,59419,1,0,0:0:0:0:
109,192,59419,1,8,0:0:0:0:
256,192,59419,1,0,0:0:0:0:
402,192,59555,1,0,0:0:0:0:
256,192,59555,1,0,0:0:0:0:
182,192,59692,1,0,0:0:0:0:
329,192,59692,1,0,0:0:0:0:
36,192,59692,1,2,0:0:0:0:
109,192,59692,1,0,0:0:0:0:
475,192,59828,1,0,0:0:0:0:
329,192,59828,1,0,0:0:0:0:
182,192,59828,1,0,0:0:0:0:
402,192,59965,1,0,0:0:0:0:
475,192,59965,1,0,0:0:0:0:
256,192,59965,1,0,0:0:0:0:
36,192,59965,1,8,0:0:0:0:
109,192,59965,1,0,0:0:0:0:
256,192,60374,1,0,0:0:0:0:
256,192,60646,1,0,0:0:0:0:
329,192,61055,1,0,0:0:0:0:
402,192,61055,1,0,0:0:0:0:
475,192,61055,1,0,0:0:0:0:
256,192,61055,1,0,0:0:0:0:
36,192,61055,1,4,0:0:0:0:
109,192,61055,1,8,0:0:0:0:
182,192,61055,1,0,0:0:0:0:
475,192,61192,1,0,0:0:0:0:
329,192,61192,1,0,0:0:0:0:
256,192,61328,1,0,0:0:0:0:
402,192,61328,1,0,0:0:0:0:
182,192,61328,1,0,0:0:0:0:
36,192,61328,1,2,0:0:0:0:
109,192,61328,1,0,0:0:0:0:
182,192,61465,1,0,0:0:0:0:
36,192,61465,1,0,0:0:0:0:
329,192,61601,1,0,0:0:0:0:
402,192,61601,1,0,0:0:0:0:
109,192,61601,1,8,0:0:0:0:
256,192,61601,1,0,0:0:0:0:
402,192,61737,1,0,0:0:0:0:
256,192,61737,1,0,0:0:0:0:
329,192,61874,1,0,0:0:0:0:
475,192,61874,1,0,0:0:0:0:
182,192,61874,1,0,0:0:0:0:
36,192,61874,1,2,0:0:0:0:
109,192,61874,1,0,0:0:0:0:
182,192,62010,1,0,0:0:0:0:
36,192,62010,1,0,0:0:0:0:
329,192,62146,1,0,0:0:0:0:
475,192,62146,1,0,0:0:0:0:
109,192,62146,1,8,0:0:0:0:
256,192,62146,1,0,0:0:0:0:
475,192,62283,1,0,0:0:0:0:
329,192,62283,1,0,0:0:0:0:
256,192,62419,1,0,0:0:0:0:
402,192,62419,1,0,0:0:0:0:
182,192,62419,1,0,0:0:0:0:
36,192,62419,1,2,0:0:0:0:
109,192,62419,1,0,0:0:0:0:
402,192,62555,1,0,0:0:0:0:
256,192,62555,1,0,0:0:0:0:
329,192,62692,1,0,0:0:0:0:
475,192,62692,1,0,0:0:0:0:
36,192,62692,1,8,0:0:0:0:
182,192,62692,1,4,0:0:0:0:
329,192,62828,1,0,0:0:0:0:
182,192,62828,1,0,0:0:0:0:
402,192,62965,1,0,0:0:0:0:
475,192,62965,1,0,0:0:0:0:
256,192,62965,1,0,0:0:0:0:
36,192,62965,1,2,0:0:0:0:
109,192,62965,1,4,0:0:0:0:
256,192,63101,1,0,0:0:0:0:
109,192,63101,1,0,0:0:0:0:
329,192,63237,1,0,0:0:0:0:
475,192,63237,1,0,0:0:0:0:
36,192,63237,1,8,0:0:0:0:
182,192,63237,1,0,0:0:0:0:
182,192,63374,1,0,0:0:0:0:
36,192,63374,1,0,0:0:0:0:
402,192,63510,1,0,0:0:0:0:
475,192,63510,1,0,0:0:0:0:
329,192,63510,1,0,0:0:0:0:
109,192,63510,1,2,0:0:0:0:
256,192,63510,1,0,0:0:0:0:
475,192,63646,1,0,0:0:0:0:
329,192,63646,1,0,0:0:0:0:
256,192,63783,1,0,0:0:0:0:
402,192,63783,1,0,0:0:0:0:
36,192,63783,1,8,0:0:0:0:
109,192,63783,1,0,0:0:0:0:
256,192,63919,1,0,0:0:0:0:
109,192,63919,1,0,0:0:0:0:
402,192,64055,1,0,0:0:0:0:
475,192,64055,1,0,0:0:0:0:
329,192,64055,1,0,0:0:0:0:
36,192,64055,1,2,0:0:0:0:
182,192,64055,1,0,0:0:0:0:
475,192,64192,1,0,0:0:0:0:
329,192,64192,1,0,0:0:0:0:
256,192,64328,1,0,0:0:0:0:
402,192,64328,1,0,0:0:0:0:
36,192,64328,1,8,0:0:0:0:
182,192,64328,1,0,0:0:0:0:
182,192,64465,1,0,0:0:0:0:
36,192,64465,1,0,0:0:0:0:
402,192,64601,1,0,0:0:0:0:
475,192,64601,1,0,0:0:0:0:
329,192,64601,1,0,0:0:0:0:
109,192,64601,1,2,0:0:0:0:
256,192,64601,1,0,0:0:0:0:
256,192,64737,1,0,0:0:0:0:
109,192,64737,1,0,0:0:0:0:
329,192,64874,1,0,0:0:0:0:
475,192,64874,1,0,0:0:0:0:
36,192,64874,1,8,0:0:0:0:
182,192,64874,1,0,0:0:0:0:
329,192,65010,1,0,0:0:0:0:
182,192,65010,1,4,0:0:0:0:
402,192,65146,1,0,0:0:0:0:
475,192,65146,1,0,0:0:0:0:
256,192,65146,1,0,0:0:0:0:
36,192,65146,1,2,0:0:0:0:
109,192,65146,1,4,0:0:0:0:
402,192,65283,1,0,0:0:0:0:
256,192,65283,1,0,0:0:0:0:
329,192,65419,1,0,0:0:0:0:
475,192,65419,1,0,0:0:0:0:
36,192,65419,1,8,0:0:0:0:
182,192,65419,1,0,0:0:0:0:
475,192,65555,1,0,0:0:0:0:
329,192,65555,1,0,0:0:0:0:
256,192,65692,1,0,0:0:0:0:
402,192,65692,1,0,0:0:0:0:
182,192,65692,1,0,0:0:0:0:
36,192,65692,1,2,0:0:0:0:
109,192,65692,1,0,0:0:0:0:
182,192,65828,1,0,0:0:0:0:
36,192,65828,1,0,0:0:0:0:
329,192,65965,1,0,0:0:0:0:
402,192,65965,1,0,0:0:0:0:
109,192,65965,1,8,0:0:0:0:
256,192,65965,1,0,0:0:0:0:
402,192,66101,1,0,0:0:0:0:
256,192,66101,1,0,0:0:0:0:
329,192,66237,1,0,0:0:0:0:
475,192,66237,1,0,0:0:0:0:
182,192,66237,1,0,0:0:0:0:
36,192,66237,1,2,0:0:0:0:
109,192,66237,1,0,0:0:0:0:
182,192,66374,1,0,0:0:0:0:
36,192,66374,1,0,0:0:0:0:
329,192,66510,1,0,0:0:0:0:
475,192,66510,1,0,0:0:0:0:
109,192,66510,1,8,0:0:0:0:
256,192,66510,1,0,0:0:0:0:
475,192,66646,1,0,0:0:0:0:
329,192,66646,1,0,0:0:0:0:
256,192,66783,1,0,0:0:0:0:
402,192,66783,1,0,0:0:0:0:
182,192,66783,1,0,0:0:0:0:
36,192,66783,1,2,0:0:0:0:
109,192,66783,1,0,0:0:0:0:
402,192,66919,1,0,0:0:0:0:
256,192,66919,1,0,0:0:0:0:
329,192,67055,1,0,0:0:0:0:
475,192,67055,1,0,0:0:0:0:
36,192,67055,1,8,0:0:0:0:
182,192,67055,1,4,0:0:0:0:
329,192,67192,1,0,0:0:0:0:
182,192,67192,1,0,0:0:0:0:
402,192,67328,1,0,0:0:0:0:
475,192,67328,1,0,0:0:0:0:
256,192,67328,1,0,0:0:0:0:
36,192,67328,1,2,0:0:0:0:
109,192,67328,1,4,0:0:0:0:
256,192,67465,1,0,0:0:0:0:
109,192,67465,1,0,0:0:0:0:
329,192,67601,1,0,0:0:0:0:
475,192,67601,1,0,0:0:0:0:
36,192,67601,1,8,0:0:0:0:
182,192,67601,1,0,0:0:0:0:
182,192,67737,1,0,0:0:0:0:
36,192,67737,1,0,0:0:0:0:
402,192,67874,1,0,0:0:0:0:
475,192,67874,1,0,0:0:0:0:
329,192,67874,1,0,0:0:0:0:
109,192,67874,1,2,0:0:0:0:
256,192,67874,1,0,0:0:0:0:
475,192,68010,1,0,0:0:0:0:
329,192,68010,1,0,0:0:0:0:
256,192,68146,1,0,0:0:0:0:
402,192,68146,1,0,0:0:0:0:
36,192,68146,1,8,0:0:0:0:
109,192,68146,1,0,0:0:0:0:
256,192,68283,1,0,0:0:0:0:
109,192,68283,1,0,0:0:0:0:
402,192,68419,1,0,0:0:0:0:
475,192,68419,1,0,0:0:0:0:
329,192,68419,1,0,0:0:0:0:
36,192,68419,1,2,0:0:0:0:
182,192,68419,1,0,0:0:0:0:
256,192,68555,1,0,0:0:0:0:
329,192,68692,1,0,0:0:0:0:
402,192,68692,1,0,0:0:0:0:
475,192,68692,1,0,0:0:0:0:
36,192,68692,1,2,0:0:0:0:
109,192,68692,1,0,0:0:0:0:
182,192,68692,1,0,0:0:0:0:
329,192,68828,1,0,0:0:0:0:
402,192,68828,1,0,0:0:0:0:
475,192,68828,1,0,0:0:0:0:
36,192,68828,1,2,0:0:0:0:
109,192,68828,1,0,0:0:0:0:
182,192,68828,1,0,0:0:0:0:
329,192,68965,1,0,0:0:0:0:
402,192,68965,1,0,0:0:0:0:
475,192,68965,1,0,0:0:0:0:
36,192,68965,1,2,0:0:0:0:
109,192,68965,1,0,0:0:0:0:
182,192,68965,1,0,0:0:0:0:
329,192,69101,1,0,0:0:0:0:
402,192,69101,1,0,0:0:0:0:
475,192,69101,1,0,0:0:0:0:
36,192,69101,1,2,0:0:0:0:
109,192,69101,1,0,0:0:0:0:
182,192,69101,1,0,0:0:0:0:
402,192,69237,1,0,0:0:0:0:
475,192,69237,1,0,0:0:0:0:
256,192,69237,1,0,0:0:0:0:
36,192,69237,1,8,0:0:0:0:
109,192,69237,1,0,0:0:0:0:
402,192,69374,1,0,0:0:0:0:
475,192,69374,1,0,0:0:0:0:
36,192,69374,1,8,0:0:0:0:
109,192,69374,1,0,0:0:0:0:
402,192,69510,1,0,0:0:0:0:
475,192,69510,1,0,0:0:0:0:
36,192,69510,1,8,0:0:0:0:
109,192,69510,1,0,0:0:0:0:
402,192,69646,1,0,0:0:0:0:
475,192,69646,1,0,0:0:0:0:
36,192,69646,1,8,0:0:0:0:
109,192,69646,1,0,0:0:0:0:
329,192,69783,1,0,0:0:0:0:
402,192,69783,1,0,0:0:0:0:
475,192,69783,1,0,0:0:0:0:
256,192,69783,1,0,0:0:0:0:
36,192,69783,1,4,0:0:0:0:
109,192,69783,1,8,0:0:0:0:
182,192,69783,1,0,0:0:0:0:
256,192,69919,1,0,0:0:0:0:
329,192,70055,1,0,0:0:0:0:
475,192,70055,1,0,0:0:0:0:
36,192,70055,1,2,0:0:0:0:
182,192,70055,1,0,0:0:0:0:
475,192,70192,1,0,0:0:0:0:
402,192,70192,1,0,0:0:0:0:
256,192,70192,1,0,0:0:0:0:
329,192,70328,1,0,0:0:0:0:
109,192,70328,1,0,0:0:0:0:
36,192,70328,1,8,0:0:0:0:
182,192,70465,1,0,0:0:0:0:
36,192,70465,1,0,0:0:0:0:
402,192,70601,1,0,0:0:0:0:
475,192,70601,1,0,0:0:0:0:
329,192,70601,1,0,0:0:0:0:
109,192,70601,1,2,0:0:0:0:
256,192,70601,1,0,0:0:0:0:
475,192,70737,1,0,0:0:0:0:
329,192,70737,1,0,0:0:0:0:
256,192,70874,1,0,0:0:0:0:
402,192,70874,1,0,0:0:0:0:
36,192,70874,1,8,0:0:0:0:
109,192,70874,1,0,0:0:0:0:
329,192,71010,1,0,0:0:0:0:
182,192,71010,1,0,0:0:0:0:
402,192,71146,1,0,0:0:0:0:
475,192,71146,1,0,0:0:0:0:
256,192,71146,1,0,0:0:0:0:
36,192,71146,1,2,0:0:0:0:
109,192,71146,1,0,0:0:0:0:
182,192,71283,1,0,0:0:0:0:
109,192,71283,1,0,0:0:0:0:
36,192,71283,1,0,0:0:0:0:
475,192,71419,1,0,0:0:0:0:
329,192,71419,1,0,0:0:0:0:
256,192,71419,1,8,0:0:0:0:
402,192,71555,1,0,0:0:0:0:
256,192,71555,1,0,0:0:0:0:
329,192,71692,1,0,0:0:0:0:
475,192,71692,1,0,0:0:0:0:
182,192,71692,1,0,0:0:0:0:
36,192,71692,1,2,0:0:0:0:
109,192,71692,1,0,0:0:0:0:
256,192,71828,1,0,0:0:0:0:
36,192,71828,1,0,0:0:0:0:
402,192,71965,1,0,0:0:0:0:
475,192,71965,1,0,0:0:0:0:
182,192,71965,1,8,0:0:0:0:
329,192,71965,1,0,0:0:0:0:
475,192,72101,1,0,0:0:0:0:
329,192,72101,1,0,0:0:0:0:
256,192,72237,1,0,0:0:0:0:
402,192,72237,1,0,0:0:0:0:
182,192,72237,1,0,0:0:0:0:
36,192,72237,1,2,0:0:0:0:
109,192,72237,1,0,0:0:0:0:
182,192,72374,1,0,0:0:0:0:
36,192,72374,1,0,0:0:0:0:
329,192,72510,1,0,0:0:0:0:
402,192,72510,1,0,0:0:0:0:
109,192,72510,1,8,0:0:0:0:
256,192,72510,1,0,0:0:0:0:
402,192,72646,1,0,0:0:0:0:
256,192,72646,1,0,0:0:0:0:
329,192,72783,1,0,0:0:0:0:
475,192,72783,1,0,0:0:0:0:
182,192,72783,1,0,0:0:0:0:
36,192,72783,1,2,0:0:0:0:
109,192,72783,1,0,0:0:0:0:
402,192,72919,1,0,0:0:0:0:
36,192,72919,1,0,0:0:0:0:
329,192,73055,1,0,0:0:0:0:
475,192,73055,1,0,0:0:0:0:
109,192,73055,1,8,0:0:0:0:
256,192,73055,1,0,0:0:0:0:
256,192,73192,1,0,0:0:0:0:
182,192,73192,1,0,0:0:0:0:
402,192,73328,1,0,0:0:0:0:
475,192,73328,1,0,0:0:0:0:
329,192,73328,1,0,0:0:0:0:
36,192,73328,1,2,0:0:0:0:
109,192,73328,1,0,0:0:0:0:
475,192,73465,1,0,0:0:0:0:
402,192,73465,1,0,0:0:0:0:
182,192,73601,1,0,0:0:0:0:
256,192,73601,1,0,0:0:0:0:
36,192,73601,1,8,0:0:0:0:
109,192,73601,1,0,0:0:0:0:
475,192,73737,1,0,0:0:0:0:
402,192,73737,1,0,0:0:0:0:
329,192,73737,1,0,0:0:0:0:
402,192,73874,1,0,0:0:0:0:
475,192,73874,1,0,0:0:0:0:
36,192,73874,1,2,0:0:0:0:
182,192,73874,1,0,0:0:0:0:
256,192,74010,1,0,0:0:0:0:
109,192,74010,1,0,0:0:0:0:
329,192,74146,1,0,0:0:0:0:
402,192,74146,1,0,0:0:0:0:
475,192,74146,1,0,0:0:0:0:
36,192,74146,1,4,0:0:0:0:
182,192,74146,1,8,0:0:0:0:
256,192,74146,1,0,0:0:0:0:
475,192,74283,1,0,0:0:0:0:
402,192,74283,1,0,0:0:0:0:
329,192,74283,1,0,0:0:0:0:
182,192,74419,1,0,0:0:0:0:
256,192,74419,1,0,0:0:0:0:
36,192,74419,1,2,0:0:0:0:
109,192,74419,1,0,0:0:0:0:
475,192,74555,1,0,0:0:0:0:
329,192,74555,1,0,0:0:0:0:
182,192,74555,1,0,0:0:0:0:
402,192,74692,1,0,0:0:0:0:
256,192,74692,1,0,0:0:0:0:
109,192,74692,1,8,0:0:0:0:
182,192,74828,1,0,0:0:0:0:
36,192,74828,1,0,0:0:0:0:
402,192,74965,1,0,0:0:0:0:
475,192,74965,1,0,0:0:0:0:
329,192,74965,1,0,0:0:0:0:
109,192,74965,1,2,0:0:0:0:
256,192,74965,1,0,0:0:0:0:
475,192,75101,1,0,0:0:0:0:
402,192,75101,1,0,0:0:0:0:
329,192,75101,1,0,0:0:0:0:
256,192,75237,1,0,0:0:0:0:
109,192,75237,1,0,0:0:0:0:
36,192,75237,1,8,0:0:0:0:
329,192,75374,1,0,0:0:0:0:
182,192,75374,1,0,0:0:0:0:
402,192,75510,1,0,0:0:0:0:
475,192,75510,1,0,0:0:0:0:
256,192,75510,1,0,0:0:0:0:
36,192,75510,1,2,0:0:0:0:
109,192,75510,1,0,0:0:0:0:
182,192,75646,1,0,0:0:0:0:
109,192,75646,1,0,0:0:0:0:
36,192,75646,1,0,0:0:0:0:
475,192,75783,1,0,0:0:0:0:
329,192,75783,1,0,0:0:0:0:
256,192,75783,1,8,0:0:0:0:
402,192,75919,1,0,0:0:0:0:
256,192,75919,1,0,0:0:0:0:
182,192,76055,1,0,0:0:0:0:
329,192,76055,1,0,0:0:0:0:
36,192,76055,1,2,0:0:0:0:
109,192,76055,1,0,0:0:0:0:
402,192,76192,1,0,0:0:0:0:
256,192,76192,1,0,0:0:0:0:
109,192,76192,1,0,0:0:0:0:
329,192,76328,1,0,0:0:0:0:
475,192,76328,1,0,0:0:0:0:
36,192,76328,1,8,0:0:0:0:
182,192,76328,1,0,0:0:0:0:
256,192,76465,1,0,0:0:0:0:
109,192,76465,1,0,0:0:0:0:
402,192,76601,1,0,0:0:0:0:
475,192,76601,1,0,0:0:0:0:
329,192,76601,1,0,0:0:0:0:
36,192,76601,1,2,0:0:0:0:
182,192,76601,1,0,0:0:0:0:
475,192,76737,1,0,0:0:0:0:
402,192,76737,1,0,0:0:0:0:
329,192,76737,1,0,0:0:0:0:
256,192,76874,1,0,0:0:0:0:
109,192,76874,1,0,0:0:0:0:
36,192,76874,1,8,0:0:0:0:
475,192,77010,1,0,0:0:0:0:
329,192,77010,1,0,0:0:0:0:
182,192,77010,1,0,0:0:0:0:
402,192,77146,1,0,0:0:0:0:
475,192,77146,1,0,0:0:0:0:
256,192,77146,1,0,0:0:0:0:
36,192,77146,1,2,0:0:0:0:
109,192,77146,1,0,0:0:0:0:
182,192,77283,1,0,0:0:0:0:
36,192,77283,1,0,0:0:0:0:
402,192,77419,1,0,0:0:0:0:
256,192,77419,1,0,0:0:0:0:
109,192,77419,1,8,0:0:0:0:
475,192,77555,1,0,0:0:0:0:
329,192,77555,1,0,0:0:0:0:
256,192,77692,1,0,0:0:0:0:
402,192,77692,1,0,0:0:0:0:
475,192,77692,1,0,0:0:0:0:
36,192,77692,1,2,0:0:0:0:
109,192,77692,1,0,0:0:0:0:
182,192,77692,1,0,0:0:0:0:
256,192,77828,1,0,0:0:0:0:
182,192,77828,1,0,0:0:0:0:
402,192,77965,1,0,0:0:0:0:
475,192,77965,1,0,0:0:0:0:
329,192,77965,1,0,0:0:0:0:
36,192,77965,1,8,0:0:0:0:
109,192,77965,1,0,0:0:0:0:
402,192,78101,1,0,0:0:0:0:
329,192,78101,1,0,0:0:0:0:
256,192,78101,1,0,0:0:0:0:
182,192,78237,1,0,0:0:0:0:
256,192,78237,1,0,0:0:0:0:
36,192,78237,1,2,0:0:0:0:
109,192,78237,1,0,0:0:0:0:
475,192,78374,1,0,0:0:0:0:
329,192,78374,1,0,0:0:0:0:
256,192,78510,1,0,0:0:0:0:
402,192,78510,1,0,0:0:0:0:
475,192,78510,1,0,0:0:0:0:
36,192,78510,1,4,0:0:0:0:
109,192,78510,1,8,0:0:0:0:
182,192,78510,1,0,0:0:0:0:
182,192,78646,1,0,0:0:0:0:
36,192,78646,1,0,0:0:0:0:
402,192,78783,1,0,0:0:0:0:
475,192,78783,1,0,0:0:0:0:
329,192,78783,1,0,0:0:0:0:
109,192,78783,1,2,0:0:0:0:
256,192,78783,1,0,0:0:0:0:
475,192,78919,1,0,0:0:0:0:
402,192,78919,1,0,0:0:0:0:
329,192,78919,1,0,0:0:0:0:
256,192,79055,1,0,0:0:0:0:
109,192,79055,1,0,0:0:0:0:
36,192,79055,1,8,0:0:0:0:
475,192,79192,1,0,0:0:0:0:
329,192,79192,1,0,0:0:0:0:
182,192,79192,1,0,0:0:0:0:
256,192,79328,1,0,0:0:0:0:
402,192,79328,1,0,0:0:0:0:
36,192,79328,1,2,0:0:0:0:
109,192,79328,1,0,0:0:0:0:
182,192,79465,1,0,0:0:0:0:
109,192,79465,1,0,0:0:0:0:
36,192,79465,1,0,0:0:0:0:
402,192,79601,1,0,0:0:0:0:
475,192,79601,1,0,0:0:0:0:
256,192,79601,1,8,0:0:0:0:
329,192,79601,1,0,0:0:0:0:
475,192,79737,1,0,0:0:0:0:
402,192,79737,1,0,0:0:0:0:
329,192,79737,1,0,0:0:0:0:
182,192,79874,1,0,0:0:0:0:
256,192,79874,1,0,0:0:0:0:
36,192,79874,1,2,0:0:0:0:
109,192,79874,1,0,0:0:0:0:
402,192,80010,1,0,0:0:0:0:
109,192,80010,1,0,0:0:0:0:
329,192,80146,1,0,0:0:0:0:
475,192,80146,1,0,0:0:0:0:
36,192,80146,1,8,0:0:0:0:
182,192,80146,1,0,0:0:0:0:
475,192,80283,1,0,0:0:0:0:
329,192,80283,1,0,0:0:0:0:
256,192,80419,1,0,0:0:0:0:
402,192,80419,1,0,0:0:0:0:
182,192,80419,1,0,0:0:0:0:
36,192,80419,1,2,0:0:0:0:
109,192,80419,1,0,0:0:0:0:
182,192,80555,1,0,0:0:0:0:
36,192,80555,1,0,0:0:0:0:
402,192,80692,1,0,0:0:0:0:
475,192,80692,1,0,0:0:0:0:
329,192,80692,1,0,0:0:0:0:
109,192,80692,1,8,0:0:0:0:
256,192,80692,1,0,0:0:0:0:
475,192,80828,1,0,0:0:0:0:
329,192,80828,1,0,0:0:0:0:
256,192,80965,1,0,0:0:0:0:
402,192,80965,1,0,0:0:0:0:
36,192,80965,1,2,0:0:0:0:
182,192,80965,1,0,0:0:0:0:
329,192,81101,1,0,0:0:0:0:
109,192,81101,1,0,0:0:0:0:
402,192,81237,1,0,0:0:0:0:
475,192,81237,1,0,0:0:0:0:
36,192,81237,1,8,0:0:0:0:
182,192,81237,1,0,0:0:0:0:
182,192,81374,1,0,0:0:0:0:
36,192,81374,1,0,0:0:0:0:
402,192,81510,1,0,0:0:0:0:
475,192,81510,1,0,0:0:0:0:
329,192,81510,1,0,0:0:0:0:
109,192,81510,1,2,0:0:0:0:
256,192,81510,1,0,0:0:0:0:
475,192,81646,1,0,0:0:0:0:
402,192,81646,1,0,0:0:0:0:
329,192,81646,1,0,0:0:0:0:
256,192,81783,1,0,0:0:0:0:
109,192,81783,1,0,0:0:0:0:
36,192,81783,1,8,0:0:0:0:
475,192,81919,1,0,0:0:0:0:
402,192,81919,1,0,0:0:0:0:
182,192,81919,1,0,0:0:0:0:
402,192,82055,1,0,0:0:0:0:
475,192,82055,1,0,0:0:0:0:
256,192,82055,1,0,0:0:0:0:
36,192,82055,1,2,0:0:0:0:
109,192,82055,1,0,0:0:0:0:
329,192,82192,1,0,0:0:0:0:
182,192,82192,1,0,0:0:0:0:
402,192,82328,1,0,0:0:0:0:
475,192,82328,1,0,0:0:0:0:
256,192,82328,1,0,0:0:0:0:
36,192,82328,1,8,0:0:0:0:
109,192,82328,1,0,0:0:0:0:
182,192,82465,1,0,0:0:0:0:
109,192,82465,1,0,0:0:0:0:
36,192,82465,1,0,0:0:0:0:
402,192,82601,1,0,0:0:0:0:
475,192,82601,1,0,0:0:0:0:
256,192,82601,1,0,0:0:0:0:
329,192,82601,1,0,0:0:0:0:
182,192,82601,1,2,0:0:0:0:
256,192,82737,1,0,0:0:0:0:
36,192,82737,1,0,0:0:0:0:
329,192,82874,1,0,0:0:0:0:
402,192,82874,1,0,0:0:0:0:
475,192,82874,1,0,0:0:0:0:
36,192,82874,1,4,0:0:0:0:
109,192,82874,1,8,0:0:0:0:
182,192,82874,1,0,0:0:0:0:
475,192,83010,1,0,0:0:0:0:
329,192,83010,1,0,0:0:0:0:
256,192,83146,1,0,0:0:0:0:
402,192,83146,1,0,0:0:0:0:
36,192,83146,1,2,0:0:0:0:
182,192,83146,1,0,0:0:0:0:
182,192,83283,1,0,0:0:0:0:
109,192,83283,1,0,0:0:0:0:
475,192,83419,1,0,0:0:0:0:
402,192,83419,1,0,0:0:0:0:
256,192,83419,1,8,0:0:0:0:
402,192,83555,1,0,0:0:0:0:
329,192,83555,1,0,0:0:0:0:
182,192,83692,1,0,0:0:0:0:
256,192,83692,1,0,0:0:0:0:
36,192,83692,1,2,0:0:0:0:
109,192,83692,1,0,0:0:0:0:
329,192,83828,1,0,0:0:0:0:
36,192,83828,1,0,0:0:0:0:
475,192,83965,1,0,0:0:0:0:
402,192,83965,1,0,0:0:0:0:
109,192,83965,1,8,0:0:0:0:
256,192,84101,1,0,0:0:0:0:
182,192,84101,1,0,0:0:0:0:
329,192,84237,1,0,0:0:0:0:
402,192,84237,1,0,0:0:0:0:
475,192,84237,1,0,0:0:0:0:
36,192,84237,1,2,0:0:0:0:
109,192,84237,1,0,0:0:0:0:
256,192,84237,1,0,0:0:0:0:
475,192,84374,1,0,0:0:0:0:
402,192,84374,1,0,0:0:0:0:
256,192,84510,1,0,0:0:0:0:
329,192,84510,1,0,0:0:0:0:
182,192,84510,1,0,0:0:0:0:
36,192,84510,1,8,0:0:0:0:
109,192,84510,1,0,0:0:0:0:
182,192,84646,1,0,0:0:0:0:
475,192,84646,1,0,0:0:0:0:
36,192,84646,1,0,0:0:0:0:
109,192,84646,1,0,0:0:0:0:
402,192,84783,1,0,0:0:0:0:
475,192,84783,1,0,0:0:0:0:
256,192,84783,1,2,0:0:0:0:
329,192,84783,1,0,0:0:0:0:
182,192,84919,1,0,0:0:0:0:
36,192,84919,1,0,0:0:0:0:
402,192,85055,1,0,0:0:0:0:
475,192,85055,1,0,0:0:0:0:
329,192,85055,1,0,0:0:0:0:
109,192,85055,1,8,0:0:0:0:
256,192,85055,1,0,0:0:0:0:
475,192,85192,1,0,0:0:0:0:
329,192,85192,1,0,0:0:0:0:
256,192,85328,1,0,0:0:0:0:
402,192,85328,1,0,0:0:0:0:
36,192,85328,1,2,0:0:0:0:
109,192,85328,1,0,0:0:0:0:
329,192,85465,1,0,0:0:0:0:
182,192,85465,1,0,0:0:0:0:
256,192,85601,1,0,0:0:0:0:
109,192,85601,1,0,0:0:0:0:
36,192,85601,1,8,0:0:0:0:
329,192,85737,1,0,0:0:0:0:
36,192,85737,1,0,0:0:0:0:
402,192,85874,1,0,0:0:0:0:
475,192,85874,1,0,0:0:0:0:
109,192,85874,1,2,0:0:0:0:
256,192,85874,1,0,0:0:0:0:
256,192,86010,1,0,0:0:0:0:
182,192,86010,1,0,0:0:0:0:
475,192,86146,1,0,0:0:0:0:
402,192,86146,1,0,0:0:0:0:
329,192,86146,1,8,0:0:0:0:
182,192,86215,1,0,0:0:0:0:
109,192,86215,1,0,0:0:0:0:
36,192,86215,1,8,0:0:0:0:
475,192,86283,1,0,0:0:0:0:
402,192,86283,1,0,0:0:0:0:
329,192,86283,1,8,0:0:0:0:
475,192,86419,1,0,0:0:0:0:
402,192,86419,1,0,0:0:0:0:
329,192,86419,1,8,0:0:0:0:
475,192,86555,1,0,0:0:0:0:
402,192,86555,1,0,0:0:0:0:
329,192,86555,1,8,0:0:0:0:
256,192,86624,1,8,0:0:0:0:
402,192,86692,1,0,0:0:0:0:
475,192,86692,1,0,0:0:0:0:
182,192,86692,1,0,0:0:0:0:
36,192,86692,1,8,0:0:0:0:
109,192,86692,1,0,0:0:0:0:
182,192,86828,1,0,0:0:0:0:
109,192,86828,1,0,0:0:0:0:
36,192,86828,1,8,0:0:0:0:
182,192,86965,1,0,0:0:0:0:
109,192,86965,1,0,0:0:0:0:
36,192,86965,1,8,0:0:0:0:
182,192,87101,1,0,0:0:0:0:
109,192,87101,1,0,0:0:0:0:
36,192,87101,1,8,0:0:0:0:
329,192,87237,1,0,0:0:0:0:
402,192,87237,1,0,0:0:0:0:
475,192,87237,1,0,0:0:0:0:
256,192,87237,1,0,0:0:0:0:
36,192,87237,1,4,0:0:0:0:
109,192,87237,1,8,0:0:0:0:
182,192,87237,1,0,0:0:0:0:
402,192,87510,1,0,0:0:0:0:
475,192,87510,1,0,0:0:0:0:
256,192,87510,1,8,0:0:0:0:
329,192,87510,1,0,0:0:0:0:
402,192,87646,1,0,0:0:0:0:
475,192,87646,1,0,0:0:0:0:
182,192,87646,1,8,0:0:0:0:
329,192,87646,1,0,0:0:0:0:
402,192,87783,1,0,0:0:0:0:
475,192,87783,1,0,0:0:0:0:
109,192,87783,1,8,0:0:0:0:
329,192,87783,1,0,0:0:0:0:
329,192,88055,1,0,0:0:0:0:
475,192,88055,1,0,0:0:0:0:
36,192,88055,1,8,0:0:0:0:
182,192,88055,1,0,0:0:0:0:
329,192,88328,1,0,0:0:0:0:
402,192,88328,1,0,0:0:0:0:
475,192,88328,1,0,0:0:0:0:
256,192,88328,1,0,0:0:0:0:
36,192,88328,1,2,0:0:0:0:
109,192,88328,1,0,0:0:0:0:
182,192,88328,1,0,0:0:0:0:
182,192,88465,1,0,0:0:0:0:
109,192,88465,1,0,0:0:0:0:
36,192,88465,1,8,0:0:0:0:
182,192,88601,1,0,0:0:0:0:
402,192,88601,1,0,0:0:0:0:
36,192,88601,1,8,0:0:0:0:
109,192,88601,1,0,0:0:0:0:
182,192,88737,1,0,0:0:0:0:
329,192,88737,1,0,0:0:0:0:
36,192,88737,1,8,0:0:0:0:
109,192,88737,1,0,0:0:0:0:
182,192,88874,1,0,0:0:0:0:
109,192,88874,1,0,0:0:0:0:
36,192,88874,1,8,0:0:0:0:
182,192,89146,1,0,0:0:0:0:
109,192,89146,1,0,0:0:0:0:
36,192,89146,1,8,0:0:0:0:
329,192,89419,1,0,0:0:0:0:
402,192,89419,1,0,0:0:0:0:
475,192,89419,1,0,0:0:0:0:
256,192,89419,1,0,0:0:0:0:
36,192,89419,1,4,0:0:0:0:
109,192,89419,1,0,0:0:0:0:
182,192,89419,1,0,0:0:0:0:
475,192,89555,1,0,0:0:0:0:
402,192,89555,1,0,0:0:0:0:
329,192,89555,1,8,0:0:0:0:
402,192,89692,1,0,0:0:0:0:
475,192,89692,1,0,0:0:0:0:
182,192,89692,1,8,0:0:0:0:
329,192,89692,1,0,0:0:0:0:
475,192,89828,1,0,0:0:0:0:
402,192,89828,1,0,0:0:0:0:
329,192,89828,1,8,0:0:0:0:
36,192,89896,1,0,0:0:0:0:
475,192,89965,1,0,0:0:0:0:
402,192,89965,1,0,0:0:0:0:
329,192,89965,1,8,0:0:0:0:
182,192,90033,1,0,0:0:0:0:
402,192,90237,1,0,0:0:0:0:
475,192,90237,1,0,0:0:0:0:
109,192,90237,1,8,0:0:0:0:
329,192,90237,1,0,0:0:0:0:
329,192,90510,1,0,0:0:0:0:
402,192,90510,1,0,0:0:0:0:
475,192,90510,1,0,0:0:0:0:
256,192,90510,1,0,0:0:0:0:
36,192,90510,1,2,0:0:0:0:
109,192,90510,1,0,0:0:0:0:
182,192,90510,1,0,0:0:0:0:
182,192,90646,1,0,0:0:0:0:
475,192,90646,1,0,0:0:0:0:
36,192,90646,1,8,0:0:0:0:
109,192,90646,1,0,0:0:0:0:
182,192,90783,1,0,0:0:0:0:
329,192,90783,1,0,0:0:0:0:
36,192,90783,1,8,0:0:0:0:
109,192,90783,1,0,0:0:0:0:
182,192,90919,1,0,0:0:0:0:
402,192,90919,1,0,0:0:0:0:
36,192,90919,1,8,0:0:0:0:
109,192,90919,1,0,0:0:0:0:
182,192,91055,1,0,0:0:0:0:
475,192,91055,1,0,0:0:0:0:
36,192,91055,1,8,0:0:0:0:
109,192,91055,1,0,0:0:0:0:
402,192,91192,1,0,0:0:0:0:
182,192,91328,1,0,0:0:0:0:
329,192,91328,1,0,0:0:0:0:
36,192,91328,1,8,0:0:0:0:
109,192,91328,1,0,0:0:0:0:
329,192,91601,1,0,0:0:0:0:
402,192,91601,1,0,0:0:0:0:
475,192,91601,1,0,0:0:0:0:
256,192,91601,1,0,0:0:0:0:
36,192,91601,1,4,0:0:0:0:
109,192,91601,1,8,0:0:0:0:
182,192,91601,1,0,0:0:0:0:
475,192,91737,1,0,0:0:0:0:
329,192,91737,1,0,0:0:0:0:
256,192,91874,1,0,0:0:0:0:
402,192,91874,1,0,0:0:0:0:
36,192,91874,1,2,0:0:0:0:
182,192,91874,1,0,0:0:0:0:
182,192,92010,1,0,0:0:0:0:
36,192,92010,1,0,0:0:0:0:
329,192,92146,1,0,0:0:0:0:
475,192,92146,1,0,0:0:0:0:
109,192,92146,1,8,0:0:0:0:
256,192,92146,1,0,0:0:0:0:
475,192,92283,1,0,0:0:0:0:
329,192,92283,1,0,0:0:0:0:
182,192,92283,1,8,0:0:0:0:
256,192,92419,1,0,0:0:0:0:
402,192,92419,1,0,0:0:0:0:
36,192,92419,1,2,0:0:0:0:
109,192,92419,1,0,0:0:0:0:
182,192,92555,1,0,0:0:0:0:
109,192,92555,1,0,0:0:0:0:
36,192,92555,1,0,0:0:0:0:
402,192,92692,1,0,0:0:0:0:
329,192,92692,1,0,0:0:0:0:
256,192,92692,1,8,0:0:0:0:
402,192,92828,1,0,0:0:0:0:
256,192,92828,1,0,0:0:0:0:
329,192,92965,1,0,0:0:0:0:
475,192,92965,1,0,0:0:0:0:
109,192,92965,1,2,0:0:0:0:
182,192,92965,1,0,0:0:0:0:
182,192,93101,1,0,0:0:0:0:
109,192,93101,1,0,0:0:0:0:
36,192,93101,1,0,0:0:0:0:
475,192,93237,1,0,0:0:0:0:
402,192,93237,1,0,0:0:0:0:
256,192,93237,1,8,0:0:0:0:
475,192,93374,1,0,0:0:0:0:
402,192,93374,1,0,0:0:0:0:
256,192,93374,1,8,0:0:0:0:
182,192,93510,1,0,0:0:0:0:
329,192,93510,1,0,0:0:0:0:
36,192,93510,1,2,0:0:0:0:
109,192,93510,1,0,0:0:0:0:
256,192,93646,1,0,0:0:0:0:
36,192,93646,1,0,0:0:0:0:
329,192,93783,1,0,0:0:0:0:
402,192,93783,1,0,0:0:0:0:
109,192,93783,1,8,0:0:0:0:
182,192,93783,1,0,0:0:0:0:
329,192,93919,1,0,0:0:0:0:
182,192,93919,1,0,0:0:0:0:
402,192,94055,1,0,0:0:0:0:
475,192,94055,1,0,0:0:0:0:
109,192,94055,1,2,0:0:0:0:
256,192,94055,1,0,0:0:0:0:
475,192,94192,1,0,0:0:0:0:
402,192,94192,1,0,0:0:0:0:
36,192,94192,1,0,0:0:0:0:
256,192,94328,1,0,0:0:0:0:
182,192,94328,1,0,0:0:0:0:
109,192,94328,1,8,0:0:0:0:
402,192,94465,1,0,0:0:0:0:
329,192,94465,1,0,0:0:0:0:
256,192,94465,1,8,0:0:0:0:
182,192,94601,1,0,0:0:0:0:
475,192,94601,1,0,0:0:0:0:
36,192,94601,1,2,0:0:0:0:
109,192,94601,1,0,0:0:0:0:
475,192,94737,1,0,0:0:0:0:
402,192,94737,1,0,0:0:0:0:
329,192,94737,1,0,0:0:0:0:
182,192,94874,1,0,0:0:0:0:
109,192,94874,1,0,0:0:0:0:
36,192,94874,1,2,0:0:0:0:
475,192,94965,1,0,0:0:0:0:
402,192,94965,1,0,0:0:0:0:
329,192,94965,1,2,0:0:0:0:
256,192,95055,1,0,0:0:0:0:
182,192,95055,1,0,0:0:0:0:
109,192,95055,1,2,0:0:0:0:
475,192,95146,1,0,0:0:0:0:
402,192,95146,1,0,0:0:0:0:
329,192,95146,1,2,0:0:0:0:
182,192,95237,1,0,0:0:0:0:
109,192,95237,1,0,0:0:0:0:
36,192,95237,1,2,0:0:0:0:
402,192,95328,1,0,0:0:0:0:
329,192,95328,1,0,0:0:0:0:
256,192,95328,1,2,0:0:0:0:
36,192,95419,1,8,0:0:0:0:
109,192,95510,1,8,0:0:0:0:
182,192,95601,1,8,0:0:0:0:
402,192,95692,1,8,0:0:0:0:
329,192,95783,1,8,0:0:0:0:
256,192,95874,1,8,0:0:0:0:
329,192,95965,1,0,0:0:0:0:
402,192,95965,1,0,0:0:0:0:
475,192,95965,1,0,0:0:0:0:
36,192,95965,1,4,0:0:0:0:
109,192,95965,1,8,0:0:0:0:
182,192,95965,1,0,0:0:0:0:
182,192,96101,1,0,0:0:0:0:
109,192,96101,1,0,0:0:0:0:
36,192,96101,1,0,0:0:0:0:
329,192,96237,1,0,0:0:0:0:
475,192,96237,1,0,0:0:0:0:
182,192,96237,1,0,0:0:0:0:
36,192,96237,1,2,0:0:0:0:
109,192,96237,1,0,0:0:0:0:
475,192,96374,1,0,0:0:0:0:
329,192,96374,1,0,0:0:0:0:
402,192,96510,1,0,0:0:0:0:
256,192,96510,1,0,0:0:0:0:
109,192,96510,1,8,0:0:0:0:
256,192,96646,1,0,0:0:0:0:
109,192,96646,1,0,0:0:0:0:
402,192,96783,1,0,0:0:0:0:
475,192,96783,1,0,0:0:0:0:
329,192,96783,1,0,0:0:0:0:
36,192,96783,1,2,0:0:0:0:
182,192,96783,1,0,0:0:0:0:
475,192,96919,1,0,0:0:0:0:
402,192,96919,1,0,0:0:0:0:
329,192,96919,1,0,0:0:0:0:
256,192,97055,1,0,0:0:0:0:
109,192,97055,1,0,0:0:0:0:
36,192,97055,1,8,0:0:0:0:
475,192,97192,1,0,0:0:0:0:
402,192,97192,1,0,0:0:0:0:
329,192,97192,1,0,0:0:0:0:
402,192,97328,1,0,0:0:0:0:
475,192,97328,1,0,0:0:0:0:
329,192,97328,1,0,0:0:0:0:
36,192,97328,1,2,0:0:0:0:
182,192,97328,1,0,0:0:0:0:
182,192,97465,1,0,0:0:0:0:
36,192,97465,1,0,0:0:0:0:
402,192,97601,1,0,0:0:0:0:
475,192,97601,1,0,0:0:0:0:
329,192,97601,1,0,0:0:0:0:
109,192,97601,1,8,0:0:0:0:
256,192,97601,1,4,0:0:0:0:
475,192,97737,1,0,0:0:0:0:
402,192,97737,1,0,0:0:0:0:
182,192,97874,1,0,0:0:0:0:
329,192,97874,1,0,0:0:0:0:
36,192,97874,1,2,0:0:0:0:
109,192,97874,1,4,0:0:0:0:
256,192,98010,1,0,0:0:0:0:
182,192,98010,1,0,0:0:0:0:
109,192,98010,1,0,0:0:0:0:
402,192,98146,1,0,0:0:0:0:
475,192,98146,1,0,0:0:0:0:
329,192,98146,1,0,0:0:0:0:
182,192,98146,1,8,0:0:0:0:
256,192,98146,1,4,0:0:0:0:
475,192,98283,1,0,0:0:0:0:
402,192,98283,1,0,0:0:0:0:
329,192,98283,1,0,0:0:0:0:
402,192,98419,1,0,0:0:0:0:
475,192,98419,1,0,0:0:0:0:
329,192,98419,1,0,0:0:0:0:
36,192,98419,1,2,0:0:0:0:
182,192,98419,1,0,0:0:0:0:
182,192,98555,1,0,0:0:0:0:
36,192,98555,1,0,0:0:0:0:
402,192,98692,1,0,0:0:0:0:
256,192,98692,1,0,0:0:0:0:
109,192,98692,1,8,0:0:0:0:
402,192,98828,1,0,0:0:0:0:
256,192,98828,1,0,0:0:0:0:
329,192,98965,1,0,0:0:0:0:
475,192,98965,1,0,0:0:0:0:
182,192,98965,1,0,0:0:0:0:
36,192,98965,1,2,0:0:0:0:
109,192,98965,1,0,0:0:0:0:
182,192,99101,1,0,0:0:0:0:
109,192,99101,1,0,0:0:0:0:
36,192,99101,1,0,0:0:0:0:
475,192,99237,1,0,0:0:0:0:
402,192,99237,1,0,0:0:0:0:
329,192,99237,1,8,0:0:0:0:
182,192,99374,1,0,0:0:0:0:
109,192,99374,1,0,0:0:0:0:
36,192,99374,1,0,0:0:0:0:
329,192,99510,1,0,0:0:0:0:
475,192,99510,1,0,0:0:0:0:
182,192,99510,1,0,0:0:0:0:
36,192,99510,1,2,0:0:0:0:
109,192,99510,1,0,0:0:0:0:
475,192,99646,1,0,0:0:0:0:
329,192,99646,1,0,0:0:0:0:
256,192,99783,1,0,0:0:0:0:
402,192,99783,1,0,0:0:0:0:
182,192,99783,1,0,0:0:0:0:
36,192,99783,1,8,0:0:0:0:
109,192,99783,1,4,0:0:0:0:
109,192,99919,1,0,0:0:0:0:
36,192,99919,1,0,0:0:0:0:
329,192,100055,1,0,0:0:0:0:
402,192,100055,1,0,0:0:0:0:
475,192,100055,1,0,0:0:0:0:
109,192,100055,1,2,0:0:0:0:
182,192,100055,1,4,0:0:0:0:
256,192,100055,1,0,0:0:0:0:
475,192,100192,1,0,0:0:0:0:
402,192,100192,1,0,0:0:0:0:
256,192,100328,1,0,0:0:0:0:
329,192,100328,1,0,0:0:0:0:
182,192,100328,1,0,0:0:0:0:
36,192,100328,1,8,0:0:0:0:
109,192,100328,1,4,0:0:0:0:
182,192,100465,1,0,0:0:0:0:
109,192,100465,1,0,0:0:0:0:
36,192,100465,1,0,0:0:0:0:
329,192,100601,1,0,0:0:0:0:
475,192,100601,1,0,0:0:0:0:
182,192,100601,1,0,0:0:0:0:
36,192,100601,1,2,0:0:0:0:
109,192,100601,1,0,0:0:0:0:
475,192,100737,1,0,0:0:0:0:
329,192,100737,1,0,0:0:0:0:
402,192,100874,1,0,0:0:0:0:
256,192,100874,1,0,0:0:0:0:
109,192,100874,1,8,0:0:0:0:
256,192,101010,1,0,0:0:0:0:
109,192,101010,1,0,0:0:0:0:
402,192,101146,1,0,0:0:0:0:
475,192,101146,1,0,0:0:0:0:
329,192,101146,1,0,0:0:0:0:
36,192,101146,1,2,0:0:0:0:
182,192,101146,1,0,0:0:0:0:
475,192,101283,1,0,0:0:0:0:
402,192,101283,1,0,0:0:0:0:
329,192,101283,1,0,0:0:0:0:
256,192,101419,1,0,0:0:0:0:
109,192,101419,1,0,0:0:0:0:
36,192,101419,1,8,0:0:0:0:
475,192,101555,1,0,0:0:0:0:
402,192,101555,1,0,0:0:0:0:
329,192,101555,1,0,0:0:0:0:
402,192,101692,1,0,0:0:0:0:
475,192,101692,1,0,0:0:0:0:
329,192,101692,1,0,0:0:0:0:
36,192,101692,1,2,0:0:0:0:
182,192,101692,1,0,0:0:0:0:
182,192,101828,1,0,0:0:0:0:
36,192,101828,1,0,0:0:0:0:
402,192,101965,1,0,0:0:0:0:
475,192,101965,1,0,0:0:0:0:
329,192,101965,1,0,0:0:0:0:
109,192,101965,1,8,0:0:0:0:
256,192,101965,1,4,0:0:0:0:
475,192,102101,1,0,0:0:0:0:
402,192,102101,1,0,0:0:0:0:
182,192,102237,1,0,0:0:0:0:
329,192,102237,1,0,0:0:0:0:
36,192,102237,1,2,0:0:0:0:
109,192,102237,1,4,0:0:0:0:
256,192,102374,1,0,0:0:0:0:
182,192,102374,1,0,0:0:0:0:
109,192,102374,1,0,0:0:0:0:
402,192,102510,1,0,0:0:0:0:
475,192,102510,1,0,0:0:0:0:
329,192,102510,1,0,0:0:0:0:
182,192,102510,1,8,0:0:0:0:
256,192,102510,1,4,0:0:0:0:
475,192,102646,1,0,0:0:0:0:
402,192,102646,1,0,0:0:0:0:
329,192,102646,1,0,0:0:0:0:
402,192,102783,1,0,0:0:0:0:
475,192,102783,1,0,0:0:0:0:
329,192,102783,1,0,0:0:0:0:
36,192,102783,1,2,0:0:0:0:
182,192,102783,1,0,0:0:0:0:
182,192,102919,1,0,0:0:0:0:
36,192,102919,1,0,0:0:0:0:
475,192,103055,1,0,0:0:0:0:
402,192,103055,1,0,0:0:0:0:
256,192,103055,1,8,0:0:0:0:
402,192,103192,1,0,0:0:0:0:
256,192,103192,1,0,0:0:0:0:
329,192,103328,1,0,0:0:0:0:
475,192,103328,1,0,0:0:0:0:
182,192,103328,1,0,0:0:0:0:
36,192,103328,1,2,0:0:0:0:
109,192,103328,1,0,0:0:0:0:
182,192,103465,1,0,0:0:0:0:
109,192,103465,1,0,0:0:0:0:
36,192,103465,1,0,0:0:0:0:
475,192,103601,1,0,0:0:0:0:
402,192,103601,1,0,0:0:0:0:
329,192,103601,1,2,0:0:0:0:
182,192,103737,1,0,0:0:0:0:
109,192,103737,1,0,0:0:0:0:
36,192,103737,1,8,0:0:0:0:
475,192,103805,1,0,0:0:0:0:
402,192,103805,1,0,0:0:0:0:
329,192,103805,1,8,0:0:0:0:
182,192,103874,1,0,0:0:0:0:
109,192,103874,1,0,0:0:0:0:
36,192,103874,1,8,0:0:0:0:
475,192,104010,1,0,0:0:0:0:
402,192,104010,1,0,0:0:0:0:
329,192,104010,1,8,0:0:0:0:
256,192,104078,1,8,0:0:0:0:
182,192,104146,1,0,0:0:0:0:
109,192,104146,1,0,0:0:0:0:
36,192,104146,1,8,0:0:0:0:
475,192,104283,1,0,0:0:0:0:
402,192,104283,1,0,0:0:0:0:
402,192,104419,1,0,0:0:0:0:
475,192,104419,1,0,0:0:0:0:
329,192,104419,1,0,0:0:0:0:
36,192,104419,1,8,0:0:0:0:
109,192,104419,1,0,0:0:0:0:
182,192,104555,1,0,0:0:0:0:
109,192,104555,1,0,0:0:0:0:
36,192,104555,1,8,0:0:0:0:
402,192,104692,1,0,0:0:0:0:
475,192,104692,1,0,0:0:0:0:
329,192,104692,1,0,0:0:0:0:
182,192,104692,1,4,0:0:0:0:
256,192,104692,1,8,0:0:0:0:
475,192,104828,1,0,0:0:0:0:
402,192,104828,1,0,0:0:0:0:
329,192,104828,1,0,0:0:0:0:
402,192,104965,1,0,0:0:0:0:
475,192,104965,1,0,0:0:0:0:
329,192,104965,1,0,0:0:0:0:
36,192,104965,1,2,0:0:0:0:
182,192,104965,1,0,0:0:0:0:
182,192,105101,1,0,0:0:0:0:
36,192,105101,1,0,0:0:0:0:
402,192,105237,1,0,0:0:0:0:
475,192,105237,1,0,0:0:0:0:
329,192,105237,1,0,0:0:0:0:
109,192,105237,1,8,0:0:0:0:
256,192,105237,1,0,0:0:0:0:
256,192,105374,1,0,0:0:0:0:
329,192,105510,1,0,0:0:0:0:
402,192,105510,1,0,0:0:0:0:
475,192,105510,1,0,0:0:0:0:
36,192,105510,1,2,0:0:0:0:
109,192,105510,1,0,0:0:0:0:
182,192,105510,1,0,0:0:0:0:
402,192,105646,1,0,0:0:0:0:
475,192,105646,1,0,0:0:0:0:
36,192,105646,1,0,0:0:0:0:
109,192,105646,1,0,0:0:0:0:
182,192,105783,1,0,0:0:0:0:
109,192,105783,1,0,0:0:0:0:
36,192,105783,1,8,0:0:0:0:
475,192,105919,1,0,0:0:0:0:
402,192,105919,1,0,0:0:0:0:
329,192,105919,1,0,0:0:0:0:
329,192,106055,1,0,0:0:0:0:
402,192,106055,1,0,0:0:0:0:
475,192,106055,1,0,0:0:0:0:
109,192,106055,1,2,0:0:0:0:
182,192,106055,1,0,0:0:0:0:
256,192,106055,1,0,0:0:0:0:
182,192,106192,1,0,0:0:0:0:
109,192,106192,1,0,0:0:0:0:
402,192,106328,1,0,0:0:0:0:
475,192,106328,1,0,0:0:0:0:
329,192,106328,1,0,0:0:0:0:
36,192,106328,1,8,0:0:0:0:
256,192,106328,1,4,0:0:0:0:
402,192,106465,1,0,0:0:0:0:
329,192,106465,1,0,0:0:0:0:
329,192,106601,1,0,0:0:0:0:
402,192,106601,1,0,0:0:0:0:
475,192,106601,1,0,0:0:0:0:
36,192,106601,1,2,0:0:0:0:
109,192,106601,1,4,0:0:0:0:
182,192,106601,1,0,0:0:0:0:
256,192,106737,1,0,0:0:0:0:
182,192,106737,1,0,0:0:0:0:
109,192,106737,1,0,0:0:0:0:
402,192,106874,1,0,0:0:0:0:
475,192,106874,1,0,0:0:0:0:
329,192,106874,1,0,0:0:0:0:
182,192,106874,1,8,0:0:0:0:
256,192,106874,1,4,0:0:0:0:
475,192,107010,1,0,0:0:0:0:
402,192,107010,1,0,0:0:0:0:
329,192,107010,1,0,0:0:0:0:
402,192,107146,1,0,0:0:0:0:
475,192,107146,1,0,0:0:0:0:
329,192,107146,1,0,0:0:0:0:
36,192,107146,1,2,0:0:0:0:
182,192,107146,1,0,0:0:0:0:
182,192,107283,1,0,0:0:0:0:
36,192,107283,1,0,0:0:0:0:
402,192,107419,1,0,0:0:0:0:
475,192,107419,1,0,0:0:0:0:
329,192,107419,1,0,0:0:0:0:
109,192,107419,1,8,0:0:0:0:
256,192,107419,1,0,0:0:0:0:
329,192,107555,1,0,0:0:0:0:
256,192,107692,1,0,0:0:0:0:
402,192,107692,1,0,0:0:0:0:
475,192,107692,1,0,0:0:0:0:
36,192,107692,1,2,0:0:0:0:
109,192,107692,1,0,0:0:0:0:
182,192,107692,1,0,0:0:0:0:
182,192,107828,1,0,0:0:0:0:
256,192,107828,1,0,0:0:0:0:
36,192,107828,1,0,0:0:0:0:
109,192,107828,1,0,0:0:0:0:
475,192,107965,1,0,0:0:0:0:
402,192,107965,1,0,0:0:0:0:
329,192,107965,1,8,0:0:0:0:
182,192,108101,1,0,0:0:0:0:
109,192,108101,1,0,0:0:0:0:
36,192,108101,1,0,0:0:0:0:
256,192,108237,1,0,0:0:0:0:
402,192,108237,1,0,0:0:0:0:
475,192,108237,1,0,0:0:0:0:
36,192,108237,1,2,0:0:0:0:
109,192,108237,1,0,0:0:0:0:
182,192,108237,1,0,0:0:0:0:
256,192,108374,1,0,0:0:0:0:
329,192,108510,1,0,0:0:0:0:
402,192,108510,1,0,0:0:0:0:
475,192,108510,1,0,0:0:0:0:
36,192,108510,1,8,0:0:0:0:
109,192,108510,1,4,0:0:0:0:
182,192,108510,1,0,0:0:0:0:
475,192,108646,1,0,0:0:0:0:
402,192,108646,1,0,0:0:0:0:
256,192,108783,1,0,0:0:0:0:
329,192,108783,1,0,0:0:0:0:
182,192,108783,1,0,0:0:0:0:
36,192,108783,1,2,0:0:0:0:
109,192,108783,1,4,0:0:0:0:
329,192,108919,1,0,0:0:0:0:
256,192,108919,1,0,0:0:0:0:
402,192,109055,1,0,0:0:0:0:
475,192,109055,1,0,0:0:0:0:
182,192,109055,1,0,0:0:0:0:
36,192,109055,1,8,0:0:0:0:
109,192,109055,1,4,0:0:0:0:
182,192,109192,1,0,0:0:0:0:
109,192,109192,1,0,0:0:0:0:
36,192,109192,1,0,0:0:0:0:
329,192,109328,1,0,0:0:0:0:
402,192,109328,1,0,0:0:0:0:
182,192,109328,1,0,0:0:0:0:
36,192,109328,1,2,0:0:0:0:
109,192,109328,1,0,0:0:0:0:
402,192,109465,1,0,0:0:0:0:
329,192,109465,1,0,0:0:0:0:
182,192,109601,1,0,0:0:0:0:
256,192,109601,1,0,0:0:0:0:
36,192,109601,1,8,0:0:0:0:
109,192,109601,1,0,0:0:0:0:
109,192,109737,1,0,0:0:0:0:
36,192,109737,1,0,0:0:0:0:
402,192,109874,1,0,0:0:0:0:
475,192,109874,1,0,0:0:0:0:
329,192,109874,1,0,0:0:0:0:
182,192,109874,1,2,0:0:0:0:
256,192,109874,1,0,0:0:0:0:
402,192,110010,1,0,0:0:0:0:
475,192,110010,1,0,0:0:0:0:
256,192,110010,1,0,0:0:0:0:
329,192,110010,1,0,0:0:0:0:
182,192,110146,1,0,0:0:0:0:
109,192,110146,1,0,0:0:0:0:
36,192,110146,1,8,0:0:0:0:
475,192,110283,1,0,0:0:0:0:
402,192,110283,1,0,0:0:0:0:
329,192,110283,1,0,0:0:0:0:
329,192,110419,1,0,0:0:0:0:
402,192,110419,1,0,0:0:0:0:
475,192,110419,1,0,0:0:0:0:
36,192,110419,1,2,0:0:0:0:
109,192,110419,1,0,0:0:0:0:
182,192,110419,1,0,0:0:0:0:
109,192,110555,1,0,0:0:0:0:
36,192,110555,1,0,0:0:0:0:
402,192,110692,1,0,0:0:0:0:
475,192,110692,1,0,0:0:0:0:
329,192,110692,1,0,0:0:0:0:
36,192,110692,1,8,0:0:0:0:
256,192,110692,1,4,0:0:0:0:
329,192,110828,1,0,0:0:0:0:
256,192,110828,1,0,0:0:0:0:
182,192,110828,1,0,0:0:0:0:
256,192,110965,1,0,0:0:0:0:
402,192,110965,1,0,0:0:0:0:
475,192,110965,1,0,0:0:0:0:
36,192,110965,1,2,0:0:0:0:
109,192,110965,1,4,0:0:0:0:
182,192,110965,1,0,0:0:0:0:
182,192,111101,1,0,0:0:0:0:
109,192,111101,1,0,0:0:0:0:
36,192,111101,1,0,0:0:0:0:
475,192,111237,1,0,0:0:0:0:
329,192,111237,1,4,0:0:0:0:
256,192,111237,1,8,0:0:0:0:
475,192,111374,1,0,0:0:0:0:
329,192,111374,1,0,0:0:0:0:
256,192,111510,1,0,0:0:0:0:
402,192,111510,1,0,0:0:0:0:
36,192,111510,1,2,0:0:0:0:
182,192,111510,1,0,0:0:0:0:
182,192,111646,1,0,0:0:0:0:
36,192,111646,1,0,0:0:0:0:
402,192,111783,1,0,0:0:0:0:
475,192,111783,1,0,0:0:0:0:
109,192,111783,1,8,0:0:0:0:
256,192,111783,1,0,0:0:0:0:
182,192,111919,1,0,0:0:0:0:
36,192,111919,1,0,0:0:0:0:
402,192,112055,1,0,0:0:0:0:
475,192,112055,1,0,0:0:0:0:
329,192,112055,1,0,0:0:0:0:
109,192,112055,1,2,0:0:0:0:
256,192,112055,1,0,0:0:0:0:
402,192,112192,1,0,0:0:0:0:
256,192,112192,1,0,0:0:0:0:
109,192,112192,1,0,0:0:0:0:
329,192,112328,1,0,0:0:0:0:
475,192,112328,1,0,0:0:0:0:
256,192,112328,1,0,0:0:0:0:
36,192,112328,1,8,0:0:0:0:
182,192,112328,1,0,0:0:0:0:
256,192,112737,1,0,0:0:0:0:
256,192,113010,1,0,0:0:0:0:
329,192,113419,1,0,0:0:0:0:
402,192,113419,1,0,0:0:0:0:
475,192,113419,1,0,0:0:0:0:
256,192,113419,1,0,0:0:0:0:
36,192,113419,1,8,0:0:0:0:
109,192,113419,1,4,0:0:0:0:
182,192,113419,1,0,0:0:0:0:
475,192,113555,1,0,0:0:0:0:
402,192,113555,1,0,0:0:0:0:
329,192,113555,1,0,0:0:0:0:
402,192,113692,1,0,0:0:0:0:
475,192,113692,1,0,0:0:0:0:
329,192,113692,1,0,0:0:0:0:
36,192,113692,1,2,0:0:0:0:
182,192,113692,1,0,0:0:0:0:
182,192,113828,1,0,0:0:0:0:
36,192,113828,1,0,0:0:0:0:
402,192,113965,1,0,0:0:0:0:
256,192,113965,1,0,0:0:0:0:
109,192,113965,1,8,0:0:0:0:
402,192,114101,1,0,0:0:0:0:
256,192,114101,1,0,0:0:0:0:
329,192,114237,1,0,0:0:0:0:
475,192,114237,1,0,0:0:0:0:
182,192,114237,1,0,0:0:0:0:
36,192,114237,1,2,0:0:0:0:
109,192,114237,1,0,0:0:0:0:
256,192,114374,1,0,0:0:0:0:
182,192,114374,1,0,0:0:0:0:
109,192,114374,1,0,0:0:0:0:
475,192,114510,1,0,0:0:0:0:
402,192,114510,1,0,0:0:0:0:
329,192,114510,1,8,0:0:0:0:
182,192,114646,1,0,0:0:0:0:
109,192,114646,1,0,0:0:0:0:
36,192,114646,1,0,0:0:0:0:
402,192,114783,1,0,0:0:0:0:
475,192,114783,1,0,0:0:0:0:
182,192,114783,1,0,0:0:0:0:
36,192,114783,1,2,0:0:0:0:
109,192,114783,1,0,0:0:0:0:
329,192,114919,1,0,0:0:0:0:
256,192,114919,1,0,0:0:0:0:
402,192,115055,1,0,0:0:0:0:
475,192,115055,1,0,0:0:0:0:
182,192,115055,1,0,0:0:0:0:
36,192,115055,1,8,0:0:0:0:
109,192,115055,1,4,0:0:0:0:
475,192,115192,1,0,0:0:0:0:
402,192,115192,1,0,0:0:0:0:
182,192,115328,1,0,0:0:0:0:
329,192,115328,1,0,0:0:0:0:
36,192,115328,1,2,0:0:0:0:
109,192,115328,1,4,0:0:0:0:
256,192,115465,1,0,0:0:0:0:
182,192,115465,1,0,0:0:0:0:
109,192,115465,1,0,0:0:0:0:
402,192,115601,1,0,0:0:0:0:
475,192,115601,1,0,0:0:0:0:
329,192,115601,1,0,0:0:0:0:
182,192,115601,1,8,0:0:0:0:
256,192,115601,1,4,0:0:0:0:
475,192,115737,1,0,0:0:0:0:
402,192,115737,1,0,0:0:0:0:
329,192,115737,1,0,0:0:0:0:
402,192,115874,1,0,0:0:0:0:
475,192,115874,1,0,0:0:0:0:
329,192,115874,1,0,0:0:0:0:
36,192,115874,1,2,0:0:0:0:
182,192,115874,1,0,0:0:0:0:
182,192,116010,1,0,0:0:0:0:
36,192,116010,1,0,0:0:0:0:
402,192,116146,1,0,0:0:0:0:
256,192,116146,1,0,0:0:0:0:
109,192,116146,1,8,0:0:0:0:
402,192,116283,1,0,0:0:0:0:
256,192,116283,1,0,0:0:0:0:
329,192,116419,1,0,0:0:0:0:
475,192,116419,1,0,0:0:0:0:
182,192,116419,1,0,0:0:0:0:
36,192,116419,1,2,0:0:0:0:
109,192,116419,1,0,0:0:0:0:
182,192,116555,1,0,0:0:0:0:
109,192,116555,1,0,0:0:0:0:
36,192,116555,1,0,0:0:0:0:
475,192,116692,1,0,0:0:0:0:
402,192,116692,1,0,0:0:0:0:
329,192,116692,1,8,0:0:0:0:
256,192,116828,1,0,0:0:0:0:
182,192,116828,1,0,0:0:0:0:
109,192,116828,1,0,0:0:0:0:
329,192,116965,1,0,0:0:0:0:
475,192,116965,1,0,0:0:0:0:
256,192,116965,1,0,0:0:0:0:
109,192,116965,1,2,0:0:0:0:
182,192,116965,1,0,0:0:0:0:
475,192,117101,1,0,0:0:0:0:
329,192,117101,1,0,0:0:0:0:
256,192,117237,1,0,0:0:0:0:
402,192,117237,1,0,0:0:0:0:
182,192,117237,1,0,0:0:0:0:
36,192,117237,1,8,0:0:0:0:
109,192,117237,1,4,0:0:0:0:
182,192,117374,1,0,0:0:0:0:
36,192,117374,1,0,0:0:0:0:
402,192,117510,1,0,0:0:0:0:
475,192,117510,1,0,0:0:0:0:
329,192,117510,1,0,0:0:0:0:
109,192,117510,1,2,0:0:0:0:
256,192,117510,1,4,0:0:0:0:
402,192,117646,1,0,0:0:0:0:
256,192,117646,1,0,0:0:0:0:
329,192,117783,1,0,0:0:0:0:
475,192,117783,1,0,0:0:0:0:
182,192,117783,1,0,0:0:0:0:
36,192,117783,1,8,0:0:0:0:
109,192,117783,1,4,0:0:0:0:
182,192,117919,1,0,0:0:0:0:
109,192,117919,1,0,0:0:0:0:
36,192,117919,1,0,0:0:0:0:
256,192,118055,1,0,0:0:0:0:
402,192,118055,1,0,0:0:0:0:
182,192,118055,1,0,0:0:0:0:
36,192,118055,1,2,0:0:0:0:
109,192,118055,1,0,0:0:0:0:
402,192,118192,1,0,0:0:0:0:
256,192,118192,1,0,0:0:0:0:
329,192,118328,1,0,0:0:0:0:
182,192,118328,1,0,0:0:0:0:
36,192,118328,1,8,0:0:0:0:
182,192,118465,1,0,0:0:0:0:
36,192,118465,1,0,0:0:0:0:
402,192,118601,1,0,0:0:0:0:
475,192,118601,1,0,0:0:0:0:
329,192,118601,1,0,0:0:0:0:
109,192,118601,1,2,0:0:0:0:
256,192,118601,1,0,0:0:0:0:
475,192,118737,1,0,0:0:0:0:
402,192,118737,1,0,0:0:0:0:
329,192,118737,1,0,0:0:0:0:
182,192,118874,1,0,0:0:0:0:
109,192,118874,1,0,0:0:0:0:
36,192,118874,1,8,0:0:0:0:
402,192,119010,1,0,0:0:0:0:
329,192,119010,1,0,0:0:0:0:
256,192,119010,1,0,0:0:0:0:
402,192,119146,1,0,0:0:0:0:
475,192,119146,1,0,0:0:0:0:
329,192,119146,1,0,0:0:0:0:
36,192,119146,1,2,0:0:0:0:
109,192,119146,1,0,0:0:0:0:
256,192,119283,1,0,0:0:0:0:
182,192,119283,1,0,0:0:0:0:
402,192,119419,1,0,0:0:0:0:
475,192,119419,1,0,0:0:0:0:
329,192,119419,1,0,0:0:0:0:
36,192,119419,1,8,0:0:0:0:
109,192,119419,1,4,0:0:0:0:
109,192,119555,1,0,0:0:0:0:
36,192,119555,1,0,0:0:0:0:
402,192,119692,1,0,0:0:0:0:
475,192,119692,1,0,0:0:0:0:
182,192,119692,1,2,0:0:0:0:
329,192,119692,1,4,0:0:0:0:
402,192,119828,1,0,0:0:0:0:
329,192,119828,1,0,0:0:0:0:
256,192,119828,1,0,0:0:0:0:
256,192,119965,1,0,0:0:0:0:
329,192,119965,1,0,0:0:0:0:
182,192,119965,1,0,0:0:0:0:
36,192,119965,1,8,0:0:0:0:
109,192,119965,1,4,0:0:0:0:
182,192,120101,1,0,0:0:0:0:
109,192,120101,1,0,0:0:0:0:
36,192,120101,1,0,0:0:0:0:
256,192,120237,1,0,0:0:0:0:
402,192,120237,1,0,0:0:0:0:
182,192,120237,1,0,0:0:0:0:
36,192,120237,1,2,0:0:0:0:
109,192,120237,1,0,0:0:0:0:
402,192,120374,1,0,0:0:0:0:
256,192,120374,1,0,0:0:0:0:
329,192,120510,1,0,0:0:0:0:
182,192,120510,1,0,0:0:0:0:
36,192,120510,1,8,0:0:0:0:
182,192,120646,1,0,0:0:0:0:
36,192,120646,1,0,0:0:0:0:
402,192,120783,1,0,0:0:0:0:
475,192,120783,1,0,0:0:0:0:
329,192,120783,1,0,0:0:0:0:
109,192,120783,1,2,0:0:0:0:
256,192,120783,1,0,0:0:0:0:
475,192,120919,1,0,0:0:0:0:
402,192,120919,1,0,0:0:0:0:
329,192,120919,1,0,0:0:0:0:
182,192,121055,1,0,0:0:0:0:
256,192,121055,1,0,0:0:0:0:
36,192,121055,1,8,0:0:0:0:
109,192,121055,1,4,0:0:0:0:
475,192,121192,1,0,0:0:0:0:
402,192,121192,1,0,0:0:0:0:
329,192,121192,1,0,0:0:0:0:
329,192,121328,1,0,0:0:0:0:
402,192,121328,1,0,0:0:0:0:
475,192,121328,1,0,0:0:0:0:
109,192,121328,1,2,0:0:0:0:
182,192,121328,1,0,0:0:0:0:
256,192,121328,1,0,0:0:0:0:
182,192,121465,1,0,0:0:0:0:
109,192,121465,1,0,0:0:0:0:
36,192,121465,1,2,0:0:0:0:
402,192,121601,1,0,0:0:0:0:
475,192,121601,1,0,0:0:0:0:
256,192,121601,1,8,0:0:0:0:
329,192,121601,1,0,0:0:0:0:
329,192,121737,1,0,0:0:0:0:
256,192,121737,1,0,0:0:0:0:
182,192,121737,1,8,0:0:0:0:
402,192,121874,1,0,0:0:0:0:
475,192,121874,1,0,0:0:0:0:
182,192,121874,1,0,0:0:0:0:
36,192,121874,1,8,0:0:0:0:
109,192,121874,1,0,0:0:0:0:
402,192,122010,1,0,0:0:0:0:
475,192,122010,1,0,0:0:0:0:
256,192,122010,1,8,0:0:0:0:
329,192,122010,1,0,0:0:0:0:
256,192,122146,1,0,0:0:0:0:
329,192,122146,1,0,0:0:0:0:
182,192,122146,1,0,0:0:0:0:
36,192,122146,1,8,0:0:0:0:
109,192,122146,1,4,0:0:0:0:
182,192,122283,1,0,0:0:0:0:
109,192,122283,1,0,0:0:0:0:
36,192,122283,1,0,0:0:0:0:
329,192,122419,1,0,0:0:0:0:
475,192,122419,1,0,0:0:0:0:
182,192,122419,1,0,0:0:0:0:
36,192,122419,1,2,0:0:0:0:
109,192,122419,1,0,0:0:0:0:
475,192,122555,1,0,0:0:0:0:
329,192,122555,1,0,0:0:0:0:
402,192,122692,1,0,0:0:0:0:
256,192,122692,1,0,0:0:0:0:
109,192,122692,1,8,0:0:0:0:
256,192,122828,1,0,0:0:0:0:
109,192,122828,1,0,0:0:0:0:
402,192,122965,1,0,0:0:0:0:
475,192,122965,1,0,0:0:0:0:
329,192,122965,1,0,0:0:0:0:
36,192,122965,1,2,0:0:0:0:
182,192,122965,1,0,0:0:0:0:
475,192,123101,1,0,0:0:0:0:
402,192,123101,1,0,0:0:0:0:
329,192,123101,1,0,0:0:0:0:
182,192,123237,1,0,0:0:0:0:
109,192,123237,1,0,0:0:0:0:
36,192,123237,1,8,0:0:0:0:
402,192,123374,1,0,0:0:0:0:
329,192,123374,1,0,0:0:0:0:
256,192,123374,1,0,0:0:0:0:
256,192,123510,1,0,0:0:0:0:
329,192,123510,1,0,0:0:0:0:
182,192,123510,1,0,0:0:0:0:
36,192,123510,1,2,0:0:0:0:
109,192,123510,1,0,0:0:0:0:
109,192,123646,1,0,0:0:0:0:
36,192,123646,1,0,0:0:0:0:
402,192,123783,1,0,0:0:0:0:
475,192,123783,1,0,0:0:0:0:
329,192,123783,1,0,0:0:0:0:
182,192,123783,1,8,0:0:0:0:
256,192,123783,1,4,0:0:0:0:
329,192,123919,1,0,0:0:0:0:
256,192,123919,1,0,0:0:0:0:
402,192,124055,1,0,0:0:0:0:
475,192,124055,1,0,0:0:0:0:
182,192,124055,1,0,0:0:0:0:
36,192,124055,1,2,0:0:0:0:
109,192,124055,1,4,0:0:0:0:
256,192,124192,1,0,0:0:0:0:
182,192,124192,1,0,0:0:0:0:
109,192,124192,1,0,0:0:0:0:
402,192,124328,1,0,0:0:0:0:
475,192,124328,1,0,0:0:0:0:
329,192,124328,1,0,0:0:0:0:
182,192,124328,1,8,0:0:0:0:
256,192,124328,1,4,0:0:0:0:
475,192,124465,1,0,0:0:0:0:
402,192,124465,1,0,0:0:0:0:
329,192,124465,1,0,0:0:0:0:
402,192,124601,1,0,0:0:0:0:
475,192,124601,1,0,0:0:0:0:
329,192,124601,1,0,0:0:0:0:
36,192,124601,1,2,0:0:0:0:
182,192,124601,1,0,0:0:0:0:
182,192,124737,1,0,0:0:0:0:
36,192,124737,1,0,0:0:0:0:
402,192,124874,1,0,0:0:0:0:
256,192,124874,1,0,0:0:0:0:
109,192,124874,1,8,0:0:0:0:
402,192,125010,1,0,0:0:0:0:
256,192,125010,1,0,0:0:0:0:
329,192,125146,1,0,0:0:0:0:
475,192,125146,1,0,0:0:0:0:
182,192,125146,1,0,0:0:0:0:
36,192,125146,1,2,0:0:0:0:
109,192,125146,1,0,0:0:0:0:
182,192,125283,1,0,0:0:0:0:
109,192,125283,1,0,0:0:0:0:
36,192,125283,1,0,0:0:0:0:
475,192,125419,1,0,0:0:0:0:
402,192,125419,1,0,0:0:0:0:
329,192,125419,1,8,0:0:0:0:
256,192,125555,1,0,0:0:0:0:
182,192,125555,1,0,0:0:0:0:
109,192,125555,1,0,0:0:0:0:
402,192,125692,1,0,0:0:0:0:
475,192,125692,1,0,0:0:0:0:
182,192,125692,1,0,0:0:0:0:
36,192,125692,1,2,0:0:0:0:
109,192,125692,1,0,0:0:0:0:
329,192,125828,1,0,0:0:0:0:
256,192,125828,1,0,0:0:0:0:
402,192,125965,1,0,0:0:0:0:
475,192,125965,1,0,0:0:0:0:
182,192,125965,1,0,0:0:0:0:
36,192,125965,1,8,0:0:0:0:
109,192,125965,1,4,0:0:0:0:
475,192,126101,1,0,0:0:0:0:
402,192,126101,1,0,0:0:0:0:
256,192,126237,1,0,0:0:0:0:
329,192,126237,1,0,0:0:0:0:
402,192,126237,1,0,0:0:0:0:
36,192,126237,1,2,0:0:0:0:
109,192,126237,1,4,0:0:0:0:
182,192,126237,1,0,0:0:0:0:
109,192,126374,1,0,0:0:0:0:
36,192,126374,1,0,0:0:0:0:
402,192,126510,1,0,0:0:0:0:
475,192,126510,1,0,0:0:0:0:
329,192,126510,1,0,0:0:0:0:
182,192,126510,1,8,0:0:0:0:
256,192,126510,1,4,0:0:0:0:
475,192,126646,1,0,0:0:0:0:
402,192,126646,1,0,0:0:0:0:
329,192,126646,1,0,0:0:0:0:
402,192,126783,1,0,0:0:0:0:
475,192,126783,1,0,0:0:0:0:
329,192,126783,1,0,0:0:0:0:
36,192,126783,1,2,0:0:0:0:
182,192,126783,1,0,0:0:0:0:
182,192,126919,1,0,0:0:0:0:
36,192,126919,1,0,0:0:0:0:
402,192,127055,1,0,0:0:0:0:
256,192,127055,1,0,0:0:0:0:
109,192,127055,1,8,0:0:0:0:
402,192,127192,1,0,0:0:0:0:
256,192,127192,1,0,0:0:0:0:
329,192,127328,1,0,0:0:0:0:
475,192,127328,1,0,0:0:0:0:
182,192,127328,1,0,0:0:0:0:
36,192,127328,1,2,0:0:0:0:
109,192,127328,1,0,0:0:0:0:
182,192,127465,1,0,0:0:0:0:
109,192,127465,1,0,0:0:0:0:
36,192,127465,1,0,0:0:0:0:
475,192,127601,1,0,0:0:0:0:
402,192,127601,1,0,0:0:0:0:
329,192,127601,1,8,0:0:0:0:
256,192,127737,1,0,0:0:0:0:
182,192,127737,1,0,0:0:0:0:
109,192,127737,1,0,0:0:0:0:
402,192,127874,1,0,0:0:0:0:
475,192,127874,1,0,0:0:0:0:
182,192,127874,1,0,0:0:0:0:
36,192,127874,1,2,0:0:0:0:
109,192,127874,1,0,0:0:0:0:
329,192,128010,1,0,0:0:0:0:
256,192,128010,1,0,0:0:0:0:
402,192,128146,1,0,0:0:0:0:
475,192,128146,1,0,0:0:0:0:
182,192,128146,1,0,0:0:0:0:
36,192,128146,1,8,0:0:0:0:
109,192,128146,1,4,0:0:0:0:
475,192,128283,1,0,0:0:0:0:
402,192,128283,1,0,0:0:0:0:
329,192,128283,1,0,0:0:0:0:
329,192,128419,1,0,0:0:0:0:
402,192,128419,1,0,0:0:0:0:
475,192,128419,1,0,0:0:0:0:
109,192,128419,1,2,0:0:0:0:
182,192,128419,1,4,0:0:0:0:
256,192,128419,1,0,0:0:0:0:
182,192,128555,1,0,0:0:0:0:
109,192,128555,1,0,0:0:0:0:
36,192,128555,1,0,0:0:0:0:
329,192,128692,1,0,0:0:0:0:
475,192,128692,1,0,0:0:0:0:
36,192,128692,1,8,0:0:0:0:
109,192,128692,1,4,0:0:0:0:
475,192,128828,1,0,0:0:0:0:
329,192,128828,1,0,0:0:0:0:
256,192,128965,1,0,0:0:0:0:
402,192,128965,1,0,0:0:0:0:
36,192,128965,1,2,0:0:0:0:
109,192,128965,1,0,0:0:0:0:
256,192,129101,1,0,0:0:0:0:
109,192,129101,1,0,0:0:0:0:
475,192,129237,1,0,0:0:0:0:
329,192,129237,1,0,0:0:0:0:
182,192,129237,1,8,0:0:0:0:
475,192,129374,1,0,0:0:0:0:
329,192,129374,1,0,0:0:0:0:
256,192,129510,1,0,0:0:0:0:
402,192,129510,1,0,0:0:0:0:
36,192,129510,1,2,0:0:0:0:
182,192,129510,1,0,0:0:0:0:
182,192,129646,1,0,0:0:0:0:
36,192,129646,1,0,0:0:0:0:
475,192,129783,1,0,0:0:0:0:
402,192,129783,1,0,0:0:0:0:
329,192,129783,1,2,0:0:0:0:
182,192,129851,1,0,0:0:0:0:
109,192,129851,1,0,0:0:0:0:
36,192,129851,1,2,0:0:0:0:
475,192,129919,1,0,0:0:0:0:
402,192,129919,1,0,0:0:0:0:
329,192,129919,1,2,0:0:0:0:
475,192,130055,1,0,0:0:0:0:
402,192,130055,1,0,0:0:0:0:
329,192,130055,1,2,0:0:0:0:
475,192,130192,1,0,0:0:0:0:
402,192,130192,1,0,0:0:0:0:
329,192,130192,1,2,0:0:0:0:
256,192,130260,1,2,0:0:0:0:
402,192,130328,1,0,0:0:0:0:
475,192,130328,1,0,0:0:0:0:
182,192,130328,1,0,0:0:0:0:
36,192,130328,1,2,0:0:0:0:
109,192,130328,1,0,0:0:0:0:
182,192,130465,1,0,0:0:0:0:
109,192,130465,1,0,0:0:0:0:
36,192,130465,1,2,0:0:0:0:
182,192,130601,1,0,0:0:0:0:
109,192,130601,1,0,0:0:0:0:
36,192,130601,1,2,0:0:0:0:
182,192,130737,1,0,0:0:0:0:
109,192,130737,1,0,0:0:0:0:
36,192,130737,1,2,0:0:0:0:
329,192,130874,1,0,0:0:0:0:
402,192,130874,1,0,0:0:0:0:
475,192,130874,1,0,0:0:0:0:
256,192,130874,1,0,0:0:0:0:
36,192,130874,1,8,0:0:0:0:
109,192,130874,1,0,0:0:0:0:
182,192,130874,1,0,0:0:0:0:
475,192,131010,1,0,0:0:0:0:
475,192,131146,1,0,0:0:0:0:
109,192,131283,1,0,0:0:0:0:
402,192,131419,1,0,0:0:0:0:
256,192,131419,1,8,0:0:0:0:
402,192,131555,1,0,0:0:0:0:
36,192,131692,1,0,0:0:0:0:
36,192,131828,1,0,0:0:0:0:
256,192,131965,1,0,0:0:0:0:
36,192,131965,1,8,0:0:0:0:
329,192,132101,1,0,0:0:0:0:
109,192,132237,1,0,0:0:0:0:
329,192,132374,1,0,0:0:0:0:
256,192,132510,1,0,0:0:0:0:
182,192,132510,1,8,0:0:0:0:
182,192,132646,1,0,0:0:0:0:
402,192,132783,1,0,0:0:0:0:
402,192,132919,1,0,0:0:0:0:
256,192,133055,1,0,0:0:0:0:
109,192,133055,1,8,0:0:0:0:
109,192,133192,1,0,0:0:0:0:
329,192,133328,1,0,0:0:0:0:
36,192,133465,1,0,0:0:0:0:
256,192,133601,1,0,0:0:0:0:
36,192,133601,1,8,0:0:0:0:
329,192,133737,1,0,0:0:0:0:
109,192,133874,1,0,0:0:0:0:
402,192,134010,1,0,0:0:0:0:
256,192,134146,1,0,0:0:0:0:
182,192,134146,1,8,0:0:0:0:
182,192,134283,1,0,0:0:0:0:
329,192,134419,1,0,0:0:0:0:
329,192,134555,1,0,0:0:0:0:
256,192,134692,1,0,0:0:0:0:
109,192,134692,1,8,0:0:0:0:
109,192,134828,1,0,0:0:0:0:
329,192,134965,1,0,0:0:0:0:
475,192,134965,1,0,0:0:0:0:
36,192,134965,1,2,0:0:0:0:
182,192,134965,1,0,0:0:0:0:
475,192,135101,1,0,0:0:0:0:
329,192,135237,1,0,0:0:0:0:
402,192,135237,1,0,0:0:0:0:
256,192,135237,1,0,0:0:0:0:
36,192,135237,1,8,0:0:0:0:
109,192,135237,1,4,0:0:0:0:
182,192,135374,1,0,0:0:0:0:
109,192,135374,1,0,0:0:0:0:
36,192,135374,1,0,0:0:0:0:
402,192,135510,1,0,0:0:0:0:
475,192,135510,1,0,0:0:0:0:
329,192,135510,1,0,0:0:0:0:
182,192,135510,1,2,0:0:0:0:
256,192,135510,1,0,0:0:0:0:
475,192,135646,1,0,0:0:0:0:
402,192,135646,1,0,0:0:0:0:
182,192,135783,1,0,0:0:0:0:
256,192,135783,1,0,0:0:0:0:
36,192,135783,1,8,0:0:0:0:
109,192,135783,1,0,0:0:0:0:
329,192,135919,1,0,0:0:0:0:
256,192,135919,1,0,0:0:0:0:
182,192,135919,1,8,0:0:0:0:
402,192,136055,1,0,0:0:0:0:
475,192,136055,1,0,0:0:0:0:
36,192,136055,1,2,0:0:0:0:
109,192,136055,1,0,0:0:0:0:
329,192,136192,1,0,0:0:0:0:
256,192,136192,1,0,0:0:0:0:
182,192,136192,1,0,0:0:0:0:
402,192,136328,1,0,0:0:0:0:
475,192,136328,1,0,0:0:0:0:
256,192,136328,1,8,0:0:0:0:
329,192,136328,1,0,0:0:0:0:
109,192,136465,1,0,0:0:0:0:
36,192,136465,1,0,0:0:0:0:
402,192,136601,1,0,0:0:0:0:
475,192,136601,1,0,0:0:0:0:
329,192,136601,1,0,0:0:0:0:
182,192,136601,1,2,0:0:0:0:
256,192,136601,1,0,0:0:0:0:
475,192,136737,1,0,0:0:0:0:
402,192,136737,1,0,0:0:0:0:
329,192,136737,1,0,0:0:0:0:
182,192,136874,1,0,0:0:0:0:
109,192,136874,1,0,0:0:0:0:
36,192,136874,1,8,0:0:0:0:
329,192,137010,1,0,0:0:0:0:
256,192,137010,1,0,0:0:0:0:
182,192,137010,1,8,0:0:0:0:
402,192,137146,1,0,0:0:0:0:
475,192,137146,1,0,0:0:0:0:
329,192,137146,1,0,0:0:0:0:
36,192,137146,1,2,0:0:0:0:
109,192,137146,1,0,0:0:0:0:
109,192,137283,1,0,0:0:0:0:
36,192,137283,1,0,0:0:0:0:
329,192,137419,1,0,0:0:0:0:
402,192,137419,1,0,0:0:0:0:
182,192,137419,1,8,0:0:0:0:
256,192,137419,1,0,0:0:0:0:
329,192,137555,1,0,0:0:0:0:
256,192,137555,1,0,0:0:0:0:
182,192,137555,1,0,0:0:0:0:
402,192,137692,1,0,0:0:0:0:
475,192,137692,1,0,0:0:0:0:
329,192,137692,1,0,0:0:0:0:
36,192,137692,1,2,0:0:0:0:
109,192,137692,1,0,0:0:0:0:
256,192,137828,1,0,0:0:0:0:
182,192,137828,1,0,0:0:0:0:
402,192,137965,1,0,0:0:0:0:
475,192,137965,1,0,0:0:0:0:
36,192,137965,1,8,0:0:0:0:
109,192,137965,1,0,0:0:0:0:
475,192,138101,1,0,0:0:0:0:
402,192,138101,1,0,0:0:0:0:
329,192,138101,1,8,0:0:0:0:
256,192,138237,1,0,0:0:0:0:
329,192,138237,1,0,0:0:0:0:
109,192,138237,1,2,0:0:0:0:
182,192,138237,1,0,0:0:0:0:
182,192,138374,1,0,0:0:0:0:
109,192,138374,1,0,0:0:0:0:
36,192,138374,1,0,0:0:0:0:
329,192,138510,1,0,0:0:0:0:
402,192,138510,1,0,0:0:0:0:
475,192,138510,1,0,0:0:0:0:
256,192,138510,1,0,0:0:0:0:
36,192,138510,1,8,0:0:0:0:
109,192,138510,1,4,0:0:0:0:
182,192,138510,1,0,0:0:0:0:
329,192,138919,1,0,0:0:0:0:
402,192,138919,1,0,0:0:0:0:
475,192,138919,1,0,0:0:0:0:
256,192,138919,1,0,0:0:0:0:
36,192,138919,1,8,0:0:0:0:
109,192,138919,1,0,0:0:0:0:
182,192,138919,1,0,0:0:0:0:
329,192,139328,1,0,0:0:0:0:
402,192,139328,1,0,0:0:0:0:
475,192,139328,1,0,0:0:0:0:
256,192,139328,1,0,0:0:0:0:
36,192,139328,1,8,0:0:0:0:
109,192,139328,1,0,0:0:0:0:
182,192,139328,1,0,0:0:0:0:
329,192,139601,1,0,0:0:0:0:
402,192,139601,1,0,0:0:0:0:
475,192,139601,1,0,0:0:0:0:
256,192,139601,1,0,0:0:0:0:
36,192,139601,1,8,0:0:0:0:
109,192,139601,1,4,0:0:0:0:
182,192,139601,1,0,0:0:0:0:
182,192,139737,1,0,0:0:0:0:
109,192,139737,1,0,0:0:0:0:
36,192,139737,1,0,0:0:0:0:
402,192,139874,1,0,0:0:0:0:
475,192,139874,1,0,0:0:0:0:
256,192,139874,1,2,0:0:0:0:
329,192,139874,1,0,0:0:0:0:
109,192,140010,1,0,0:0:0:0:
36,192,140010,1,0,0:0:0:0:
402,192,140146,1,0,0:0:0:0:
475,192,140146,1,0,0:0:0:0:
182,192,140146,1,8,0:0:0:0:
256,192,140146,1,0,0:0:0:0:
329,192,140283,1,0,0:0:0:0:
256,192,140283,1,0,0:0:0:0:
182,192,140283,1,8,0:0:0:0:
402,192,140419,1,0,0:0:0:0:
475,192,140419,1,0,0:0:0:0:
36,192,140419,1,2,0:0:0:0:
109,192,140419,1,0,0:0:0:0:
329,192,140555,1,0,0:0:0:0:
256,192,140555,1,0,0:0:0:0:
182,192,140555,1,0,0:0:0:0:
402,192,140692,1,0,0:0:0:0:
475,192,140692,1,0,0:0:0:0:
256,192,140692,1,8,0:0:0:0:
329,192,140692,1,0,0:0:0:0:
109,192,140828,1,0,0:0:0:0:
36,192,140828,1,0,0:0:0:0:
402,192,140965,1,0,0:0:0:0:
475,192,140965,1,0,0:0:0:0:
329,192,140965,1,0,0:0:0:0:
182,192,140965,1,2,0:0:0:0:
256,192,140965,1,0,0:0:0:0:
475,192,141101,1,0,0:0:0:0:
402,192,141101,1,0,0:0:0:0:
329,192,141101,1,0,0:0:0:0:
182,192,141237,1,0,0:0:0:0:
109,192,141237,1,0,0:0:0:0:
36,192,141237,1,8,0:0:0:0:
402,192,141374,1,0,0:0:0:0:
329,192,141374,1,0,0:0:0:0:
256,192,141374,1,8,0:0:0:0:
402,192,141510,1,0,0:0:0:0:
475,192,141510,1,0,0:0:0:0:
329,192,141510,1,0,0:0:0:0:
36,192,141510,1,2,0:0:0:0:
256,192,141510,1,0,0:0:0:0:
182,192,141646,1,0,0:0:0:0:
109,192,141646,1,0,0:0:0:0:
402,192,141783,1,0,0:0:0:0:
475,192,141783,1,0,0:0:0:0:
256,192,141783,1,8,0:0:0:0:
329,192,141783,1,0,0:0:0:0:
329,192,141919,1,0,0:0:0:0:
256,192,141919,1,0,0:0:0:0:
182,192,141919,1,0,0:0:0:0:
402,192,142055,1,0,0:0:0:0:
475,192,142055,1,0,0:0:0:0:
182,192,142055,1,0,0:0:0:0:
36,192,142055,1,2,0:0:0:0:
109,192,142055,1,0,0:0:0:0:
329,192,142192,1,0,0:0:0:0:
256,192,142192,1,0,0:0:0:0:
402,192,142328,1,0,0:0:0:0:
475,192,142328,1,0,0:0:0:0:
36,192,142328,1,8,0:0:0:0:
109,192,142328,1,0,0:0:0:0:
329,192,142465,1,0,0:0:0:0:
256,192,142465,1,0,0:0:0:0:
182,192,142465,1,8,0:0:0:0:
402,192,142601,1,0,0:0:0:0:
475,192,142601,1,0,0:0:0:0:
256,192,142601,1,2,0:0:0:0:
329,192,142601,1,0,0:0:0:0:
182,192,142737,1,0,0:0:0:0:
109,192,142737,1,0,0:0:0:0:
36,192,142737,1,0,0:0:0:0:
329,192,142874,1,0,0:0:0:0:
402,192,142874,1,0,0:0:0:0:
475,192,142874,1,0,0:0:0:0:
36,192,142874,1,2,0:0:0:0:
109,192,142874,1,0,0:0:0:0:
256,192,142874,1,0,0:0:0:0:
475,192,143010,1,0,0:0:0:0:
402,192,143010,1,0,0:0:0:0:
329,192,143010,1,8,0:0:0:0:
182,192,143146,1,0,0:0:0:0:
256,192,143146,1,0,0:0:0:0:
36,192,143146,1,2,0:0:0:0:
109,192,143146,1,0,0:0:0:0:
256,192,143283,1,8,0:0:0:0:
329,192,143419,1,0,0:0:0:0:
402,192,143419,1,0,0:0:0:0:
475,192,143419,1,0,0:0:0:0:
36,192,143419,1,2,0:0:0:0:
109,192,143419,1,0,0:0:0:0:
182,192,143419,1,0,0:0:0:0:
329,192,143555,1,0,0:0:0:0:
402,192,143555,1,0,0:0:0:0:
475,192,143555,1,0,0:0:0:0:
36,192,143555,1,2,0:0:0:0:
109,192,143555,1,0,0:0:0:0:
182,192,143555,1,0,0:0:0:0:
329,192,143692,1,0,0:0:0:0:
402,192,143692,1,0,0:0:0:0:
475,192,143692,1,0,0:0:0:0:
36,192,143692,1,2,0:0:0:0:
109,192,143692,1,0,0:0:0:0:
182,192,143692,1,0,0:0:0:0:
329,192,143828,1,0,0:0:0:0:
402,192,143828,1,0,0:0:0:0:
475,192,143828,1,0,0:0:0:0:
36,192,143828,1,2,0:0:0:0:
109,192,143828,1,0,0:0:0:0:
182,192,143828,1,0,0:0:0:0:
329,192,143965,1,0,0:0:0:0:
402,192,143965,1,0,0:0:0:0:
475,192,143965,1,0,0:0:0:0:
256,192,143965,1,0,0:0:0:0:
36,192,143965,1,8,0:0:0:0:
109,192,143965,1,4,0:0:0:0:
182,192,143965,1,0,0:0:0:0:
256,192,144101,1,0,0:0:0:0:
329,192,144237,1,0,0:0:0:0:
475,192,144237,1,0,0:0:0:0:
182,192,144237,1,0,0:0:0:0:
36,192,144237,1,2,0:0:0:0:
109,192,144237,1,0,0:0:0:0:
402,192,144374,1,0,0:0:0:0:
256,192,144374,1,0,0:0:0:0:
182,192,144510,1,0,0:0:0:0:
329,192,144510,1,0,0:0:0:0:
36,192,144510,1,8,0:0:0:0:
109,192,144510,1,0,0:0:0:0:
182,192,144646,1,0,0:0:0:0:
109,192,144646,1,0,0:0:0:0:
36,192,144646,1,0,0:0:0:0:
402,192,144783,1,0,0:0:0:0:
475,192,144783,1,0,0:0:0:0:
256,192,144783,1,2,0:0:0:0:
329,192,144783,1,0,0:0:0:0:
182,192,144919,1,0,0:0:0:0:
109,192,144919,1,0,0:0:0:0:
36,192,144919,1,0,0:0:0:0:
182,192,145055,1,0,0:0:0:0:
402,192,145055,1,0,0:0:0:0:
36,192,145055,1,8,0:0:0:0:
109,192,145055,1,0,0:0:0:0:
475,192,145192,1,0,0:0:0:0:
329,192,145192,1,0,0:0:0:0:
256,192,145328,1,0,0:0:0:0:
402,192,145328,1,0,0:0:0:0:
182,192,145328,1,0,0:0:0:0:
36,192,145328,1,2,0:0:0:0:
109,192,145328,1,0,0:0:0:0:
182,192,145465,1,0,0:0:0:0:
109,192,145465,1,0,0:0:0:0:
36,192,145465,1,0,0:0:0:0:
475,192,145601,1,0,0:0:0:0:
402,192,145601,1,0,0:0:0:0:
256,192,145601,1,8,0:0:0:0:
182,192,145737,1,0,0:0:0:0:
109,192,145737,1,0,0:0:0:0:
36,192,145737,1,0,0:0:0:0:
329,192,145874,1,0,0:0:0:0:
402,192,145874,1,0,0:0:0:0:
475,192,145874,1,0,0:0:0:0:
36,192,145874,1,2,0:0:0:0:
109,192,145874,1,4,0:0:0:0:
256,192,145874,1,0,0:0:0:0:
256,192,146010,1,0,0:0:0:0:
182,192,146010,1,0,0:0:0:0:
402,192,146146,1,0,0:0:0:0:
475,192,146146,1,0,0:0:0:0:
329,192,146146,1,0,0:0:0:0:
36,192,146146,1,8,0:0:0:0:
109,192,146146,1,4,0:0:0:0:
475,192,146283,1,0,0:0:0:0:
402,192,146283,1,0,0:0:0:0:
329,192,146283,1,0,0:0:0:0:
402,192,146419,1,0,0:0:0:0:
475,192,146419,1,0,0:0:0:0:
329,192,146419,1,0,0:0:0:0:
109,192,146419,1,2,0:0:0:0:
256,192,146419,1,0,0:0:0:0:
182,192,146555,1,0,0:0:0:0:
36,192,146555,1,0,0:0:0:0:
402,192,146692,1,0,0:0:0:0:
475,192,146692,1,0,0:0:0:0:
109,192,146692,1,8,0:0:0:0:
329,192,146692,1,0,0:0:0:0:
475,192,146828,1,0,0:0:0:0:
402,192,146828,1,0,0:0:0:0:
329,192,146828,1,0,0:0:0:0:
182,192,146965,1,0,0:0:0:0:
256,192,146965,1,0,0:0:0:0:
36,192,146965,1,2,0:0:0:0:
109,192,146965,1,0,0:0:0:0:
475,192,147101,1,0,0:0:0:0:
402,192,147101,1,0,0:0:0:0:
329,192,147101,1,0,0:0:0:0:
329,192,147237,1,0,0:0:0:0:
402,192,147237,1,0,0:0:0:0:
475,192,147237,1,0,0:0:0:0:
256,192,147237,1,0,0:0:0:0:
36,192,147237,1,8,0:0:0:0:
109,192,147237,1,0,0:0:0:0:
182,192,147237,1,0,0:0:0:0:
36,192,147374,1,0,0:0:0:0:
36,192,147510,1,2,0:0:0:0:
329,192,147646,1,0,0:0:0:0:
402,192,147646,1,0,0:0:0:0:
475,192,147646,1,0,0:0:0:0:
256,192,147646,1,0,0:0:0:0:
36,192,147646,1,0,0:0:0:0:
109,192,147646,1,0,0:0:0:0:
182,192,147646,1,0,0:0:0:0:
475,192,147783,1,8,0:0:0:0:
475,192,147919,1,0,0:0:0:0:
329,192,148055,1,0,0:0:0:0:
402,192,148055,1,0,0:0:0:0:
475,192,148055,1,0,0:0:0:0:
256,192,148055,1,0,0:0:0:0:
36,192,148055,1,2,0:0:0:0:
109,192,148055,1,4,0:0:0:0:
182,192,148055,1,0,0:0:0:0:
256,192,148192,1,0,0:0:0:0:
329,192,148328,1,0,0:0:0:0:
402,192,148328,1,0,0:0:0:0:
475,192,148328,1,0,0:0:0:0:
256,192,148328,1,0,0:0:0:0:
36,192,148328,1,8,0:0:0:0:
109,192,148328,1,4,0:0:0:0:
182,192,148328,1,0,0:0:0:0:
475,192,148465,1,0,0:0:0:0:
402,192,148465,1,0,0:0:0:0:
329,192,148465,1,0,0:0:0:0:
402,192,148601,1,0,0:0:0:0:
475,192,148601,1,0,0:0:0:0:
329,192,148601,1,0,0:0:0:0:
36,192,148601,1,2,0:0:0:0:
182,192,148601,1,0,0:0:0:0:
256,192,148737,1,0,0:0:0:0:
109,192,148737,1,0,0:0:0:0:
402,192,148874,1,0,0:0:0:0:
475,192,148874,1,0,0:0:0:0:
182,192,148874,1,8,0:0:0:0:
329,192,148874,1,0,0:0:0:0:
475,192,149010,1,0,0:0:0:0:
402,192,149010,1,0,0:0:0:0:
329,192,149010,1,0,0:0:0:0:
182,192,149146,1,0,0:0:0:0:
256,192,149146,1,0,0:0:0:0:
36,192,149146,1,2,0:0:0:0:
109,192,149146,1,0,0:0:0:0:
475,192,149283,1,0,0:0:0:0:
402,192,149283,1,0,0:0:0:0:
329,192,149283,1,0,0:0:0:0:
402,192,149419,1,0,0:0:0:0:
475,192,149419,1,0,0:0:0:0:
109,192,149419,1,8,0:0:0:0:
329,192,149419,1,0,0:0:0:0:
182,192,149555,1,0,0:0:0:0:
36,192,149555,1,0,0:0:0:0:
402,192,149692,1,0,0:0:0:0:
475,192,149692,1,0,0:0:0:0:
329,192,149692,1,0,0:0:0:0:
109,192,149692,1,2,0:0:0:0:
256,192,149692,1,0,0:0:0:0:
475,192,149828,1,0,0:0:0:0:
402,192,149828,1,0,0:0:0:0:
329,192,149828,1,0,0:0:0:0:
256,192,149965,1,0,0:0:0:0:
182,192,149965,1,0,0:0:0:0:
36,192,149965,1,8,0:0:0:0:
475,192,150101,1,0,0:0:0:0:
402,192,150101,1,0,0:0:0:0:
329,192,150101,1,0,0:0:0:0:
329,192,150237,1,0,0:0:0:0:
402,192,150237,1,0,0:0:0:0:
475,192,150237,1,0,0:0:0:0:
256,192,150237,1,0,0:0:0:0:
36,192,150237,1,2,0:0:0:0:
109,192,150237,1,4,0:0:0:0:
182,192,150237,1,0,0:0:0:0:
256,192,150374,1,0,0:0:0:0:
329,192,150510,1,0,0:0:0:0:
402,192,150510,1,0,0:0:0:0:
475,192,150510,1,0,0:0:0:0:
256,192,150510,1,0,0:0:0:0:
36,192,150510,1,8,0:0:0:0:
109,192,150510,1,4,0:0:0:0:
182,192,150510,1,0,0:0:0:0:
182,192,150646,1,0,0:0:0:0:
109,192,150646,1,0,0:0:0:0:
36,192,150646,1,0,0:0:0:0:
329,192,150783,1,0,0:0:0:0:
475,192,150783,1,0,0:0:0:0:
182,192,150783,1,0,0:0:0:0:
36,192,150783,1,2,0:0:0:0:
109,192,150783,1,0,0:0:0:0:
402,192,150919,1,0,0:0:0:0:
256,192,150919,1,0,0:0:0:0:
182,192,151055,1,0,0:0:0:0:
329,192,151055,1,0,0:0:0:0:
36,192,151055,1,8,0:0:0:0:
109,192,151055,1,0,0:0:0:0:
182,192,151192,1,0,0:0:0:0:
109,192,151192,1,0,0:0:0:0:
36,192,151192,1,0,0:0:0:0:
402,192,151328,1,0,0:0:0:0:
475,192,151328,1,0,0:0:0:0:
256,192,151328,1,2,0:0:0:0:
329,192,151328,1,0,0:0:0:0:
256,192,151465,1,0,0:0:0:0:
329,192,151601,1,0,0:0:0:0:
402,192,151601,1,0,0:0:0:0:
475,192,151601,1,0,0:0:0:0:
36,192,151601,1,8,0:0:0:0:
109,192,151601,1,4,0:0:0:0:
182,192,151601,1,0,0:0:0:0:
329,192,151737,1,0,0:0:0:0:
402,192,151737,1,0,0:0:0:0:
475,192,151737,1,0,0:0:0:0:
36,192,151737,1,2,0:0:0:0:
109,192,151737,1,0,0:0:0:0:
182,192,151737,1,0,0:0:0:0:
329,192,151874,1,0,0:0:0:0:
402,192,151874,1,0,0:0:0:0:
475,192,151874,1,0,0:0:0:0:
36,192,151874,1,2,0:0:0:0:
109,192,151874,1,0,0:0:0:0:
182,192,151874,1,0,0:0:0:0:
256,192,152010,1,8,0:0:0:0:
329,192,152146,1,0,0:0:0:0:
402,192,152146,1,0,0:0:0:0:
475,192,152146,1,0,0:0:0:0:
36,192,152146,1,2,0:0:0:0:
109,192,152146,1,0,0:0:0:0:
182,192,152146,1,0,0:0:0:0:
329,192,152283,1,0,0:0:0:0:
402,192,152283,1,0,0:0:0:0:
475,192,152283,1,0,0:0:0:0:
36,192,152283,1,2,0:0:0:0:
109,192,152283,1,0,0:0:0:0:
182,192,152283,1,0,0:0:0:0:
256,192,152419,1,8,0:0:0:0:
256,192,152555,1,0,0:0:0:0:
329,192,152692,1,0,0:0:0:0:
402,192,152692,1,0,0:0:0:0:
475,192,152692,1,0,0:0:0:0:
256,192,152692,1,0,0:0:0:0:
36,192,152692,1,8,0:0:0:0:
109,192,152692,1,4,0:0:0:0:
182,192,152692,1,0,0:0:0:0:
475,192,152828,1,0,0:0:0:0:
329,192,152828,1,0,0:0:0:0:
256,192,152965,1,0,0:0:0:0:
402,192,152965,1,0,0:0:0:0:
182,192,152965,1,0,0:0:0:0:
36,192,152965,1,2,0:0:0:0:
109,192,152965,1,0,0:0:0:0:
256,192,153101,1,0,0:0:0:0:
109,192,153101,1,0,0:0:0:0:
329,192,153237,1,0,0:0:0:0:
475,192,153237,1,0,0:0:0:0:
36,192,153237,1,8,0:0:0:0:
182,192,153237,1,0,0:0:0:0:
475,192,153374,1,0,0:0:0:0:
329,192,153374,1,8,0:0:0:0:
256,192,153510,1,0,0:0:0:0:
402,192,153510,1,0,0:0:0:0:
182,192,153510,1,0,0:0:0:0:
36,192,153510,1,2,0:0:0:0:
109,192,153510,1,0,0:0:0:0:
182,192,153646,1,0,0:0:0:0:
36,192,153646,1,0,0:0:0:0:
402,192,153783,1,0,0:0:0:0:
475,192,153783,1,0,0:0:0:0:
109,192,153783,1,8,0:0:0:0:
256,192,153783,1,0,0:0:0:0:
402,192,153919,1,0,0:0:0:0:
256,192,153919,1,0,0:0:0:0:
329,192,154055,1,0,0:0:0:0:
475,192,154055,1,0,0:0:0:0:
182,192,154055,1,0,0:0:0:0:
36,192,154055,1,2,0:0:0:0:
109,192,154055,1,0,0:0:0:0:
182,192,154192,1,0,0:0:0:0:
36,192,154192,1,0,0:0:0:0:
402,192,154328,1,0,0:0:0:0:
475,192,154328,1,0,0:0:0:0:
329,192,154328,1,0,0:0:0:0:
109,192,154328,1,8,0:0:0:0:
256,192,154328,1,0,0:0:0:0:
475,192,154465,1,0,0:0:0:0:
402,192,154465,1,8,0:0:0:0:
256,192,154601,1,0,0:0:0:0:
329,192,154601,1,0,0:0:0:0:
182,192,154601,1,0,0:0:0:0:
36,192,154601,1,2,0:0:0:0:
109,192,154601,1,0,0:0:0:0:
182,192,154737,1,0,0:0:0:0:
109,192,154737,1,0,0:0:0:0:
402,192,154874,1,0,0:0:0:0:
475,192,154874,1,0,0:0:0:0:
329,192,154874,1,0,0:0:0:0:
36,192,154874,1,8,0:0:0:0:
256,192,154874,1,0,0:0:0:0:
402,192,155010,1,0,0:0:0:0:
329,192,155010,1,0,0:0:0:0:
256,192,155146,1,0,0:0:0:0:
475,192,155146,1,0,0:0:0:0:
182,192,155146,1,0,0:0:0:0:
36,192,155146,1,2,0:0:0:0:
109,192,155146,1,0,0:0:0:0:
182,192,155283,1,0,0:0:0:0:
36,192,155283,1,0,0:0:0:0:
402,192,155419,1,0,0:0:0:0:
475,192,155419,1,0,0:0:0:0:
109,192,155419,1,8,0:0:0:0:
256,192,155419,1,0,0:0:0:0:
329,192,155555,1,0,0:0:0:0:
182,192,155555,1,8,0:0:0:0:
402,192,155692,1,0,0:0:0:0:
475,192,155692,1,0,0:0:0:0:
256,192,155692,1,0,0:0:0:0:
36,192,155692,1,2,0:0:0:0:
109,192,155692,1,0,0:0:0:0:
475,192,155828,1,0,0:0:0:0:
329,192,155828,1,0,0:0:0:0:
256,192,155965,1,0,0:0:0:0:
402,192,155965,1,0,0:0:0:0:
36,192,155965,1,8,0:0:0:0:
109,192,155965,1,0,0:0:0:0:
329,192,156101,1,0,0:0:0:0:
182,192,156101,1,0,0:0:0:0:
402,192,156237,1,0,0:0:0:0:
475,192,156237,1,0,0:0:0:0:
256,192,156237,1,0,0:0:0:0:
36,192,156237,1,2,0:0:0:0:
109,192,156237,1,0,0:0:0:0:
182,192,156374,1,0,0:0:0:0:
36,192,156374,1,0,0:0:0:0:
329,192,156510,1,0,0:0:0:0:
475,192,156510,1,0,0:0:0:0:
109,192,156510,1,8,0:0:0:0:
256,192,156510,1,0,0:0:0:0:
475,192,156646,1,0,0:0:0:0:
329,192,156646,1,8,0:0:0:0:
256,192,156783,1,0,0:0:0:0:
402,192,156783,1,0,0:0:0:0:
182,192,156783,1,0,0:0:0:0:
36,192,156783,1,2,0:0:0:0:
109,192,156783,1,0,0:0:0:0:
256,192,156919,1,0,0:0:0:0:
329,192,157055,1,0,0:0:0:0:
402,192,157055,1,0,0:0:0:0:
475,192,157055,1,0,0:0:0:0:
36,192,157055,1,8,0:0:0:0:
109,192,157055,1,4,0:0:0:0:
182,192,157055,1,0,0:0:0:0:
475,192,157192,1,0,0:0:0:0:
329,192,157192,1,0,0:0:0:0:
256,192,157328,1,0,0:0:0:0:
402,192,157328,1,0,0:0:0:0:
182,192,157328,1,0,0:0:0:0:
36,192,157328,1,2,0:0:0:0:
109,192,157328,1,0,0:0:0:0:
256,192,157465,1,0,0:0:0:0:
109,192,157465,1,0,0:0:0:0:
329,192,157601,1,0,0:0:0:0:
475,192,157601,1,0,0:0:0:0:
36,192,157601,1,8,0:0:0:0:
182,192,157601,1,0,0:0:0:0:
475,192,157737,1,0,0:0:0:0:
329,192,157737,1,8,0:0:0:0:
256,192,157874,1,0,0:0:0:0:
402,192,157874,1,0,0:0:0:0:
182,192,157874,1,0,0:0:0:0:
36,192,157874,1,2,0:0:0:0:
109,192,157874,1,0,0:0:0:0:
182,192,158010,1,0,0:0:0:0:
36,192,158010,1,0,0:0:0:0:
402,192,158146,1,0,0:0:0:0:
475,192,158146,1,0,0:0:0:0:
109,192,158146,1,8,0:0:0:0:
256,192,158146,1,0,0:0:0:0:
402,192,158283,1,0,0:0:0:0:
256,192,158283,1,0,0:0:0:0:
329,192,158419,1,0,0:0:0:0:
475,192,158419,1,0,0:0:0:0:
182,192,158419,1,0,0:0:0:0:
36,192,158419,1,2,0:0:0:0:
109,192,158419,1,0,0:0:0:0:
182,192,158555,1,0,0:0:0:0:
109,192,158555,1,0,0:0:0:0:
402,192,158692,1,0,0:0:0:0:
475,192,158692,1,0,0:0:0:0:
329,192,158692,1,0,0:0:0:0:
36,192,158692,1,8,0:0:0:0:
256,192,158692,1,0,0:0:0:0:
475,192,158828,1,0,0:0:0:0:
402,192,158828,1,8,0:0:0:0:
256,192,158965,1,0,0:0:0:0:
329,192,158965,1,0,0:0:0:0:
182,192,158965,1,0,0:0:0:0:
36,192,158965,1,2,0:0:0:0:
109,192,158965,1,0,0:0:0:0:
109,192,159101,1,0,0:0:0:0:
36,192,159101,1,0,0:0:0:0:
402,192,159237,1,0,0:0:0:0:
475,192,159237,1,0,0:0:0:0:
329,192,159237,1,0,0:0:0:0:
182,192,159237,1,8,0:0:0:0:
256,192,159237,1,0,0:0:0:0:
475,192,159374,1,0,0:0:0:0:
402,192,159374,1,0,0:0:0:0:
256,192,159510,1,0,0:0:0:0:
329,192,159510,1,0,0:0:0:0:
182,192,159510,1,0,0:0:0:0:
36,192,159510,1,2,0:0:0:0:
109,192,159510,1,0,0:0:0:0:
182,192,159646,1,0,0:0:0:0:
36,192,159646,1,0,0:0:0:0:
402,192,159783,1,0,0:0:0:0:
475,192,159783,1,0,0:0:0:0:
109,192,159783,1,8,0:0:0:0:
256,192,159783,1,0,0:0:0:0:
329,192,159919,1,0,0:0:0:0:
182,192,159919,1,8,0:0:0:0:
402,192,160055,1,0,0:0:0:0:
475,192,160055,1,0,0:0:0:0:
256,192,160055,1,0,0:0:0:0:
36,192,160055,1,2,0:0:0:0:
109,192,160055,1,0,0:0:0:0:
475,192,160192,1,0,0:0:0:0:
329,192,160192,1,0,0:0:0:0:
256,192,160328,1,0,0:0:0:0:
402,192,160328,1,0,0:0:0:0:
36,192,160328,1,8,0:0:0:0:
109,192,160328,1,0,0:0:0:0:
329,192,160465,1,0,0:0:0:0:
182,192,160465,1,0,0:0:0:0:
402,192,160601,1,0,0:0:0:0:
475,192,160601,1,0,0:0:0:0:
256,192,160601,1,0,0:0:0:0:
36,192,160601,1,2,0:0:0:0:
109,192,160601,1,0,0:0:0:0:
182,192,160737,1,0,0:0:0:0:
36,192,160737,1,0,0:0:0:0:
329,192,160874,1,0,0:0:0:0:
475,192,160874,1,0,0:0:0:0:
109,192,160874,1,8,0:0:0:0:
256,192,160874,1,0,0:0:0:0:
475,192,161010,1,0,0:0:0:0:
329,192,161010,1,8,0:0:0:0:
256,192,161146,1,0,0:0:0:0:
402,192,161146,1,0,0:0:0:0:
182,192,161146,1,0,0:0:0:0:
36,192,161146,1,2,0:0:0:0:
109,192,161146,1,0,0:0:0:0:
256,192,161283,1,0,0:0:0:0:
329,192,161419,1,0,0:0:0:0:
402,192,161419,1,0,0:0:0:0:
475,192,161419,1,0,0:0:0:0:
36,192,161419,1,8,0:0:0:0:
109,192,161419,1,4,0:0:0:0:
182,192,161419,1,0,0:0:0:0:
182,192,161555,1,0,0:0:0:0:
36,192,161555,1,0,0:0:0:0:
402,192,161692,1,0,0:0:0:0:
475,192,161692,1,0,0:0:0:0:
329,192,161692,1,0,0:0:0:0:
109,192,161692,1,2,0:0:0:0:
256,192,161692,1,0,0:0:0:0:
475,192,161828,1,0,0:0:0:0:
329,192,161828,1,0,0:0:0:0:
256,192,161965,1,0,0:0:0:0:
402,192,161965,1,0,0:0:0:0:
36,192,161965,1,8,0:0:0:0:
109,192,161965,1,0,0:0:0:0:
256,192,162101,1,0,0:0:0:0:
109,192,162101,1,8,0:0:0:0:
402,192,162237,1,0,0:0:0:0:
475,192,162237,1,0,0:0:0:0:
329,192,162237,1,0,0:0:0:0:
36,192,162237,1,2,0:0:0:0:
182,192,162237,1,0,0:0:0:0:
475,192,162374,1,0,0:0:0:0:
329,192,162374,1,0,0:0:0:0:
256,192,162510,1,0,0:0:0:0:
402,192,162510,1,0,0:0:0:0:
36,192,162510,1,8,0:0:0:0:
182,192,162510,1,0,0:0:0:0:
182,192,162646,1,0,0:0:0:0:
36,192,162646,1,0,0:0:0:0:
402,192,162783,1,0,0:0:0:0:
475,192,162783,1,0,0:0:0:0:
329,192,162783,1,0,0:0:0:0:
109,192,162783,1,2,0:0:0:0:
256,192,162783,1,0,0:0:0:0:
475,192,162919,1,0,0:0:0:0:
329,192,162919,1,0,0:0:0:0:
256,192,163055,1,0,0:0:0:0:
402,192,163055,1,0,0:0:0:0:
182,192,163055,1,0,0:0:0:0:
36,192,163055,1,8,0:0:0:0:
109,192,163055,1,0,0:0:0:0:
109,192,163192,1,0,0:0:0:0:
36,192,163192,1,8,0:0:0:0:
402,192,163328,1,0,0:0:0:0:
475,192,163328,1,0,0:0:0:0:
329,192,163328,1,0,0:0:0:0:
182,192,163328,1,2,0:0:0:0:
256,192,163328,1,0,0:0:0:0:
402,192,163465,1,0,0:0:0:0:
329,192,163465,1,0,0:0:0:0:
256,192,163601,1,0,0:0:0:0:
475,192,163601,1,0,0:0:0:0:
182,192,163601,1,0,0:0:0:0:
36,192,163601,1,8,0:0:0:0:
109,192,163601,1,0,0:0:0:0:
182,192,163737,1,0,0:0:0:0:
109,192,163737,1,0,0:0:0:0:
402,192,163874,1,0,0:0:0:0:
475,192,163874,1,0,0:0:0:0:
329,192,163874,1,0,0:0:0:0:
36,192,163874,1,2,0:0:0:0:
256,192,163874,1,0,0:0:0:0:
475,192,164010,1,0,0:0:0:0:
329,192,164010,1,0,0:0:0:0:
256,192,164146,1,0,0:0:0:0:
402,192,164146,1,0,0:0:0:0:
36,192,164146,1,8,0:0:0:0:
109,192,164146,1,0,0:0:0:0:
329,192,164283,1,0,0:0:0:0:
182,192,164283,1,8,0:0:0:0:
402,192,164419,1,0,0:0:0:0:
475,192,164419,1,0,0:0:0:0:
256,192,164419,1,0,0:0:0:0:
36,192,164419,1,2,0:0:0:0:
109,192,164419,1,0,0:0:0:0:
182,192,164555,1,0,0:0:0:0:
36,192,164555,1,0,0:0:0:0:
402,192,164692,1,0,0:0:0:0:
475,192,164692,1,0,0:0:0:0:
109,192,164692,1,8,0:0:0:0:
256,192,164692,1,0,0:0:0:0:
329,192,164828,1,0,0:0:0:0:
182,192,164828,1,0,0:0:0:0:
402,192,164965,1,0,0:0:0:0:
475,192,164965,1,0,0:0:0:0:
256,192,164965,1,0,0:0:0:0:
36,192,164965,1,2,0:0:0:0:
109,192,164965,1,0,0:0:0:0:
475,192,165101,1,0,0:0:0:0:
329,192,165101,1,0,0:0:0:0:
256,192,165237,1,0,0:0:0:0:
402,192,165237,1,0,0:0:0:0:
36,192,165237,1,8,0:0:0:0:
182,192,165237,1,0,0:0:0:0:
182,192,165374,1,0,0:0:0:0:
36,192,165374,1,8,0:0:0:0:
402,192,165510,1,0,0:0:0:0:
475,192,165510,1,0,0:0:0:0:
329,192,165510,1,0,0:0:0:0:
109,192,165510,1,2,0:0:0:0:
256,192,165510,1,0,0:0:0:0:
256,192,165646,1,0,0:0:0:0:
329,192,165783,1,0,0:0:0:0:
402,192,165783,1,0,0:0:0:0:
475,192,165783,1,0,0:0:0:0:
36,192,165783,1,8,0:0:0:0:
109,192,165783,1,4,0:0:0:0:
182,192,165783,1,0,0:0:0:0:
475,192,165919,1,0,0:0:0:0:
329,192,165919,1,0,0:0:0:0:
256,192,166055,1,0,0:0:0:0:
402,192,166055,1,0,0:0:0:0:
182,192,166055,1,0,0:0:0:0:
36,192,166055,1,2,0:0:0:0:
109,192,166055,1,0,0:0:0:0:
182,192,166192,1,0,0:0:0:0:
36,192,166192,1,0,0:0:0:0:
402,192,166328,1,0,0:0:0:0:
475,192,166328,1,0,0:0:0:0:
109,192,166328,1,8,0:0:0:0:
256,192,166328,1,0,0:0:0:0:
402,192,166465,1,0,0:0:0:0:
256,192,166465,1,8,0:0:0:0:
329,192,166601,1,0,0:0:0:0:
475,192,166601,1,0,0:0:0:0:
182,192,166601,1,0,0:0:0:0:
36,192,166601,1,2,0:0:0:0:
109,192,166601,1,0,0:0:0:0:
182,192,166737,1,0,0:0:0:0:
36,192,166737,1,0,0:0:0:0:
329,192,166874,1,0,0:0:0:0:
475,192,166874,1,0,0:0:0:0:
109,192,166874,1,8,0:0:0:0:
256,192,166874,1,0,0:0:0:0:
475,192,167010,1,0,0:0:0:0:
329,192,167010,1,0,0:0:0:0:
256,192,167146,1,0,0:0:0:0:
402,192,167146,1,0,0:0:0:0:
182,192,167146,1,0,0:0:0:0:
36,192,167146,1,2,0:0:0:0:
109,192,167146,1,0,0:0:0:0:
256,192,167283,1,0,0:0:0:0:
109,192,167283,1,0,0:0:0:0:
402,192,167419,1,0,0:0:0:0:
475,192,167419,1,0,0:0:0:0:
329,192,167419,1,0,0:0:0:0:
36,192,167419,1,8,0:0:0:0:
182,192,167419,1,0,0:0:0:0:
475,192,167555,1,0,0:0:0:0:
402,192,167555,1,8,0:0:0:0:
256,192,167692,1,0,0:0:0:0:
329,192,167692,1,0,0:0:0:0:
182,192,167692,1,0,0:0:0:0:
36,192,167692,1,2,0:0:0:0:
109,192,167692,1,0,0:0:0:0:
182,192,167828,1,0,0:0:0:0:
109,192,167828,1,0,0:0:0:0:
402,192,167965,1,0,0:0:0:0:
475,192,167965,1,0,0:0:0:0:
329,192,167965,1,0,0:0:0:0:
36,192,167965,1,8,0:0:0:0:
256,192,167965,1,0,0:0:0:0:
402,192,168101,1,0,0:0:0:0:
329,192,168101,1,0,0:0:0:0:
256,192,168237,1,0,0:0:0:0:
475,192,168237,1,0,0:0:0:0:
182,192,168237,1,0,0:0:0:0:
36,192,168237,1,2,0:0:0:0:
109,192,168237,1,0,0:0:0:0:
182,192,168374,1,0,0:0:0:0:
36,192,168374,1,0,0:0:0:0:
402,192,168510,1,0,0:0:0:0:
475,192,168510,1,0,0:0:0:0:
109,192,168510,1,8,0:0:0:0:
256,192,168510,1,0,0:0:0:0:
329,192,168646,1,0,0:0:0:0:
182,192,168646,1,8,0:0:0:0:
402,192,168783,1,0,0:0:0:0:
475,192,168783,1,0,0:0:0:0:
256,192,168783,1,0,0:0:0:0:
36,192,168783,1,2,0:0:0:0:
109,192,168783,1,0,0:0:0:0:
475,192,168919,1,0,0:0:0:0:
402,192,168919,1,0,0:0:0:0:
182,192,169055,1,0,0:0:0:0:
109,192,169055,1,0,0:0:0:0:
36,192,169055,1,2,0:0:0:0:
475,192,169124,1,0,0:0:0:0:
402,192,169124,1,0,0:0:0:0:
329,192,169124,1,2,0:0:0:0:
182,192,169192,1,0,0:0:0:0:
109,192,169192,1,0,0:0:0:0:
36,192,169192,1,2,0:0:0:0:
182,192,169328,1,0,0:0:0:0:
109,192,169328,1,0,0:0:0:0:
36,192,169328,1,2,0:0:0:0:
182,192,169465,1,0,0:0:0:0:
109,192,169465,1,0,0:0:0:0:
36,192,169465,1,2,0:0:0:0:
256,192,169533,1,2,0:0:0:0:
402,192,169601,1,0,0:0:0:0:
475,192,169601,1,0,0:0:0:0:
329,192,169601,1,0,0:0:0:0:
36,192,169601,1,2,0:0:0:0:
109,192,169601,1,0,0:0:0:0:
475,192,169737,1,0,0:0:0:0:
402,192,169737,1,0,0:0:0:0:
329,192,169737,1,2,0:0:0:0:
475,192,169874,1,0,0:0:0:0:
402,192,169874,1,0,0:0:0:0:
329,192,169874,1,2,0:0:0:0:
475,192,170010,1,0,0:0:0:0:
402,192,170010,1,0,0:0:0:0:
329,192,170010,1,2,0:0:0:0:
329,192,170146,1,0,0:0:0:0:
402,192,170146,1,0,0:0:0:0:
475,192,170146,1,0,0:0:0:0:
256,192,170146,1,0,0:0:0:0:
36,192,170146,1,8,0:0:0:0:
109,192,170146,1,4,0:0:0:0:
182,192,170146,1,0,0:0:0:0:
109,192,170283,1,0,0:0:0:0:
36,192,170283,1,8,0:0:0:0:
109,192,170419,1,0,0:0:0:0:
36,192,170419,1,8,0:0:0:0:
329,192,170555,1,0,0:0:0:0:
402,192,170555,1,0,0:0:0:0:
475,192,170555,1,0,0:0:0:0:
36,192,170555,1,8,0:0:0:0:
109,192,170555,1,0,0:0:0:0:
256,192,170555,1,0,0:0:0:0:
182,192,170692,1,0,0:0:0:0:
109,192,170692,1,0,0:0:0:0:
36,192,170692,1,8,0:0:0:0:
329,192,170965,1,0,0:0:0:0:
402,192,170965,1,0,0:0:0:0:
475,192,170965,1,0,0:0:0:0:
109,192,170965,1,8,0:0:0:0:
182,192,170965,1,0,0:0:0:0:
256,192,170965,1,0,0:0:0:0:
329,192,171237,1,0,0:0:0:0:
402,192,171237,1,0,0:0:0:0:
475,192,171237,1,0,0:0:0:0:
256,192,171237,1,0,0:0:0:0:
36,192,171237,1,2,0:0:0:0:
109,192,171237,1,0,0:0:0:0:
182,192,171237,1,0,0:0:0:0:
475,192,171374,1,0,0:0:0:0:
402,192,171374,1,8,0:0:0:0:
475,192,171510,1,0,0:0:0:0:
402,192,171510,1,8,0:0:0:0:
256,192,171646,1,0,0:0:0:0:
402,192,171646,1,0,0:0:0:0:
475,192,171646,1,0,0:0:0:0:
36,192,171646,1,8,0:0:0:0:
109,192,171646,1,0,0:0:0:0:
182,192,171646,1,0,0:0:0:0:
475,192,171783,1,0,0:0:0:0:
402,192,171783,1,0,0:0:0:0:
329,192,171783,1,8,0:0:0:0:
329,192,172055,1,0,0:0:0:0:
402,192,172055,1,0,0:0:0:0:
475,192,172055,1,0,0:0:0:0:
109,192,172055,1,8,0:0:0:0:
182,192,172055,1,0,0:0:0:0:
256,192,172055,1,0,0:0:0:0:
329,192,172328,1,0,0:0:0:0:
402,192,172328,1,0,0:0:0:0:
475,192,172328,1,0,0:0:0:0:
256,192,172328,1,0,0:0:0:0:
36,192,172328,1,4,0:0:0:0:
109,192,172328,1,8,0:0:0:0:
182,192,172328,1,0,0:0:0:0:
256,192,172465,1,0,0:0:0:0:
182,192,172465,1,8,0:0:0:0:
256,192,172601,1,0,0:0:0:0:
182,192,172601,1,8,0:0:0:0:
329,192,172737,1,0,0:0:0:0:
402,192,172737,1,0,0:0:0:0:
475,192,172737,1,0,0:0:0:0:
109,192,172737,1,8,0:0:0:0:
182,192,172737,1,0,0:0:0:0:
256,192,172737,1,0,0:0:0:0:
256,192,172874,1,0,0:0:0:0:
182,192,172874,1,0,0:0:0:0:
36,192,172874,1,8,0:0:0:0:
329,192,173146,1,0,0:0:0:0:
402,192,173146,1,0,0:0:0:0:
475,192,173146,1,0,0:0:0:0:
109,192,173146,1,8,0:0:0:0:
182,192,173146,1,0,0:0:0:0:
256,192,173146,1,0,0:0:0:0:
329,192,173419,1,0,0:0:0:0:
402,192,173419,1,0,0:0:0:0:
475,192,173419,1,0,0:0:0:0:
256,192,173419,1,0,0:0:0:0:
36,192,173419,1,2,0:0:0:0:
109,192,173419,1,0,0:0:0:0:
182,192,173419,1,0,0:0:0:0:
402,192,173555,1,0,0:0:0:0:
329,192,173555,1,8,0:0:0:0:
402,192,173692,1,0,0:0:0:0:
329,192,173692,1,8,0:0:0:0:
256,192,173828,1,0,0:0:0:0:
329,192,173828,1,0,0:0:0:0:
402,192,173828,1,0,0:0:0:0:
36,192,173828,1,8,0:0:0:0:
109,192,173828,1,0,0:0:0:0:
182,192,173828,1,0,0:0:0:0:
475,192,173965,1,0,0:0:0:0:
402,192,173965,1,0,0:0:0:0:
329,192,173965,1,8,0:0:0:0:
329,192,174237,1,0,0:0:0:0:
402,192,174237,1,0,0:0:0:0:
475,192,174237,1,0,0:0:0:0:
109,192,174237,1,8,0:0:0:0:
182,192,174237,1,0,0:0:0:0:
256,192,174237,1,0,0:0:0:0:
329,192,174510,1,0,0:0:0:0:
402,192,174510,1,0,0:0:0:0:
475,192,174510,1,0,0:0:0:0:
256,192,174510,1,0,0:0:0:0:
36,192,174510,1,8,0:0:0:0:
109,192,174510,1,0,0:0:0:0:
182,192,174510,1,0,0:0:0:0:
182,192,174646,1,0,0:0:0:0:
109,192,174646,1,8,0:0:0:0:
182,192,174783,1,0,0:0:0:0:
109,192,174783,1,8,0:0:0:0:
329,192,174919,1,0,0:0:0:0:
402,192,174919,1,0,0:0:0:0:
475,192,174919,1,0,0:0:0:0:
109,192,174919,1,8,0:0:0:0:
182,192,174919,1,0,0:0:0:0:
256,192,174919,1,0,0:0:0:0:
182,192,175055,1,0,0:0:0:0:
109,192,175055,1,0,0:0:0:0:
36,192,175055,1,8,0:0:0:0:
329,192,175328,1,0,0:0:0:0:
402,192,175328,1,0,0:0:0:0:
475,192,175328,1,0,0:0:0:0:
109,192,175328,1,8,0:0:0:0:
182,192,175328,1,0,0:0:0:0:
256,192,175328,1,0,0:0:0:0:
329,192,175601,1,0,0:0:0:0:
402,192,175601,1,0,0:0:0:0:
475,192,175601,1,0,0:0:0:0:
256,192,175601,1,0,0:0:0:0:
36,192,175601,1,2,0:0:0:0:
109,192,175601,1,0,0:0:0:0:
182,192,175601,1,0,0:0:0:0:
329,192,175737,1,0,0:0:0:0:
256,192,175737,1,8,0:0:0:0:
329,192,175874,1,0,0:0:0:0:
256,192,175874,1,8,0:0:0:0:
256,192,176010,1,0,0:0:0:0:
329,192,176010,1,0,0:0:0:0:
475,192,176010,1,0,0:0:0:0:
36,192,176010,1,8,0:0:0:0:
109,192,176010,1,0,0:0:0:0:
182,192,176010,1,0,0:0:0:0:
402,192,176146,1,0,0:0:0:0:
329,192,176146,1,0,0:0:0:0:
256,192,176146,1,8,0:0:0:0:
329,192,176419,1,0,0:0:0:0:
402,192,176419,1,0,0:0:0:0:
475,192,176419,1,0,0:0:0:0:
109,192,176419,1,8,0:0:0:0:
182,192,176419,1,0,0:0:0:0:
256,192,176419,1,0,0:0:0:0:
329,192,176692,1,0,0:0:0:0:
402,192,176692,1,0,0:0:0:0:
475,192,176692,1,0,0:0:0:0:
256,192,176692,1,0,0:0:0:0:
36,192,176692,1,8,0:0:0:0:
109,192,176692,1,4,0:0:0:0:
182,192,176692,1,0,0:0:0:0:
109,192,176828,1,0,0:0:0:0:
36,192,176828,1,8,0:0:0:0:
109,192,176965,1,0,0:0:0:0:
36,192,176965,1,8,0:0:0:0:
329,192,177101,1,0,0:0:0:0:
402,192,177101,1,0,0:0:0:0:
475,192,177101,1,0,0:0:0:0:
36,192,177101,1,8,0:0:0:0:
109,192,177101,1,0,0:0:0:0:
256,192,177101,1,0,0:0:0:0:
182,192,177237,1,0,0:0:0:0:
109,192,177237,1,0,0:0:0:0:
36,192,177237,1,8,0:0:0:0:
329,192,177510,1,0,0:0:0:0:
402,192,177510,1,0,0:0:0:0:
475,192,177510,1,0,0:0:0:0:
109,192,177510,1,8,0:0:0:0:
182,192,177510,1,0,0:0:0:0:
256,192,177510,1,0,0:0:0:0:
329,192,177783,1,0,0:0:0:0:
402,192,177783,1,0,0:0:0:0:
475,192,177783,1,0,0:0:0:0:
256,192,177783,1,0,0:0:0:0:
36,192,177783,1,2,0:0:0:0:
109,192,177783,1,0,0:0:0:0:
182,192,177783,1,0,0:0:0:0:
475,192,177919,1,0,0:0:0:0:
402,192,177919,1,8,0:0:0:0:
475,192,178055,1,0,0:0:0:0:
402,192,178055,1,8,0:0:0:0:
256,192,178192,1,0,0:0:0:0:
402,192,178192,1,0,0:0:0:0:
475,192,178192,1,0,0:0:0:0:
36,192,178192,1,2,0:0:0:0:
109,192,178192,1,0,0:0:0:0:
182,192,178192,1,0,0:0:0:0:
475,192,178328,1,0,0:0:0:0:
402,192,178328,1,0,0:0:0:0:
329,192,178328,1,2,0:0:0:0:
182,192,178465,1,0,0:0:0:0:
256,192,178465,1,0,0:0:0:0:
36,192,178465,1,2,0:0:0:0:
109,192,178465,1,0,0:0:0:0:
182,192,178601,1,0,0:0:0:0:
256,192,178601,1,0,0:0:0:0:
36,192,178601,1,2,0:0:0:0:
109,192,178601,1,0,0:0:0:0:
182,192,178737,1,0,0:0:0:0:
256,192,178737,1,0,0:0:0:0:
36,192,178737,1,2,0:0:0:0:
109,192,178737,1,0,0:0:0:0:
329,192,178874,1,0,0:0:0:0:
402,192,178874,1,0,0:0:0:0:
475,192,178874,1,0,0:0:0:0:
256,192,178874,1,0,0:0:0:0:
36,192,178874,1,8,0:0:0:0:
109,192,178874,1,0,0:0:0:0:
182,192,178874,1,0,0:0:0:0:
475,192,179010,1,0,0:0:0:0:
402,192,179010,1,8,0:0:0:0:
475,192,179146,1,0,0:0:0:0:
402,192,179146,1,8,0:0:0:0:
256,192,179283,1,0,0:0:0:0:
402,192,179283,1,0,0:0:0:0:
475,192,179283,1,0,0:0:0:0:
36,192,179283,1,8,0:0:0:0:
109,192,179283,1,0,0:0:0:0:
182,192,179283,1,0,0:0:0:0:
475,192,179419,1,0,0:0:0:0:
402,192,179419,1,0,0:0:0:0:
329,192,179419,1,8,0:0:0:0:
256,192,179692,1,0,0:0:0:0:
329,192,179692,1,0,0:0:0:0:
402,192,179692,1,0,0:0:0:0:
36,192,179692,1,8,0:0:0:0:
109,192,179692,1,0,0:0:0:0:
182,192,179692,1,0,0:0:0:0:
329,192,179965,1,0,0:0:0:0:
402,192,179965,1,0,0:0:0:0:
475,192,179965,1,0,0:0:0:0:
256,192,179965,1,0,0:0:0:0:
36,192,179965,1,2,0:0:0:0:
109,192,179965,1,0,0:0:0:0:
182,192,179965,1,0,0:0:0:0:
109,192,180101,1,0,0:0:0:0:
36,192,180101,1,8,0:0:0:0:
109,192,180237,1,0,0:0:0:0:
36,192,180237,1,8,0:0:0:0:
329,192,180374,1,0,0:0:0:0:
402,192,180374,1,0,0:0:0:0:
475,192,180374,1,0,0:0:0:0:
36,192,180374,1,8,0:0:0:0:
109,192,180374,1,0,0:0:0:0:
256,192,180374,1,0,0:0:0:0:
182,192,180510,1,0,0:0:0:0:
109,192,180510,1,0,0:0:0:0:
36,192,180510,1,8,0:0:0:0:
256,192,180783,1,0,0:0:0:0:
329,192,180783,1,0,0:0:0:0:
402,192,180783,1,0,0:0:0:0:
36,192,180783,1,8,0:0:0:0:
109,192,180783,1,0,0:0:0:0:
182,192,180783,1,0,0:0:0:0:
329,192,181055,1,0,0:0:0:0:
402,192,181055,1,0,0:0:0:0:
475,192,181055,1,0,0:0:0:0:
256,192,181055,1,0,0:0:0:0:
36,192,181055,1,4,0:0:0:0:
109,192,181055,1,8,0:0:0:0:
182,192,181055,1,0,0:0:0:0:
329,192,181192,1,0,0:0:0:0:
256,192,181192,1,8,0:0:0:0:
329,192,181328,1,0,0:0:0:0:
256,192,181328,1,8,0:0:0:0:
256,192,181465,1,0,0:0:0:0:
329,192,181465,1,0,0:0:0:0:
402,192,181465,1,0,0:0:0:0:
36,192,181465,1,8,0:0:0:0:
109,192,181465,1,0,0:0:0:0:
182,192,181465,1,0,0:0:0:0:
475,192,181601,1,0,0:0:0:0:
329,192,181601,1,0,0:0:0:0:
256,192,181601,1,8,0:0:0:0:
256,192,181874,1,0,0:0:0:0:
329,192,181874,1,0,0:0:0:0:
402,192,181874,1,0,0:0:0:0:
36,192,181874,1,8,0:0:0:0:
109,192,181874,1,0,0:0:0:0:
182,192,181874,1,0,0:0:0:0:
329,192,182146,1,0,0:0:0:0:
402,192,182146,1,0,0:0:0:0:
475,192,182146,1,0,0:0:0:0:
256,192,182146,1,0,0:0:0:0:
36,192,182146,1,2,0:0:0:0:
109,192,182146,1,0,0:0:0:0:
182,192,182146,1,0,0:0:0:0:
182,192,182283,1,0,0:0:0:0:
109,192,182283,1,8,0:0:0:0:
182,192,182419,1,0,0:0:0:0:
109,192,182419,1,8,0:0:0:0:
329,192,182555,1,0,0:0:0:0:
402,192,182555,1,0,0:0:0:0:
475,192,182555,1,0,0:0:0:0:
109,192,182555,1,8,0:0:0:0:
182,192,182555,1,0,0:0:0:0:
256,192,182555,1,0,0:0:0:0:
182,192,182692,1,0,0:0:0:0:
109,192,182692,1,0,0:0:0:0:
36,192,182692,1,8,0:0:0:0:
256,192,182965,1,0,0:0:0:0:
329,192,182965,1,0,0:0:0:0:
402,192,182965,1,0,0:0:0:0:
36,192,182965,1,8,0:0:0:0:
109,192,182965,1,0,0:0:0:0:
182,192,182965,1,0,0:0:0:0:
329,192,183237,1,0,0:0:0:0:
402,192,183237,1,0,0:0:0:0:
475,192,183237,1,0,0:0:0:0:
256,192,183237,1,0,0:0:0:0:
36,192,183237,1,8,0:0:0:0:
109,192,183237,1,0,0:0:0:0:
182,192,183237,1,0,0:0:0:0:
402,192,183374,1,0,0:0:0:0:
329,192,183374,1,8,0:0:0:0:
402,192,183510,1,0,0:0:0:0:
329,192,183510,1,8,0:0:0:0:
256,192,183646,1,0,0:0:0:0:
329,192,183646,1,0,0:0:0:0:
402,192,183646,1,0,0:0:0:0:
36,192,183646,1,8,0:0:0:0:
109,192,183646,1,0,0:0:0:0:
182,192,183646,1,0,0:0:0:0:
475,192,183783,1,0,0:0:0:0:
402,192,183783,1,0,0:0:0:0:
329,192,183783,1,8,0:0:0:0:
256,192,184055,1,0,0:0:0:0:
329,192,184055,1,0,0:0:0:0:
402,192,184055,1,0,0:0:0:0:
36,192,184055,1,8,0:0:0:0:
109,192,184055,1,0,0:0:0:0:
182,192,184055,1,0,0:0:0:0:
329,192,184328,1,0,0:0:0:0:
402,192,184328,1,0,0:0:0:0:
475,192,184328,1,0,0:0:0:0:
256,192,184328,1,0,0:0:0:0:
36,192,184328,1,2,0:0:0:0:
109,192,184328,1,0,0:0:0:0:
182,192,184328,1,0,0:0:0:0:
256,192,184465,1,0,0:0:0:0:
182,192,184465,1,8,0:0:0:0:
256,192,184601,1,0,0:0:0:0:
182,192,184601,1,8,0:0:0:0:
329,192,184737,1,0,0:0:0:0:
402,192,184737,1,0,0:0:0:0:
475,192,184737,1,0,0:0:0:0:
36,192,184737,1,8,0:0:0:0:
182,192,184737,1,0,0:0:0:0:
256,192,184737,1,0,0:0:0:0:
256,192,184874,1,0,0:0:0:0:
182,192,184874,1,0,0:0:0:0:
109,192,184874,1,8,0:0:0:0:
256,192,185146,1,0,0:0:0:0:
329,192,185146,1,0,0:0:0:0:
402,192,185146,1,0,0:0:0:0:
36,192,185146,1,8,0:0:0:0:
109,192,185146,1,0,0:0:0:0:
182,192,185146,1,0,0:0:0:0:
329,192,185419,1,0,0:0:0:0:
402,192,185419,1,0,0:0:0:0:
475,192,185419,1,0,0:0:0:0:
256,192,185419,1,0,0:0:0:0:
36,192,185419,1,8,0:0:0:0:
109,192,185419,1,4,0:0:0:0:
182,192,185419,1,0,0:0:0:0:
475,192,185555,1,0,0:0:0:0:
402,192,185555,1,8,0:0:0:0:
475,192,185692,1,0,0:0:0:0:
402,192,185692,1,8,0:0:0:0:
256,192,185828,1,0,0:0:0:0:
402,192,185828,1,0,0:0:0:0:
475,192,185828,1,0,0:0:0:0:
36,192,185828,1,8,0:0:0:0:
109,192,185828,1,0,0:0:0:0:
182,192,185828,1,0,0:0:0:0:
475,192,185965,1,0,0:0:0:0:
402,192,185965,1,0,0:0:0:0:
329,192,185965,1,8,0:0:0:0:
256,192,186237,1,0,0:0:0:0:
329,192,186237,1,0,0:0:0:0:
402,192,186237,1,0,0:0:0:0:
36,192,186237,1,8,0:0:0:0:
109,192,186237,1,0,0:0:0:0:
182,192,186237,1,0,0:0:0:0:
329,192,186510,1,0,0:0:0:0:
402,192,186510,1,0,0:0:0:0:
475,192,186510,1,0,0:0:0:0:
256,192,186510,1,0,0:0:0:0:
36,192,186510,1,2,0:0:0:0:
109,192,186510,1,0,0:0:0:0:
182,192,186510,1,0,0:0:0:0:
475,192,186646,1,0,0:0:0:0:
109,192,186646,1,0,0:0:0:0:
36,192,186646,1,8,0:0:0:0:
402,192,186783,1,0,0:0:0:0:
109,192,186783,1,0,0:0:0:0:
36,192,186783,1,8,0:0:0:0:
329,192,186919,1,0,0:0:0:0:
109,192,186919,1,0,0:0:0:0:
36,192,186919,1,8,0:0:0:0:
182,192,187055,1,0,0:0:0:0:
256,192,187055,1,0,0:0:0:0:
36,192,187055,1,8,0:0:0:0:
109,192,187055,1,0,0:0:0:0:
256,192,187192,1,8,0:0:0:0:
256,192,187328,1,8,0:0:0:0:
256,192,187465,1,8,0:0:0:0:
329,192,187601,1,0,0:0:0:0:
402,192,187601,1,0,0:0:0:0:
475,192,187601,1,0,0:0:0:0:
256,192,187601,1,0,0:0:0:0:
36,192,187601,1,2,0:0:0:0:
109,192,187601,1,4,0:0:0:0:
182,192,187601,1,0,0:0:0:0:
329,192,187737,1,0,0:0:0:0:
402,192,187737,1,0,0:0:0:0:
475,192,187737,1,0,0:0:0:0:
36,192,187737,1,2,0:0:0:0:
109,192,187737,1,0,0:0:0:0:
182,192,187737,1,0,0:0:0:0:
329,192,187874,1,0,0:0:0:0:
402,192,187874,1,0,0:0:0:0:
475,192,187874,1,0,0:0:0:0:
36,192,187874,1,2,0:0:0:0:
109,192,187874,1,0,0:0:0:0:
182,192,187874,1,0,0:0:0:0:
36,192,188146,1,8,0:0:0:0:
329,192,188419,1,0,0:0:0:0:
402,192,188419,1,0,0:0:0:0:
475,192,188419,1,0,0:0:0:0:
109,192,188419,1,2,0:0:0:0:
182,192,188419,1,0,0:0:0:0:
256,192,188419,1,0,0:0:0:0:
329,192,188555,1,0,0:0:0:0:
402,192,188555,1,0,0:0:0:0:
475,192,188555,1,0,0:0:0:0:
109,192,188555,1,2,0:0:0:0:
182,192,188555,1,0,0:0:0:0:
256,192,188555,1,0,0:0:0:0:
256,192,188692,1,8,0:0:0:0:
329,192,188828,1,0,0:0:0:0:
402,192,188828,1,0,0:0:0:0:
475,192,188828,1,0,0:0:0:0:
36,192,188828,1,2,0:0:0:0:
109,192,188828,1,0,0:0:0:0:
182,192,188828,1,0,0:0:0:0:
329,192,188965,1,0,0:0:0:0:
402,192,188965,1,0,0:0:0:0:
475,192,188965,1,0,0:0:0:0:
36,192,188965,1,2,0:0:0:0:
109,192,188965,1,0,0:0:0:0:
182,192,188965,1,0,0:0:0:0:
256,192,189237,1,0,0:0:0:0:
329,192,189237,1,0,0:0:0:0:
402,192,189237,1,0,0:0:0:0:
36,192,189237,1,2,0:0:0:0:
109,192,189237,1,0,0:0:0:0:
182,192,189237,1,0,0:0:0:0:
36,192,189374,1,0,0:0:0:0:
329,192,189510,1,0,0:0:0:0:
402,192,189510,1,0,0:0:0:0:
475,192,189510,1,0,0:0:0:0:
109,192,189510,1,2,0:0:0:0:
182,192,189510,1,0,0:0:0:0:
256,192,189510,1,0,0:0:0:0:
256,192,189646,1,2,0:0:0:0:
329,192,189783,1,0,0:0:0:0:
402,192,189783,1,0,0:0:0:0:
475,192,189783,1,0,0:0:0:0:
36,192,189783,1,2,0:0:0:0:
109,192,189783,1,0,0:0:0:0:
182,192,189783,1,0,0:0:0:0:
329,192,189919,1,0,0:0:0:0:
402,192,189919,1,0,0:0:0:0:
475,192,189919,1,0,0:0:0:0:
36,192,189919,1,2,0:0:0:0:
109,192,189919,1,0,0:0:0:0:
182,192,189919,1,0,0:0:0:0:
329,192,190055,1,0,0:0:0:0:
402,192,190055,1,0,0:0:0:0:
475,192,190055,1,0,0:0:0:0:
36,192,190055,1,2,0:0:0:0:
109,192,190055,1,0,0:0:0:0:
182,192,190055,1,0,0:0:0:0:
36,192,190328,1,8,0:0:0:0:
329,192,190601,1,0,0:0:0:0:
402,192,190601,1,0,0:0:0:0:
475,192,190601,1,0,0:0:0:0:
109,192,190601,1,2,0:0:0:0:
182,192,190601,1,0,0:0:0:0:
256,192,190601,1,0,0:0:0:0:
329,192,190737,1,0,0:0:0:0:
402,192,190737,1,0,0:0:0:0:
475,192,190737,1,0,0:0:0:0:
109,192,190737,1,2,0:0:0:0:
182,192,190737,1,0,0:0:0:0:
256,192,190737,1,0,0:0:0:0:
329,192,190874,1,8,0:0:0:0:
256,192,191010,1,0,0:0:0:0:
402,192,191010,1,0,0:0:0:0:
475,192,191010,1,0,0:0:0:0:
36,192,191010,1,2,0:0:0:0:
109,192,191010,1,0,0:0:0:0:
182,192,191010,1,0,0:0:0:0:
256,192,191146,1,0,0:0:0:0:
402,192,191146,1,0,0:0:0:0:
475,192,191146,1,0,0:0:0:0:
36,192,191146,1,2,0:0:0:0:
109,192,191146,1,0,0:0:0:0:
182,192,191146,1,0,0:0:0:0:
329,192,191419,1,0,0:0:0:0:
402,192,191419,1,0,0:0:0:0:
475,192,191419,1,0,0:0:0:0:
109,192,191419,1,2,0:0:0:0:
182,192,191419,1,0,0:0:0:0:
256,192,191419,1,0,0:0:0:0:
475,192,191555,1,0,0:0:0:0:
256,192,191692,1,0,0:0:0:0:
329,192,191692,1,0,0:0:0:0:
402,192,191692,1,0,0:0:0:0:
36,192,191692,1,2,0:0:0:0:
109,192,191692,1,0,0:0:0:0:
182,192,191692,1,0,0:0:0:0:
36,192,191828,1,0,0:0:0:0:
329,192,191965,1,0,0:0:0:0:
402,192,191965,1,0,0:0:0:0:
475,192,191965,1,0,0:0:0:0:
109,192,191965,1,2,0:0:0:0:
182,192,191965,1,0,0:0:0:0:
256,192,191965,1,0,0:0:0:0:
329,192,192101,1,0,0:0:0:0:
402,192,192101,1,0,0:0:0:0:
475,192,192101,1,0,0:0:0:0:
109,192,192101,1,2,0:0:0:0:
182,192,192101,1,0,0:0:0:0:
256,192,192101,1,0,0:0:0:0:
329,192,192237,1,0,0:0:0:0:
402,192,192237,1,0,0:0:0:0:
475,192,192237,1,0,0:0:0:0:
109,192,192237,1,2,0:0:0:0:
182,192,192237,1,0,0:0:0:0:
256,192,192237,1,0,0:0:0:0:
256,192,192510,1,8,0:0:0:0:
329,192,192783,1,0,0:0:0:0:
402,192,192783,1,0,0:0:0:0:
475,192,192783,1,0,0:0:0:0:
36,192,192783,1,2,0:0:0:0:
109,192,192783,1,0,0:0:0:0:
182,192,192783,1,0,0:0:0:0:
329,192,192919,1,0,0:0:0:0:
402,192,192919,1,0,0:0:0:0:
475,192,192919,1,0,0:0:0:0:
36,192,192919,1,2,0:0:0:0:
109,192,192919,1,0,0:0:0:0:
182,192,192919,1,0,0:0:0:0:
182,192,193055,1,8,0:0:0:0:
329,192,193192,1,0,0:0:0:0:
402,192,193192,1,0,0:0:0:0:
475,192,193192,1,0,0:0:0:0:
36,192,193192,1,2,0:0:0:0:
109,192,193192,1,0,0:0:0:0:
256,192,193192,1,0,0:0:0:0:
329,192,193328,1,0,0:0:0:0:
402,192,193328,1,0,0:0:0:0:
475,192,193328,1,0,0:0:0:0:
36,192,193328,1,2,0:0:0:0:
109,192,193328,1,0,0:0:0:0:
256,192,193328,1,0,0:0:0:0:
256,192,193601,1,0,0:0:0:0:
329,192,193601,1,0,0:0:0:0:
402,192,193601,1,0,0:0:0:0:
36,192,193601,1,2,0:0:0:0:
109,192,193601,1,4,0:0:0:0:
182,192,193601,1,0,0:0:0:0:
182,192,193737,1,0,0:0:0:0:
329,192,193874,1,0,0:0:0:0:
402,192,193874,1,0,0:0:0:0:
475,192,193874,1,0,0:0:0:0:
36,192,193874,1,2,0:0:0:0:
109,192,193874,1,0,0:0:0:0:
256,192,193874,1,0,0:0:0:0:
329,192,194010,1,2,0:0:0:0:
256,192,194146,1,0,0:0:0:0:
402,192,194146,1,0,0:0:0:0:
475,192,194146,1,0,0:0:0:0:
36,192,194146,1,8,0:0:0:0:
109,192,194146,1,0,0:0:0:0:
182,192,194146,1,0,0:0:0:0:
256,192,194283,1,0,0:0:0:0:
402,192,194283,1,0,0:0:0:0:
475,192,194283,1,0,0:0:0:0:
36,192,194283,1,2,0:0:0:0:
109,192,194283,1,0,0:0:0:0:
182,192,194283,1,0,0:0:0:0:
256,192,194419,1,0,0:0:0:0:
402,192,194419,1,0,0:0:0:0:
475,192,194419,1,0,0:0:0:0:
36,192,194419,1,2,0:0:0:0:
109,192,194419,1,0,0:0:0:0:
182,192,194419,1,0,0:0:0:0:
109,192,194692,1,8,0:0:0:0:
329,192,194965,1,0,0:0:0:0:
402,192,194965,1,0,0:0:0:0:
475,192,194965,1,0,0:0:0:0:
109,192,194965,1,2,0:0:0:0:
182,192,194965,1,0,0:0:0:0:
256,192,194965,1,0,0:0:0:0:
329,192,195101,1,0,0:0:0:0:
402,192,195101,1,0,0:0:0:0:
475,192,195101,1,0,0:0:0:0:
109,192,195101,1,2,0:0:0:0:
182,192,195101,1,0,0:0:0:0:
256,192,195101,1,0,0:0:0:0:
475,192,195237,1,8,0:0:0:0:
256,192,195374,1,0,0:0:0:0:
329,192,195374,1,0,0:0:0:0:
402,192,195374,1,0,0:0:0:0:
36,192,195374,1,2,0:0:0:0:
109,192,195374,1,0,0:0:0:0:
182,192,195374,1,0,0:0:0:0:
256,192,195510,1,0,0:0:0:0:
329,192,195510,1,0,0:0:0:0:
402,192,195510,1,0,0:0:0:0:
36,192,195510,1,2,0:0:0:0:
109,192,195510,1,0,0:0:0:0:
182,192,195510,1,0,0:0:0:0:
256,192,195646,1,0,0:0:0:0:
329,192,195783,1,0,0:0:0:0:
402,192,195783,1,0,0:0:0:0:
475,192,195783,1,0,0:0:0:0:
36,192,195783,1,2,0:0:0:0:
109,192,195783,1,0,0:0:0:0:
182,192,195783,1,0,0:0:0:0:
329,192,195919,1,0,0:0:0:0:
402,192,195919,1,0,0:0:0:0:
475,192,195919,1,0,0:0:0:0:
36,192,195919,1,2,0:0:0:0:
109,192,195919,1,0,0:0:0:0:
182,192,195919,1,0,0:0:0:0:
329,192,196055,1,0,0:0:0:0:
402,192,196055,1,0,0:0:0:0:
475,192,196055,1,0,0:0:0:0:
36,192,196055,1,2,0:0:0:0:
109,192,196055,1,0,0:0:0:0:
182,192,196055,1,0,0:0:0:0:
329,192,196192,1,0,0:0:0:0:
402,192,196192,1,0,0:0:0:0:
475,192,196192,1,0,0:0:0:0:
36,192,196192,1,2,0:0:0:0:
109,192,196192,1,0,0:0:0:0:
182,192,196192,1,0,0:0:0:0:
329,192,196328,1,0,0:0:0:0:
402,192,196328,1,0,0:0:0:0:
475,192,196328,1,0,0:0:0:0:
256,192,196328,1,0,0:0:0:0:
36,192,196328,1,8,0:0:0:0:
109,192,196328,1,4,0:0:0:0:
182,192,196328,1,0,0:0:0:0:
256,192,196465,1,0,0:0:0:0:
329,192,196601,1,0,0:0:0:0:
475,192,196601,1,0,0:0:0:0:
36,192,196601,1,2,0:0:0:0:
182,192,196601,1,0,0:0:0:0:
475,192,196737,1,0,0:0:0:0:
329,192,196737,1,0,0:0:0:0:
256,192,196874,1,0,0:0:0:0:
402,192,196874,1,0,0:0:0:0:
36,192,196874,1,8,0:0:0:0:
109,192,196874,1,0,0:0:0:0:
182,192,197010,1,0,0:0:0:0:
36,192,197010,1,0,0:0:0:0:
402,192,197146,1,0,0:0:0:0:
475,192,197146,1,0,0:0:0:0:
329,192,197146,1,0,0:0:0:0:
109,192,197146,1,2,0:0:0:0:
256,192,197146,1,0,0:0:0:0:
402,192,197283,1,0,0:0:0:0:
475,192,197283,1,0,0:0:0:0:
182,192,197283,1,0,0:0:0:0:
329,192,197283,1,0,0:0:0:0:
256,192,197419,1,0,0:0:0:0:
109,192,197419,1,0,0:0:0:0:
36,192,197419,1,8,0:0:0:0:
402,192,197555,1,0,0:0:0:0:
182,192,197555,1,0,0:0:0:0:
36,192,197555,1,0,0:0:0:0:
329,192,197692,1,0,0:0:0:0:
475,192,197692,1,0,0:0:0:0:
256,192,197692,1,0,0:0:0:0:
109,192,197692,1,2,0:0:0:0:
182,192,197692,1,0,0:0:0:0:
475,192,197828,1,0,0:0:0:0:
329,192,197828,1,0,0:0:0:0:
256,192,197965,1,0,0:0:0:0:
402,192,197965,1,0,0:0:0:0:
182,192,197965,1,0,0:0:0:0:
36,192,197965,1,8,0:0:0:0:
109,192,197965,1,4,0:0:0:0:
329,192,198101,1,0,0:0:0:0:
256,192,198101,1,0,0:0:0:0:
402,192,198237,1,0,0:0:0:0:
475,192,198237,1,0,0:0:0:0:
182,192,198237,1,0,0:0:0:0:
36,192,198237,1,2,0:0:0:0:
109,192,198237,1,4,0:0:0:0:
256,192,198374,1,0,0:0:0:0:
182,192,198374,1,0,0:0:0:0:
109,192,198374,1,0,0:0:0:0:
402,192,198510,1,0,0:0:0:0:
475,192,198510,1,0,0:0:0:0:
329,192,198510,1,0,0:0:0:0:
36,192,198510,1,8,0:0:0:0:
256,192,198510,1,4,0:0:0:0:
475,192,198646,1,0,0:0:0:0:
402,192,198646,1,0,0:0:0:0:
329,192,198646,1,0,0:0:0:0:
182,192,198783,1,0,0:0:0:0:
256,192,198783,1,0,0:0:0:0:
36,192,198783,1,2,0:0:0:0:
109,192,198783,1,0,0:0:0:0:
182,192,198919,1,0,0:0:0:0:
36,192,198919,1,0,0:0:0:0:
402,192,199055,1,0,0:0:0:0:
475,192,199055,1,0,0:0:0:0:
109,192,199055,1,8,0:0:0:0:
256,192,199055,1,0,0:0:0:0:
475,192,199192,1,0,0:0:0:0:
329,192,199192,1,0,0:0:0:0:
256,192,199328,1,0,0:0:0:0:
402,192,199328,1,0,0:0:0:0:
182,192,199328,1,0,0:0:0:0:
36,192,199328,1,2,0:0:0:0:
109,192,199328,1,0,0:0:0:0:
182,192,199465,1,0,0:0:0:0:
256,192,199465,1,0,0:0:0:0:
36,192,199465,1,0,0:0:0:0:
109,192,199465,1,0,0:0:0:0:
475,192,199601,1,0,0:0:0:0:
402,192,199601,1,0,0:0:0:0:
36,192,199601,1,8,0:0:0:0:
475,192,199737,1,0,0:0:0:0:
402,192,199737,1,0,0:0:0:0:
329,192,199737,1,0,0:0:0:0:
402,192,199874,1,0,0:0:0:0:
475,192,199874,1,0,0:0:0:0:
329,192,199874,1,0,0:0:0:0:
109,192,199874,1,2,0:0:0:0:
256,192,199874,1,0,0:0:0:0:
182,192,200010,1,0,0:0:0:0:
109,192,200010,1,0,0:0:0:0:
402,192,200146,1,0,0:0:0:0:
475,192,200146,1,0,0:0:0:0:
329,192,200146,1,0,0:0:0:0:
36,192,200146,1,8,0:0:0:0:
256,192,200146,1,4,0:0:0:0:
475,192,200283,1,0,0:0:0:0:
329,192,200283,1,0,0:0:0:0:
256,192,200419,1,0,0:0:0:0:
402,192,200419,1,0,0:0:0:0:
182,192,200419,1,0,0:0:0:0:
36,192,200419,1,2,0:0:0:0:
109,192,200419,1,4,0:0:0:0:
182,192,200555,1,0,0:0:0:0:
36,192,200555,1,0,0:0:0:0:
402,192,200692,1,0,0:0:0:0:
475,192,200692,1,0,0:0:0:0:
329,192,200692,1,0,0:0:0:0:
109,192,200692,1,8,0:0:0:0:
256,192,200692,1,4,0:0:0:0:
475,192,200828,1,0,0:0:0:0:
402,192,200828,1,0,0:0:0:0:
256,192,200828,1,0,0:0:0:0:
182,192,200965,1,0,0:0:0:0:
329,192,200965,1,0,0:0:0:0:
36,192,200965,1,2,0:0:0:0:
109,192,200965,1,0,0:0:0:0:
256,192,201101,1,0,0:0:0:0:
109,192,201101,1,0,0:0:0:0:
329,192,201237,1,0,0:0:0:0:
475,192,201237,1,0,0:0:0:0:
36,192,201237,1,8,0:0:0:0:
182,192,201237,1,0,0:0:0:0:
402,192,201374,1,0,0:0:0:0:
329,192,201374,1,0,0:0:0:0:
256,192,201510,1,0,0:0:0:0:
475,192,201510,1,0,0:0:0:0:
182,192,201510,1,0,0:0:0:0:
36,192,201510,1,2,0:0:0:0:
109,192,201510,1,0,0:0:0:0:
182,192,201646,1,0,0:0:0:0:
329,192,201646,1,0,0:0:0:0:
36,192,201646,1,0,0:0:0:0:
109,192,201646,1,0,0:0:0:0:
475,192,201783,1,0,0:0:0:0:
402,192,201783,1,0,0:0:0:0:
256,192,201783,1,8,0:0:0:0:
256,192,201919,1,0,0:0:0:0:
109,192,201919,1,0,0:0:0:0:
36,192,201919,1,0,0:0:0:0:
402,192,202055,1,0,0:0:0:0:
475,192,202055,1,0,0:0:0:0:
329,192,202055,1,0,0:0:0:0:
109,192,202055,1,2,0:0:0:0:
182,192,202055,1,0,0:0:0:0:
329,192,202192,1,0,0:0:0:0:
256,192,202192,1,0,0:0:0:0:
402,192,202328,1,0,0:0:0:0:
475,192,202328,1,0,0:0:0:0:
182,192,202328,1,0,0:0:0:0:
36,192,202328,1,8,0:0:0:0:
109,192,202328,1,4,0:0:0:0:
402,192,202465,1,0,0:0:0:0:
329,192,202465,1,0,0:0:0:0:
256,192,202465,1,0,0:0:0:0:
256,192,202601,1,0,0:0:0:0:
329,192,202601,1,0,0:0:0:0:
182,192,202601,1,0,0:0:0:0:
36,192,202601,1,2,0:0:0:0:
109,192,202601,1,4,0:0:0:0:
182,192,202737,1,0,0:0:0:0:
109,192,202737,1,0,0:0:0:0:
36,192,202737,1,0,0:0:0:0:
475,192,202874,1,0,0:0:0:0:
402,192,202874,1,4,0:0:0:0:
256,192,202874,1,8,0:0:0:0:
475,192,203010,1,0,0:0:0:0:
329,192,203010,1,0,0:0:0:0:
256,192,203146,1,0,0:0:0:0:
109,192,203146,1,0,0:0:0:0:
36,192,203146,1,2,0:0:0:0:
182,192,203283,1,0,0:0:0:0:
36,192,203283,1,0,0:0:0:0:
329,192,203419,1,0,0:0:0:0:
475,192,203419,1,0,0:0:0:0:
109,192,203419,1,8,0:0:0:0:
256,192,203419,1,0,0:0:0:0:
402,192,203555,1,0,0:0:0:0:
256,192,203555,1,0,0:0:0:0:
182,192,203692,1,0,0:0:0:0:
329,192,203692,1,0,0:0:0:0:
36,192,203692,1,2,0:0:0:0:
109,192,203692,1,0,0:0:0:0:
475,192,203828,1,0,0:0:0:0:
329,192,203828,1,0,0:0:0:0:
182,192,203828,1,0,0:0:0:0:
402,192,203965,1,0,0:0:0:0:
475,192,203965,1,0,0:0:0:0:
256,192,203965,1,0,0:0:0:0:
36,192,203965,1,8,0:0:0:0:
109,192,203965,1,0,0:0:0:0:
256,192,204374,1,0,0:0:0:0:
256,192,204646,1,0,0:0:0:0:
329,192,205055,1,0,0:0:0:0:
402,192,205055,1,0,0:0:0:0:
475,192,205055,1,0,0:0:0:0:
256,192,205055,1,0,0:0:0:0:
36,192,205055,1,8,0:0:0:0:
109,192,205055,1,4,0:0:0:0:
182,192,205055,1,0,0:0:0:0:
182,192,205192,1,0,0:0:0:0:
109,192,205192,1,0,0:0:0:0:
36,192,205192,1,0,0:0:0:0:
329,192,205328,1,0,0:0:0:0:
475,192,205328,1,0,0:0:0:0:
182,192,205328,1,0,0:0:0:0:
36,192,205328,1,2,0:0:0:0:
109,192,205328,1,0,0:0:0:0:
475,192,205465,1,0,0:0:0:0:
329,192,205465,1,0,0:0:0:0:
402,192,205601,1,0,0:0:0:0:
256,192,205601,1,0,0:0:0:0:
109,192,205601,1,8,0:0:0:0:
256,192,205737,1,0,0:0:0:0:
109,192,205737,1,0,0:0:0:0:
402,192,205874,1,0,0:0:0:0:
475,192,205874,1,0,0:0:0:0:
329,192,205874,1,0,0:0:0:0:
36,192,205874,1,2,0:0:0:0:
182,192,205874,1,0,0:0:0:0:
475,192,206010,1,0,0:0:0:0:
402,192,206010,1,0,0:0:0:0:
329,192,206010,1,0,0:0:0:0:
256,192,206146,1,0,0:0:0:0:
109,192,206146,1,0,0:0:0:0:
36,192,206146,1,8,0:0:0:0:
475,192,206283,1,0,0:0:0:0:
402,192,206283,1,0,0:0:0:0:
329,192,206283,1,0,0:0:0:0:
402,192,206419,1,0,0:0:0:0:
475,192,206419,1,0,0:0:0:0:
329,192,206419,1,0,0:0:0:0:
36,192,206419,1,2,0:0:0:0:
182,192,206419,1,0,0:0:0:0:
182,192,206555,1,0,0:0:0:0:
36,192,206555,1,0,0:0:0:0:
402,192,206692,1,0,0:0:0:0:
475,192,206692,1,0,0:0:0:0:
329,192,206692,1,0,0:0:0:0:
109,192,206692,1,8,0:0:0:0:
256,192,206692,1,4,0:0:0:0:
475,192,206828,1,0,0:0:0:0:
402,192,206828,1,0,0:0:0:0:
182,192,206965,1,0,0:0:0:0:
329,192,206965,1,0,0:0:0:0:
36,192,206965,1,2,0:0:0:0:
109,192,206965,1,4,0:0:0:0:
256,192,207101,1,0,0:0:0:0:
182,192,207101,1,0,0:0:0:0:
109,192,207101,1,0,0:0:0:0:
402,192,207237,1,0,0:0:0:0:
475,192,207237,1,0,0:0:0:0:
329,192,207237,1,0,0:0:0:0:
182,192,207237,1,8,0:0:0:0:
256,192,207237,1,4,0:0:0:0:
475,192,207374,1,0,0:0:0:0:
402,192,207374,1,0,0:0:0:0:
329,192,207374,1,0,0:0:0:0:
402,192,207510,1,0,0:0:0:0:
475,192,207510,1,0,0:0:0:0:
329,192,207510,1,0,0:0:0:0:
36,192,207510,1,2,0:0:0:0:
182,192,207510,1,0,0:0:0:0:
182,192,207646,1,0,0:0:0:0:
36,192,207646,1,0,0:0:0:0:
402,192,207783,1,0,0:0:0:0:
256,192,207783,1,0,0:0:0:0:
109,192,207783,1,8,0:0:0:0:
402,192,207919,1,0,0:0:0:0:
256,192,207919,1,0,0:0:0:0:
329,192,208055,1,0,0:0:0:0:
475,192,208055,1,0,0:0:0:0:
182,192,208055,1,0,0:0:0:0:
36,192,208055,1,2,0:0:0:0:
109,192,208055,1,0,0:0:0:0:
182,192,208192,1,0,0:0:0:0:
109,192,208192,1,0,0:0:0:0:
36,192,208192,1,0,0:0:0:0:
475,192,208328,1,0,0:0:0:0:
402,192,208328,1,0,0:0:0:0:
329,192,208328,1,8,0:0:0:0:
182,192,208465,1,0,0:0:0:0:
109,192,208465,1,0,0:0:0:0:
36,192,208465,1,0,0:0:0:0:
329,192,208601,1,0,0:0:0:0:
475,192,208601,1,0,0:0:0:0:
182,192,208601,1,0,0:0:0:0:
36,192,208601,1,2,0:0:0:0:
109,192,208601,1,0,0:0:0:0:
475,192,208737,1,0,0:0:0:0:
329,192,208737,1,0,0:0:0:0:
256,192,208874,1,0,0:0:0:0:
402,192,208874,1,0,0:0:0:0:
182,192,208874,1,0,0:0:0:0:
36,192,208874,1,8,0:0:0:0:
109,192,208874,1,4,0:0:0:0:
109,192,209010,1,0,0:0:0:0:
36,192,209010,1,0,0:0:0:0:
329,192,209146,1,0,0:0:0:0:
402,192,209146,1,0,0:0:0:0:
475,192,209146,1,0,0:0:0:0:
109,192,209146,1,2,0:0:0:0:
182,192,209146,1,4,0:0:0:0:
256,192,209146,1,0,0:0:0:0:
475,192,209283,1,0,0:0:0:0:
402,192,209283,1,0,0:0:0:0:
256,192,209419,1,0,0:0:0:0:
329,192,209419,1,0,0:0:0:0:
182,192,209419,1,0,0:0:0:0:
36,192,209419,1,8,0:0:0:0:
109,192,209419,1,4,0:0:0:0:
182,192,209555,1,0,0:0:0:0:
109,192,209555,1,0,0:0:0:0:
36,192,209555,1,0,0:0:0:0:
329,192,209692,1,0,0:0:0:0:
475,192,209692,1,0,0:0:0:0:
182,192,209692,1,0,0:0:0:0:
36,192,209692,1,2,0:0:0:0:
109,192,209692,1,0,0:0:0:0:
475,192,209828,1,0,0:0:0:0:
329,192,209828,1,0,0:0:0:0:
402,192,209965,1,0,0:0:0:0:
256,192,209965,1,0,0:0:0:0:
109,192,209965,1,8,0:0:0:0:
256,192,210101,1,0,0:0:0:0:
109,192,210101,1,0,0:0:0:0:
402,192,210237,1,0,0:0:0:0:
475,192,210237,1,0,0:0:0:0:
329,192,210237,1,0,0:0:0:0:
36,192,210237,1,2,0:0:0:0:
182,192,210237,1,0,0:0:0:0:
475,192,210374,1,0,0:0:0:0:
402,192,210374,1,0,0:0:0:0:
329,192,210374,1,0,0:0:0:0:
256,192,210510,1,0,0:0:0:0:
109,192,210510,1,0,0:0:0:0:
36,192,210510,1,8,0:0:0:0:
475,192,210646,1,0,0:0:0:0:
402,192,210646,1,0,0:0:0:0:
329,192,210646,1,0,0:0:0:0:
402,192,210783,1,0,0:0:0:0:
475,192,210783,1,0,0:0:0:0:
329,192,210783,1,0,0:0:0:0:
36,192,210783,1,2,0:0:0:0:
182,192,210783,1,0,0:0:0:0:
182,192,210919,1,0,0:0:0:0:
36,192,210919,1,0,0:0:0:0:
402,192,211055,1,0,0:0:0:0:
475,192,211055,1,0,0:0:0:0:
329,192,211055,1,0,0:0:0:0:
109,192,211055,1,8,0:0:0:0:
256,192,211055,1,4,0:0:0:0:
475,192,211192,1,0,0:0:0:0:
402,192,211192,1,0,0:0:0:0:
182,192,211328,1,0,0:0:0:0:
329,192,211328,1,0,0:0:0:0:
36,192,211328,1,2,0:0:0:0:
109,192,211328,1,4,0:0:0:0:
256,192,211465,1,0,0:0:0:0:
182,192,211465,1,0,0:0:0:0:
109,192,211465,1,0,0:0:0:0:
402,192,211601,1,0,0:0:0:0:
475,192,211601,1,0,0:0:0:0:
329,192,211601,1,0,0:0:0:0:
182,192,211601,1,8,0:0:0:0:
256,192,211601,1,4,0:0:0:0:
475,192,211737,1,0,0:0:0:0:
402,192,211737,1,0,0:0:0:0:
329,192,211737,1,0,0:0:0:0:
402,192,211874,1,0,0:0:0:0:
475,192,211874,1,0,0:0:0:0:
329,192,211874,1,0,0:0:0:0:
36,192,211874,1,2,0:0:0:0:
182,192,211874,1,0,0:0:0:0:
182,192,212010,1,0,0:0:0:0:
36,192,212010,1,0,0:0:0:0:
475,192,212146,1,0,0:0:0:0:
402,192,212146,1,0,0:0:0:0:
256,192,212146,1,8,0:0:0:0:
402,192,212283,1,0,0:0:0:0:
256,192,212283,1,0,0:0:0:0:
329,192,212419,1,0,0:0:0:0:
475,192,212419,1,0,0:0:0:0:
182,192,212419,1,0,0:0:0:0:
36,192,212419,1,2,0:0:0:0:
109,192,212419,1,0,0:0:0:0:
182,192,212555,1,0,0:0:0:0:
109,192,212555,1,0,0:0:0:0:
36,192,212555,1,0,0:0:0:0:
402,192,212692,1,0,0:0:0:0:
475,192,212692,1,0,0:0:0:0:
256,192,212692,1,8,0:0:0:0:
329,192,212692,1,4,0:0:0:0:
475,192,212828,1,0,0:0:0:0:
402,192,212828,1,0,0:0:0:0:
329,192,212828,1,0,0:0:0:0:
182,192,212965,1,0,0:0:0:0:
256,192,212965,1,0,0:0:0:0:
36,192,212965,1,2,0:0:0:0:
109,192,212965,1,0,0:0:0:0:
182,192,213101,1,0,0:0:0:0:
256,192,213101,1,0,0:0:0:0:
36,192,213101,1,2,0:0:0:0:
109,192,213101,1,0,0:0:0:0:
402,192,213237,1,0,0:0:0:0:
475,192,213237,1,0,0:0:0:0:
256,192,213237,1,8,0:0:0:0:
329,192,213237,1,0,0:0:0:0:
475,192,213374,1,0,0:0:0:0:
402,192,213374,1,0,0:0:0:0:
329,192,213374,1,8,0:0:0:0:
182,192,213510,1,0,0:0:0:0:
256,192,213510,1,0,0:0:0:0:
36,192,213510,1,8,0:0:0:0:
109,192,213510,1,0,0:0:0:0:
182,192,213646,1,0,0:0:0:0:
109,192,213646,1,0,0:0:0:0:
36,192,213646,1,8,0:0:0:0:
329,192,213783,1,0,0:0:0:0:
402,192,213783,1,0,0:0:0:0:
475,192,213783,1,0,0:0:0:0:
256,192,213783,1,0,0:0:0:0:
36,192,213783,1,8,0:0:0:0:
109,192,213783,1,4,0:0:0:0:
182,192,213783,1,0,0:0:0:0:
475,192,213919,1,0,0:0:0:0:
402,192,213919,1,0,0:0:0:0:
329,192,213919,1,0,0:0:0:0:
402,192,214055,1,0,0:0:0:0:
475,192,214055,1,0,0:0:0:0:
329,192,214055,1,0,0:0:0:0:
36,192,214055,1,2,0:0:0:0:
109,192,214055,1,0,0:0:0:0:
182,192,214192,1,0,0:0:0:0:
109,192,214192,1,0,0:0:0:0:
36,192,214192,1,0,0:0:0:0:
402,192,214328,1,0,0:0:0:0:
475,192,214328,1,0,0:0:0:0:
256,192,214328,1,8,0:0:0:0:
329,192,214328,1,0,0:0:0:0:
182,192,214465,1,0,0:0:0:0:
109,192,214465,1,0,0:0:0:0:
36,192,214465,1,0,0:0:0:0:
329,192,214601,1,0,0:0:0:0:
402,192,214601,1,0,0:0:0:0:
475,192,214601,1,0,0:0:0:0:
36,192,214601,1,2,0:0:0:0:
109,192,214601,1,0,0:0:0:0:
182,192,214601,1,0,0:0:0:0:
402,192,214737,1,0,0:0:0:0:
475,192,214737,1,0,0:0:0:0:
256,192,214737,1,0,0:0:0:0:
329,192,214737,1,0,0:0:0:0:
182,192,214874,1,0,0:0:0:0:
256,192,214874,1,0,0:0:0:0:
36,192,214874,1,8,0:0:0:0:
109,192,214874,1,0,0:0:0:0:
475,192,215010,1,0,0:0:0:0:
402,192,215010,1,0,0:0:0:0:
329,192,215010,1,0,0:0:0:0:
256,192,215146,1,0,0:0:0:0:
329,192,215146,1,0,0:0:0:0:
402,192,215146,1,0,0:0:0:0:
36,192,215146,1,2,0:0:0:0:
109,192,215146,1,0,0:0:0:0:
182,192,215146,1,0,0:0:0:0:
182,192,215283,1,0,0:0:0:0:
109,192,215283,1,0,0:0:0:0:
36,192,215283,1,0,0:0:0:0:
402,192,215419,1,0,0:0:0:0:
475,192,215419,1,0,0:0:0:0:
329,192,215419,1,0,0:0:0:0:
182,192,215419,1,8,0:0:0:0:
256,192,215419,1,4,0:0:0:0:
475,192,215555,1,0,0:0:0:0:
402,192,215555,1,0,0:0:0:0:
329,192,215555,1,0,0:0:0:0:
256,192,215692,1,0,0:0:0:0:
329,192,215692,1,0,0:0:0:0:
402,192,215692,1,0,0:0:0:0:
36,192,215692,1,2,0:0:0:0:
109,192,215692,1,4,0:0:0:0:
182,192,215692,1,0,0:0:0:0:
182,192,215828,1,0,0:0:0:0:
109,192,215828,1,0,0:0:0:0:
36,192,215828,1,0,0:0:0:0:
402,192,215965,1,0,0:0:0:0:
475,192,215965,1,0,0:0:0:0:
329,192,215965,1,0,0:0:0:0:
182,192,215965,1,8,0:0:0:0:
256,192,215965,1,4,0:0:0:0:
475,192,216101,1,0,0:0:0:0:
402,192,216101,1,0,0:0:0:0:
329,192,216101,1,0,0:0:0:0:
402,192,216237,1,0,0:0:0:0:
475,192,216237,1,0,0:0:0:0:
329,192,216237,1,0,0:0:0:0:
36,192,216237,1,2,0:0:0:0:
109,192,216237,1,0,0:0:0:0:
182,192,216374,1,0,0:0:0:0:
109,192,216374,1,0,0:0:0:0:
36,192,216374,1,0,0:0:0:0:
402,192,216510,1,0,0:0:0:0:
475,192,216510,1,0,0:0:0:0:
329,192,216510,1,0,0:0:0:0:
182,192,216510,1,8,0:0:0:0:
256,192,216510,1,0,0:0:0:0:
475,192,216646,1,0,0:0:0:0:
402,192,216646,1,0,0:0:0:0:
329,192,216646,1,0,0:0:0:0:
256,192,216783,1,0,0:0:0:0:
329,192,216783,1,0,0:0:0:0:
402,192,216783,1,0,0:0:0:0:
36,192,216783,1,2,0:0:0:0:
109,192,216783,1,0,0:0:0:0:
182,192,216783,1,0,0:0:0:0:
182,192,216919,1,0,0:0:0:0:
256,192,216919,1,0,0:0:0:0:
36,192,216919,1,0,0:0:0:0:
109,192,216919,1,0,0:0:0:0:
402,192,217055,1,0,0:0:0:0:
475,192,217055,1,0,0:0:0:0:
256,192,217055,1,8,0:0:0:0:
329,192,217055,1,0,0:0:0:0:
182,192,217192,1,0,0:0:0:0:
109,192,217192,1,0,0:0:0:0:
36,192,217192,1,0,0:0:0:0:
329,192,217328,1,0,0:0:0:0:
402,192,217328,1,0,0:0:0:0:
475,192,217328,1,0,0:0:0:0:
109,192,217328,1,2,0:0:0:0:
182,192,217328,1,0,0:0:0:0:
256,192,217328,1,0,0:0:0:0:
475,192,217465,1,0,0:0:0:0:
402,192,217465,1,0,0:0:0:0:
329,192,217465,1,0,0:0:0:0:
256,192,217601,1,0,0:0:0:0:
329,192,217601,1,0,0:0:0:0:
182,192,217601,1,0,0:0:0:0:
36,192,217601,1,8,0:0:0:0:
109,192,217601,1,4,0:0:0:0:
182,192,217737,1,0,0:0:0:0:
109,192,217737,1,0,0:0:0:0:
36,192,217737,1,0,0:0:0:0:
329,192,217874,1,0,0:0:0:0:
402,192,217874,1,0,0:0:0:0:
475,192,217874,1,0,0:0:0:0:
109,192,217874,1,2,0:0:0:0:
182,192,217874,1,4,0:0:0:0:
256,192,217874,1,0,0:0:0:0:
475,192,218010,1,0,0:0:0:0:
402,192,218010,1,0,0:0:0:0:
329,192,218010,1,0,0:0:0:0:
256,192,218146,1,0,0:0:0:0:
329,192,218146,1,0,0:0:0:0:
182,192,218146,1,0,0:0:0:0:
36,192,218146,1,8,0:0:0:0:
109,192,218146,1,4,0:0:0:0:
182,192,218283,1,0,0:0:0:0:
109,192,218283,1,0,0:0:0:0:
36,192,218283,1,0,0:0:0:0:
402,192,218419,1,0,0:0:0:0:
475,192,218419,1,0,0:0:0:0:
182,192,218419,1,0,0:0:0:0:
36,192,218419,1,2,0:0:0:0:
109,192,218419,1,0,0:0:0:0:
475,192,218555,1,0,0:0:0:0:
402,192,218555,1,0,0:0:0:0:
329,192,218555,1,0,0:0:0:0:
256,192,218692,1,0,0:0:0:0:
329,192,218692,1,0,0:0:0:0:
182,192,218692,1,0,0:0:0:0:
36,192,218692,1,8,0:0:0:0:
109,192,218692,1,0,0:0:0:0:
182,192,218828,1,0,0:0:0:0:
109,192,218828,1,0,0:0:0:0:
36,192,218828,1,0,0:0:0:0:
329,192,218965,1,0,0:0:0:0:
402,192,218965,1,0,0:0:0:0:
475,192,218965,1,0,0:0:0:0:
36,192,218965,1,2,0:0:0:0:
109,192,218965,1,0,0:0:0:0:
256,192,218965,1,0,0:0:0:0:
402,192,219101,1,0,0:0:0:0:
475,192,219101,1,0,0:0:0:0:
256,192,219101,1,0,0:0:0:0:
329,192,219101,1,0,0:0:0:0:
182,192,219237,1,0,0:0:0:0:
256,192,219237,1,0,0:0:0:0:
36,192,219237,1,8,0:0:0:0:
109,192,219237,1,0,0:0:0:0:
475,192,219374,1,0,0:0:0:0:
402,192,219374,1,0,0:0:0:0:
329,192,219374,1,0,0:0:0:0:
256,192,219510,1,0,0:0:0:0:
329,192,219510,1,0,0:0:0:0:
402,192,219510,1,0,0:0:0:0:
36,192,219510,1,2,0:0:0:0:
109,192,219510,1,0,0:0:0:0:
182,192,219510,1,0,0:0:0:0:
182,192,219646,1,0,0:0:0:0:
109,192,219646,1,0,0:0:0:0:
36,192,219646,1,0,0:0:0:0:
402,192,219783,1,0,0:0:0:0:
475,192,219783,1,0,0:0:0:0:
329,192,219783,1,0,0:0:0:0:
182,192,219783,1,8,0:0:0:0:
256,192,219783,1,4,0:0:0:0:
402,192,219919,1,0,0:0:0:0:
475,192,219919,1,0,0:0:0:0:
256,192,219919,1,0,0:0:0:0:
329,192,219919,1,0,0:0:0:0:
329,192,220055,1,0,0:0:0:0:
402,192,220055,1,0,0:0:0:0:
475,192,220055,1,0,0:0:0:0:
36,192,220055,1,2,0:0:0:0:
109,192,220055,1,4,0:0:0:0:
182,192,220055,1,0,0:0:0:0:
182,192,220192,1,0,0:0:0:0:
256,192,220192,1,0,0:0:0:0:
36,192,220192,1,0,0:0:0:0:
109,192,220192,1,0,0:0:0:0:
402,192,220328,1,0,0:0:0:0:
475,192,220328,1,0,0:0:0:0:
36,192,220328,1,8,0:0:0:0:
109,192,220328,1,4,0:0:0:0:
475,192,220465,1,0,0:0:0:0:
402,192,220465,1,0,0:0:0:0:
329,192,220465,1,0,0:0:0:0:
256,192,220601,1,0,0:0:0:0:
329,192,220601,1,0,0:0:0:0:
182,192,220601,1,0,0:0:0:0:
36,192,220601,1,2,0:0:0:0:
109,192,220601,1,0,0:0:0:0:
182,192,220737,1,0,0:0:0:0:
109,192,220737,1,0,0:0:0:0:
36,192,220737,1,0,0:0:0:0:
402,192,220874,1,0,0:0:0:0:
475,192,220874,1,0,0:0:0:0:
329,192,220874,1,0,0:0:0:0:
36,192,220874,1,8,0:0:0:0:
256,192,220874,1,0,0:0:0:0:
475,192,221010,1,0,0:0:0:0:
402,192,221010,1,0,0:0:0:0:
329,192,221010,1,0,0:0:0:0:
329,192,221146,1,0,0:0:0:0:
402,192,221146,1,0,0:0:0:0:
475,192,221146,1,0,0:0:0:0:
36,192,221146,1,2,0:0:0:0:
109,192,221146,1,0,0:0:0:0:
182,192,221146,1,0,0:0:0:0:
182,192,221283,1,0,0:0:0:0:
256,192,221283,1,0,0:0:0:0:
36,192,221283,1,0,0:0:0:0:
109,192,221283,1,0,0:0:0:0:
475,192,221419,1,0,0:0:0:0:
329,192,221419,1,0,0:0:0:0:
182,192,221419,1,0,0:0:0:0:
402,192,221419,1,0,0:0:0:0:
36,192,221419,1,8,0:0:0:0:
109,192,221419,1,0,0:0:0:0:
256,192,221419,1,0,0:0:0:0:
256,192,221692,1,0,0:0:0:0:
329,192,221896,1,0,0:0:0:0:
329,192,222169,1,0,0:0:0:0:
329,192,222510,1,0,0:0:0:0:
402,192,222510,1,0,0:0:0:0:
475,192,222510,1,0,0:0:0:0:
256,192,222510,1,0,0:0:0:0:
36,192,222510,1,4,0:0:0:0:
109,192,222510,1,8,0:0:0:0:
182,192,222510,1,0,0:0:0:0:
475,192,222646,1,0,0:0:0:0:
329,192,222646,1,0,0:0:0:0:
256,192,222783,1,0,0:0:0:0:
402,192,222783,1,0,0:0:0:0:
182,192,222783,1,0,0:0:0:0:
36,192,222783,1,2,0:0:0:0:
109,192,222783,1,0,0:0:0:0:
182,192,222919,1,0,0:0:0:0:
36,192,222919,1,0,0:0:0:0:
329,192,223055,1,0,0:0:0:0:
402,192,223055,1,0,0:0:0:0:
109,192,223055,1,8,0:0:0:0:
256,192,223055,1,0,0:0:0:0:
402,192,223192,1,0,0:0:0:0:
256,192,223192,1,0,0:0:0:0:
329,192,223328,1,0,0:0:0:0:
475,192,223328,1,0,0:0:0:0:
182,192,223328,1,0,0:0:0:0:
36,192,223328,1,2,0:0:0:0:
109,192,223328,1,0,0:0:0:0:
182,192,223465,1,0,0:0:0:0:
36,192,223465,1,0,0:0:0:0:
329,192,223601,1,0,0:0:0:0:
475,192,223601,1,0,0:0:0:0:
109,192,223601,1,8,0:0:0:0:
256,192,223601,1,0,0:0:0:0:
475,192,223737,1,0,0:0:0:0:
329,192,223737,1,0,0:0:0:0:
256,192,223874,1,0,0:0:0:0:
402,192,223874,1,0,0:0:0:0:
182,192,223874,1,0,0:0:0:0:
36,192,223874,1,2,0:0:0:0:
109,192,223874,1,0,0:0:0:0:
402,192,224010,1,0,0:0:0:0:
256,192,224010,1,0,0:0:0:0:
329,192,224146,1,0,0:0:0:0:
475,192,224146,1,0,0:0:0:0:
36,192,224146,1,8,0:0:0:0:
182,192,224146,1,4,0:0:0:0:
329,192,224283,1,0,0:0:0:0:
182,192,224283,1,0,0:0:0:0:
402,192,224419,1,0,0:0:0:0:
475,192,224419,1,0,0:0:0:0:
256,192,224419,1,0,0:0:0:0:
36,192,224419,1,2,0:0:0:0:
109,192,224419,1,4,0:0:0:0:
256,192,224555,1,0,0:0:0:0:
109,192,224555,1,0,0:0:0:0:
329,192,224692,1,0,0:0:0:0:
475,192,224692,1,0,0:0:0:0:
36,192,224692,1,8,0:0:0:0:
182,192,224692,1,0,0:0:0:0:
182,192,224828,1,0,0:0:0:0:
36,192,224828,1,0,0:0:0:0:
402,192,224965,1,0,0:0:0:0:
475,192,224965,1,0,0:0:0:0:
329,192,224965,1,0,0:0:0:0:
109,192,224965,1,2,0:0:0:0:
256,192,224965,1,0,0:0:0:0:
475,192,225101,1,0,0:0:0:0:
329,192,225101,1,0,0:0:0:0:
256,192,225237,1,0,0:0:0:0:
402,192,225237,1,0,0:0:0:0:
36,192,225237,1,8,0:0:0:0:
109,192,225237,1,0,0:0:0:0:
256,192,225374,1,0,0:0:0:0:
109,192,225374,1,0,0:0:0:0:
402,192,225510,1,0,0:0:0:0:
475,192,225510,1,0,0:0:0:0:
329,192,225510,1,0,0:0:0:0:
36,192,225510,1,2,0:0:0:0:
182,192,225510,1,0,0:0:0:0:
475,192,225646,1,0,0:0:0:0:
329,192,225646,1,0,0:0:0:0:
256,192,225783,1,0,0:0:0:0:
402,192,225783,1,0,0:0:0:0:
36,192,225783,1,8,0:0:0:0:
182,192,225783,1,0,0:0:0:0:
182,192,225919,1,0,0:0:0:0:
36,192,225919,1,0,0:0:0:0:
402,192,226055,1,0,0:0:0:0:
475,192,226055,1,0,0:0:0:0:
329,192,226055,1,0,0:0:0:0:
109,192,226055,1,2,0:0:0:0:
256,192,226055,1,0,0:0:0:0:
256,192,226192,1,0,0:0:0:0:
109,192,226192,1,0,0:0:0:0:
329,192,226328,1,0,0:0:0:0:
475,192,226328,1,0,0:0:0:0:
36,192,226328,1,8,0:0:0:0:
182,192,226328,1,4,0:0:0:0:
329,192,226465,1,0,0:0:0:0:
182,192,226465,1,0,0:0:0:0:
402,192,226601,1,0,0:0:0:0:
475,192,226601,1,0,0:0:0:0:
256,192,226601,1,0,0:0:0:0:
36,192,226601,1,2,0:0:0:0:
109,192,226601,1,4,0:0:0:0:
402,192,226737,1,0,0:0:0:0:
256,192,226737,1,0,0:0:0:0:
329,192,226874,1,0,0:0:0:0:
475,192,226874,1,0,0:0:0:0:
36,192,226874,1,8,0:0:0:0:
182,192,226874,1,0,0:0:0:0:
475,192,227010,1,0,0:0:0:0:
329,192,227010,1,0,0:0:0:0:
256,192,227146,1,0,0:0:0:0:
402,192,227146,1,0,0:0:0:0:
182,192,227146,1,0,0:0:0:0:
36,192,227146,1,2,0:0:0:0:
109,192,227146,1,0,0:0:0:0:
182,192,227283,1,0,0:0:0:0:
36,192,227283,1,0,0:0:0:0:
329,192,227419,1,0,0:0:0:0:
402,192,227419,1,0,0:0:0:0:
109,192,227419,1,8,0:0:0:0:
256,192,227419,1,0,0:0:0:0:
402,192,227555,1,0,0:0:0:0:
256,192,227555,1,0,0:0:0:0:
329,192,227692,1,0,0:0:0:0:
475,192,227692,1,0,0:0:0:0:
182,192,227692,1,0,0:0:0:0:
36,192,227692,1,2,0:0:0:0:
109,192,227692,1,0,0:0:0:0:
182,192,227828,1,0,0:0:0:0:
36,192,227828,1,0,0:0:0:0:
329,192,227965,1,0,0:0:0:0:
475,192,227965,1,0,0:0:0:0:
109,192,227965,1,8,0:0:0:0:
256,192,227965,1,0,0:0:0:0:
475,192,228101,1,0,0:0:0:0:
329,192,228101,1,0,0:0:0:0:
256,192,228237,1,0,0:0:0:0:
402,192,228237,1,0,0:0:0:0:
182,192,228237,1,0,0:0:0:0:
36,192,228237,1,2,0:0:0:0:
109,192,228237,1,0,0:0:0:0:
402,192,228374,1,0,0:0:0:0:
256,192,228374,1,0,0:0:0:0:
329,192,228510,1,0,0:0:0:0:
475,192,228510,1,0,0:0:0:0:
36,192,228510,1,8,0:0:0:0:
182,192,228510,1,4,0:0:0:0:
329,192,228646,1,0,0:0:0:0:
182,192,228646,1,0,0:0:0:0:
402,192,228783,1,0,0:0:0:0:
475,192,228783,1,0,0:0:0:0:
256,192,228783,1,0,0:0:0:0:
36,192,228783,1,2,0:0:0:0:
109,192,228783,1,4,0:0:0:0:
256,192,228919,1,0,0:0:0:0:
109,192,228919,1,0,0:0:0:0:
475,192,229055,1,0,0:0:0:0:
402,192,229055,1,0,0:0:0:0:
329,192,229055,1,2,0:0:0:0:
182,192,229124,1,0,0:0:0:0:
109,192,229124,1,0,0:0:0:0:
36,192,229124,1,2,0:0:0:0:
475,192,229192,1,0,0:0:0:0:
402,192,229192,1,0,0:0:0:0:
329,192,229192,1,2,0:0:0:0:
475,192,229328,1,0,0:0:0:0:
402,192,229328,1,0,0:0:0:0:
329,192,229328,1,2,0:0:0:0:
475,192,229465,1,0,0:0:0:0:
402,192,229465,1,0,0:0:0:0:
329,192,229465,1,2,0:0:0:0:
256,192,229533,1,2,0:0:0:0:
402,192,229601,1,0,0:0:0:0:
475,192,229601,1,0,0:0:0:0:
182,192,229601,1,0,0:0:0:0:
36,192,229601,1,2,0:0:0:0:
109,192,229601,1,0,0:0:0:0:
182,192,229737,1,0,0:0:0:0:
109,192,229737,1,0,0:0:0:0:
36,192,229737,1,2,0:0:0:0:
182,192,229874,1,0,0:0:0:0:
109,192,229874,1,0,0:0:0:0:
36,192,229874,1,2,0:0:0:0:
182,192,230010,1,0,0:0:0:0:
109,192,230010,1,0,0:0:0:0:
36,192,230010,1,2,0:0:0:0:
329,192,230146,1,0,0:0:0:0:
402,192,230146,1,0,0:0:0:0:
475,192,230146,1,0,0:0:0:0:
256,192,230146,1,0,0:0:0:0:
36,192,230146,1,8,0:0:0:0:
109,192,230146,1,4,0:0:0:0:
182,192,230146,1,0,0:0:0:0:
475,192,230283,1,0,0:0:0:0:
402,192,230283,1,0,0:0:0:0:
329,192,230283,1,0,0:0:0:0:
329,192,230419,1,0,0:0:0:0:
402,192,230419,1,0,0:0:0:0:
475,192,230419,1,0,0:0:0:0:
256,192,230419,1,0,0:0:0:0:
36,192,230419,1,8,0:0:0:0:
109,192,230419,1,4,0:0:0:0:
182,192,230419,1,0,0:0:0:0:
182,192,230555,1,0,0:0:0:0:
109,192,230555,1,0,0:0:0:0:
36,192,230555,1,0,0:0:0:0:
329,192,230692,1,0,0:0:0:0:
402,192,230692,1,0,0:0:0:0:
475,192,230692,1,0,0:0:0:0:
256,192,230692,1,0,0:0:0:0:
36,192,230692,1,4,0:0:0:0:
109,192,230692,1,8,0:0:0:0:
182,192,230692,1,0,0:0:0:0:
402,192,230828,1,0,0:0:0:0:
475,192,230828,1,0,0:0:0:0:
256,192,230828,1,8,0:0:0:0:
329,192,230828,1,0,0:0:0:0:
329,192,230965,1,0,0:0:0:0:
402,192,230965,1,0,0:0:0:0:
475,192,230965,1,0,0:0:0:0:
256,192,230965,1,0,0:0:0:0:
36,192,230965,1,4,0:0:0:0:
109,192,230965,1,2,0:0:0:0:
182,192,230965,1,0,0:0:0:0:
182,192,231101,1,0,0:0:0:0:
109,192,231101,1,0,0:0:0:0:
36,192,231101,1,0,0:0:0:0:
329,192,231237,1,0,0:0:0:0:
402,192,231237,1,0,0:0:0:0:
475,192,231237,1,0,0:0:0:0:
256,192,231237,1,0,0:0:0:0:
36,192,231237,1,8,0:0:0:0:
109,192,231237,1,0,0:0:0:0:
182,192,231237,1,0,0:0:0:0:
329,192,231374,1,0,0:0:0:0:
402,192,231374,1,0,0:0:0:0:
475,192,231374,1,0,0:0:0:0:
36,192,231374,1,8,0:0:0:0:
109,192,231374,1,0,0:0:0:0:
182,192,231374,1,0,0:0:0:0:
329,192,231646,1,0,0:0:0:0:
402,192,231646,1,0,0:0:0:0:
475,192,231646,1,0,0:0:0:0:
36,192,231646,1,8,0:0:0:0:
109,192,231646,1,0,0:0:0:0:
182,192,231646,1,0,0:0:0:0:
329,192,231919,1,0,0:0:0:0:
402,192,231919,1,0,0:0:0:0:
475,192,231919,1,0,0:0:0:0:
256,192,231919,1,0,0:0:0:0:
36,192,231919,1,8,0:0:0:0:
109,192,231919,1,4,0:0:0:0:
182,192,231919,1,0,0:0:0:0:
329,192,232055,1,0,0:0:0:0:
402,192,232055,1,0,0:0:0:0:
475,192,232055,1,0,0:0:0:0:
256,192,232055,1,0,0:0:0:0:
36,192,232055,1,8,0:0:0:0:
109,192,232055,1,4,0:0:0:0:
182,192,232055,1,0,0:0:0:0:
