osu file format v14

[General]
AudioFilename: audio.mp3
AudioLeadIn: 0
PreviewTime: 5752
Countdown: 0
SampleSet: None
StackLeniency: 0.7
Mode: 3
LetterboxInBreaks: 0
SpecialStyle: 0
WidescreenStoryboard: 0

[Editor]
DistanceSpacing: 1
BeatDivisor: 4
GridSize: 8
TimelineZoom: 1.9

[Metadata]
Title:I Wanna Be Famous
TitleUnicode:I Wanna Be Famous
Artist:Graeme Cornies & Dawna Toews
ArtistUnicode:Graeme Cornies & Dawna Toews
Creator:Unpredictable
Version:Hard
Source:Total Drama Island
Tags:island action world tour revenge of the all-stars pahkitew cartoon network punk rock alternative CrumpetFiddler FAMoss
BeatmapID:1303170
BeatmapSetID:618173

[Difficulty]
HPDrainRate:7.5
CircleSize:4
OverallDifficulty:7.5
ApproachRate:5
SliderMultiplier:1.4
SliderTickRate:1

[Events]
//Background and Video events
0,0,"Chris The Dude.jpg",0,0
Video,215,"TDI.avi"
//Break Periods
//Storyboard Layer 0 (Background)
//Storyboard Layer 1 (Fail)
//Storyboard Layer 2 (Pass)
//Storyboard Layer 3 (Foreground)
//Storyboard Sound Samples

[TimingPoints]
267,342.857142857143,4,3,1,50,1,0
44152,-100,4,3,1,50,0,1
53752,-100,4,3,1,50,0,0
55124,419.58041958042,4,3,1,50,1,0
55124,-81.9672131147541,4,3,1,50,0,0
59296,342.857142857143,4,3,1,50,1,0

[HitObjects]
448,192,267,5,2,0:0:0:0:
64,192,267,128,0,609:0:0:0:0:
192,192,438,1,0,0:0:0:0:
448,192,609,128,0,952:0:0:0:0:
320,192,609,1,2,0:0:0:0:
192,192,781,1,0,0:0:0:0:
320,192,952,128,0,1295:0:0:0:0:
64,192,952,1,2,0:0:0:0:
448,192,1124,1,0,0:0:0:0:
192,192,1295,1,2,0:0:0:0:
64,192,1295,128,0,1638:0:0:0:0:
320,192,1467,1,0,0:0:0:0:
448,192,1638,1,2,0:0:0:0:
192,192,1638,128,0,1981:0:0:0:0:
64,192,1809,1,0,0:0:0:0:
448,192,1981,128,0,2324:0:0:0:0:
320,192,1981,1,2,0:0:0:0:
192,192,2152,1,0,0:0:0:0:
320,192,2324,128,0,2667:0:0:0:0:
64,192,2324,1,2,0:0:0:0:
448,192,2495,1,0,0:0:0:0:
192,192,2667,128,0,3009:0:0:0:0:
64,192,2667,1,2,0:0:0:0:
448,192,2838,1,0,0:0:0:0:
64,192,3009,1,0,0:0:0:0:
320,192,3009,1,2,0:0:0:0:
448,192,3181,1,0,0:0:0:0:
192,192,3352,1,2,0:0:0:0:
64,192,3352,128,0,3695:0:0:0:0:
192,192,3695,128,0,4038:0:0:0:66:
448,192,3695,1,2,0:0:0:0:
448,192,4038,128,0,4381:0:0:0:0:
320,192,4038,1,2,0:0:0:0:
320,192,4381,128,0,4724:0:0:0:0:
64,192,4381,1,2,0:0:0:0:
192,192,4552,1,0,0:0:0:0:
448,192,4724,1,2,0:0:0:0:
64,192,4724,128,0,5067:0:0:0:0:
320,192,4895,1,0,0:0:0:0:
448,192,5067,128,0,5409:0:0:0:0:
192,192,5067,1,2,0:0:0:0:
320,192,5409,1,8,0:0:0:0:
64,192,5409,1,2,0:0:0:0:
192,192,5409,128,0,5752:0:0:0:0:
448,192,5752,1,4,0:0:0:0:
320,192,5752,1,0,0:0:0:0:
64,192,5752,1,2,0:0:0:0:
448,192,5924,1,0,0:0:0:0:
192,192,6095,1,0,0:0:0:0:
64,192,6095,1,8,0:0:0:0:
320,192,6267,1,0,0:0:0:0:
448,192,6438,1,2,0:0:0:0:
192,192,6609,1,2,0:0:0:0:
320,192,6781,1,0,0:0:0:0:
64,192,6781,1,8,0:0:0:0:
448,192,6952,1,2,0:0:0:0:
192,192,7124,1,2,0:0:0:0:
320,192,7295,1,0,0:0:0:0:
192,192,7467,1,0,0:0:0:0:
64,192,7467,1,8,0:0:0:0:
448,192,7638,1,0,0:0:0:0:
320,192,7809,1,2,0:0:0:0:
64,192,7981,1,2,0:0:0:0:
320,192,8152,1,0,0:0:0:0:
448,192,8152,1,8,0:0:0:0:
192,192,8324,1,2,0:0:0:0:
64,192,8495,1,2,0:0:0:0:
320,192,8667,1,0,0:0:0:0:
192,192,8838,1,0,0:0:0:0:
448,192,8838,1,8,0:0:0:0:
64,192,9009,1,2,0:0:0:0:
448,192,9181,1,2,0:0:0:0:
320,192,9352,1,0,0:0:0:0:
192,192,9524,1,0,0:0:0:0:
64,192,9524,1,8,0:0:0:0:
448,192,9695,1,2,0:0:0:0:
320,192,9867,1,2,0:0:0:0:
64,192,10038,1,0,0:0:0:0:
320,192,10209,1,0,0:0:0:0:
192,192,10209,1,8,0:0:0:0:
448,192,10381,1,0,0:0:0:0:
64,192,10552,1,2,0:0:0:0:
320,192,10724,1,2,0:0:0:0:
448,192,10895,1,8,0:0:0:0:
192,192,10895,1,4,0:0:0:0:
64,192,10895,128,0,11238:0:0:0:0:
192,192,11238,1,2,0:0:0:0:
320,192,11409,1,0,0:0:0:0:
448,192,11581,1,0,0:0:0:0:
64,192,11581,1,8,0:0:0:0:
192,192,11752,1,0,0:0:0:0:
448,192,11924,1,2,0:0:0:0:
320,192,12095,1,0,0:0:0:0:
192,192,12267,1,0,0:0:0:0:
64,192,12267,1,8,0:0:0:0:
448,192,12438,1,2,0:0:0:0:
64,192,12609,1,2,0:0:0:0:
192,192,12781,1,0,0:0:0:0:
320,192,12952,1,0,0:0:0:0:
448,192,12952,1,8,0:0:0:0:
64,192,13124,1,2,0:0:0:0:
192,192,13295,1,0,0:0:0:0:
448,192,13467,1,2,0:0:0:0:
320,192,13638,1,0,0:0:0:0:
192,192,13638,1,8,0:0:0:0:
64,192,13809,1,2,0:0:0:0:
448,192,13981,1,2,0:0:0:0:
320,192,14152,1,0,0:0:0:0:
192,192,14324,1,0,0:0:0:0:
64,192,14324,1,8,0:0:0:0:
320,192,14495,1,0,0:0:0:0:
448,192,14667,1,2,0:0:0:0:
192,192,14838,1,2,0:0:0:0:
320,192,15009,1,0,0:0:0:0:
64,192,15009,1,8,0:0:0:0:
448,192,15181,1,2,0:0:0:0:
192,192,15352,1,2,0:0:0:0:
320,192,15524,1,0,0:0:0:0:
64,192,15695,1,0,0:0:0:0:
448,192,15695,1,8,0:0:0:0:
192,192,15867,1,2,0:0:0:0:
320,192,16038,1,0,0:0:0:0:
448,192,16209,1,2,0:0:0:0:
320,192,16381,1,0,0:0:0:0:
192,192,16381,1,8,0:0:0:0:
64,192,16552,1,2,0:0:0:0:
448,192,16724,1,0,0:0:0:0:
320,192,16724,1,2,0:0:0:0:
192,192,16895,1,0,0:0:0:0:
320,192,17067,1,0,0:0:0:0:
64,192,17067,1,8,0:0:0:0:
448,192,17238,1,0,0:0:0:0:
320,192,17409,1,0,0:0:0:0:
192,192,17409,1,2,0:0:0:0:
64,192,17581,1,2,0:0:0:0:
448,192,17752,1,0,0:0:0:0:
320,192,17752,1,8,0:0:0:0:
192,192,17924,1,2,0:0:0:0:
64,192,18095,1,2,0:0:0:0:
448,192,18095,1,0,0:0:0:0:
320,192,18267,1,0,0:0:0:0:
192,192,18438,1,0,0:0:0:0:
64,192,18438,1,8,0:0:0:0:
448,192,18609,1,0,0:0:0:0:
320,192,18781,1,0,0:0:0:0:
192,192,18781,1,2,0:0:0:0:
64,192,18952,1,2,0:0:0:0:
320,192,19124,1,0,0:0:0:0:
448,192,19124,1,8,0:0:0:0:
192,192,19295,1,2,0:0:0:0:
320,192,19467,1,0,0:0:0:0:
64,192,19467,1,2,0:0:0:0:
448,192,19638,1,0,0:0:0:0:
64,192,19809,1,0,0:0:0:0:
192,192,19809,1,8,0:0:0:0:
320,192,19981,1,2,0:0:0:0:
448,192,20152,1,2,0:0:0:0:
192,192,20152,1,0,0:0:0:0:
64,192,20324,1,2,0:0:0:0:
192,192,20495,1,8,0:0:0:0:
320,192,20495,1,0,0:0:0:0:
448,192,20667,1,0,0:0:0:0:
192,192,20838,1,0,0:0:0:0:
64,192,20838,1,2,0:0:0:0:
320,192,21009,1,8,0:0:0:0:
448,192,21009,1,2,0:0:0:0:
192,192,21181,1,2,0:0:0:0:
64,192,21181,1,8,0:0:0:0:
320,192,21352,1,2,0:0:0:0:
448,192,21352,1,8,0:0:0:0:
64,192,21524,1,8,0:0:0:0:
192,192,21524,1,2,0:0:0:0:
320,192,21695,1,8,0:0:0:0:
448,192,21695,1,2,0:0:0:0:
192,192,21867,1,4,0:0:0:0:
320,192,21867,1,8,0:0:0:0:
64,192,21867,128,0,22209:0:0:0:0:
448,192,22209,128,0,22381:0:0:0:0:
192,192,22209,1,2,0:0:0:0:
320,192,22552,1,2,0:0:0:0:
64,192,22552,128,0,22724:0:0:0:0:
448,192,22895,1,2,0:0:0:0:
192,192,22895,128,0,23067:0:0:0:0:
320,192,23238,128,0,23409:0:0:0:0:
64,192,23238,1,2,0:0:0:0:
192,192,23409,1,2,0:0:0:0:
448,192,23581,128,0,23752:0:0:0:0:
64,192,23581,1,2,0:0:0:0:
320,192,23924,1,2,0:0:0:0:
192,192,23924,128,0,24095:0:0:0:0:
448,192,24267,1,2,0:0:0:0:
64,192,24267,128,0,24438:0:0:0:0:
320,192,24609,128,0,24781:0:0:0:0:
192,192,24609,1,2,0:0:0:0:
448,192,24781,1,2,0:0:0:0:
192,192,24952,128,0,25124:0:0:0:0:
64,192,24952,1,2,0:0:0:0:
448,192,25295,128,0,25467:0:0:0:0:
320,192,25295,1,2,0:0:0:0:
192,192,25638,1,2,0:0:0:0:
64,192,25638,128,0,25809:0:0:0:0:
448,192,25981,128,0,26152:0:0:0:0:
320,192,25981,1,2,0:0:0:0:
192,192,26152,1,0,0:0:0:0:
320,192,26324,128,0,26495:0:0:0:0:
64,192,26324,1,2,0:0:0:0:
192,192,26667,1,2,0:0:0:0:
64,192,26667,128,0,26838:0:0:0:0:
448,192,27009,128,0,27181:0:0:0:0:
320,192,27009,1,2,0:0:0:0:
320,192,27352,1,8,0:0:0:0:
192,192,27352,1,0,0:0:0:0:
64,192,27352,128,0,27695:0:0:0:0:
448,192,27695,1,4,0:0:0:0:
192,192,27695,1,2,0:0:0:0:
448,192,27867,1,0,0:0:0:0:
192,192,28038,1,0,0:0:0:0:
64,192,28038,1,8,0:0:0:0:
320,192,28209,1,0,0:0:0:0:
448,192,28381,1,2,0:0:0:0:
192,192,28552,1,2,0:0:0:0:
320,192,28724,1,0,0:0:0:0:
64,192,28724,1,8,0:0:0:0:
448,192,28895,1,0,0:0:0:0:
192,192,29067,1,2,0:0:0:0:
64,192,29238,1,0,0:0:0:0:
320,192,29409,1,0,0:0:0:0:
448,192,29409,1,8,0:0:0:0:
192,192,29581,1,2,0:0:0:0:
64,192,29752,1,0,0:0:0:0:
448,192,29924,1,2,0:0:0:0:
192,192,30095,1,0,0:0:0:0:
64,192,30095,1,8,0:0:0:0:
320,192,30267,1,0,0:0:0:0:
448,192,30438,1,2,0:0:0:0:
192,192,30609,1,0,0:0:0:0:
448,192,30781,1,0,0:0:0:0:
64,192,30781,1,8,0:0:0:0:
320,192,30952,1,0,0:0:0:0:
192,192,31124,1,2,0:0:0:0:
64,192,31295,1,2,0:0:0:0:
448,192,31467,1,8,0:0:0:0:
192,192,31467,1,0,0:0:0:0:
320,192,31638,1,0,0:0:0:0:
64,192,31809,1,2,0:0:0:0:
192,192,31981,1,0,0:0:0:0:
320,192,32152,1,0,0:0:0:0:
448,192,32152,1,8,0:0:0:0:
64,192,32324,1,2,0:0:0:0:
192,192,32495,1,0,0:0:0:0:
448,192,32667,1,2,0:0:0:0:
320,192,32838,1,2,0:0:0:0:
64,192,32838,1,8,0:0:0:0:
192,192,33009,1,0,0:0:0:0:
448,192,33181,1,0,0:0:0:0:
320,192,33181,1,2,0:0:0:0:
64,192,33352,1,0,0:0:0:0:
320,192,33524,1,0,0:0:0:0:
192,192,33524,1,2,0:0:0:0:
448,192,33695,1,0,0:0:0:0:
192,192,33867,1,0,0:0:0:0:
64,192,33867,1,2,0:0:0:0:
320,192,34038,1,0,0:0:0:0:
448,192,34209,1,0,0:0:0:0:
192,192,34209,1,8,0:0:0:0:
64,192,34381,1,0,0:0:0:0:
448,192,34552,1,0,0:0:0:0:
320,192,34552,1,2,0:0:0:0:
192,192,34724,1,2,0:0:0:0:
448,192,34895,1,0,0:0:0:0:
64,192,34895,1,8,0:0:0:0:
320,192,35067,1,2,0:0:0:0:
192,192,35238,1,0,0:0:0:0:
64,192,35238,1,2,0:0:0:0:
448,192,35409,1,0,0:0:0:0:
320,192,35581,1,0,0:0:0:0:
192,192,35581,1,8,0:0:0:0:
64,192,35752,1,0,0:0:0:0:
448,192,35924,1,8,0:0:0:0:
320,192,35924,1,2,0:0:0:0:
64,192,36095,1,0,0:0:0:0:
192,192,36267,1,2,0:0:0:0:
320,192,36438,1,8,0:0:0:0:
448,192,36438,1,2,0:0:0:0:
64,192,36609,1,8,0:0:0:0:
192,192,36781,1,8,0:0:0:0:
320,192,36781,1,2,0:0:0:0:
448,192,36952,1,2,0:0:0:0:
64,192,36952,1,8,0:0:0:0:
320,192,37124,1,0,0:0:0:0:
192,192,37295,1,2,0:0:0:0:
320,192,37467,1,8,0:0:0:0:
448,192,37467,1,2,0:0:0:0:
192,192,37638,1,8,0:0:0:0:
64,192,37638,1,2,0:0:0:0:
448,192,37809,1,2,0:0:0:0:
192,192,37981,1,0,0:0:0:0:
64,192,37981,1,2,0:0:0:0:
320,192,38152,1,0,0:0:0:0:
448,192,38324,1,0,0:0:0:0:
192,192,38324,1,8,0:0:0:0:
320,192,38667,1,0,0:0:0:0:
448,192,38667,1,0,0:0:0:0:
64,192,38667,1,2,0:0:0:0:
448,192,39009,1,0,0:0:0:0:
64,192,39009,1,8,0:0:0:0:
192,192,39181,1,0,0:0:0:0:
320,192,39352,1,0,0:0:0:0:
64,192,39352,1,2,0:0:0:0:
448,192,39524,1,0,0:0:0:0:
192,192,39695,1,0,0:0:0:0:
64,192,39695,1,8,0:0:0:0:
448,192,39867,1,0,0:0:0:0:
320,192,40038,1,0,0:0:0:0:
192,192,40038,1,2,0:0:0:0:
448,192,40381,1,0,0:0:0:0:
64,192,40381,1,8,0:0:0:0:
192,192,40552,1,0,0:0:0:0:
320,192,40724,1,0,0:0:0:0:
64,192,40724,1,2,0:0:0:0:
448,192,40895,1,0,0:0:0:0:
320,192,41067,1,0,0:0:0:0:
192,192,41067,1,8,0:0:0:0:
64,192,41238,1,0,0:0:0:0:
448,192,41409,1,0,0:0:0:0:
320,192,41409,1,2,0:0:0:0:
192,192,41752,1,0,0:0:0:0:
64,192,41752,1,8,0:0:0:0:
320,192,41924,1,0,0:0:0:0:
448,192,42095,1,0,0:0:0:0:
192,192,42095,1,2,0:0:0:0:
64,192,42267,1,0,0:0:0:0:
448,192,42438,1,0,0:0:0:0:
320,192,42438,1,8,0:0:0:0:
192,192,42609,1,0,0:0:0:0:
320,192,42781,1,0,0:0:0:0:
64,192,42781,1,2,0:0:0:0:
64,192,43124,1,4,0:0:0:0:
448,192,43124,1,8,0:0:0:0:
320,192,43295,1,0,0:0:0:0:
192,192,43467,1,0,0:0:0:0:
64,192,43467,1,2,0:0:0:0:
448,192,43638,1,0,0:0:0:0:
192,192,43809,1,8,0:0:0:0:
320,192,43809,1,4,0:0:0:0:
448,192,44152,1,0,0:0:0:0:
64,192,44152,1,4,0:0:0:0:
320,192,44152,1,2,0:0:0:0:
448,192,44495,1,0,0:0:0:0:
192,192,44495,1,8,0:0:0:0:
320,192,44667,1,2,0:0:0:0:
64,192,44838,1,2,0:0:0:0:
192,192,45009,1,0,0:0:0:0:
448,192,45181,1,0,0:0:0:0:
320,192,45181,1,8,0:0:0:0:
192,192,45352,1,2,0:0:0:0:
448,192,45524,1,4,0:0:0:0:
64,192,45524,1,2,0:0:0:0:
320,192,45867,1,0,0:0:0:0:
192,192,45867,1,8,0:0:0:0:
448,192,46038,1,0,0:0:0:0:
64,192,46209,1,2,0:0:0:0:
320,192,46381,1,2,0:0:0:0:
448,192,46552,1,0,0:0:0:0:
192,192,46552,1,8,0:0:0:0:
64,192,46724,1,2,0:0:0:0:
320,192,46895,1,2,0:0:0:0:
448,192,46895,1,4,0:0:0:0:
448,192,47238,1,0,0:0:0:0:
64,192,47238,1,8,0:0:0:0:
192,192,47409,1,2,0:0:0:0:
320,192,47581,1,2,0:0:0:0:
448,192,47752,1,2,0:0:0:0:
192,192,47924,1,0,0:0:0:0:
64,192,47924,1,8,0:0:0:0:
320,192,48095,1,2,0:0:0:0:
64,192,48267,1,2,0:0:0:0:
448,192,48267,1,4,0:0:0:0:
320,192,48609,1,0,0:0:0:0:
192,192,48609,1,8,0:0:0:0:
64,192,48952,1,2,0:0:0:0:
320,192,49124,1,0,0:0:0:0:
448,192,49295,1,0,0:0:0:0:
192,192,49295,1,8,0:0:0:0:
64,192,49638,1,2,0:0:0:0:
320,192,49638,1,4,0:0:0:0:
448,192,49981,1,0,0:0:0:0:
320,192,49981,1,8,0:0:0:0:
192,192,50324,1,2,0:0:0:0:
64,192,50495,1,2,0:0:0:0:
448,192,50667,1,8,0:0:0:0:
320,192,50667,1,0,0:0:0:0:
192,192,50838,1,2,0:0:0:0:
64,192,51009,1,4,0:0:0:0:
320,192,51009,1,2,0:0:0:0:
448,192,51352,1,0,0:0:0:0:
192,192,51352,1,8,0:0:0:0:
320,192,51695,1,2,0:0:0:0:
448,192,51867,1,2,0:0:0:0:
192,192,52038,1,0,0:0:0:0:
64,192,52038,1,8,0:0:0:0:
448,192,52209,1,2,0:0:0:0:
320,192,52381,1,4,0:0:0:0:
192,192,52381,1,2,0:0:0:0:
448,192,52724,1,0,0:0:0:0:
64,192,52724,1,8,0:0:0:0:
320,192,52895,1,2,0:0:0:0:
64,192,53067,1,2,0:0:0:0:
192,192,53238,1,2,0:0:0:0:
448,192,53409,1,8,0:0:0:0:
320,192,53409,1,0,0:0:0:0:
64,192,53581,1,2,0:0:0:0:
192,192,53752,1,4,0:0:0:0:
320,192,53752,128,2,55124:0:0:0:0:
64,192,55124,1,0,0:0:0:0:
192,192,55176,1,0,0:0:0:0:
448,192,55228,128,0,56802:0:0:0:0:
64,192,56802,1,0,0:0:0:0:
192,192,56854,1,0,0:0:0:0:
320,192,56907,128,0,58480:0:0:0:0:
64,192,58480,1,0,0:0:0:0:
192,192,58533,1,0,0:0:0:0:
320,192,58585,1,0,0:0:0:0:
448,192,58637,128,0,59296:0:0:0:0:
320,192,59296,128,0,59981:0:0:0:0:
