osu file format v14

[General]
AudioFilename: audio.mp3
AudioLeadIn: 0
PreviewTime: 38357
Countdown: 1
SampleSet: None
StackLeniency: 0.7
Mode: 0
LetterboxInBreaks: 0
WidescreenStoryboard: 1

[Editor]
DistanceSpacing: 1.1
BeatDivisor: 4
GridSize: 4
TimelineZoom: 1.6

[Metadata]
Title:I Wanna Be Famous
TitleUnicode:I Wanna Be Famous
Artist:Graeme Cornies & Dawna Toews
ArtistUnicode:Graeme Cornies & Dawna Toews
Creator:DeepSeaK
Version:Min's Insane
Source:Total Drama Island
Tags:Cartoon Network Teletoon Rock TV Version Size MinNin AbstractParadox Bakugou
BeatmapID:1721368
BeatmapSetID:819679

[Difficulty]
HPDrainRate:6
CircleSize:4
OverallDifficulty:7
ApproachRate:9
SliderMultiplier:1.6
SliderTickRate:1

[Events]
//Background and Video events
0,0,"Marshmallows.png",0,0
//Break Periods
//Storyboard Layer 0 (Background)
//Storyboard Layer 1 (Fail)
//Storyboard Layer 2 (Pass)
//Storyboard Layer 3 (Foreground)
//Storyboard Sound Samples

[TimingPoints]
70,342.857142857143,4,3,0,50,1,0
5212,-100,4,3,1,50,0,0
10698,-100,4,3,3,50,0,0
11041,-100,4,3,1,50,0,0
16527,-100,4,3,1,60,0,1
19270,-100,4,3,1,60,0,1
20641,-100,4,3,1,65,0,1
22012,-133.333333333333,4,3,2,40,0,0
27155,-66.6666666666667,4,3,1,60,0,0
27498,-100,4,3,1,50,0,0
32641,-100,4,3,1,50,0,0
32984,-100,4,3,1,60,0,0
35727,-100,4,3,1,60,0,0
37098,-100,4,3,1,65,0,0
38470,-80,4,3,2,60,0,0
39498,-80,4,3,1,60,0,0
39841,-80,4,3,1,60,0,0
40870,-80,4,3,1,60,0,0
41212,-80,4,3,3,60,0,0
42241,-80,4,3,1,60,0,0
42584,-80,4,3,1,60,0,0
43612,-80,4,3,1,60,0,0
43955,-66.6666666666667,4,3,1,65,0,1
44984,-100,4,3,1,65,0,1
45327,-66.6666666666667,4,3,1,65,0,1
46355,-100,4,3,1,65,0,1
46698,-66.6666666666667,4,3,1,65,0,1
49098,-66.6666666666667,4,3,1,65,0,1
49441,-66.6666666666667,4,3,1,65,0,1
50470,-66.6666666666667,4,3,1,65,0,1
50812,-66.6666666666667,4,3,1,65,0,1
51841,-66.6666666666667,4,3,1,65,0,1
52184,-66.6666666666667,4,3,1,65,0,1
53384,-100,4,3,3,65,0,0
54755,-100,4,3,1,15,0,0
54927,400,4,3,1,50,1,0
54927,-200,4,3,2,50,0,0
55127,-200,4,3,1,15,0,0
56527,428.571428571429,4,3,1,50,1,0
56527,-200,4,3,1,50,0,0
56741,-200,4,3,1,15,0,0
58241,461.538461538462,4,3,1,50,1,0
58241,-200,4,3,3,50,0,0
58471,-200,4,3,3,15,0,0

[Colours]
Combo1 : 207,149,61
Combo2 : 0,0,249
Combo3 : 0,128,255
Combo4 : 192,192,192

[HitObjects]
37,64,5555,6,0,P|81:93|140:104,1,80,4|0,0:0|0:0,0:0:0:0:
228,171,5898,1,8,0:0:0:0:
382,134,6070,1,0,0:0:0:0:
339,31,6241,2,0,P|306:102|322:185,1,160,0|8,0:0|0:0,0:0:0:0:
416,209,6927,5,0,0:0:0:0:
318,327,7098,1,0,0:0:0:0:
460,296,7270,1,8,0:0:0:0:
232,346,7441,2,0,P|154:365|74:369,1,160
36,254,7955,1,8,0:0:0:0:
169,199,8127,1,0,0:0:0:0:
117,306,8298,1,0,0:0:0:0:
169,199,8641,6,0,P|111:231|77:237,1,80,8|0,0:0|0:0,0:0:0:0:
36,254,8984,1,0,0:0:0:0:
119,156,9155,1,0,0:0:0:0:
43,81,9327,1,8,0:0:0:0:
139,42,9498,2,0,P|177:31|216:36,1,80
263,202,9841,2,0,P|322:202|344:189,1,80,0|8,0:0|0:0,0:0:0:0:
301,119,10184,2,0,P|354:93|377:77,1,80
482,172,10698,5,4,0:0:0:0:
412,334,11041,1,0,0:0:0:0:
350,228,11212,2,0,P|355:172|379:132,1,80,0|8,0:0|0:0,0:0:0:0:
454,85,11555,1,0,0:0:0:0:
482,172,11727,6,0,P|442:220|339:222,1,160,0|8,0:0|0:0,0:0:0:0:
259,182,12241,1,0,0:0:0:0:
344,141,12412,2,0,P|395:101|410:77,1,80
341,22,12755,1,8,0:0:0:0:
210,48,12927,6,0,P|162:79|40:85,1,160
102,19,13441,1,8,0:0:0:0:
263,134,13612,1,0,0:0:0:0:
316,227,13784,2,0,P|265:288|194:322,1,160,0|8,0:0|0:0,0:0:0:0:
200,183,14298,1,0,0:0:0:0:
349,54,14470,2,0,P|412:115|422:195,1,160,0|8,0:0|0:0,0:0:0:0:
386,336,14984,1,0,0:0:0:0:
270,283,15155,6,0,P|230:271|188:249,1,80
243,182,15498,2,0,P|206:152|163:137,1,80,8|0,0:0|0:0,0:0:0:0:
81,170,15841,2,0,P|130:200|157:212,1,80
98,273,16184,2,0,P|131:296|150:342,1,80,8|0,0:0|0:0,0:0:0:0:
248,321,16527,5,4,0:0:0:0:
445,269,16698,1,0,0:0:0:0:
176,211,16870,1,4,0:0:0:0:
385,163,17041,1,0,0:0:0:0:
115,104,17212,6,0,P|162:79|205:76,1,80,4|4,0:0|0:0,0:0:0:0:
260,140,17555,2,0,P|318:123|363:96,1,80,4|4,0:0|0:0,0:0:0:0:
479,97,17898,5,4,0:0:0:0:
296,22,18070,1,0,0:0:0:0:
178,46,18241,1,4,0:0:0:0:
393,132,18412,1,0,0:0:0:0:
435,248,18584,2,4,P|390:235|359:210,1,80
153,124,18927,2,4,P|216:161|240:163,1,80
249,283,19270,5,4,0:0:0:0:
67,222,19441,1,0,0:0:0:0:
133,324,19612,1,4,0:0:0:0:
200,163,19784,1,0,0:0:0:0:
272,106,19955,2,0,P|323:101|369:133,1,80,4|0,0:0|0:0,0:0:0:0:
429,200,20298,2,0,P|378:198|334:183,1,80,4|0,0:0|0:0,0:0:0:0:
251,239,20641,6,4,P|305:260|340:263,1,80
427,336,20984,2,4,P|359:330|323:321,1,80
235,360,21327,1,4,0:0:0:0:
94,264,21498,1,4,0:0:0:0:
217,238,21670,1,4,0:0:0:0:
209,199,21755,1,0,0:0:0:0:
187,165,21841,1,4,0:0:0:0:
155,141,21927,1,0,0:0:0:0:
117,131,22012,6,0,P|156:80|171:74,1,60.0000022888184,4|0,0:0|0:0,0:0:0:0:
286,81,22355,1,8,0:0:0:0:
442,30,22527,1,0,0:0:0:0:
475,135,22698,2,0,P|470:172|458:212,1,60.0000022888184
340,243,23041,1,8,0:0:0:0:
194,295,23212,6,0,P|164:288|138:274,1,60.0000022888184
35,253,23555,2,0,P|40:213|63:186,1,60.0000022888184,0|8,0:0|0:0,0:0:0:0:
186,167,23898,1,0,0:0:0:0:
251,337,24070,1,0,0:0:0:0:
420,360,24241,2,0,P|456:354|493:337,1,60.0000022888184,0|2,0:0|0:0,0:0:0:0:
488,241,24584,1,0,0:0:0:0:
368,195,24755,5,0,0:0:0:0:
336,329,24927,1,0,0:0:0:0:
257,218,25098,2,0,P|218:205|191:183,1,60.0000022888184,8|0,0:0|0:0,0:0:0:0:
161,119,25441,2,0,P|237:104|289:80,1,120.000004577637,0|8,0:0|0:0,0:0:0:0:
385,25,25955,5,0,0:0:0:0:
478,103,26127,1,0,0:0:0:0:
359,135,26298,1,0,0:0:0:0:
269,17,26470,1,8,0:0:0:0:
182,86,26641,2,0,P|123:77|52:49,1,120.000004577637
34,147,27155,2,0,P|85:210|139:217,1,120.000004577637,2|0,0:0|0:0,0:0:0:0:
194,96,27498,5,0,0:0:0:0:
341,204,27670,1,0,0:0:0:0:
228,192,27841,2,0,P|249:158|296:119,1,80,8|0,0:0|0:0,0:0:0:0:
433,53,28184,1,0,0:0:0:0:
444,234,28356,1,0,0:0:0:0:
381,140,28527,2,0,P|420:134|480:145,1,80,8|0,0:0|0:0,0:0:0:0:
451,326,28870,5,0,0:0:0:0:
336,327,29041,2,0,L|306:245,1,80,0|8,0:0|0:0,0:0:0:0:
228,192,29384,2,0,P|184:184|62:200,1,160
85,323,29898,1,8,0:0:0:0:
207,272,30070,1,0,0:0:0:0:
113,222,30241,5,0,0:0:0:0:
180,367,30412,2,0,P|235:369|266:361,1,80,0|8,0:0|0:0,0:0:0:0:
342,269,30755,1,0,0:0:0:0:
256,163,30927,1,0,0:0:0:0:
186,51,31098,6,0,P|139:38|89:50,1,80,0|8,0:0|0:0,0:0:0:0:
62,126,31441,2,0,P|91:162|127:176,1,80
228,133,31784,1,0,0:0:0:0:
204,284,31955,1,8,0:0:0:0:
305,207,32127,1,0,0:0:0:0:
282,361,32298,1,0,0:0:0:0:
378,288,32470,1,0,0:0:0:0:
413,180,32641,6,0,P|426:187|459:97,1,160,8|4,0:0|0:0,0:0:0:0:
313,40,33155,1,0,0:0:0:0:
163,107,33327,5,4,0:0:0:0:
301,162,33498,1,0,0:0:0:0:
177,217,33670,5,4,0:0:0:0:
258,89,33841,1,0,0:0:0:0:
406,49,34012,5,4,0:0:0:0:
301,162,34184,1,0,0:0:0:0:
274,267,34355,2,4,P|225:321|291:321,3,160
396,364,35555,5,0,0:0:0:0:
471,233,35727,1,4,0:0:0:0:
428,121,35898,5,0,0:0:0:0:
343,250,36070,1,0,0:0:0:0:
320,142,36241,5,4,0:0:0:0:
397,12,36412,1,0,0:0:0:0:
397,12,36498,1,0,0:0:0:0:
397,12,36584,5,0,0:0:0:0:
226,54,36755,1,4,0:0:0:0:
102,153,36927,1,4,0:0:0:0:
256,192,37098,12,0,38127,0:0:0:0:
343,44,38470,5,8,0:0:0:0:
397,167,38641,1,0,0:0:0:0:
466,64,38812,1,8,0:0:0:0:
282,140,38984,1,0,0:0:0:0:
384,261,39155,5,8,0:0:0:0:
264,314,39327,1,0,0:0:0:0:
416,348,39498,2,0,P|468:298|476:259,2,100,2|0|2,0:0|0:0|0:0,0:0:0:0:
384,261,40012,5,0,0:0:0:0:
167,209,40184,1,8,0:0:0:0:
295,172,40355,1,0,0:0:0:0:
219,284,40527,2,0,B|179:323|179:323|132:326,1,100,8|0,0:0|0:0,0:0:0:0:
180,209,40870,2,0,B|141:248|141:248|77:250,1,100
51,172,41212,5,4,0:0:0:0:
39,315,41384,1,0,0:0:0:0:
51,172,41555,1,8,0:0:0:0:
221,105,41727,1,0,0:0:0:0:
383,163,41898,1,0,0:0:0:0:
221,105,42070,1,8,0:0:0:0:
262,181,42241,2,0,P|294:141|307:90,1,100
357,34,42584,6,0,B|412:69|474:85|474:85|482:168,1,200,0|8,0:0|0:0,0:0:0:0:
424,249,43098,1,0,0:0:0:0:
346,326,43270,2,0,B|291:291|229:275|229:275|221:192,1,200,0|8,0:0|0:0,0:0:0:0:
105,144,43955,5,0,0:0:0:0:
72,311,44127,1,0,0:0:0:0:
171,224,44298,2,0,B|234:245|234:245|291:215,1,120.000004577637,8|0,0:0|0:0,0:0:0:0:
231,152,44641,2,0,B|206:91|206:91|240:26,1,120.000004577637
398,81,44984,2,0,P|407:136|318:131,1,160,8|0,0:0|0:0,0:0:0:0:
292,34,45498,6,0,B|226:34|226:34|166:62,1,120.000004577637,0|8,0:0|0:0,0:0:0:0:
247,126,45841,2,0,B|199:148|199:148|126:150,1,120.000004577637
46,68,46184,1,0,0:0:0:0:
49,247,46355,2,0,P|79:238|39:151,1,160,8|0,0:0|0:0,0:0:0:0:
45,325,47041,5,8,0:0:0:0:
222,281,47212,1,0,0:0:0:0:
130,303,47384,5,0,0:0:0:0:
307,259,47555,1,0,0:0:0:0:
222,281,47727,5,8,0:0:0:0:
374,332,47898,1,0,0:0:0:0:
307,259,48070,2,0,B|286:204|286:204|302:171|302:171|319:211,1,120.000004577637
354,135,48412,2,0,B|379:187|379:187|367:220|371:224|392:277,1,120.000004577637,8|0,0:0|0:0,0:0:0:0:
463,355,48755,1,0,0:0:0:0:
489,236,48927,1,0,0:0:0:0:
436,124,49098,2,0,P|401:75|337:56,1,120.000004577637,8|0,0:0|0:0,0:0:0:0:
328,152,49441,6,0,P|271:130|236:73,1,120.000004577637,8|0,0:0|0:0,0:0:0:0:
123,53,49784,2,0,B|102:110|102:110|143:188,1,120.000004577637,8|0,0:0|0:0,0:0:0:0:
211,254,50127,1,0,0:0:0:0:
271,169,50298,2,0,B|209:149|209:149|201:115|201:115|171:99,1,120.000004577637,8|0,0:0|0:0,0:0:0:0:
80,44,50641,1,0,0:0:0:0:
27,145,50812,2,0,B|49:206|32:233|32:233|59:268|100:245,1,120.000004577637
105,323,51155,5,8,0:0:0:0:
265,232,51327,1,0,0:0:0:0:
141,221,51498,5,0,0:0:0:0:
252,343,51670,1,8,0:0:0:0:
351,311,51841,2,0,B|390:246|390:246|403:275|403:275|369:254,1,120.000004577637,0|8,0:0|0:0,0:0:0:0:
451,350,52184,2,0,B|472:283|472:283|464:222,1,120.000004577637
411,113,52527,5,8,0:0:0:0:
242,66,52698,1,0,0:0:0:0:
354,28,52870,1,0,0:0:0:0:
315,165,53041,1,0,0:0:0:0:
183,187,53212,2,0,B|215:244|215:244|185:254|185:254|168:227,1,120.000004577637,8|0,0:0|0:0,0:0:0:0:
110,149,53555,2,0,P|90:197|366:239,1,480,2|0,0:0|0:0,0:0:0:0:
348,166,54927,6,0,L|410:135,1,60,6|0,0:0|0:0,0:0:0:0:
496,137,55427,2,0,L|487:188,1,40,8|0,0:0|0:0,0:0:0:0:
411,240,55827,2,0,L|431:192,1,40
389,282,56227,1,8,0:0:0:0:
287,337,56527,6,0,L|240:313,1,40
215,232,56955,1,8,0:0:0:0:
167,161,57384,2,0,P|221:147|251:153,1,80
256,192,58241,12,2,59625,0:0:0:0:
