osu file format v14

[General]
AudioFilename: audio.mp3
AudioLeadIn: 0
PreviewTime: 38357
Countdown: 1
SampleSet: None
StackLeniency: 0.7
Mode: 0
LetterboxInBreaks: 0
WidescreenStoryboard: 1

[Editor]
Bookmarks: 5555
DistanceSpacing: 1.1
BeatDivisor: 4
GridSize: 32
TimelineZoom: 1.4

[Metadata]
Title:I Wanna Be Famous
TitleUnicode:I Wanna Be Famous
Artist:Graeme Cornies & Dawna Toews
ArtistUnicode:Graeme Cornies & Dawna Toews
Creator:DeepSeaK
Version:Min's Hard
Source:Total Drama Island
Tags:Cartoon Network Teletoon Rock TV Version Size MinNin AbstractParadox Bakugou
BeatmapID:1722599
BeatmapSetID:819679

[Difficulty]
HPDrainRate:5
CircleSize:3.5
OverallDifficulty:6
ApproachRate:7
SliderMultiplier:1.5
SliderTickRate:1

[Events]
//Background and Video events
0,0,"Marshmallows.png",0,0
//Break Periods
2,22041,26598
//Storyboard Layer 0 (Background)
//Storyboard Layer 1 (Fail)
//Storyboard Layer 2 (Pass)
//Storyboard Layer 3 (Foreground)
//Storyboard Sound Samples

[TimingPoints]
70,342.857142857143,4,3,3,50,1,0
5727,-100,4,3,1,50,0,0
16527,-66.6666666666667,4,3,1,60,0,1
22012,-100,4,3,1,50,0,0
32984,-66.6666666666667,4,3,1,60,0,0
38127,-133.333333333333,4,3,1,65,0,0
38470,-66.6666666666667,4,3,3,60,0,0
43955,-66.6666666666667,4,3,3,65,0,1
53555,-66.6666666666667,4,3,3,40,0,0
54927,400,4,3,0,5,1,0
56527,428.571428571429,4,3,0,5,1,0
58241,461.538461538462,4,3,0,5,1,0

[Colours]
Combo1 : 207,149,61
Combo2 : 0,0,249
Combo3 : 0,128,255
Combo4 : 192,192,192

[HitObjects]
73,48,5555,6,0,P|64:93|71:141,1,75,4|0,0:0|0:0,0:0:0:0:
158,178,5898,1,8,0:0:0:0:
226,58,6070,1,0,0:0:0:0:
344,26,6241,2,0,P|431:58|458:110,1,150,0|8,0:0|0:0,0:0:0:0:
376,211,6755,1,0,0:0:0:0:
275,134,6927,2,0,P|252:177|247:237,1,75
303,299,7270,1,8,0:0:0:0:
397,359,7441,2,0,P|334:378|223:358,1,150
172,297,7955,1,8,0:0:0:0:
62,226,8127,2,0,P|48:272|50:308,1,75
97,371,8470,5,0,0:0:0:0:
198,332,8641,2,0,P|238:310|267:281,1,75,8|0,0:0|0:0,0:0:0:0:
327,191,8984,1,0,0:0:0:0:
371,304,9155,1,0,0:0:0:0:
451,240,9327,2,0,P|461:200|461:150,1,75,8|0,0:0|0:0,0:0:0:0:
371,40,9670,2,0,P|359:92|361:128,1,75
254,162,10012,1,8,0:0:0:0:
241,251,10184,2,0,P|175:248|79:231,1,150
120,144,10698,1,4,0:0:0:0:
186,40,11041,6,0,P|250:31|275:34,1,75
360,95,11384,1,8,0:0:0:0:
428,34,11555,1,0,0:0:0:0:
482,132,11727,2,0,P|485:173|457:290,1,150,0|8,0:0|0:0,0:0:0:0:
349,336,12241,1,0,0:0:0:0:
245,259,12412,2,0,P|167:291|146:294,1,75
89,207,12755,1,8,0:0:0:0:
45,88,12927,2,0,P|84:66|194:69,1,150
268,138,13441,1,8,0:0:0:0:
343,40,13612,1,0,0:0:0:0:
460,83,13784,6,0,P|467:138|464:172,1,75
367,240,14127,1,8,0:0:0:0:
246,308,14298,2,0,P|202:308|153:299,1,75
61,197,14641,1,0,0:0:0:0:
39,57,14812,2,0,P|98:47|140:52,1,75,8|0,0:0|0:0,0:0:0:0:
209,119,15155,1,0,0:0:0:0:
292,23,15327,2,0,P|347:57|355:86,1,75,0|8,0:0|0:0,0:0:0:0:
429,42,15670,2,0,P|445:117|428:210,1,150
338,159,16184,1,8,0:0:0:0:
211,263,16527,6,0,P|184:198|189:149,1,112.500004291535,4|0,0:0|0:0,0:0:0:0:
151,53,16870,2,0,P|107:113|93:173,1,112.500004291535,4|0,0:0|0:0,0:0:0:0:
75,270,17212,2,0,B|115:309|129:321|210:336,1,112.500004291535,4|4,0:0|0:0,0:0:0:0:
268,328,17555,2,4,P|368:289|401:263,1,112.500004291535
440,191,17898,6,0,P|471:119|475:68,1,112.500004291535,4|0,0:0|0:0,0:0:0:0:
368,24,18241,2,0,P|338:89|329:138,1,112.500004291535,4|0,0:0|0:0,0:0:0:0:
346,230,18584,1,4,0:0:0:0:
244,164,18755,2,4,P|236:103|242:45,1,112.500004291535
336,22,19098,5,0,0:0:0:0:
452,120,19270,2,8,P|415:182|359:202,1,112.500004291535,8|0,0:0|0:0,0:0:0:0:
277,124,19612,1,0,0:0:0:0:
164,205,19784,2,0,P|198:263|258:290,1,112.500004291535,8|0,0:0|0:0,0:0:0:0:
326,234,20127,1,0,0:0:0:0:
395,333,20298,6,8,P|328:362|277:364,1,112.500004291535,8|0,0:0|0:0,0:0:0:0:
171,374,20641,1,0,0:0:0:0:
71,292,20812,2,0,P|65:230|78:164,1,112.500004291535,8|0,0:0|0:0,0:0:0:0:
156,65,21155,1,0,0:0:0:0:
235,137,21327,2,8,P|305:108|332:78,1,112.500004291535
458,112,21670,2,8,P|394:163|330:187,1,112.500004291535
51,343,27498,6,0,P|61:278|74:239,1,75
163,208,27841,1,8,0:0:0:0:
265,279,28012,2,0,P|317:241|337:206,1,75
291,116,28355,1,0,0:0:0:0:
160,52,28527,2,0,P|91:52|53:61,1,75,8|0,0:0|0:0,0:0:0:0:
36,150,28870,1,0,0:0:0:0:
144,208,29041,1,0,0:0:0:0:
271,266,29212,2,8,P|343:277|372:277,1,75,8|0,0:0|0:0,0:0:0:0:
430,157,29555,1,0,0:0:0:0:
487,274,29727,2,0,P|448:326|421:342,1,75,0|8,0:0|0:0,0:0:0:0:
357,376,30070,5,0,0:0:0:0:
259,349,30241,2,0,P|166:339|161:335,1,75
117,243,30584,1,8,0:0:0:0:
166,122,30755,2,0,P|225:119|255:111,1,75
359,173,31098,2,0,P|318:197|275:206,2,75,0|8|0,0:0|0:0|0:0,0:0:0:0:
406,71,31612,5,0,0:0:0:0:
489,161,31784,1,0,0:0:0:0:
496,266,31955,2,0,P|481:313|453:354,1,75,8|0,0:0|0:0,0:0:0:0:
345,293,32298,1,0,0:0:0:0:
266,348,32470,2,0,P|177:349|162:345,1,75,0|8,0:0|0:0,0:0:0:0:
117,258,32984,6,0,P|107:173|115:117,1,112.500004291535,4|0,0:0|0:0,0:0:0:0:
194,61,33327,2,0,P|296:58|326:64,1,112.500004291535,4|0,0:0|0:0,0:0:0:0:
408,147,33670,2,0,P|426:206|421:261,1,112.500004291535,4|0,0:0|0:0,0:0:0:0:
276,306,34012,2,4,P|209:326|143:312,1,112.500004291535
45,265,34355,1,4,0:0:0:0:
170,189,34527,1,0,0:0:0:0:
108,86,34698,1,4,0:0:0:0:
260,37,34870,2,0,P|334:48|378:83,1,112.500004291535,0|4,0:0|0:0,0:0:0:0:
399,171,35212,2,4,P|394:245|363:290,1,112.500004291535
289,304,35555,6,0,P|217:288|164:270,1,112.500004291535,0|8,0:0|0:0,0:0:0:0:
155,157,35898,1,0,0:0:0:0:
35,266,36070,2,0,P|68:331|125:345,1,112.500004291535,0|8,0:0|0:0,0:0:0:0:
219,294,36412,1,0,0:0:0:0:
328,359,36584,2,0,P|406:358|463:354,1,112.500004291535,0|8,0:0|0:0,0:0:0:0:
459,246,36927,1,0,0:0:0:0:
401,144,37098,1,0,0:0:0:0:
295,48,37270,2,0,P|211:38|157:43,1,112.500004291535,8|0,0:0|0:0,0:0:0:0:
73,125,37612,2,8,P|70:186|94:244,3,112.500004291535
145,324,38470,6,0,P|227:334|284:334,1,112.500004291535,8|0,0:0|0:0,0:0:0:0:
226,239,38812,2,0,P|327:243|373:232,1,112.500004291535,8|0,0:0|0:0,0:0:0:0:
262,148,39155,2,0,P|356:146|395:127,1,112.500004291535,8|0,0:0|0:0,0:0:0:0:
316,63,39498,2,0,P|374:44|426:22,1,112.500004291535,8|0,0:0|0:0,0:0:0:0:
485,98,39841,5,8,0:0:0:0:
475,206,40012,2,0,P|459:270|420:318,1,112.500004291535,0|8,0:0|0:0,0:0:0:0:
312,231,40355,1,0,0:0:0:0:
175,306,40527,1,8,0:0:0:0:
104,189,40698,2,8,P|111:126|137:70,1,112.500004291535
241,28,41041,1,0,0:0:0:0:
361,72,41212,6,0,P|435:106|467:156,1,112.500004291535,8|0,0:0|0:0,0:0:0:0:
456,247,41555,2,0,P|410:304|360:309,1,112.500004291535,8|0,0:0|0:0,0:0:0:0:
208,308,41898,2,0,P|101:260|94:242,1,112.500004291535,8|0,0:0|0:0,0:0:0:0:
104,155,42241,1,8,0:0:0:0:
198,70,42412,1,8,0:0:0:0:
252,154,42584,2,0,P|341:171|451:68,1,225.000008583069,8|8,0:0|0:0,0:0:0:0:
370,37,43270,2,8,P|302:28|146:72,1,225.000008583069
106,168,43955,5,4,0:0:0:0:
124,264,44127,2,0,P|189:291|246:284,1,112.500004291535,0|8,0:0|0:0,0:0:0:0:
307,176,44470,1,0,0:0:0:0:
441,183,44641,2,0,P|454:116|442:64,1,112.500004291535,0|8,0:0|0:0,0:0:0:0:
323,31,44984,1,8,0:0:0:0:
131,73,45327,5,4,0:0:0:0:
33,159,45498,2,0,P|51:219|124:241,1,112.500004291535,0|8,0:0|0:0,0:0:0:0:
211,179,45841,1,0,0:0:0:0:
367,205,46012,2,0,P|412:136|419:94,1,112.500004291535,0|8,0:0|0:0,0:0:0:0:
320,22,46355,1,8,0:0:0:0:
228,123,46698,5,4,0:0:0:0:
303,233,46870,2,0,P|209:243|177:228,1,112.500004291535,0|8,0:0|0:0,0:0:0:0:
66,187,47212,1,0,0:0:0:0:
76,304,47384,2,0,P|152:323|200:323,1,112.500004291535,0|8,0:0|0:0,0:0:0:0:
312,353,47727,1,8,0:0:0:0:
412,310,47898,6,0,P|461:274|469:216,1,112.500004291535
360,126,48241,1,0,0:0:0:0:
235,192,48412,2,0,P|195:127|191:78,1,112.500004291535,8|0,0:0|0:0,0:0:0:0:
257,22,48755,1,0,0:0:0:0:
386,13,48927,2,8,P|443:37|486:103,1,112.500004291535
463,180,49441,5,6,0:0:0:0:
460,291,49612,2,0,P|387:326|313:327,1,112.500004291535,0|8,0:0|0:0,0:0:0:0:
266,210,49955,1,0,0:0:0:0:
188,297,50127,2,0,P|141:254|123:196,1,112.500004291535
194,119,50470,1,8,0:0:0:0:
335,40,50812,5,4,0:0:0:0:
462,81,50984,2,0,P|481:139|445:207,1,112.500004291535,0|8,0:0|0:0,0:0:0:0:
322,204,51327,1,0,0:0:0:0:
325,326,51498,2,0,P|255:329|196:313,1,112.500004291535
174,204,51841,1,8,0:0:0:0:
75,122,52184,6,0,P|57:184|71:239,1,112.500004291535,4|0,0:0|0:0,0:0:0:0:
164,294,52527,1,8,0:0:0:0:
246,218,52698,2,0,P|323:193|365:139,2,112.500004291535,0|0|8,0:0|0:0|0:0,0:0:0:0:
185,128,53212,1,8,0:0:0:0:
256,192,53555,12,0,54926,0:0:0:0:
