osu file format v14

[General]
AudioFilename: audio.mp3
AudioLeadIn: 0
PreviewTime: 38495
Countdown: 1
SampleSet: Soft
StackLeniency: 0.7
Mode: 0
LetterboxInBreaks: 0
WidescreenStoryboard: 0

[Editor]
DistanceSpacing: 1.7
BeatDivisor: 4
GridSize: 4
TimelineZoom: 2.9

[Metadata]
Title:I Wanna Be Famous
TitleUnicode:I Wanna Be Famous
Artist:Graeme Cornies & Dawna Toews
ArtistUnicode:Graeme Cornies & Dawna Toews
Creator:Arthur Esvael
Version:I Wanna Be Famous
Source:Total Drama Island
Tags:Island cartoon network all-stars drama action world tour rock alternative Kowari Sakura Airi MkGuh Kuroame Alexsander Hanik
BeatmapID:2035535
BeatmapSetID:791889

[Difficulty]
HPDrainRate:6
CircleSize:4
OverallDifficulty:9.3
ApproachRate:9.3
SliderMultiplier:1.8
SliderTickRate:1

[Events]
//Background and Video events
0,0,"achei.jpg",0,0
//Break Periods
//Storyboard Layer 0 (Background)
//Storyboard Layer 1 (Fail)
//Storyboard Layer 2 (Pass)
//Storyboard Layer 3 (Foreground)
//Storyboard Layer 4 (Overlay)
//Storyboard Sound Samples

[TimingPoints]
267,342.857142857143,4,2,1,60,1,0
267,-100,4,2,1,60,0,0
1552,-100,4,2,1,60,0,0
1638,-100,4,2,1,60,0,0
2924,-100,4,2,1,60,0,0
3009,-100,4,2,1,60,0,0
4295,-100,4,2,1,60,0,0
4381,-100,4,2,1,60,0,0
5667,-100,4,2,1,60,0,0
5752,-100,4,2,1,60,0,0
8752,-100,4,2,1,60,0,0
8838,-100,4,2,1,60,0,0
11152,-100,4,2,1,60,0,0
11238,-100,4,2,1,60,0,0
16638,-100,4,2,1,5,0,0
16724,-100,4,2,1,60,0,0
22124,-86.9565217391304,4,2,1,5,0,0
22209,-133.333333333333,4,2,1,50,0,0
25295,-133.333333333333,4,2,1,50,0,0
27352,-83.3333333333333,4,2,1,60,0,0
27609,-83.3333333333333,4,2,1,5,0,0
27695,-100,4,2,1,60,0,0
33095,-83.3333333333333,4,2,1,60,0,0
33181,-100,4,2,1,60,0,0
38495,-100,4,2,1,5,0,0
38581,-100,4,2,1,5,0,0
38667,-100,4,2,1,70,0,1
44067,-100,4,2,1,70,0,1
44152,-100,4,2,1,70,0,1
44409,-100,4,2,1,70,0,1
44495,-100,4,2,1,70,0,1
45781,-100,4,2,1,70,0,1
45867,-100,4,2,1,70,0,1
47152,-100,4,2,1,70,0,1
47238,-100,4,2,1,70,0,1
49552,-100,4,2,1,70,0,1
49638,-100,4,2,1,70,0,1
51267,-100,4,2,1,70,0,1
51352,-100,4,2,1,70,0,1
52638,-100,4,2,1,70,0,1
52724,-100,4,2,1,70,0,1
53752,-100,4,2,1,60,0,0
54609,-100,4,2,1,5,0,0

[Colours]
Combo1 : 3,133,78
Combo2 : 128,0,0
Combo3 : 0,64,128
Combo4 : 255,128,64

[HitObjects]
71,70,267,6,0,L|63:173,1,90,0|0,1:0|0:0,0:0:0:0:
216,89,609,2,0,L|209:0,1,90,0|0,1:0|0:0,0:0:0:0:
166,207,952,2,0,L|269:215,1,90,0|0,1:0|0:0,0:0:0:0:
90,146,1295,2,0,P|69:220|110:287,1,135,0|0,1:0|0:0,0:0:0:0:
109,288,1638,6,0,L|16:292,1,90,0|0,1:0|0:0,0:0:0:0:
141,381,1981,2,0,L|234:385,1,90,0|0,1:0|0:0,0:0:0:0:
363,288,2324,2,0,L|270:292,1,90,0|0,1:0|0:0,0:0:0:0:
432,353,2667,2,0,P|452:303|426:215,1,135,0|0,1:0|0:0,0:0:0:0:
412,205,3009,6,0,P|400:163|420:103,1,90,0|0,1:0|0:0,0:0:0:0:
273,207,3352,2,0,P|315:217|357:264,1,90,0|0,1:0|0:0,0:0:0:0:
340,85,3695,2,0,P|309:116|247:129,1,90,0|0,1:0|0:0,0:0:0:0:
73,79,4038,2,0,P|55:152|77:224,1,135,0|0,1:0|0:0,0:0:0:0:
84,233,4381,6,0,L|193:244,1,90,0|0,1:0|0:0,0:0:0:0:
266,129,4724,2,0,L|151:136,1,90,0|0,1:0|0:0,0:0:0:0:
314,228,5067,2,0,L|403:218,1,90,0|0,1:0|0:0,0:0:0:0:
495,94,5409,2,0,P|428:72|357:105,1,135,8|0,0:0|0:0,0:0:0:0:
356,115,5752,5,0,1:0:0:0:
231,10,5924,1,2,1:2:0:0:
221,200,6095,1,10,0:0:0:0:
294,64,6267,1,0,0:0:0:0:
212,214,6438,2,0,L|107:217,1,90,2|0,1:2|0:0,0:0:0:0:
223,341,6781,2,0,L|312:343,1,90,10|0,0:0|0:0,0:0:0:0:
440,232,7124,5,2,1:2:0:0:
455,224,7295,1,2,1:2:0:0:
312,343,7467,1,8,0:0:0:0:
297,351,7638,1,2,0:0:0:0:
338,196,7809,1,0,0:0:0:0:
486,319,7981,1,0,1:0:0:0:
323,188,8152,1,8,0:0:0:0:
297,351,8324,1,0,0:0:0:0:
438,213,8495,6,0,P|427:148|449:63,1,135,0|0,1:0|0:0,0:0:0:0:
464,59,8838,2,0,P|428:65|359:47,1,90,10|0,0:0|0:0,0:0:0:0:
228,15,9181,2,0,P|184:5|139:11,1,90,2|0,1:2|0:0,0:0:0:0:
291,79,9524,1,8,0:0:0:0:
180,161,9695,2,0,P|223:170|268:164,1,90,2|0,0:0|1:0,0:0:0:0:
96,91,10038,5,2,1:2:0:0:
154,245,10209,1,8,0:0:0:0:
89,78,10381,1,2,0:0:0:0:
161,258,10552,1,0,0:0:0:0:
230,93,10724,1,0,1:0:0:0:
89,199,10895,2,0,P|72:264|95:337,1,135,12|0,0:0|0:0,0:0:0:0:
112,346,11238,5,0,1:0:0:0:
0,234,11409,1,0,1:0:0:0:
126,354,11581,2,0,L|223:359,1,90,10|0,0:0|0:0,0:0:0:0:
322,249,11924,2,0,L|225:254,1,90,2|0,1:2|1:0,0:0:0:0:
408,348,12267,1,10,0:0:0:0:
444,118,12438,1,2,0:0:0:0:
202,179,12609,5,2,0:0:0:0:
428,211,12780,1,0,1:2:0:0:
326,43,12952,1,10,0:0:0:0:
187,187,13124,2,0,B|162:258|173:319|173:319|196:295|198:261,1,180,2|2,0:0|1:2,0:0:0:0:
240,107,13638,2,0,P|195:97|132:105,1,90,10|0,0:0|0:0,0:0:0:0:
269,183,13981,6,0,P|302:159|322:96,1,90,2|0,1:2|1:0,0:0:0:0:
184,177,14324,1,10,0:0:0:0:
281,302,14495,2,0,L|382:306,1,90,2|0,0:0|1:0,0:0:0:0:
189,194,14838,1,2,1:2:0:0:
119,347,15009,2,0,L|18:351,1,90,8|2,0:0|0:0,0:0:0:0:
184,284,15352,5,2,1:2:0:0:
198,292,15524,1,0,1:0:0:0:
52,222,15695,1,10,0:0:0:0:
38,230,15867,1,2,0:0:0:0:
216,133,16038,1,0,0:0:0:0:
119,347,16209,1,0,1:0:0:0:
67,108,16381,2,0,P|128:92|199:112,1,135,12|0,0:0|0:0,0:0:0:0:
216,133,16724,6,0,L|323:138,1,90,2|0,1:2|1:0,0:0:0:0:
419,13,17067,2,0,L|312:18,1,90,8|0,0:0|0:0,0:0:0:0:
137,34,17409,1,2,1:2:0:0:
113,39,17581,1,0,1:2:0:0:
305,137,17752,1,10,0:0:0:0:
329,142,17924,1,0,0:0:0:0:
209,1,18095,5,2,1:2:0:0:
165,205,18267,1,0,0:0:0:0:
299,47,18438,1,8,0:0:0:0:
98,123,18609,1,0,0:0:0:0:
243,296,18781,1,0,1:0:0:0:
199,87,18952,1,0,1:0:0:0:
84,317,19124,2,0,P|151:333|232:319,1,135,8|0,0:0|0:0,0:0:0:0:
243,296,19467,6,0,P|286:290|347:304,1,90,0|2,1:0|1:2,0:0:0:0:
244,158,19809,2,0,P|227:198|185:244,1,90,8|0,0:0|0:0,0:0:0:0:
363,227,20152,2,0,P|336:192|317:132,1,90,0|0,1:0|1:0,0:0:0:0:
420,0,20495,2,0,P|436:39|439:102,1,90,8|0,0:0|0:0,0:0:0:0:
353,243,20838,5,0,1:0:0:0:
360,61,21009,1,8,0:0:0:0:
448,263,21181,1,8,0:0:0:0:
353,49,21352,1,0,1:0:0:0:
264,252,21524,1,8,0:0:0:0:
445,163,21695,1,0,1:0:0:0:
247,259,21867,2,0,P|180:266|113:256,1,135,12|0,0:0|0:0,0:0:0:0:
90,270,22209,6,0,L|84:337,1,67.5000025749208,0|0,1:0|0:0,0:0:0:0:
247,259,22552,2,0,L|241:192,1,67.5000025749208,2|0,1:2|0:0,0:0:0:0:
65,276,22895,2,0,L|59:343,1,67.5000025749208,2|0,1:2|0:0,0:0:0:0:
272,265,23238,2,0,L|266:198,1,67.5000025749208,8|2,0:0|0:0,0:0:0:0:
230,355,23581,6,0,L|297:349,1,67.5000025749208,2|2,1:2|0:0,0:0:0:0:
422,286,23924,2,0,L|355:280,1,67.5000025749208,2|2,1:2|0:2,0:0:0:0:
230,217,24267,2,0,L|297:211,1,67.5000025749208,0|0,1:0|0:0,0:0:0:0:
192,96,24609,1,8,0:0:0:0:
107,190,24781,1,0,1:0:0:0:
213,91,24952,6,0,L|296:96,1,67.5000025749208,0|2,1:0|0:0,0:0:0:0:
86,195,25295,2,0,L|3:190,1,67.5000025749208,2|0,1:2|1:0,0:0:0:0:
168,166,25638,2,0,L|173:249,1,67.5000025749208,2|0,1:2|0:0,0:0:0:0:
273,128,25981,2,0,L|268:195,1,67.5000025749208,10|0,0:0|0:0,0:0:0:0:
163,98,26324,6,0,L|168:181,1,67.5000025749208,2|0,1:2|0:0,0:0:0:0:
277,60,26667,2,0,L|272:127,1,67.5000025749208,2|2,1:2|0:0,0:0:0:0:
158,30,27009,2,0,L|163:113,1,67.5000025749208,0|0,1:0|0:0,0:0:0:0:
167,255,27352,2,0,P|243:268|340:241,1,161.999995056153,12|0,0:0|0:0,0:0:0:0:
348,227,27695,5,2,1:2:0:0:
207,368,27867,1,2,1:2:0:0:
362,216,28038,1,10,0:0:0:0:
167,164,28209,1,0,0:0:0:0:
338,340,28381,2,0,L|445:348,1,90,2|0,1:2|1:0,0:0:0:0:
258,183,28724,1,10,0:2:0:0:
182,354,28895,1,2,0:2:0:0:
131,174,29067,5,2,1:2:0:0:
276,299,29238,1,2,1:2:0:0:
117,165,29409,1,8,0:0:0:0:
289,312,29581,1,2,0:2:0:0:
394,138,29752,1,0,0:0:0:0:
199,239,29924,1,0,1:0:0:0:
414,132,30095,2,0,L|508:136,1,90,8|2,0:0|0:0,0:0:0:0:
352,205,30438,5,2,1:2:0:0:
465,35,30609,1,2,1:2:0:0:
342,217,30781,2,0,L|248:221,1,90,8|2,0:0|0:0,0:0:0:0:
415,329,31124,1,0,1:0:0:0:
413,134,31295,1,2,1:2:0:0:
314,295,31467,2,0,P|309:339|322:384,1,90,8|2,0:0|0:2,0:0:0:0:
425,224,31809,5,0,1:0:0:0:
224,255,31981,1,0,1:0:0:0:
447,221,32152,1,8,0:0:0:0:
202,258,32324,1,0,0:0:0:0:
248,57,32495,1,0,1:0:0:0:
330,244,32667,1,0,1:0:0:0:
240,36,32838,2,0,P|173:21|90:47,1,135,10|0,0:0|0:0,0:0:0:0:
91,67,33181,6,0,L|79:170,1,90,2|0,1:2|1:0,0:0:0:0:
223,234,33524,2,0,L|212:144,1,90,8|0,0:0|0:0,0:0:0:0:
104,311,33867,1,2,1:2:0:0:
87,319,34038,1,0,1:0:0:0:
317,196,34209,1,10,0:0:0:0:
334,188,34380,1,0,0:0:0:0:
99,111,34552,5,2,1:2:0:0:
245,312,34724,1,0,1:0:0:0:
245,64,34895,1,8,0:0:0:0:
99,264,35067,1,0,0:0:0:0:
253,45,35238,1,0,1:0:0:0:
3,103,35409,1,0,1:0:0:0:
224,199,35581,2,0,L|319:205,1,90,8|2,0:0|0:0,0:0:0:0:
445,28,35924,6,0,L|350:34,1,90,8|2,0:0|1:2,0:0:0:0:
127,52,36267,1,8,0:0:0:0:
151,370,36438,2,0,L|145:275,1,90,8|0,0:0|1:0,0:0:0:0:
127,37,36781,1,8,0:0:0:0:
300,227,36952,2,0,P|344:232|410:222,1,90,8|0,0:0|1:0,0:0:0:0:
127,23,37295,5,0,1:0:0:0:
24,197,37467,1,8,0:0:0:0:
200,105,37638,1,8,0:0:0:0:
14,208,37809,1,0,1:0:0:0:
77,12,37981,1,8,0:0:0:0:
117,236,38152,1,0,1:0:0:0:
210,91,38324,2,0,P|286:82|343:95,1,135,12|0,0:0|0:0,0:0:0:0:
364,118,38667,5,10,0:0:0:0:
215,354,38838,1,0,1:0:0:0:
139,0,39009,5,10,0:0:0:0:
288,236,39180,1,0,1:0:0:0:
384,0,39352,5,10,0:0:0:0:
148,149,39523,1,2,1:2:0:0:
404,307,39695,5,10,0:0:0:0:
255,71,39866,1,2,1:2:0:0:
91,339,40038,5,8,0:0:0:0:
327,190,40209,1,0,1:0:0:0:
0,131,40381,5,8,0:0:0:0:
236,280,40552,1,0,1:0:0:0:
0,381,40724,5,10,0:0:0:0:
149,145,40895,1,2,1:2:0:0:
316,384,41067,5,10,0:0:0:0:
80,235,41238,1,2,1:2:0:0:
406,159,41409,5,10,0:0:0:0:
170,308,41580,1,0,1:0:0:0:
512,384,41752,5,8,0:0:0:0:
276,235,41923,1,2,1:2:0:0:
512,76,42095,5,10,0:0:0:0:
363,312,42266,1,2,1:2:0:0:
307,0,42438,5,10,0:0:0:0:
456,236,42609,1,2,1:2:0:0:
139,250,42781,5,8,0:0:0:0:
375,101,42952,1,0,1:0:0:0:
393,384,43124,5,8,0:0:0:0:
244,148,43295,1,0,1:0:0:0:
95,384,43467,5,8,0:0:0:0:
331,235,43638,1,0,1:0:0:0:
155,54,43809,2,0,P|88:42|18:73,1,135,8|0,0:0|0:0,0:0:0:0:
11,98,44152,6,0,P|24:172|-1:256,1,135,4|0,1:2|0:0,0:0:0:0:
29,255,44495,2,0,P|76:266|126:255,1,90,10|0,0:0|0:0,0:0:0:0:
329,142,44838,1,2,1:2:0:0:
239,360,45009,1,2,1:2:0:0:
168,111,45181,1,10,0:0:0:0:
238,376,45352,1,0,0:0:0:0:
333,129,45524,6,0,P|391:108|469:139,1,135,4|0,1:2|0:0,0:0:0:0:
480,154,45867,2,0,L|488:264,1,90,10|0,0:0|0:0,0:0:0:0:
354,30,46209,1,2,1:2:0:0:
299,260,46381,1,2,1:2:0:0:
350,16,46552,1,10,0:0:0:0:
488,248,46724,1,0,0:0:0:0:
254,68,46895,6,0,P|189:56|99:75,1,135,4|0,1:2|0:0,0:0:0:0:
94,90,47238,2,0,L|-2:94,1,90,10|0,0:0|0:0,0:0:0:0:
111,301,47581,1,2,1:2:0:0:
181,118,47752,1,2,1:2:0:0:
103,315,47924,1,10,0:0:0:0:
290,228,48095,1,2,0:0:0:0:
27,282,48267,6,0,P|21:330|41:385,1,90,0|2,1:0|0:0,0:0:0:0:
294,315,48609,2,0,P|300:267|280:212,1,90,8|0,0:0|0:0,0:0:0:0:
118,64,48952,1,0,1:0:0:0:
108,321,49124,1,0,1:0:0:0:
250,138,49295,2,0,P|320:124|395:150,1,135,8|0,0:0|0:0,0:0:0:0:
402,163,49638,6,0,P|449:170|500:164,1,90,4|0,1:2|0:0,0:0:0:0:
313,20,49981,1,10,0:0:0:0:
319,240,50152,1,0,0:0:0:0:
442,86,50324,1,2,1:2:0:0:
318,256,50495,1,2,1:2:0:0:
196,78,50667,1,10,0:0:0:0:
374,171,50838,1,0,0:0:0:0:
255,354,51009,6,0,P|184:363|116:350,1,135,4|0,1:2|0:0,0:0:0:0:
94,323,51352,2,0,L|82:229,1,90,10|0,0:0|0:0,0:0:0:0:
57,40,51695,1,2,1:2:0:0:
173,262,51867,1,2,1:2:0:0:
70,26,52038,1,10,0:0:0:0:
0,278,52209,1,0,0:0:0:0:
181,102,52381,6,0,P|256:81|320:109,1,135,4|0,1:2|0:0,0:0:0:0:
329,129,52724,2,0,L|318:241,1,90,10|0,0:0|0:0,0:0:0:0:
139,366,53067,2,0,L|130:276,1,90,2|2,1:2|1:2,0:0:0:0:
113,55,53409,1,10,0:0:0:0:
264,311,53581,1,0,0:0:0:0:
123,166,53752,5,6,0:0:0:0:
256,192,53838,12,0,54609,0:0:0:0:
