osu file format v14

[General]
AudioFilename: 06 Way Too Deep.mp3
AudioLeadIn: 0
PreviewTime: 53038
Countdown: 0
SampleSet: Soft
StackLeniency: 0.3
Mode: 0
LetterboxInBreaks: 0
WidescreenStoryboard: 0

[Editor]
Bookmarks: 27431,58288,72002,85717,113145,133717,140574,168002,198860,212574,226288,253717,274288,281145
DistanceSpacing: 1.5
BeatDivisor: 6
GridSize: 32
TimelineZoom: 1.5

[Metadata]
Title:Way Too Deep
TitleUnicode:Way Too Deep
Artist:Grabbitz
ArtistUnicode:Grabbitz
Creator:UndeadCapulet
Version:Settling Down
Source:
Tags:friends monstercat dubstep
BeatmapID:837567
BeatmapSetID:383070

[Difficulty]
HPDrainRate:5
CircleSize:5
OverallDifficulty:9
ApproachRate:9.3
SliderMultiplier:1.4499998986721
SliderTickRate:1

[Events]
//Background and Video events
0,0,"waytoodeep.png",0,0
//Break Periods
2,84094,85162
2,224666,225734
//Storyboard Layer 0 (Background)
//Storyboard Layer 1 (Fail)
//Storyboard Layer 2 (Pass)
//Storyboard Layer 3 (Foreground)
//Storyboard Sound Samples

[TimingPoints]
27431,428.571428571429,4,2,1,50,1,0
51430,-100,4,2,1,40,0,0
53145,-100,4,2,1,10,0,0
53573,-100,4,2,1,15,0,0
54002,-100,4,2,1,20,0,0
54430,-100,4,2,1,25,0,0
54859,-100,4,2,1,30,0,0
55288,-100,4,2,1,35,0,0
55716,-100,4,2,1,40,0,0
56145,-100,4,2,1,45,0,0
56573,-100,4,2,1,5,0,0
58288,-100,4,2,1,50,0,0
62145,-100,4,2,1,60,0,0
62573,-100,4,2,1,50,0,0
69002,-100,4,2,1,60,0,0
69430,-100,4,2,1,50,0,0
72002,-100,4,2,2,60,0,0
75430,-100,4,2,2,65,0,0
78859,-100,4,2,2,75,0,0
80573,-100,4,2,2,80,0,0
82288,-100,4,2,2,85,0,0
85716,-100,4,2,1,90,0,1
85770,-100,4,2,1,75,0,0
99323,-100,4,2,1,5,0,0
99431,-100,4,2,1,90,0,1
99484,-100,4,2,1,75,0,0
105484,-100,4,2,1,5,0,0
106288,-100,4,2,1,90,0,1
106341,-100,4,2,1,75,0,0
113145,-100,4,2,1,100,0,1
113198,-100,4,2,1,80,0,0
113574,-76.9230769230769,4,2,1,80,0,0
114002,-62.5,4,2,1,80,0,0
114860,-100,4,2,1,80,0,0
115288,-76.9230769230769,4,2,1,80,0,0
115717,-62.5,4,2,1,80,0,0
117002,-76.9230769230769,4,2,1,80,0,0
117431,-62.5,4,2,1,80,0,0
118074,-33.3333333333333,4,2,1,80,0,0
118288,-62.5,4,2,1,80,0,0
118931,-33.3333333333333,4,2,1,80,0,0
119145,-62.5,4,2,1,80,0,0
119574,-100,4,2,1,80,0,0
120431,-76.9230769230769,4,2,1,80,0,0
120860,-62.5,4,2,1,80,0,0
121717,-100,4,2,1,80,0,0
122145,-76.9230769230769,4,2,1,80,0,0
122574,-62.5,4,2,1,80,0,0
123860,-76.9230769230769,4,2,1,80,0,0
124288,-62.5,4,2,1,80,0,0
124931,-33.3333333333333,4,2,1,80,0,0
125145,-62.5,4,2,1,80,0,0
125788,-33.3333333333333,4,2,1,80,0,0
126859,-100,4,2,1,100,0,1
126913,-100,4,2,1,80,0,0
127288,-76.9230769230769,4,2,1,80,0,0
127717,-62.5,4,2,1,80,0,0
128574,-100,4,2,1,80,0,0
129002,-76.9230769230769,4,2,1,80,0,0
129431,-62.5,4,2,1,80,0,0
130717,-76.9230769230769,4,2,1,80,0,0
131145,-62.5,4,2,1,80,0,0
131788,-33.3333333333333,4,2,1,80,0,0
132002,-62.5,4,2,1,80,0,0
132645,-33.3333333333333,4,2,1,80,0,0
132860,-62.5,4,2,1,80,0,0
133288,-100,4,2,1,80,0,0
133716,-100,4,2,1,90,0,0
133770,-100,4,2,1,75,0,0
139716,-100,4,2,1,80,0,0
140573,-100,4,2,1,50,0,0
192002,-100,4,2,1,40,0,0
193716,-100,4,2,1,10,0,0
194145,-100,4,2,1,15,0,0
194573,-100,4,2,1,20,0,0
195002,-100,4,2,1,25,0,0
195323,-100,4,2,1,5,0,0
195430,-100,4,2,1,30,0,0
195859,-100,4,2,1,35,0,0
196288,-100,4,2,1,40,0,0
196716,-100,4,2,1,45,0,0
197145,-100,4,2,1,50,0,0
197573,-100,4,2,1,55,0,0
198002,-100,4,2,1,60,0,0
198430,-100,4,2,1,65,0,0
198859,-100,4,2,1,50,0,0
202716,-100,4,2,1,60,0,0
203145,-100,4,2,1,50,0,0
209573,-100,4,2,1,60,0,0
210002,-100,4,2,1,50,0,0
212574,-100,4,2,2,60,0,0
216002,-100,4,2,2,65,0,0
219430,-100,4,2,2,75,0,0
221145,-100,4,2,2,80,0,0
222859,-100,4,2,2,85,0,0
226288,-100,4,2,1,90,0,1
226341,-100,4,2,1,75,0,0
239895,-100,4,2,1,5,0,0
240002,-100,4,2,1,90,0,1
240056,-100,4,2,1,75,0,0
253716,-100,4,2,1,100,0,1
253770,-100,4,2,1,80,0,0
254145,-76.9230769230769,4,2,1,80,0,0
254574,-62.5,4,2,1,80,0,0
255431,-100,4,2,1,80,0,0
255860,-76.9230769230769,4,2,1,80,0,0
256288,-62.5,4,2,1,80,0,0
257574,-76.9230769230769,4,2,1,80,0,0
258002,-62.5,4,2,1,80,0,0
258645,-33.3333333333333,4,2,1,80,0,0
258860,-62.5,4,2,1,80,0,0
259502,-33.3333333333333,4,2,1,80,0,0
259717,-62.5,4,2,1,80,0,0
260145,-100,4,2,1,80,0,0
260573,-100,4,2,1,100,0,1
260627,-100,4,2,1,80,0,0
261002,-76.9230769230769,4,2,1,80,0,0
261431,-62.5,4,2,1,80,0,0
262288,-100,4,2,1,80,0,0
262717,-76.9230769230769,4,2,1,80,0,0
263145,-62.5,4,2,1,80,0,0
264002,-33.3333333333333,4,2,1,100,0,1
266573,-33.3333333333333,4,2,1,100,0,0
267431,-100,4,2,1,100,0,1
267484,-100,4,2,1,80,0,0
267860,-76.9230769230769,4,2,1,80,0,0
268288,-62.5,4,2,1,80,0,0
269145,-100,4,2,1,80,0,0
269574,-76.9230769230769,4,2,1,80,0,0
270002,-62.5,4,2,1,80,0,0
271288,-76.9230769230769,4,2,1,80,0,0
271717,-62.5,4,2,1,80,0,0
272360,-33.3333333333333,4,2,1,80,0,0
272574,-62.5,4,2,1,80,0,0
273217,-62.5,4,2,2,80,0,0
273431,-62.5,4,2,1,80,0,0
274288,-100,4,2,1,90,0,0
274341,-100,4,2,1,75,0,0
280288,-100,4,2,1,80,0,0
281145,-200,4,2,3,40,0,0
282930,-200,4,2,3,5,0,0
283002,-200,4,2,3,40,0,0
287930,-200,4,2,3,5,0,0
288002,-200,4,2,3,40,0,0
289788,-200,4,2,3,5,0,0
289859,-200,4,2,3,40,0,0
294859,-200,4,2,3,5,0,0
294931,-200,4,2,3,40,0,0
296573,-200,4,2,3,5,0,0
296645,-200,4,2,3,40,0,0
301716,-200,4,2,3,5,0,0
301788,-200,4,2,3,40,0,0
305145,-200,4,2,3,5,0,0
305216,-200,4,2,3,40,0,0
306859,-200,4,2,3,5,0,0
308573,-200,4,2,3,45,0,0
315431,-200,4,2,3,25,0,0
315573,-200,4,2,3,45,0,0
322288,-200,4,2,3,25,0,0
322431,-200,4,2,3,45,0,0
327430,-200,4,2,4,80,0,0
329145,-200,4,2,3,50,0,0
329573,-200,4,2,4,40,0,0
330002,-200,4,2,3,30,0,0
330430,-200,4,2,4,20,0,0
330859,-200,4,2,2,60,0,0

[Colours]
Combo1 : 255,0,0
Combo2 : 152,162,205
Combo3 : 77,84,179
Combo4 : 188,210,222
Combo5 : 228,228,228

[HitObjects]
79,94,27431,5,6,0:3:0:0:
153,109,27860,1,2,0:0:0:0:
151,130,28074,1,2,0:3:0:0:
247,78,28288,2,0,L|257:176,1,72.4999949336052,8|0,0:0|0:0,0:0:0:0:
153,109,28717,1,2,0:0:0:0:
151,130,28931,1,0,0:0:0:0:
78,176,29145,5,2,0:3:0:0:
166,237,29467,1,2,0:3:0:0:
166,237,29574,1,2,0:3:0:0:
78,176,29788,1,2,0:3:0:0:
194,153,30002,2,0,L|279:142,1,72.4999949336052,8|0,0:1|0:0,0:0:0:0:
284,219,30431,2,0,L|369:208,1,72.4999949336052,2|0,0:0|0:0,0:0:0:0:
439,229,30860,5,2,0:3:0:0:
166,255,31288,1,2,0:0:0:0:
137,251,31502,1,2,0:3:0:0:
151,175,31717,2,0,L|232:172,1,72.4999949336052,8|0,0:0|0:0,0:0:0:0:
166,255,32145,1,2,0:0:0:0:
137,251,32359,1,0,0:0:0:0:
236,282,32574,37,2,0:3:0:0:
279,125,32895,1,2,0:3:0:0:
279,125,33002,1,2,0:3:0:0:
291,216,33217,1,2,0:3:0:0:
350,88,33431,1,8,0:1:0:0:
216,192,33645,2,0,L|193:188,3,24.1666649778684,0|0|0|2,0:0|0:0|0:0|0:0,0:0:0:0:
162,121,34074,1,0,0:0:0:0:
226,23,34288,6,0,L|226:114,1,72.4999949336052,6|0,0:3|0:0,0:0:0:0:
272,161,34717,1,2,0:0:0:0:
250,227,34931,1,2,0:3:0:0:
311,163,35145,2,0,L|395:167,1,72.4999949336052,8|0,0:0|0:0,0:0:0:0:
272,161,35574,1,2,0:0:0:0:
250,227,35788,1,0,0:0:0:0:
330,300,36002,6,0,L|253:303,1,72.4999949336052,2|0,0:3|0:0,0:0:0:0:
110,331,36324,1,2,0:3:0:0:
110,331,36431,1,2,0:3:0:0:
138,231,36645,1,2,0:3:0:0:
37,155,36860,2,0,L|119:145,1,72.4999949336052,8|0,0:1|0:0,0:0:0:0:
150,40,37288,2,0,L|232:30,1,72.4999949336052,2|0,0:0|0:0,0:0:0:0:
215,115,37717,38,0,L|202:193,1,72.4999949336052,2|0,0:3|0:0,0:0:0:0:
284,225,38145,1,2,0:0:0:0:
311,313,38360,1,2,0:3:0:0:
387,193,38574,2,0,L|382:271,1,72.4999949336052,8|0,0:0|0:0,0:0:0:0:
284,225,39002,1,2,0:0:0:0:
311,313,39217,1,0,0:0:0:0:
201,298,39431,6,0,L|105:296,1,72.4999949336052,2|0,0:3|0:0,0:0:0:0:
255,165,39752,1,2,0:3:0:0:
255,165,39860,1,2,0:3:0:0:
295,233,40074,1,2,0:3:0:0:
424,72,40288,1,8,0:1:0:0:
382,234,40502,2,0,L|417:240,3,24.1666649778684,0|0|0|2,0:0|0:0|0:0|0:0,0:0:0:0:
473,219,40931,1,0,0:0:0:0:
428,353,41145,6,0,L|323:352,1,72.4999949336052,6|0,0:3|0:0,0:0:0:0:
160,303,41574,1,2,0:0:0:0:
289,279,41788,1,2,0:3:0:0:
129,181,42002,2,0,L|207:187,1,72.4999949336052,8|0,0:0|0:0,0:0:0:0:
160,303,42431,1,2,0:0:0:0:
289,279,42645,1,0,0:0:0:0:
62,207,42860,37,2,0:3:0:0:
124,80,43074,1,0,0:0:0:0:
189,52,43181,1,2,0:3:0:0:
189,52,43288,1,2,0:3:0:0:
136,167,43502,1,2,0:3:0:0:
304,75,43717,1,8,0:1:0:0:
307,147,43931,1,0,0:0:0:0:
311,219,44145,1,2,0:0:0:0:
315,292,44359,1,0,0:0:0:0:
393,150,44574,6,0,L|383:246,1,72.4999949336052,2|0,0:3|0:0,0:0:0:0:
259,78,45002,1,2,0:0:0:0:
419,62,45217,1,2,0:3:0:0:
285,199,45431,2,0,L|358:204,1,72.4999949336052,8|0,0:0|0:0,0:0:0:0:
259,78,45860,1,2,0:0:0:0:
419,62,46074,1,0,0:0:0:0:
203,18,46288,5,2,0:3:0:0:
91,123,46502,1,0,0:0:0:0:
126,187,46610,1,2,0:3:0:0:
126,187,46717,1,2,0:3:0:0:
69,275,46931,1,2,0:3:0:0:
254,360,47145,1,8,0:1:0:0:
74,356,47360,2,0,L|36:360,3,24.1666649778684,0|0|0|2,0:0|0:0|0:0|0:0,0:0:0:0:
154,384,47788,1,0,0:0:0:0:
282,335,48002,38,0,L|277:233,1,72.4999949336052,6|0,0:3|0:0,0:0:0:0:
411,255,48431,1,2,0:0:0:0:
475,128,48645,1,2,0:3:0:0:
345,148,48860,2,0,L|249:144,1,72.4999949336052,8|0,0:0|0:0,0:0:0:0:
411,255,49288,1,2,0:0:0:0:
475,128,49502,1,0,0:0:0:0:
424,58,49717,5,2,0:3:0:0:
202,66,49931,1,0,0:0:0:0:
164,128,50038,1,2,0:3:0:0:
164,128,50145,1,2,0:3:0:0:
319,153,50360,1,2,0:3:0:0:
43,256,50574,1,8,0:1:0:0:
115,259,50788,1,0,0:0:0:0:
187,263,51002,1,2,0:0:0:0:
260,267,51216,1,0,0:0:0:0:
503,233,51431,5,2,0:3:0:0:
256,192,53145,12,0,56574,0:0:0:0:
135,83,58288,37,2,0:3:0:0:
133,94,58395,1,0,0:0:0:0:
131,106,58502,1,0,0:0:0:0:
129,118,58609,1,0,0:0:0:0:
188,148,58717,5,2,0:3:0:0:
186,159,58824,1,0,0:0:0:0:
184,171,58931,1,0,0:0:0:0:
182,183,59038,1,0,0:0:0:0:
260,111,59145,5,2,0:3:0:0:
258,122,59252,1,0,0:0:0:0:
256,134,59359,1,0,0:0:0:0:
254,146,59466,1,0,0:0:0:0:
313,176,59574,37,2,0:3:0:0:
311,187,59681,1,0,0:0:0:0:
309,199,59788,1,0,0:0:0:0:
307,211,59895,1,0,0:0:0:0:
370,253,60003,5,2,0:3:0:0:
372,264,60110,1,0,0:0:0:0:
374,276,60217,1,0,0:0:0:0:
376,288,60324,1,0,0:0:0:0:
310,297,60431,5,2,0:3:0:0:
312,308,60538,1,0,0:0:0:0:
314,320,60645,1,0,0:0:0:0:
316,332,60752,1,0,0:0:0:0:
242,240,60860,37,2,0:3:0:0:
244,251,60967,1,0,0:0:0:0:
225,316,61074,5,2,0:3:0:0:
227,327,61181,1,0,0:0:0:0:
151,296,61288,5,2,0:3:0:0:
153,307,61395,1,0,0:0:0:0:
155,319,61502,1,0,0:0:0:0:
157,331,61609,1,0,0:0:0:0:
232,249,61717,37,2,0:3:0:0:
221,245,61824,1,0,0:0:0:0:
210,240,61931,1,0,0:0:0:0:
198,236,62038,1,0,0:0:0:0:
329,375,62145,6,0,L|467:365,1,108.749992400408,6|0,0:3|0:0,0:0:0:0:
256,230,62574,5,2,0:3:0:0:
245,226,62681,1,0,0:0:0:0:
331,217,62788,37,2,0:3:0:0:
320,213,62895,1,0,0:0:0:0:
320,286,63002,5,2,0:3:0:0:
309,282,63109,1,0,0:0:0:0:
395,273,63216,5,2,0:3:0:0:
384,269,63323,1,0,0:0:0:0:
207,256,63431,37,2,0:3:0:0:
218,252,63538,1,0,0:0:0:0:
229,247,63645,1,0,0:0:0:0:
241,243,63752,1,0,0:0:0:0:
196,188,63860,5,2,0:3:0:0:
207,184,63967,1,0,0:0:0:0:
218,179,64074,1,0,0:0:0:0:
230,175,64181,1,0,0:0:0:0:
272,88,64288,5,2,0:3:0:0:
283,84,64395,1,0,0:0:0:0:
351,106,64502,37,2,0:3:0:0:
362,102,64609,1,0,0:0:0:0:
366,206,64717,5,2,0:3:0:0:
377,202,64824,1,0,0:0:0:0:
445,224,64931,5,2,0:3:0:0:
456,220,65038,1,0,0:0:0:0:
282,236,65145,37,2,0:3:0:0:
257,236,65252,1,0,0:0:0:0:
233,237,65359,1,0,0:0:0:0:
209,238,65466,1,0,0:0:0:0:
114,170,65574,5,2,0:3:0:0:
138,171,65681,1,0,0:0:0:0:
163,171,65788,1,0,0:0:0:0:
187,172,65895,1,0,0:0:0:0:
312,172,66002,5,2,0:3:0:0:
287,172,66109,1,0,0:0:0:0:
232,112,66217,37,2,0:3:0:0:
257,112,66324,1,0,0:0:0:0:
396,80,66431,5,2,0:3:0:0:
371,80,66538,1,0,0:0:0:0:
347,81,66645,1,0,0:0:0:0:
323,82,66752,1,0,0:0:0:0:
434,224,66860,5,2,0:3:0:0:
434,199,66967,1,0,0:0:0:0:
435,175,67074,1,0,0:0:0:0:
436,151,67181,1,0,0:0:0:0:
364,267,67288,37,2,0:3:0:0:
364,242,67395,1,0,0:0:0:0:
365,218,67502,1,0,0:0:0:0:
366,194,67609,1,0,0:0:0:0:
292,307,67717,5,2,0:3:0:0:
292,282,67824,1,0,0:0:0:0:
246,226,67931,5,2,0:3:0:0:
246,201,68038,1,0,0:0:0:0:
141,298,68145,37,2,0:3:0:0:
141,273,68252,1,0,0:0:0:0:
95,217,68359,5,2,0:3:0:0:
95,192,68466,1,0,0:0:0:0:
203,122,68574,5,2,0:3:0:0:
178,122,68681,1,0,0:0:0:0:
154,123,68788,1,0,0:0:0:0:
130,124,68895,1,0,0:0:0:0:
335,223,69002,38,0,L|205:193,1,108.749992400408,6|0,0:3|0:0,0:0:0:0:
446,137,69430,5,0,0:0:0:0:
445,162,69537,1,2,0:3:0:0:
465,228,69644,5,0,0:0:0:0:
464,253,69751,1,2,0:3:0:0:
376,223,69859,37,0,0:0:0:0:
375,248,69966,1,2,0:3:0:0:
395,314,70073,5,0,0:0:0:0:
394,339,70180,1,2,0:3:0:0:
286,329,70288,5,2,0:3:0:0:
287,304,70395,1,0,0:0:0:0:
267,238,70502,37,2,0:3:0:0:
268,213,70609,1,0,0:0:0:0:
347,175,70717,5,2,0:3:0:0:
348,150,70824,1,0,0:0:0:0:
328,84,70931,5,2,0:3:0:0:
329,59,71038,1,0,0:0:0:0:
227,36,71145,37,2,0:3:0:0:
226,61,71252,1,0,0:0:0:0:
246,127,71359,5,2,0:3:0:0:
245,152,71466,1,0,0:0:0:0:
147,199,71574,5,2,0:3:0:0:
146,224,71681,1,0,0:0:0:0:
166,290,71788,37,2,0:3:0:0:
165,315,71895,1,0,0:0:0:0:
405,292,72002,6,0,L|446:288,1,36.2499974668026,2|0,0:3|0:0,0:0:0:0:
258,236,72217,2,0,L|217:232,1,36.2499974668026,2|0,0:3|0:0,0:0:0:0:
414,274,72431,6,0,L|459:269,1,36.2499974668026,2|0,0:3|0:0,0:0:0:0:
252,212,72646,2,0,L|206:207,1,36.2499974668026,2|0,0:3|0:0,0:0:0:0:
60,346,72860,38,0,L|19:342,1,36.2499974668026,2|0,0:3|0:0,0:0:0:0:
207,290,73073,2,0,L|248:286,1,36.2499974668026,2|0,0:3|0:0,0:0:0:0:
51,328,73289,6,0,L|5:323,1,36.2499974668026,2|0,0:3|0:0,0:0:0:0:
213,266,73502,2,0,L|258:261,1,36.2499974668026,2|0,0:3|0:0,0:0:0:0:
31,84,73717,6,0,L|13:46,1,36.2499974668026,2|0,0:3|0:0,0:0:0:0:
152,183,73930,2,0,L|175:216,1,36.2499974668026,2|0,0:3|0:0,0:0:0:0:
42,67,74146,38,0,L|23:25,1,36.2499974668026,2|0,0:3|0:0,0:0:0:0:
176,176,74359,2,0,L|202:212,1,36.2499974668026,2|0,0:3|0:0,0:0:0:0:
481,84,74574,6,0,L|498:46,1,36.2499974668026,2|0,0:3|0:0,0:0:0:0:
360,183,74789,2,0,L|336:216,1,36.2499974668026,2|0,0:3|0:0,0:0:0:0:
470,67,75003,6,0,L|488:25,1,36.2499974668026,2|0,0:3|0:0,0:0:0:0:
336,176,75216,2,0,L|309:212,1,36.2499974668026,2|0,0:3|0:0,0:0:0:0:
126,29,75431,38,0,L|137:82,1,36.2499974668026,2|0,0:3|0:0,0:0:0:0:
68,267,75645,2,0,L|79:320,1,36.2499974668026,2|0,0:3|0:0,0:0:0:0:
202,43,75860,6,0,L|213:96,1,36.2499974668026,2|0,0:3|0:0,0:0:0:0:
144,281,76074,2,0,L|155:334,1,36.2499974668026,2|0,0:3|0:0,0:0:0:0:
386,29,76288,6,0,L|375:82,1,36.2499974668026,2|0,0:3|0:0,0:0:0:0:
444,267,76502,2,0,L|433:320,1,36.2499974668026,2|0,0:3|0:0,0:0:0:0:
310,43,76717,38,0,L|299:96,1,36.2499974668026,2|0,0:3|0:0,0:0:0:0:
368,281,76931,2,0,L|357:334,1,36.2499974668026,2|0,0:3|0:0,0:0:0:0:
192,189,77145,6,0,L|245:178,1,36.2499974668026,2|0,0:3|0:0,0:0:0:0:
430,247,77359,2,0,L|483:236,1,36.2499974668026,2|0,0:3|0:0,0:0:0:0:
181,110,77574,6,0,L|239:97,1,36.2499974668026,2|0,0:3|0:0,0:0:0:0:
442,174,77788,37,2,0:3:0:0:
477,166,77895,1,2,0:3:0:0:
334,166,78002,6,0,L|281:155,1,36.2499974668026,2|0,0:3|0:0,0:0:0:0:
96,224,78216,2,0,L|43:213,1,36.2499974668026,2|0,0:3|0:0,0:0:0:0:
345,87,78431,6,0,L|286:74,1,36.2499974668026,2|0,0:3|0:0,0:0:0:0:
84,151,78645,37,2,0:3:0:0:
48,143,78752,1,2,0:3:0:0:
162,131,78860,5,2,0:3:0:0:
210,128,78967,1,2,0:3:0:0:
258,125,79074,1,2,0:3:0:0:
306,122,79181,1,2,0:3:0:0:
120,218,79288,5,2,0:3:0:0:
168,221,79395,1,2,0:3:0:0:
216,224,79502,1,2,0:3:0:0:
264,227,79609,1,2,0:3:0:0:
183,110,79717,37,2,0:3:0:0:
231,107,79824,1,2,0:3:0:0:
279,104,79931,1,2,0:3:0:0:
327,101,80038,1,2,0:3:0:0:
141,239,80145,5,2,0:3:0:0:
189,242,80252,1,2,0:3:0:0:
237,245,80359,1,2,0:3:0:0:
285,248,80466,1,2,0:3:0:0:
378,168,80573,5,2,0:3:0:0:
426,165,80680,1,2,0:3:0:0:
392,236,80788,37,2,0:3:0:0:
440,239,80895,1,2,0:3:0:0:
402,148,81003,5,2,0:3:0:0:
450,145,81110,1,2,0:3:0:0:
416,256,81217,5,2,0:3:0:0:
464,259,81324,1,2,0:3:0:0:
426,128,81431,37,2,0:3:0:0:
474,125,81538,1,2,0:3:0:0:
440,276,81645,5,2,0:3:0:0:
488,279,81752,1,2,0:3:0:0:
450,108,81860,5,2,0:3:0:0:
498,105,81967,1,2,0:3:0:0:
464,296,82074,37,2,0:3:0:0:
512,299,82181,1,2,0:3:0:0:
336,105,82289,5,2,0:3:0:0:
384,102,82395,1,2,0:3:0:0:
350,293,82501,5,2,0:3:0:0:
398,296,82610,1,2,0:3:0:0:
220,97,82716,37,2,0:3:0:0:
268,94,82824,1,2,0:3:0:0:
234,285,82930,5,2,0:3:0:0:
282,288,83037,1,2,0:3:0:0:
112,83,83146,5,2,0:3:0:0:
160,80,83252,1,2,0:3:0:0:
126,271,83360,37,2,0:3:0:0:
174,274,83467,1,2,0:3:0:0:
3,72,83574,5,2,0:3:0:0:
51,69,83680,1,2,0:3:0:0:
15,259,83787,5,2,0:3:0:0:
63,262,83894,1,2,0:3:0:0:
354,298,85716,21,6,0:3:0:0:
415,286,85824,1,0,0:0:0:0:
389,229,85931,1,0,0:0:0:0:
340,269,86038,1,0,0:0:0:0:
214,376,86145,53,2,0:0:0:0:
152,364,86252,1,0,0:0:0:0:
178,307,86359,1,0,0:0:0:0:
227,347,86466,1,0,0:0:0:0:
483,358,86574,5,8,0:1:0:0:
485,297,86681,1,0,0:0:0:0:
488,237,86788,1,0,0:0:0:0:
491,176,86895,1,0,0:0:0:0:
369,341,87002,53,2,0:3:0:0:
337,323,87109,1,0,0:0:0:0:
319,293,87216,1,0,0:0:0:0:
318,257,87323,1,0,0:0:0:0:
169,358,87431,5,2,0:3:0:0:
137,340,87538,1,0,0:0:0:0:
119,310,87645,1,0,0:0:0:0:
118,274,87752,1,0,0:0:0:0:
195,202,87860,53,2,0:0:0:0:
227,220,87967,1,0,0:0:0:0:
245,250,88074,1,0,0:0:0:0:
246,286,88181,1,0,0:0:0:0:
338,263,88288,6,0,L|370:268,1,24.1666649778684,8|0,0:1|0:0,0:0:0:0:
344,272,88431,2,0,L|376:277,1,24.1666649778684
350,281,88574,2,0,L|382:286,1,24.1666649778684
466,316,88717,54,0,L|492:296,1,24.1666649778684
439,123,88860,2,0,L|465:103,1,24.1666649778684,0|0,0:0|0:0,0:0:0:0:
251,59,89002,2,0,L|277:39,1,24.1666649778684,0|0,0:0|0:0,0:0:0:0:
201,165,89145,5,2,0:3:0:0:
232,229,89252,1,0,0:0:0:0:
263,293,89359,1,0,0:0:0:0:
295,360,89466,1,0,0:0:0:0:
393,303,89574,53,2,0:0:0:0:
370,234,89681,1,0,0:0:0:0:
346,165,89788,1,0,0:0:0:0:
323,97,89895,1,0,0:0:0:0:
150,179,90002,5,8,0:1:0:0:
131,183,90110,1,0,0:0:0:0:
176,73,90217,54,0,L|307:88,1,108.749992400408,2|0,0:3|0:0,0:0:0:0:
344,29,90645,5,0,0:0:0:0:
110,60,90752,1,0,0:0:0:0:
142,131,90860,54,0,L|145:170,1,24.1666649778684,2|0,0:3|0:0,0:0:0:0:
155,144,91002,2,0,L|158:183,1,24.1666649778684,0|0,0:0|0:0,0:0:0:0:
168,157,91145,2,0,L|171:196,1,24.1666649778684,0|0,0:0|0:0,0:0:0:0:
370,205,91288,6,0,L|331:208,1,24.1666649778684,0|0,0:0|0:0,0:0:0:0:
95,265,91431,2,0,L|134:268,1,24.1666649778684,0|0,0:0|0:0,0:0:0:0:
353,341,91574,2,0,L|314:344,1,24.1666649778684,0|0,0:0|0:0,0:0:0:0:
63,344,91717,53,8,0:1:0:0:
77,350,91824,1,0,0:0:0:0:
264,218,91931,6,0,P|299:196|426:269,1,181.249987334013,2|0,0:3|0:0,0:0:0:0:
337,52,92574,53,6,0:3:0:0:
398,64,92681,1,0,0:0:0:0:
372,121,92788,1,0,0:0:0:0:
323,81,92895,1,0,0:0:0:0:
172,111,93002,5,2,0:0:0:0:
132,160,93109,1,0,0:0:0:0:
189,186,93216,1,0,0:0:0:0:
201,125,93323,1,0,0:0:0:0:
333,315,93431,53,8,0:1:0:0:
272,316,93538,1,0,0:0:0:0:
212,318,93645,1,0,0:0:0:0:
152,319,93752,1,0,0:0:0:0:
37,208,93860,5,2,0:3:0:0:
71,215,93967,1,0,0:0:0:0:
88,246,94074,1,0,0:0:0:0:
77,279,94181,1,0,0:0:0:0:
151,123,94288,53,2,0:3:0:0:
185,130,94395,1,0,0:0:0:0:
202,161,94502,1,0,0:0:0:0:
191,194,94609,1,0,0:0:0:0:
268,248,94717,5,2,0:0:0:0:
275,214,94824,1,0,0:0:0:0:
306,197,94931,1,0,0:0:0:0:
339,208,95038,1,0,0:0:0:0:
359,294,95145,54,0,L|401:300,1,24.1666649778684,8|0,0:1|0:0,0:0:0:0:
363,306,95288,2,0,L|405:312,1,24.1666649778684,0|0,0:0|0:0,0:0:0:0:
367,318,95431,2,0,L|409:324,1,24.1666649778684,0|0,0:0|0:0,0:0:0:0:
215,280,95574,6,0,L|233:308,1,24.1666649778684,0|0,0:0|0:0,0:0:0:0:
394,132,95717,2,0,L|409:102,1,24.1666649778684,0|0,0:0|0:0,0:0:0:0:
179,49,95860,2,0,L|145:50,1,24.1666649778684,0|0,0:0|0:0,0:0:0:0:
108,210,96002,53,2,0:3:0:0:
180,206,96109,1,0,0:0:0:0:
252,202,96216,1,0,0:0:0:0:
325,199,96323,1,0,0:0:0:0:
415,314,96431,5,2,0:0:0:0:
342,310,96538,1,0,0:0:0:0:
270,306,96645,1,0,0:0:0:0:
197,303,96752,1,0,0:0:0:0:
85,129,96860,53,8,0:1:0:0:
72,145,96967,1,0,0:0:0:0:
214,195,97074,6,0,P|231:156|200:92,1,108.749992400408,2|0,0:3|0:0,0:0:0:0:
304,222,97502,53,0,0:0:0:0:
417,44,97610,1,0,0:0:0:0:
462,185,97717,6,0,L|468:228,1,24.1666649778684,2|0,0:3|0:0,0:0:0:0:
444,270,97860,2,0,L|450:313,1,24.1666649778684,0|0,0:0|0:0,0:0:0:0:
426,355,98002,2,0,L|432:398,1,24.1666649778684,0|0,0:0|0:0,0:0:0:0:
214,92,98145,54,0,L|211:116,1,24.1666649778684,0|0,0:0|0:0,0:0:0:0:
236,195,98288,2,0,L|232:218,1,24.1666649778684,0|0,0:0|0:0,0:0:0:0:
257,297,98430,2,0,L|254:320,1,24.1666649778684,0|0,0:0|0:0,0:0:0:0:
512,13,98574,6,0,L|247:13,1,253.749982267618,8|0,0:1|0:0,0:0:0:0:
84,237,99431,53,6,0:3:0:0:
78,300,99538,1,0,0:0:0:0:
19,278,99645,1,0,0:0:0:0:
53,227,99752,1,0,0:0:0:0:
214,236,99860,5,2,0:0:0:0:
240,291,99967,1,0,0:0:0:0:
289,250,100074,1,0,0:0:0:0:
238,214,100181,1,0,0:0:0:0:
147,42,100288,53,8,0:1:0:0:
208,45,100395,1,0,0:0:0:0:
268,48,100502,1,0,0:0:0:0:
329,50,100609,1,0,0:0:0:0:
425,275,100717,5,2,0:3:0:0:
440,242,100824,1,0,0:0:0:0:
443,206,100931,1,0,0:0:0:0:
432,172,101038,1,0,0:0:0:0:
308,335,101145,53,2,0:3:0:0:
323,302,101252,1,0,0:0:0:0:
326,266,101359,1,0,0:0:0:0:
315,232,101466,1,0,0:0:0:0:
249,162,101574,5,2,0:0:0:0:
234,195,101681,1,0,0:0:0:0:
231,231,101788,1,0,0:0:0:0:
242,265,101895,1,0,0:0:0:0:
447,257,102002,54,0,L|451:215,1,24.1666649778684,8|0,0:1|0:0,0:0:0:0:
455,255,102145,2,0,L|459:213,1,24.1666649778684
462,251,102288,2,0,L|466:209,1,24.1666649778684
455,82,102431,6,0,L|451:40,1,24.1666649778684,0|0,0:0|0:0,0:0:0:0:
268,82,102574,2,0,L|264:40,1,24.1666649778684,0|0,0:0|0:0,0:0:0:0:
81,82,102717,2,0,L|77:40,1,24.1666649778684,0|0,0:0|0:0,0:0:0:0:
117,171,102860,53,2,0:3:0:0:
189,176,102967,1,0,0:0:0:0:
261,181,103074,1,0,0:0:0:0:
333,187,103181,1,0,0:0:0:0:
90,237,103288,5,2,0:0:0:0:
162,242,103395,1,0,0:0:0:0:
234,247,103502,1,0,0:0:0:0:
306,253,103609,1,0,0:0:0:0:
172,94,103717,53,8,0:1:0:0:
177,74,103824,1,0,0:0:0:0:
383,113,103931,6,0,P|368:174|385:245,1,108.749992400408,2|0,0:3|0:0,0:0:0:0:
443,246,104360,53,0,0:0:0:0:
192,194,104467,1,0,0:0:0:0:
397,316,104574,6,0,L|422:319,1,24.1666649778684,2|0,0:3|0:0,0:0:0:0:
333,321,104717,2,0,L|358:324,1,24.1666649778684
269,326,104860,2,0,L|294:329,1,24.1666649778684
214,240,105002,54,0,L|211:265,1,24.1666649778684
272,158,105145,2,0,L|269:183,1,24.1666649778684
214,76,105288,2,0,L|211:101,1,24.1666649778684
133,48,105431,6,0,P|218:98|192:2,1,253.749982267618
174,244,106288,53,6,0:3:0:0:
219,228,106395,1,0,0:0:0:0:
267,220,106502,1,0,0:0:0:0:
315,220,106609,1,0,0:0:0:0:
260,99,106717,5,2,0:0:0:0:
307,108,106824,1,0,0:0:0:0:
352,125,106931,1,0,0:0:0:0:
394,149,107038,1,0,0:0:0:0:
261,319,107145,53,8,0:1:0:0:
308,310,107252,1,0,0:0:0:0:
353,293,107359,1,0,0:0:0:0:
395,269,107466,1,0,0:0:0:0:
505,116,107574,5,2,0:3:0:0:
496,163,107681,1,0,0:0:0:0:
487,210,107788,1,0,0:0:0:0:
478,257,107895,1,0,0:0:0:0:
402,115,108003,53,2,0:3:0:0:
359,95,108110,1,0,0:0:0:0:
350,49,108217,1,0,0:0:0:0:
381,14,108324,1,0,0:0:0:0:
349,168,108430,5,2,0:0:0:0:
301,172,108539,1,0,0:0:0:0:
270,136,108646,1,0,0:0:0:0:
280,91,108753,1,0,0:0:0:0:
302,243,108860,54,0,L|280:234,1,24.1666649778684,8|0,0:1|0:0,0:0:0:0:
300,308,109002,2,0,L|281:323,1,24.1666649778684
355,344,109146,2,0,L|359:368,1,24.1666649778684
119,236,109288,6,0,L|122:259,1,24.1666649778684
196,280,109430,2,0,L|176:294,1,24.1666649778684
195,370,109573,2,0,L|172:360,1,24.1666649778684
324,70,109717,53,2,0:3:0:0:
337,140,109824,1,0,0:0:0:0:
374,202,109931,1,0,0:0:0:0:
430,248,110038,1,0,0:0:0:0:
350,57,110145,5,2,0:0:0:0:
363,127,110252,1,0,0:0:0:0:
400,189,110359,1,0,0:0:0:0:
456,235,110466,1,0,0:0:0:0:
451,68,110574,53,8,0:1:0:0:
477,47,110681,1,0,0:0:0:0:
229,49,110788,6,0,L|254:234,1,181.249987334013,2|0,0:3|0:0,0:0:0:0:
155,84,111431,53,2,0:3:0:0:
151,109,111538,1,0,0:0:0:0:
148,135,111645,1,0,0:0:0:0:
144,160,111752,1,0,0:0:0:0:
141,186,111859,1,0,0:0:0:0:
137,212,111966,1,0,0:0:0:0:
134,237,112073,1,0,0:0:0:0:
130,263,112180,1,0,0:0:0:0:
377,312,112288,21,8,0:1:0:0:
388,324,113145,38,0,L|384:209,1,108.749992400408,6|0,0:3|0:0,0:0:0:0:
353,151,113574,6,0,B|344:301,1,141.374983648897,2|0,0:0|0:0,0:0:0:0:
398,61,114002,54,0,L|342:50,1,58,8|0,0:1|0:0,0:0:0:0:
182,138,114217,6,0,L|239:127,1,58,0|0,0:0|0:0,0:0:0:0:
441,196,114431,54,0,L|385:185,1,58,2|0,0:3|0:0,0:0:0:0:
373,266,114645,5,0,0:0:0:0:
366,293,114752,1,0,0:0:0:0:
177,237,114860,54,0,L|51:255,1,108.749992400408,2|0,0:3|0:0,0:0:0:0:
63,180,115288,6,0,L|76:256,1,47.1249978427888,2|0,0:0|0:0,0:0:0:0:
317,317,115502,53,0,0:0:0:0:
189,305,115610,1,0,0:0:0:0:
389,230,115717,6,0,L|445:217,1,58,8|0,0:1|0:0,0:0:0:0:
333,78,115931,54,0,L|350:23,1,58,0|0,0:0|0:0,0:0:0:0:
180,79,116145,6,0,L|141:37,1,58,2|0,0:0|0:0,0:0:0:0:
53,80,116360,53,0,0:0:0:0:
81,74,116467,1,0,0:0:0:0:
97,214,116574,6,0,L|281:240,1,174,2|0,0:3|0:0,0:0:0:0:
53,325,117002,54,0,L|102:319,1,47.1249978427888,2|0,0:0|0:0,0:0:0:0:
307,294,117217,5,0,0:0:0:0:
467,357,117324,1,0,0:0:0:0:
452,185,117431,54,0,L|455:114,1,58,8|0,0:1|0:0,0:0:0:0:
353,78,117645,6,0,L|351:136,1,58,2|0,0:3|0:0,0:0:0:0:
250,184,117860,54,0,L|253:113,1,58,0|0,0:0|0:0,0:0:0:0:
151,77,118074,6,2,L|43:69,1,108.750004148483,0|0,0:0|0:0,0:0:0:0:
60,199,118288,54,0,L|57:270,1,58,2|0,0:3|0:0,0:0:0:0:
158,305,118502,6,0,L|161:248,1,58,0|0,0:0|0:0,0:0:0:0:
262,200,118717,54,0,L|259:271,1,58,2|0,0:0|0:0,0:0:0:0:
361,307,118931,6,2,L|469:315,1,108.750004148483,0|0,0:0|0:0,0:0:0:0:
452,185,119145,54,0,L|455:114,1,58,8|0,0:1|0:0,0:0:0:0:
353,78,119359,6,0,L|351:136,1,58,2|0,0:3|0:0,0:0:0:0:
250,184,119574,54,2,L|118:188,1,108.749992400408,0|0,0:0|0:0,0:0:0:0:
168,226,120002,6,0,L|36:222,1,108.749992400408,6|0,0:3|0:0,0:0:0:0:
49,293,120431,54,0,L|197:363,1,141.374983648897,2|0,0:0|0:0,0:0:0:0:
268,312,120860,6,0,L|262:241,1,57.9999959468842,8|0,0:1|0:0,0:0:0:0:
449,229,121074,54,0,L|455:158,1,57.9999959468842,0|0,0:0|0:0,0:0:0:0:
268,146,121288,6,0,L|262:75,1,57.9999959468842,2|0,0:3|0:0,0:0:0:0:
348,54,121502,53,0,0:0:0:0:
344,78,121610,1,0,0:0:0:0:
154,34,121717,6,0,L|156:163,1,108.749992400408,2|0,0:3|0:0,0:0:0:0:
100,204,122145,54,0,L|116:252,1,47.1249945496324,2|0,0:0|0:0,0:0:0:0:
181,312,122359,5,0,0:0:0:0:
225,191,122467,1,0,0:0:0:0:
276,321,122574,54,0,L|332:334,1,57.9999959468842,8|0,0:1|0:0,0:0:0:0:
492,244,122788,6,0,L|436:257,1,57.9999959468842,0|0,0:0|0:0,0:0:0:0:
276,167,123002,54,0,L|332:180,1,57.9999959468842,2|0,0:0|0:0,0:0:0:0:
425,146,123217,5,0,0:0:0:0:
401,150,123323,1,0,0:0:0:0:
242,62,123431,54,0,L|51:57,1,173.999987840653,2|0,0:3|0:0,0:0:0:0:
314,45,123860,6,0,L|317:103,1,47.1249945496324,2|0,0:0|0:0,0:0:0:0:
111,154,124074,53,0,0:0:0:0:
291,171,124181,1,0,0:0:0:0:
130,231,124288,6,0,L|186:220,1,57.9999959468842,8|0,0:1|0:0,0:0:0:0:
221,350,124502,54,0,L|253:302,1,57.9999959468842,2|0,0:3|0:0,0:0:0:0:
370,370,124717,6,0,L|359:313,1,57.9999959468842,0|0,0:0|0:0,0:0:0:0:
355,73,124931,54,0,L|219:97,1,108.749996548891,0|0,0:0|0:0,0:0:0:0:
382,231,125145,6,0,L|326:220,1,57.9999959468842,2|0,0:3|0:0,0:0:0:0:
291,350,125359,54,0,L|259:302,1,57.9999959468842,0|0,0:0|0:0,0:0:0:0:
142,370,125574,6,0,L|153:313,1,57.9999959468842,2|0,0:0|0:0,0:0:0:0:
157,73,125788,54,0,L|293:97,1,108.749996548891,0|0,0:0|0:0,0:0:0:0:
92,81,126002,5,8,0:1:0:0:
38,313,126324,1,0,0:0:0:0:
110,326,126431,54,0,L|101:253,1,72.4999976992607
122,315,126574,6,0,L|113:242,1,72.4999976992607
134,304,126717,54,0,L|125:231,1,72.4999976992607
206,288,126860,6,0,L|336:284,1,108.749992400408,6|0,0:3|0:0,0:0:0:0:
369,331,127288,54,0,L|293:191,1,141.374983648897,2|0,0:0|0:0,0:0:0:0:
411,239,127717,6,0,L|480:258,1,57.9999959468842,8|0,0:1|0:0,0:0:0:0:
374,81,127931,54,0,L|425:31,1,57.9999959468842,0|0,0:0|0:0,0:0:0:0:
219,34,128145,6,0,L|201:-34,1,57.9999959468842,2|0,0:3|0:0,0:0:0:0:
280,85,128360,53,0,0:0:0:0:
277,104,128467,1,0,0:0:0:0:
442,128,128574,6,0,L|439:263,1,108.749992400408,2|0,0:3|0:0,0:0:0:0:
488,308,129002,54,0,L|424:317,1,47.1249945496324,2|0,0:0|0:0,0:0:0:0:
309,136,129217,5,0,0:0:0:0:
354,236,129324,1,0,0:0:0:0:
240,119,129431,54,0,L|233:175,1,57.9999959468842,8|0,0:1|0:0,0:0:0:0:
69,196,129645,6,0,L|114:230,1,57.9999959468842,0|0,0:0|0:0,0:0:0:0:
53,383,129859,54,0,L|105:360,1,57.9999959468842,2|0,0:0|0:0,0:0:0:0:
245,362,130074,5,0,0:0:0:0:
264,365,130181,1,0,0:0:0:0:
172,180,130288,54,0,L|363:201,1,173.999987840653,2|0,0:3|0:0,0:0:0:0:
158,91,130717,6,0,L|78:102,1,47.1249945496324,2|0,0:0|0:0,0:0:0:0:
349,112,130931,53,0,0:0:0:0:
205,259,131038,1,0,0:0:0:0:
401,270,131145,6,0,L|394:336,1,57.9999959468842,8|0,0:1|0:0,0:0:0:0:
257,147,131360,54,0,L|264:213,1,57.9999959468842,2|0,0:3|0:0,0:0:0:0:
496,228,131574,6,0,L|489:294,1,57.9999959468842,0|0,0:0|0:0,0:0:0:0:
417,85,131788,54,2,L|267:67,1,108.749996548891,0|0,0:0|0:0,0:0:0:0:
208,49,132002,6,0,L|202:107,1,57.9999959468842,2|0,0:3|0:0,0:0:0:0:
339,172,132217,54,0,L|346:230,1,57.9999959468842,0|0,0:0|0:0,0:0:0:0:
113,91,132431,6,0,L|107:149,1,57.9999959468842,2|0,0:0|0:0,0:0:0:0:
293,304,132645,54,2,L|186:292,1,108.749996548891,0|0,0:0|0:0,0:0:0:0:
60,289,132860,6,0,L|52:191,1,57.9999959468842,8|0,0:1|0:0,0:0:0:0:
237,60,133074,54,0,L|232:117,1,57.9999959468842,2|0,0:3|0:0,0:0:0:0:
399,266,133288,6,2,L|489:326,1,108.749992400408,0|0,0:0|0:0,0:0:0:0:
378,61,133717,53,6,0:3:0:0:
372,108,133824,1,0,0:0:0:0:
366,156,133931,1,0,0:0:0:0:
360,204,134038,1,0,0:0:0:0:
289,99,134145,5,2,0:0:0:0:
241,93,134252,1,0,0:0:0:0:
193,87,134359,1,0,0:0:0:0:
146,82,134466,1,0,0:0:0:0:
232,300,134574,53,8,0:1:0:0:
268,346,134681,1,0,0:0:0:0:
327,346,134788,1,0,0:0:0:0:
362,299,134895,1,0,0:0:0:0:
141,194,135002,5,2,0:3:0:0:
152,228,135109,1,0,0:0:0:0:
154,264,135216,1,0,0:0:0:0:
145,299,135323,1,0,0:0:0:0:
217,117,135431,53,2,0:3:0:0:
228,151,135538,1,0,0:0:0:0:
230,187,135645,1,0,0:0:0:0:
221,222,135752,1,0,0:0:0:0:
291,284,135860,5,2,0:0:0:0:
326,293,135967,1,0,0:0:0:0:
362,291,136074,1,0,0:0:0:0:
396,280,136181,1,0,0:0:0:0:
488,236,136288,54,0,L|477:274,1,24.1666649778684,8|0,0:1|0:0,0:0:0:0:
441,157,136431,2,0,L|430:195,1,24.1666649778684,0|0,0:0|0:0,0:0:0:0:
394,78,136574,2,0,L|383:116,1,24.1666649778684,0|0,0:0|0:0,0:0:0:0:
329,293,136717,6,0,L|354:285,1,24.1666649778684,0|0,0:0|0:0,0:0:0:0:
223,231,136860,2,0,L|248:223,1,24.1666649778684,0|0,0:0|0:0,0:0:0:0:
118,168,137003,2,0,L|143:160,1,24.1666649778684,0|0,0:0|0:0,0:0:0:0:
202,43,137145,53,2,0:3:0:0:
241,70,137252,1,0,0:0:0:0:
281,98,137359,1,0,0:0:0:0:
321,125,137466,1,0,0:0:0:0:
380,211,137574,5,2,0:0:0:0:
340,238,137681,1,0,0:0:0:0:
300,266,137788,1,0,0:0:0:0:
260,293,137895,1,0,0:0:0:0:
88,253,138002,53,8,0:1:0:0:
68,263,138110,1,0,0:0:0:0:
188,63,138217,6,0,L|201:261,1,181.249987334013,2|0,0:3|0:0,0:0:0:0:
360,137,138860,53,2,0:3:0:0:
358,162,138967,1,0,0:0:0:0:
356,188,139074,1,0,0:0:0:0:
354,214,139181,1,0,0:0:0:0:
353,240,139288,1,0,0:0:0:0:
351,266,139395,1,0,0:0:0:0:
349,292,139502,1,0,0:0:0:0:
348,317,139610,1,0,0:0:0:0:
135,150,139717,21,8,0:1:0:0:
120,133,140574,6,0,L|283:117,1,144.999989867211,6|2,0:3|0:0,0:0:0:0:
276,190,141217,2,0,L|350:183,1,72.4999949336053,2|8,0:3|0:0,0:0:0:0:
276,190,141860,2,0,L|350:183,1,72.4999949336053,2|0,0:0|0:0,0:0:0:0:
481,268,142288,6,0,L|340:254,1,108.749992400408,2|2,0:3|0:3,0:0:0:0:
316,302,142717,2,0,L|242:295,1,72.4999949336053,2|2,0:3|0:3,0:0:0:0:
55,251,143145,2,0,L|200:237,1,144.999989867211,8|2,0:1|0:0,0:0:0:0:
55,251,144002,38,0,L|200:237,1,144.999989867211,2|2,0:3|0:0,0:0:0:0:
221,167,144645,2,0,L|147:160,1,72.4999949336053,2|8,0:3|0:0,0:0:0:0:
221,167,145288,2,0,L|148:160,1,72.4999949336053,2|0,0:0|0:0,0:0:0:0:
261,106,145717,6,0,L|402:91,1,108.749992400408,2|2,0:3|0:3,0:0:0:0:
383,166,146145,2,0,L|455:159,1,72.4999949336053,2|2,0:3|0:3,0:0:0:0:
342,226,146574,1,8,0:1:0:0:
444,285,146788,1,0,0:0:0:0:
444,285,146860,1,0,0:0:0:0:
444,285,146931,1,0,0:0:0:0:
444,285,147002,1,2,0:0:0:0:
342,226,147431,6,0,L|197:211,1,144.999989867211,6|2,0:3|0:0,0:0:0:0:
372,292,148074,2,0,L|444:285,1,72.4999949336053,2|8,0:3|0:0,0:0:0:0:
372,292,148717,2,0,L|444:285,1,72.4999949336053,2|0,0:0|0:0,0:0:0:0:
369,364,149145,38,0,L|227:349,1,108.749992400408,2|2,0:3|0:3,0:0:0:0:
269,280,149574,2,0,L|196:273,1,72.4999949336053,2|2,0:3|0:3,0:0:0:0:
71,217,150002,2,0,L|216:203,1,144.999989867211,8|2,0:1|0:0,0:0:0:0:
71,217,150860,6,0,L|216:203,1,144.999989867211,2|2,0:3|0:0,0:0:0:0:
188,135,151502,2,0,L|115:128,1,72.4999949336053,2|8,0:3|0:0,0:0:0:0:
188,135,152145,2,0,L|115:128,1,72.4999949336053,2|0,0:0|0:0,0:0:0:0:
258,119,152574,6,0,L|400:104,1,108.749992400408,2|2,0:3|0:3,0:0:0:0:
382,178,153002,2,0,L|455:171,1,72.4999949336053,2|2,0:3|0:3,0:0:0:0:
359,246,153431,1,8,0:1:0:0:
251,161,153645,1,0,0:0:0:0:
251,161,153717,1,0,0:0:0:0:
251,161,153788,1,0,0:0:0:0:
251,161,153860,1,2,0:0:0:0:
359,246,154288,38,0,L|214:232,1,144.999989867211,6|2,0:3|0:0,0:0:0:0:
179,168,154931,2,0,L|252:161,1,72.4999949336053,2|8,0:3|0:0,0:0:0:0:
179,168,155574,2,0,L|252:161,1,72.4999949336053,2|0,0:0|0:0,0:0:0:0:
389,106,156002,6,0,L|281:95,1,108.749992400408,2|2,0:3|0:3,0:0:0:0:
230,42,156431,2,0,L|157:35,1,72.4999949336053,2|2,0:3|0:3,0:0:0:0:
18,121,156860,2,0,L|163:107,1,144.999989867211,8|2,0:1|0:0,0:0:0:0:
18,121,157717,6,0,L|163:107,1,144.999989867211,2|2,0:3|0:0,0:0:0:0:
150,178,158360,2,0,L|223:171,1,72.4999949336053,2|8,0:3|0:0,0:0:0:0:
150,178,159002,2,0,L|223:171,1,72.4999949336053,2|0,0:0|0:0,0:0:0:0:
44,261,159431,38,0,L|153:250,1,108.749992400408,2|2,0:3|0:3,0:0:0:0:
208,297,159860,2,0,L|281:290,1,72.4999949336053,2|2,0:3|0:3,0:0:0:0:
463,242,160288,1,8,0:1:0:0:
269,152,160502,1,0,0:0:0:0:
269,152,160574,1,0,0:0:0:0:
269,152,160645,1,0,0:0:0:0:
269,152,160717,1,2,0:0:0:0:
463,242,161145,6,0,L|318:228,1,144.999989867211,6|2,0:3|0:0,0:0:0:0:
342,159,161788,2,0,L|269:152,1,72.4999949336053,2|8,0:3|0:0,0:0:0:0:
342,159,162431,2,0,L|269:152,1,72.4999949336053,2|0,0:0|0:0,0:0:0:0:
437,98,162860,6,0,L|328:87,1,108.749992400408,2|2,0:3|0:3,0:0:0:0:
505,177,163288,2,0,L|432:170,1,72.4999949336053,2|2,0:3|0:3,0:0:0:0:
234,233,163717,2,0,L|379:219,1,144.999989867211,8|2,0:1|0:0,0:0:0:0:
234,233,164574,38,0,L|379:219,1,144.999989867211,2|2,0:3|0:0,0:0:0:0:
452,298,165217,2,0,L|379:291,1,72.4999949336053,2|8,0:3|0:0,0:0:0:0:
452,298,165860,2,0,L|379:291,1,72.4999949336053,2|0,0:0|0:0,0:0:0:0:
319,331,166288,6,0,L|210:320,1,108.749992400408,2|2,0:3|0:3,0:0:0:0:
303,259,166717,2,0,L|230:252,1,72.4999949336053,2|2,0:3|0:3,0:0:0:0:
25,225,167145,1,8,0:1:0:0:
301,162,167360,1,0,0:0:0:0:
301,162,167431,1,0,0:0:0:0:
301,162,167502,1,0,0:0:0:0:
301,162,167574,2,0,L|312:53,1,108.749992400408,2|0,0:0|0:0,0:0:0:0:
247,44,168002,5,6,0:3:0:0:
155,137,168431,1,2,0:0:0:0:
240,118,168646,1,2,0:3:0:0:
54,221,168860,2,0,L|152:231,1,72.4999949336053,8|0,0:0|0:0,0:0:0:0:
155,137,169288,1,2,0:0:0:0:
240,118,169503,1,0,0:0:0:0:
167,296,169717,37,2,0:3:0:0:
363,355,170038,1,2,0:3:0:0:
361,370,170145,1,2,0:3:0:0:
458,378,170360,1,2,0:3:0:0:
326,286,170574,2,0,L|311:195,1,72.4999949336053,8|0,0:1|0:0,0:0:0:0:
392,211,171002,2,0,L|377:120,1,72.4999949336053,2|0,0:0|0:0,0:0:0:0:
234,187,171431,5,2,0:3:0:0:
425,83,171860,1,2,0:0:0:0:
342,70,172074,1,2,0:3:0:0:
451,231,172288,2,0,L|443:336,1,72.4999949336053,8|0,0:0|0:0,0:0:0:0:
425,83,172717,1,2,0:0:0:0:
342,70,172931,1,0,0:0:0:0:
233,143,173145,5,2,0:3:0:0:
103,292,173467,1,2,0:3:0:0:
118,294,173574,1,2,0:3:0:0:
20,204,173788,1,2,0:3:0:0:
208,257,174002,1,8,0:1:0:0:
145,155,174217,1,0,0:0:0:0:
145,155,174288,1,0,0:0:0:0:
145,155,174360,1,0,0:0:0:0:
145,155,174431,1,2,0:0:0:0:
232,118,174645,1,0,0:0:0:0:
350,266,174860,38,0,L|440:272,1,72.4999949336053,6|0,0:3|0:0,0:0:0:0:
184,234,175288,1,2,0:0:0:0:
307,198,175502,1,2,0:3:0:0:
241,31,175717,2,0,L|235:121,1,72.4999949336053,8|0,0:0|0:0,0:0:0:0:
184,234,176145,1,2,0:0:0:0:
307,198,176359,1,0,0:0:0:0:
96,130,176574,6,0,L|186:124,1,72.4999949336053,2|0,0:3|0:0,0:0:0:0:
112,256,176895,1,2,0:3:0:0:
75,261,177002,1,2,0:3:0:0:
249,321,177217,1,2,0:3:0:0:
349,186,177431,1,8,0:1:0:0:
416,200,177645,1,0,0:0:0:0:
416,200,177860,1,2,0:0:0:0:
416,200,178074,1,0,0:0:0:0:
282,361,178288,6,0,L|355:368,1,72.4999949336053,2|0,0:3|0:0,0:0:0:0:
236,176,178717,1,2,0:0:0:0:
230,303,178931,1,2,0:3:0:0:
59,288,179145,2,0,L|52:360,1,72.4999949336053,8|0,0:0|0:0,0:0:0:0:
236,176,179574,1,2,0:0:0:0:
230,303,179788,1,0,0:0:0:0:
56,180,180002,38,0,L|152:181,1,72.4999949336053,2|0,0:3|0:0,0:0:0:0:
313,75,180324,1,2,0:3:0:0:
308,112,180431,1,2,0:3:0:0:
348,216,180645,1,2,0:3:0:0:
138,251,180860,1,8,0:1:0:0:
332,325,181074,1,0,0:0:0:0:
332,325,181145,1,0,0:0:0:0:
332,325,181217,1,0,0:0:0:0:
332,325,181288,1,2,0:0:0:0:
423,303,181502,1,0,0:0:0:0:
498,107,181717,6,0,L|401:98,1,72.4999949336053,6|0,0:3|0:0,0:0:0:0:
274,214,182145,1,2,0:0:0:0:
143,234,182360,1,2,0:3:0:0:
308,322,182574,2,0,L|405:331,1,72.4999949336053,8|0,0:0|0:0,0:0:0:0:
274,214,183002,1,2,0:0:0:0:
143,234,183217,1,0,0:0:0:0:
23,138,183431,5,2,0:3:0:0:
221,86,183645,1,0,0:0:0:0:
255,159,183752,1,2,0:3:0:0:
286,143,183860,1,2,0:3:0:0:
139,76,184074,1,2,0:3:0:0:
350,43,184288,2,0,L|358:141,1,72.4999949336053,8|0,0:1|0:0,0:0:0:0:
391,187,184717,2,0,L|399:285,1,72.4999949336053,2|0,0:0|0:0,0:0:0:0:
120,290,185145,38,0,L|220:293,1,72.4999949336053,2|0,0:3|0:0,0:0:0:0:
44,175,185574,1,2,0:0:0:0:
202,157,185788,1,2,0:3:0:0:
22,280,186002,2,0,L|20:353,1,72.4999949336053,8|0,0:0|0:0,0:0:0:0:
44,175,186431,1,2,0:0:0:0:
202,157,186645,1,0,0:0:0:0:
269,332,186860,5,2,0:3:0:0:
371,134,187074,1,0,0:0:0:0:
332,60,187181,1,2,0:3:0:0:
366,67,187289,1,2,0:3:0:0:
233,120,187502,1,2,0:3:0:0:
395,206,187717,1,8,0:1:0:0:
146,224,187931,1,0,0:0:0:0:
146,224,188002,1,0,0:0:0:0:
146,224,188074,1,0,0:0:0:0:
146,224,188145,1,2,0:0:0:0:
259,263,188360,1,0,0:0:0:0:
12,323,188574,6,0,L|114:326,1,72.4999949336053,6|0,0:3|0:0,0:0:0:0:
77,131,189002,1,2,0:0:0:0:
144,284,189217,1,2,0:3:0:0:
156,85,189431,2,0,L|258:88,1,72.4999949336053,8|0,0:0|0:0,0:0:0:0:
77,131,189860,1,2,0:0:0:0:
144,284,190073,1,0,0:0:0:0:
289,158,190288,37,2,0:3:0:0:
420,319,190502,1,0,0:0:0:0:
332,353,190610,1,2,0:3:0:0:
298,346,190716,1,0,0:0:0:0:
101,360,190931,1,2,0:3:0:0:
256,286,191145,1,8,0:1:0:0:
147,163,191360,1,0,0:0:0:0:
147,163,191574,1,2,0:0:0:0:
147,163,191788,1,0,0:0:0:0:
184,107,192002,5,2,0:3:0:0:
256,192,193717,12,0,195324,0:0:0:0:
95,61,195431,6,0,L|103:136,1,48.3333299557368,0|0,0:0|0:0,0:0:0:0:
165,76,195717,2,0,L|173:151,1,48.3333299557368,0|0,0:0|0:0,0:0:0:0:
235,91,196002,2,0,L|243:166,1,48.3333299557368,0|0,0:0|0:0,0:0:0:0:
447,135,196288,38,0,L|442:184,1,48.3333299557368,0|0,0:0|0:0,0:0:0:0:
377,150,196574,2,0,L|372:199,1,48.3333299557368,0|0,0:0|0:0,0:0:0:0:
307,166,196859,2,0,L|301:214,1,48.3333299557368,0|0,0:0|0:0,0:0:0:0:
27,219,197145,6,0,L|35:294,1,48.3333299557368,0|0,0:0|0:0,0:0:0:0:
97,234,197431,2,0,L|105:309,1,48.3333299557368,0|0,0:0|0:0,0:0:0:0:
167,249,197717,2,0,L|175:324,1,48.3333299557368,0|0,0:0|0:0,0:0:0:0:
501,290,198002,6,0,L|493:365,1,48.3333299557368,0|0,0:0|0:0,0:0:0:0:
431,305,198288,2,0,L|423:380,1,48.3333299557368,0|0,0:0|0:0,0:0:0:0:
361,320,198574,2,0,L|353:395,1,48.3333299557368,0|0,0:0|0:0,0:0:0:0:
226,92,198860,37,2,0:3:0:0:
225,104,198967,1,0,0:0:0:0:
224,116,199074,1,0,0:0:0:0:
223,128,199181,1,0,0:0:0:0:
166,168,199288,5,2,0:3:0:0:
165,180,199395,1,0,0:0:0:0:
164,192,199502,1,0,0:0:0:0:
163,204,199609,1,0,0:0:0:0:
105,109,199717,5,2,0:3:0:0:
104,121,199824,1,0,0:0:0:0:
103,133,199931,1,0,0:0:0:0:
102,145,200038,1,0,0:0:0:0:
45,185,200145,37,2,0:3:0:0:
44,197,200252,1,0,0:0:0:0:
43,209,200359,1,0,0:0:0:0:
42,221,200466,1,0,0:0:0:0:
155,217,200574,5,2,0:3:0:0:
156,229,200681,1,0,0:0:0:0:
157,241,200788,1,0,0:0:0:0:
158,253,200895,1,0,0:0:0:0:
237,240,201002,5,2,0:3:0:0:
238,252,201109,1,0,0:0:0:0:
239,264,201216,1,0,0:0:0:0:
240,276,201323,1,0,0:0:0:0:
341,259,201431,37,2,0:3:0:0:
343,271,201538,1,0,0:0:0:0:
294,326,201645,5,2,0:3:0:0:
296,338,201752,1,0,0:0:0:0:
409,304,201860,5,2,0:3:0:0:
410,316,201967,1,0,0:0:0:0:
411,328,202074,1,0,0:0:0:0:
412,340,202181,1,0,0:0:0:0:
473,256,202288,37,2,0:3:0:0:
474,244,202395,1,0,0:0:0:0:
475,232,202502,1,0,0:0:0:0:
476,220,202609,1,0,0:0:0:0:
284,249,202717,6,0,L|274:124,1,108.749992400408,6|0,0:3|0:0,0:0:0:0:
426,70,203145,5,2,0:3:0:0:
428,82,203252,1,0,0:0:0:0:
341,92,203360,37,2,0:3:0:0:
343,104,203467,1,0,0:0:0:0:
244,72,203574,5,2,0:3:0:0:
246,84,203681,1,0,0:0:0:0:
159,94,203789,5,2,0:3:0:0:
161,106,203896,1,0,0:0:0:0:
235,197,204002,37,2,0:3:0:0:
223,196,204109,1,0,0:0:0:0:
211,195,204216,1,0,0:0:0:0:
199,193,204323,1,0,0:0:0:0:
89,229,204431,5,2,0:3:0:0:
101,228,204538,1,0,0:0:0:0:
113,227,204645,1,0,0:0:0:0:
125,225,204752,1,0,0:0:0:0:
252,279,204860,5,2,0:3:0:0:
240,280,204967,1,0,0:0:0:0:
142,302,205074,37,2,0:3:0:0:
154,303,205181,1,0,0:0:0:0:
344,329,205288,5,2,0:3:0:0:
332,330,205395,1,0,0:0:0:0:
234,352,205502,5,2,0:3:0:0:
246,353,205609,1,0,0:0:0:0:
421,348,205717,37,2,0:3:0:0:
422,323,205824,1,0,0:0:0:0:
424,299,205931,1,0,0:0:0:0:
425,275,206038,1,0,0:0:0:0:
353,164,206145,5,2,0:3:0:0:
354,188,206252,1,0,0:0:0:0:
356,212,206359,1,0,0:0:0:0:
357,237,206466,1,0,0:0:0:0:
409,131,206574,5,2,0:3:0:0:
410,107,206681,1,0,0:0:0:0:
294,111,206788,37,2,0:3:0:0:
293,87,206895,1,0,0:0:0:0:
243,173,207002,5,2,0:3:0:0:
219,174,207109,1,0,0:0:0:0:
195,176,207216,1,0,0:0:0:0:
170,177,207323,1,0,0:0:0:0:
91,96,207431,5,2,0:3:0:0:
90,121,207538,1,0,0:0:0:0:
88,145,207645,1,0,0:0:0:0:
87,169,207752,1,0,0:0:0:0:
144,251,207860,37,2,0:3:0:0:
145,276,207967,1,0,0:0:0:0:
147,300,208074,1,0,0:0:0:0:
148,324,208181,1,0,0:0:0:0:
232,233,208288,5,2,0:3:0:0:
256,234,208395,1,0,0:0:0:0:
294,330,208502,5,2,0:3:0:0:
318,331,208609,1,0,0:0:0:0:
346,205,208717,37,2,0:3:0:0:
370,206,208824,1,0,0:0:0:0:
408,302,208931,5,2,0:3:0:0:
432,303,209038,1,0,0:0:0:0:
472,144,209145,5,2,0:3:0:0:
471,169,209252,1,0,0:0:0:0:
469,193,209359,1,0,0:0:0:0:
468,217,209466,1,0,0:0:0:0:
358,23,209574,38,0,L|386:150,1,108.749992400408,6|0,0:3|0:0,0:0:0:0:
177,77,210002,5,2,0:3:0:0:
189,78,210109,1,0,0:0:0:0:
287,100,210216,5,2,0:3:0:0:
275,101,210323,1,0,0:0:0:0:
160,188,210430,37,0,0:0:0:0:
172,189,210537,1,0,0:0:0:0:
306,185,210644,5,2,0:3:0:0:
294,186,210751,1,0,0:0:0:0:
135,247,210860,5,2,0:3:0:0:
123,248,210967,1,0,0:0:0:0:
25,270,211074,37,2,0:3:0:0:
37,271,211181,1,0,0:0:0:0:
152,358,211288,5,2,0:3:0:0:
140,359,211395,1,0,0:0:0:0:
6,355,211502,5,2,0:3:0:0:
18,356,211609,1,0,0:0:0:0:
228,339,211717,37,2,0:3:0:0:
240,338,211824,1,0,0:0:0:0:
338,316,211931,5,2,0:3:0:0:
326,315,212038,1,0,0:0:0:0:
211,228,212145,5,2,0:3:0:0:
223,227,212252,1,0,0:0:0:0:
357,231,212359,37,2,0:3:0:0:
345,230,212466,1,0,0:0:0:0:
73,236,212574,6,0,L|32:232,1,36.2499974668026,2|0,0:3|0:0,0:0:0:0:
220,180,212789,2,0,L|261:176,1,36.2499974668026,2|0,0:3|0:0,0:0:0:0:
52,322,213003,6,0,L|15:318,1,36.2499974668026,2|0,0:3|0:0,0:0:0:0:
214,384,213216,2,0,L|250:379,1,36.2499974668026,2|0,0:3|0:0,0:0:0:0:
426,165,213431,38,0,L|467:161,1,36.2499974668026,2|0,0:3|0:0,0:0:0:0:
279,109,213646,2,0,L|238:105,1,36.2499974668026,2|0,0:3|0:0,0:0:0:0:
447,251,213860,6,0,L|483:247,1,36.2499974668026,2|0,0:3|0:0,0:0:0:0:
285,313,214073,2,0,L|248:308,1,36.2499974668026,2|0,0:3|0:0,0:0:0:0:
73,94,214288,6,0,L|32:90,1,36.2499974668026,2|0,0:3|0:0,0:0:0:0:
220,38,214503,2,0,L|261:34,1,36.2499974668026,2|0,0:3|0:0,0:0:0:0:
52,180,214717,38,0,L|15:176,1,36.2499974668026,2|0,0:3|0:0,0:0:0:0:
214,242,214930,2,0,L|250:237,1,36.2499974668026,2|0,0:3|0:0,0:0:0:0:
455,66,215145,6,0,L|496:62,1,36.2499974668026,0|0,0:0|0:0,0:0:0:0:
308,10,215360,2,0,L|267:6,1,36.2499974668026,2|0,0:3|0:0,0:0:0:0:
476,152,215574,6,0,L|512:148,1,36.2499974668026,2|0,0:3|0:0,0:0:0:0:
314,214,215789,2,0,L|277:209,1,36.2499974668026,2|0,0:3|0:0,0:0:0:0:
18,43,216002,38,0,L|71:32,1,36.2499974668026,2|0,0:3|0:0,0:0:0:0:
256,101,216216,2,0,L|309:90,1,36.2499974668026,0|0,0:0|0:0,0:0:0:0:
0,157,216431,6,0,L|20:125,1,36.2499974668026,2|0,0:3|0:0,0:0:0:0:
217,109,216645,2,0,L|260:77,1,36.2499974668026,2|0,0:3|0:0,0:0:0:0:
0,278,216860,6,0,L|14:230,1,36.2499974668026,2|0,0:3|0:0,0:0:0:0:
186,133,217074,2,0,L|211:85,1,36.2499974668026,2|0,0:3|0:0,0:0:0:0:
50,383,217288,38,0,L|53:329,1,36.2499974668026,2|0,0:3|0:0,0:0:0:0:
168,168,217502,2,0,L|171:114,1,36.2499974668026,2|0,0:3|0:0,0:0:0:0:
342,384,217717,6,0,L|321:333,1,36.2499974668026,2|0,0:3|0:0,0:0:0:0:
357,139,217931,2,0,L|336:88,1,36.2499974668026,2|0,0:3|0:0,0:0:0:0:
254,363,218145,6,0,L|257:308,1,36.2499974668026,2|0,0:3|0:0,0:0:0:0:
371,146,218359,37,2,0:3:0:0:
373,110,218466,1,2,0:3:0:0:
456,249,218574,6,0,L|401:245,1,36.2499974668026,2|0,0:3|0:0,0:0:0:0:
240,132,218788,2,0,L|185:128,1,36.2499974668026,2|0,0:3|0:0,0:0:0:0:
399,326,219002,6,0,L|351:300,1,36.2499974668026,2|0,0:3|0:0,0:0:0:0:
253,129,219216,37,2,0:3:0:0:
221,111,219323,1,2,0:3:0:0:
369,64,219431,5,2,0:3:0:0:
366,112,219538,1,2,0:3:0:0:
363,160,219645,1,2,0:3:0:0:
360,208,219752,1,2,0:3:0:0:
464,118,219860,5,2,0:3:0:0:
467,166,219967,1,2,0:3:0:0:
470,214,220074,1,2,0:3:0:0:
473,262,220181,1,2,0:3:0:0:
355,92,220288,37,2,0:3:0:0:
352,140,220395,1,2,0:3:0:0:
349,188,220502,1,2,0:3:0:0:
346,236,220609,1,2,0:3:0:0:
478,146,220717,5,2,0:3:0:0:
481,194,220824,1,2,0:3:0:0:
484,242,220931,1,2,0:3:0:0:
487,290,221038,1,2,0:3:0:0:
328,262,221145,5,2,0:3:0:0:
325,310,221252,1,2,0:3:0:0:
396,276,221360,37,2,0:3:0:0:
399,324,221467,1,2,0:3:0:0:
293,230,221574,5,2,0:3:0:0:
302,277,221681,1,2,0:3:0:0:
400,215,221788,5,2,0:3:0:0:
416,261,221895,1,2,0:3:0:0:
251,208,222002,37,2,0:3:0:0:
272,251,222109,1,2,0:3:0:0:
386,146,222216,5,2,0:3:0:0:
412,186,222323,1,2,0:3:0:0:
204,197,222431,5,2,0:3:0:0:
235,233,222538,1,2,0:3:0:0:
346,73,222645,37,2,0:3:0:0:
382,105,222752,1,2,0:3:0:0:
213,222,222860,5,2,0:3:0:0:
258,238,222967,1,2,0:3:0:0:
274,43,223074,5,2,0:3:0:0:
321,53,223181,1,2,0:3:0:0:
234,239,223288,37,2,0:3:0:0:
281,230,223395,1,2,0:3:0:0:
197,54,223502,5,2,0:3:0:0:
243,39,223609,1,2,0:3:0:0:
261,244,223717,5,2,0:3:0:0:
297,213,223824,1,2,0:3:0:0:
137,102,223931,37,2,0:3:0:0:
169,66,224038,1,2,0:3:0:0:
286,234,224145,5,2,0:3:0:0:
302,189,224252,1,2,0:3:0:0:
107,173,224359,5,2,0:3:0:0:
117,126,224466,1,2,0:3:0:0:
150,173,226288,21,6,0:3:0:0:
84,191,226395,1,0,0:0:0:0:
47,135,226502,1,0,0:0:0:0:
88,82,226609,1,0,0:0:0:0:
222,199,226717,53,2,0:0:0:0:
282,233,226824,1,0,0:0:0:0:
332,188,226931,1,0,0:0:0:0:
306,127,227038,1,0,0:0:0:0:
352,342,227145,5,8,0:1:0:0:
279,334,227252,1,0,0:0:0:0:
207,326,227359,1,0,0:0:0:0:
135,318,227466,1,0,0:0:0:0:
224,226,227574,54,0,L|258:217,1,24.1666649778684,2|0,0:3|0:0,0:0:0:0:
66,139,227717,2,0,L|32:130,1,24.1666649778684,0|0,0:0|0:0,0:0:0:0:
224,52,227860,2,0,L|258:43,1,24.1666649778684,0|0,0:0|0:0,0:0:0:0:
360,280,228002,5,2,0:3:0:0:
400,284,228109,1,0,0:0:0:0:
439,271,228216,1,0,0:0:0:0:
469,242,228323,1,0,0:0:0:0:
483,204,228430,1,0,0:0:0:0:
480,163,228537,1,0,0:0:0:0:
459,127,228644,1,0,0:0:0:0:
425,104,228752,1,0,0:0:0:0:
360,280,228860,53,8,0:1:0:0:
331,250,228967,1,0,0:0:0:0:
318,211,229074,1,0,0:0:0:0:
323,171,229181,1,0,0:0:0:0:
234,317,229288,6,0,L|225:351,1,24.1666649778684,2|0,0:0|0:0,0:0:0:0:
147,159,229431,2,0,L|138:125,1,24.1666649778684,0|0,0:0|0:0,0:0:0:0:
60,317,229574,2,0,L|51:351,1,24.1666649778684,0|0,0:0|0:0,0:0:0:0:
63,157,229717,53,6,0:3:0:0:
25,101,229824,1,0,0:0:0:0:
72,55,229931,1,0,0:0:0:0:
127,93,230038,1,0,0:0:0:0:
294,90,230145,5,2,0:0:0:0:
292,24,230252,1,0,0:0:0:0:
225,14,230359,1,0,0:0:0:0:
204,77,230466,1,0,0:0:0:0:
423,131,230574,53,8,0:1:0:0:
420,167,230681,1,0,0:0:0:0:
318,171,230788,5,2,0:3:0:0:
321,207,230895,1,0,0:0:0:0:
445,333,231002,54,0,L|490:328,1,24.1666649778684,0|0,0:0|0:0,0:0:0:0:
280,336,231145,2,0,L|325:331,1,24.1666649778684,0|0,0:0|0:0,0:0:0:0:
115,339,231288,2,0,L|160:334,1,24.1666649778684,0|0,0:0|0:0,0:0:0:0:
448,182,231431,5,2,0:3:0:0:
408,170,231538,1,0,0:0:0:0:
367,164,231645,1,0,0:0:0:0:
325,164,231752,1,0,0:0:0:0:
285,170,231859,1,0,0:0:0:0:
245,181,231966,1,0,0:0:0:0:
207,199,232073,1,0,0:0:0:0:
173,221,232181,1,0,0:0:0:0:
88,75,232288,53,8,0:1:0:0:
126,92,232395,1,0,0:0:0:0:
28,182,232502,5,2,0:3:0:0:
69,189,232609,1,0,0:0:0:0:
122,323,232717,54,0,L|97:325,1,24.1666649778684,2|0,0:0|0:0,0:0:0:0:
287,320,232860,2,0,L|262:322,1,24.1666649778684,0|0,0:0|0:0,0:0:0:0:
452,317,233003,2,0,L|427:319,1,24.1666649778684,0|0,0:0|0:0,0:0:0:0:
475,192,233145,5,6,0:3:0:0:
462,121,233252,1,0,0:0:0:0:
426,58,233359,1,0,0:0:0:0:
370,14,233466,1,0,0:0:0:0:
268,194,233574,53,2,0:0:0:0:
336,218,233681,1,0,0:0:0:0:
409,218,233788,1,0,0:0:0:0:
475,192,233895,1,0,0:0:0:0:
262,16,234002,5,8,0:1:0:0:
225,78,234109,1,0,0:0:0:0:
188,140,234216,1,0,0:0:0:0:
151,203,234323,1,0,0:0:0:0:
297,373,234431,54,0,L|261:344,1,24.1666649778684,2|0,0:3|0:0,0:0:0:0:
113,287,234574,2,0,L|149:258,1,24.1666649778684,0|0,0:0|0:0,0:0:0:0:
297,201,234717,2,0,L|261:172,1,24.1666649778684,0|0,0:0|0:0,0:0:0:0:
76,79,234860,5,2,0:3:0:0:
82,119,234967,1,0,0:0:0:0:
111,147,235074,1,0,0:0:0:0:
152,151,235181,1,0,0:0:0:0:
186,129,235288,1,0,0:0:0:0:
200,91,235395,1,0,0:0:0:0:
188,52,235502,1,0,0:0:0:0:
155,29,235610,1,0,0:0:0:0:
24,203,235717,53,8,0:1:0:0:
40,240,235824,1,0,0:0:0:0:
76,259,235931,1,0,0:0:0:0:
116,252,236038,1,0,0:0:0:0:
171,110,236145,6,0,L|200:146,1,24.1666649778684,2|0,0:0|0:0,0:0:0:0:
257,294,236288,2,0,L|286:258,1,24.1666649778684,0|0,0:0|0:0,0:0:0:0:
343,110,236431,2,0,L|372:146,1,24.1666649778684,0|0,0:0|0:0,0:0:0:0:
436,376,236574,53,6,0:3:0:0:
379,331,236681,1,0,0:0:0:0:
342,269,236788,1,0,0:0:0:0:
332,198,236895,1,0,0:0:0:0:
265,361,237002,5,2,0:0:0:0:
239,294,237109,1,0,0:0:0:0:
237,221,237216,1,0,0:0:0:0:
264,155,237323,1,0,0:0:0:0:
472,283,237431,53,8,0:1:0:0:
466,243,237538,1,0,0:0:0:0:
384,180,237645,5,2,0:3:0:0:
390,140,237752,1,0,0:0:0:0:
268,56,237860,54,0,L|283:37,1,24.1666649778684,0|0,0:0|0:0,0:0:0:0:
153,174,238003,2,0,L|168:155,1,24.1666649778684,0|0,0:0|0:0,0:0:0:0:
38,293,238146,2,0,L|53:274,1,24.1666649778684,0|0,0:0|0:0,0:0:0:0:
288,243,238288,5,2,0:3:0:0:
326,228,238396,1,0,0:0:0:0:
362,245,238503,1,0,0:0:0:0:
375,283,238610,1,0,0:0:0:0:
357,319,238717,1,0,0:0:0:0:
319,331,238824,1,0,0:0:0:0:
283,312,238931,1,0,0:0:0:0:
273,273,239038,1,0,0:0:0:0:
28,373,239145,54,0,L|14:90,1,253.749982267618,8|0,0:1|0:0,0:0:0:0:
133,79,240002,5,6,0:3:0:0:
194,115,240109,1,0,0:0:0:0:
230,177,240216,1,0,0:0:0:0:
232,249,240323,1,0,0:0:0:0:
384,227,240431,53,2,0:0:0:0:
312,229,240538,1,0,0:0:0:0:
250,265,240645,1,0,0:0:0:0:
214,327,240752,1,0,0:0:0:0:
288,127,240860,5,8,0:1:0:0:
357,143,240967,1,0,0:0:0:0:
428,159,241074,1,0,0:0:0:0:
499,177,241181,1,0,0:0:0:0:
298,337,241288,54,0,L|337:322,1,24.1666649778684,2|0,0:3|0:0,0:0:0:0:
288,127,241431,2,0,L|255:100,1,24.1666649778684,0|0,0:0|0:0,0:0:0:0:
112,242,241573,2,0,L|103:283,1,24.1666649778684,0|0,0:0|0:0,0:0:0:0:
90,45,241717,5,2,0:3:0:0:
131,45,241824,1,0,0:0:0:0:
170,57,241931,1,0,0:0:0:0:
205,79,242038,1,0,0:0:0:0:
233,109,242145,1,0,0:0:0:0:
252,146,242252,1,0,0:0:0:0:
260,187,242359,1,0,0:0:0:0:
258,228,242467,1,0,0:0:0:0:
101,119,242574,53,8,0:1:0:0:
100,160,242681,1,0,0:0:0:0:
88,199,242788,1,0,0:0:0:0:
66,234,242895,1,0,0:0:0:0:
217,130,243002,6,0,L|177:144,1,24.1666649778684,2|0,0:0|0:0,0:0:0:0:
227,340,243145,2,0,L|259:366,1,24.1666649778684,0|0,0:0|0:0,0:0:0:0:
403,225,243288,2,0,L|411:183,1,24.1666649778684,0|0,0:0|0:0,0:0:0:0:
248,51,243431,53,6,0:3:0:0:
175,56,243538,1,0,0:0:0:0:
104,44,243645,1,0,0:0:0:0:
37,15,243752,1,0,0:0:0:0:
267,75,243860,5,2,0:0:0:0:
194,80,243967,1,0,0:0:0:0:
123,68,244074,1,0,0:0:0:0:
56,39,244181,1,0,0:0:0:0:
62,210,244288,53,8,0:1:0:0:
82,239,244395,1,0,0:0:0:0:
155,312,244502,5,2,0:3:0:0:
175,283,244609,1,0,0:0:0:0:
265,175,244717,54,0,L|275:219,1,24.1666649778684,0|0,0:0|0:0,0:0:0:0:
356,355,244860,2,0,L|350:331,1,24.1666649778684,0|0,0:0|0:0,0:0:0:0:
276,151,245002,2,0,L|286:195,1,24.1666649778684,0|0,0:0|0:0,0:0:0:0:
423,273,245145,5,2,0:3:0:0:
438,234,245252,1,0,0:0:0:0:
442,193,245359,1,0,0:0:0:0:
433,153,245466,1,0,0:0:0:0:
412,117,245573,1,0,0:0:0:0:
382,89,245680,1,0,0:0:0:0:
344,72,245787,1,0,0:0:0:0:
303,66,245895,1,0,0:0:0:0:
128,140,246002,53,8,0:1:0:0:
157,120,246109,1,0,0:0:0:0:
230,47,246216,5,2,0:3:0:0:
201,27,246323,1,0,0:0:0:0:
74,54,246431,54,0,L|118:64,1,24.1666649778684,2|0,0:0|0:0,0:0:0:0:
254,145,246574,2,0,L|230:139,1,24.1666649778684,0|0,0:0|0:0,0:0:0:0:
50,65,246716,2,0,L|94:75,1,24.1666649778684,0|0,0:0|0:0,0:0:0:0:
145,216,246860,5,0,0:3:0:0:
194,268,246967,1,0,0:0:0:0:
263,290,247074,1,0,0:0:0:0:
333,276,247181,1,0,0:0:0:0:
110,217,247288,53,2,0:0:0:0:
126,286,247395,1,0,0:0:0:0:
175,340,247502,1,0,0:0:0:0:
242,362,247609,1,0,0:0:0:0:
363,149,247717,5,8,0:1:0:0:
352,220,247824,1,0,0:0:0:0:
342,292,247931,1,0,0:0:0:0:
332,364,248038,1,0,0:0:0:0:
449,221,248145,54,0,L|482:215,1,24.1666649778684,2|0,0:3|0:0,0:0:0:0:
254,169,248288,2,0,L|223:154,1,24.1666649778684,0|0,0:0|0:0,0:0:0:0:
462,148,248431,2,0,L|495:142,1,24.1666649778684,0|0,0:0|0:0,0:0:0:0:
260,71,248574,5,2,0:3:0:0:
200,62,248681,1,0,0:0:0:0:
142,76,248788,1,0,0:0:0:0:
93,110,248895,1,0,0:0:0:0:
206,170,249002,53,0,0:0:0:0:
199,229,249109,1,0,0:0:0:0:
171,281,249216,1,0,0:0:0:0:
125,319,249323,1,0,0:0:0:0:
323,327,249431,6,0,L|298:325,1,24.1666649778684,8|0,0:1|0:0,0:0:0:0:
356,261,249574,2,0,L|336:247,1,24.1666649778684
417,222,249717,2,0,L|406:200,1,24.1666649778684,0|0,0:1|0:0,0:0:0:0:
178,143,249860,54,0,L|202:144,1,24.1666649778684,2|0,0:0|0:0,0:0:0:0:
215,66,250003,2,0,L|235:79,1,24.1666649778684,0|0,0:0|0:0,0:0:0:0:
286,19,250146,2,0,L|296:40,1,24.1666649778684,0|0,0:0|0:0,0:0:0:0:
492,273,250288,5,6,0:3:0:0:
431,275,250395,1,0,0:0:0:0:
371,268,250502,1,0,0:0:0:0:
313,251,250609,1,0,0:0:0:0:
354,143,250717,53,2,0:0:0:0:
296,125,250824,1,0,0:0:0:0:
236,118,250931,1,0,0:0:0:0:
175,121,251038,1,0,0:0:0:0:
107,237,251145,5,8,0:1:0:0:
101,202,251252,1,0,0:0:0:0:
45,72,251360,54,0,L|248:53,1,181.249987334013,2|0,0:3|0:0,0:0:0:0:
101,202,252002,5,2,0:3:0:0:
126,204,252109,1,0,0:0:0:0:
152,206,252216,1,0,0:0:0:0:
178,209,252323,1,0,0:0:0:0:
204,211,252430,1,0,0:0:0:0:
229,214,252537,1,0,0:0:0:0:
255,216,252644,1,0,0:0:0:0:
281,218,252752,1,0,0:0:0:0:
16,326,252860,5,8,0:1:0:0:
501,383,253717,38,0,L|370:376,1,108.749992400408,6|0,0:3|0:0,0:0:0:0:
261,353,254145,6,0,L|418:327,1,141.374983648897,2|0,0:0|0:0,0:0:0:0:
196,325,254574,54,0,L|138:302,1,57.9999959468842,8|0,0:1|0:0,0:0:0:0:
44,218,254788,6,0,L|102:195,1,57.9999959468842,0|0,0:0|0:0,0:0:0:0:
277,171,255002,54,0,L|219:148,1,57.9999959468842,2|0,0:3|0:0,0:0:0:0:
45,57,255217,5,0,0:0:0:0:
32,40,255324,1,0,0:0:0:0:
116,187,255431,54,0,L|131:80,1,108.749992400408,2|0,0:3|0:0,0:0:0:0:
192,216,255860,6,0,L|197:291,1,47.1249945496324,2|0,0:0|0:0,0:0:0:0:
250,322,256074,53,0,0:0:0:0:
115,257,256181,1,0,0:0:0:0:
320,284,256288,6,0,L|368:245,1,57.9999959468842,8|0,0:1|0:0,0:0:0:0:
201,197,256502,54,0,L|208:135,1,57.9999959468842,0|0,0:0|0:0,0:0:0:0:
56,220,256717,6,0,L|17:171,1,57.9999959468842,2|0,0:0|0:0,0:0:0:0:
75,337,256931,53,0,0:0:0:0:
70,353,257038,1,0,0:0:0:0:
216,178,257145,6,0,L|231:355,1,173.999987840653,2|0,0:3|0:0,0:0:0:0:
310,343,257574,54,0,L|385:329,1,47.1249945496324,2|0,0:0|0:0,0:0:0:0:
396,112,257788,5,0,0:0:0:0:
429,284,257895,1,0,0:0:0:0:
465,54,258002,54,0,L|477:150,1,57.9999959468842,8|0,0:1|0:0,0:0:0:0:
416,248,258217,6,0,L|408:190,1,57.9999959468842,2|0,0:3|0:0,0:0:0:0:
321,71,258431,54,0,L|327:128,1,57.9999959468842,0|0,0:0|0:0,0:0:0:0:
272,266,258645,6,2,L|142:226,1,108.749996548891,0|0,0:0|0:0,0:0:0:0:
47,54,258860,54,0,L|35:150,1,57.9999959468842,2|0,0:3|0:0,0:0:0:0:
96,248,259073,6,0,L|104:190,1,57.9999959468842
191,71,259289,54,0,L|185:128,1,57.9999959468842,2|0,0:0|0:0,0:0:0:0:
240,266,259503,6,2,L|370:226,1,108.749996548891,0|0,0:0|0:0,0:0:0:0:
465,54,259717,54,0,L|477:150,1,57.9999959468842,8|0,0:1|0:0,0:0:0:0:
416,248,259930,6,0,L|408:190,1,57.9999959468842,2|0,0:3|0:0,0:0:0:0:
321,71,260145,54,2,L|333:182,1,108.749992400408,0|0,0:0|0:0,0:0:0:0:
313,157,260574,6,0,L|269:280,1,108.749992400408,6|0,0:3|0:0,0:0:0:0:
186,329,261002,54,0,L|169:152,1,141.374983648897,2|0,0:0|0:0,0:0:0:0:
135,75,261431,6,0,L|41:89,1,57.9999959468842,8|0,0:1|0:0,0:0:0:0:
284,150,261645,54,0,L|378:164,1,57.9999959468842,0|0,0:0|0:0,0:0:0:0:
89,194,261860,6,0,L|-5:208,1,57.9999959468842,2|0,0:3|0:0,0:0:0:0:
144,289,262074,53,0,0:0:0:0:
149,305,262181,1,0,0:0:0:0:
313,341,262288,6,0,L|328:201,1,108.749992400408,2|0,0:3|0:0,0:0:0:0:
379,119,262717,54,0,L|395:197,1,47.1249945496324,2|0,0:0|0:0,0:0:0:0:
451,58,262931,5,0,0:0:0:0:
429,256,263038,1,0,0:0:0:0:
283,181,263145,54,0,L|200:155,1,57.9999959468842,8|0,0:1|0:0,0:0:0:0:
108,244,263360,6,0,L|172:185,1,57.9999959468842,0|0,0:0|0:0,0:0:0:0:
141,61,263574,54,0,L|159:145,1,57.9999959468842,2|0,0:0|0:0,0:0:0:0:
308,324,263788,5,0,0:0:0:0:
303,340,263895,1,0,0:0:0:0:
511,380,264002,54,0,L|389:364,1,72.4999976992607,2|0,0:3|0:0,0:0:0:0:
76,317,264145,2,0,L|198:333,1,72.4999976992607,0|0,0:0|0:0,0:0:0:0:
499,364,264288,2,0,L|377:348,1,72.4999976992607,0|0,0:0|0:0,0:0:0:0:
45,248,264431,6,0,L|154:233,1,72.4999976992607,2|0,0:3|0:0,0:0:0:0:
436,191,264574,2,0,L|326:206,1,72.4999976992607,0|0,0:0|0:0,0:0:0:0:
55,233,264717,2,0,L|165:219,1,72.4999976992607,0|0,0:0|0:0,0:0:0:0:
468,122,264860,54,0,L|369:109,1,72.4999976992607,2|0,0:3|0:0,0:0:0:0:
116,71,265003,2,0,L|214:84,1,72.4999976992607,0|0,0:0|0:0,0:0:0:0:
458,109,265146,2,0,L|359:96,1,72.4999976992607,0|0,0:0|0:0,0:0:0:0:
75,169,265288,6,0,L|163:157,1,72.4999976992607,2|0,0:3|0:0,0:0:0:0:
391,122,265431,2,0,L|302:133,1,72.4999976992607,0|0,0:0|0:0,0:0:0:0:
83,156,265574,2,0,L|171:144,1,72.4999976992607,0|0,0:0|0:0,0:0:0:0:
430,258,265717,54,0,L|350:247,1,72.4999976992607,2|0,0:3|0:0,0:0:0:0:
145,215,265860,2,0,L|224:225,1,72.4999976992607,0|0,0:0|0:0,0:0:0:0:
422,246,266003,2,0,L|342:235,1,72.4999976992607,0|0,0:0|0:0,0:0:0:0:
106,344,266145,6,0,L|177:334,1,72.4999976992607,2|0,0:3|0:0,0:0:0:0:
362,305,266288,2,0,L|290:314,1,72.4999976992607,0|0,0:0|0:0,0:0:0:0:
113,333,266431,2,0,L|184:323,1,72.4999976992607,0|0,0:0|0:0,0:0:0:0:
482,369,266574,53,8,0:1:0:0:
78,35,267431,6,0,L|61:147,1,108.749992400408,6|0,0:3|0:0,0:0:0:0:
56,296,267860,54,0,L|199:274,1,141.374983648897,2|0,0:0|0:0,0:0:0:0:
378,261,268288,6,0,L|309:239,1,57.9999959468842,8|0,0:1|0:0,0:0:0:0:
116,159,268502,54,0,L|185:137,1,57.9999959468842,0|0,0:0|0:0,0:0:0:0:
358,91,268717,6,0,L|289:69,1,57.9999959468842,2|0,0:3|0:0,0:0:0:0:
133,30,268931,53,0,0:0:0:0:
111,36,269038,1,0,0:0:0:0:
21,219,269145,6,0,L|164:233,1,108.749992400408,2|0,0:3|0:0,0:0:0:0:
229,187,269574,54,0,L|287:168,1,47.1249945496324,2|0,0:0|0:0,0:0:0:0:
346,317,269788,5,0,0:0:0:0:
392,151,269895,1,0,0:0:0:0:
453,349,270002,54,0,L|466:286,1,57.9999959468842,8|0,0:1|0:0,0:0:0:0:
289,272,270217,6,0,L|276:209,1,57.9999959468842,0|0,0:0|0:0,0:0:0:0:
411,126,270431,54,0,L|424:63,1,57.9999959468842,2|0,0:0|0:0,0:0:0:0:
210,91,270645,5,0,0:0:0:0:
232,97,270752,1,0,0:0:0:0:
57,180,270860,54,0,L|251:161,1,173.999987840653,2|0,0:3|0:0,0:0:0:0:
263,19,271288,6,0,L|349:37,1,47.1249945496324,2|0,0:0|0:0,0:0:0:0:
265,248,271502,53,0,0:0:0:0:
318,124,271610,1,0,0:0:0:0:
110,198,271717,6,0,L|57:149,1,57.9999959468842,8|0,0:1|0:0,0:0:0:0:
194,100,271931,54,0,L|172:31,1,57.9999959468842,2|0,0:3|0:0,0:0:0:0:
315,57,272145,6,0,L|330:-13,1,57.9999959468842,0|0,0:0|0:0,0:0:0:0:
441,80,272360,54,2,L|477:211,1,108.749996548891,0|0,0:0|0:0,0:0:0:0:
399,300,272574,6,0,L|452:251,1,57.9999959468842,2|0,0:3|0:0,0:0:0:0:
315,202,272788,54,0,L|336:133,1,57.9999959468842,0|0,0:0|0:0,0:0:0:0:
194,159,273002,6,0,L|178:88,1,57.9999959468842,2|0,0:0|0:0,0:0:0:0:
68,182,273217,53,2,0:3:0:0:
58,216,273288,5,2,0:3:0:0:
48,251,273360,53,2,0:3:0:0:
39,286,273431,5,8,0:1:0:0:
387,328,274288,53,6,0:3:0:0:
433,296,274395,1,0,0:0:0:0:
410,246,274502,1,0,0:0:0:0:
356,259,274609,1,0,0:0:0:0:
250,286,274717,5,2,0:0:0:0:
203,254,274824,1,0,0:0:0:0:
226,204,274931,1,0,0:0:0:0:
280,217,275038,1,0,0:0:0:0:
460,121,275145,53,8,0:1:0:0:
399,116,275252,1,0,0:0:0:0:
339,111,275359,1,0,0:0:0:0:
279,107,275466,1,0,0:0:0:0:
170,312,275574,5,2,0:3:0:0:
194,270,275681,1,0,0:0:0:0:
233,242,275788,1,0,0:0:0:0:
280,231,275895,1,0,0:0:0:0:
96,250,276002,53,2,0:3:0:0:
120,209,276109,1,0,0:0:0:0:
159,181,276216,1,0,0:0:0:0:
206,170,276324,1,0,0:0:0:0:
280,231,276431,5,2,0:0:0:0:
292,185,276538,1,0,0:0:0:0:
284,137,276645,1,0,0:0:0:0:
258,96,276752,1,0,0:0:0:0:
352,73,276860,54,0,L|363:114,1,24.1666649778684,8|0,0:1|0:0,0:0:0:0:
410,152,277002,2,0,L|399:193,1,24.1666649778684,0|0,0:0|0:0,0:0:0:0:
352,231,277145,2,0,L|363:272,1,24.1666649778684,0|0,0:0|0:0,0:0:0:0:
191,159,277288,6,0,L|180:200,1,24.1666649778684
133,238,277430,2,0,L|144:279,1,24.1666649778684,0|0,0:0|0:0,0:0:0:0:
191,317,277573,2,0,L|180:358,1,24.1666649778684,0|0,0:0|0:0,0:0:0:0:
32,164,277717,53,6,0:3:0:0:
100,141,277824,1,0,0:0:0:0:
172,141,277931,1,0,0:0:0:0:
241,163,278038,1,0,0:0:0:0:
404,228,278145,5,2,0:0:0:0:
332,223,278252,1,0,0:0:0:0:
262,242,278359,1,0,0:0:0:0:
201,281,278466,1,0,0:0:0:0:
11,259,278574,53,8,0:1:0:0:
40,268,278681,1,0,0:0:0:0:
49,137,278788,6,0,L|226:55,1,181.249987334013,2|0,0:3|0:0,0:0:0:0:
319,267,279431,53,2,0:3:0:0:
295,256,279538,1,0,0:0:0:0:
272,245,279645,1,0,0:0:0:0:
248,234,279752,1,0,0:0:0:0:
225,223,279859,1,0,0:0:0:0:
201,212,279966,1,0,0:0:0:0:
178,201,280073,1,0,0:0:0:0:
154,190,280180,1,0,0:0:0:0:
448,191,280288,21,8,0:1:0:0:
461,217,281217,6,0,B|478:154|430:81|386:70|386:70|363:76|337:84|275:72,1,289.999979734421,2|0,0:0|0:0,0:0:0:0:
208,56,283002,6,0,B|185:125|199:205|263:257|263:257|168:188|69:207|69:207|70:241|94:302|154:352|281:363|329:341|356:325|356:325|340:311|300:313,1,833.74994173646,2|0,0:0|0:0,0:0:0:0:
338,243,288002,38,0,B|370:222|415:217|466:234|466:234|469:186|441:117|380:97,1,302.083312223355,2|0,0:0|0:0,0:0:0:0:
334,158,289860,6,0,B|166:210|110:102|241:-4|316:67|318:224|223:277|223:277|185:241|126:192|54:197|54:197|34:268|94:310|156:332,1,845.833274225392,2|0,0:0|0:0,0:0:0:0:
236,351,294931,6,0,B|270:343|324:311|367:256|367:256|413:247|452:289|447:326,1,277.916647245486,2|0,0:0|0:0,0:0:0:0:
498,254,296645,38,0,B|513:137|451:58|311:-17|188:96|188:96|218:126|268:128|311:133|311:133|282:162|279:197|292:231|292:231|226:203|129:246,1,857.916606714329,2|0,0:0|0:0,0:0:0:0:
80,286,301788,6,0,B|131:355|239:394|349:374|386:341|386:341|346:302|346:236|373:217|373:217|424:231|428:288,1,567.916626979908,2|0,0:0|0:0,0:0:0:0:
476,213,305217,6,0,P|452:172|241:112,1,277.916647245487,2|0,0:0|0:0,0:0:0:0:
245,110,308717,38,0,B|206:232|105:332|105:332|163:345|229:327|252:306,1,410.833304623763,2|2,0:0|0:0,0:0:0:0:
320,76,311931,2,0,B|356:81|404:68|404:68|388:99|346:175|347:307|462:342|567:224|510:77|314:157|274:235,1,592.083291957776,2|0,0:0|0:0,0:0:0:0:
231,317,315574,6,0,B|164:276|144:207|135:153|187:79|187:79|138:62|90:86|58:118,1,410.833304623763,2|2,0:0|0:0,0:0:0:0:
389,194,318788,2,0,B|399:225|447:252|447:252|391:294|322:285|302:214|299:178|327:109|327:109|267:138|184:154|132:97|169:20|196:49,1,592.083291957774,2|0,0:0|0:0,0:0:0:0:
239,199,322431,6,0,B|199:199|80:150|55:30|55:30|29:97|40:176,1,410.833304623763,2|2,0:0|0:0,0:0:0:0:
114,250,325645,2,0,B|134:258|159:257|193:233|193:233|212:241|234:258|305:247|328:159|249:83|241:168|241:168|285:243|326:252|326:252|355:214|390:140|432:317|341:345|292:315|292:315|267:302|235:313|219:336|219:336|197:359|159:354|147:325|88:338,1,882.083271692197,2|2,0:0|0:3,0:0:0:0:
