osu file format v14

[General]
AudioFilename: audio.ogg
AudioLeadIn: 0
PreviewTime: 110165
Countdown: 0
SampleSet: Soft
StackLeniency: 0.7
Mode: 0
LetterboxInBreaks: 0
WidescreenStoryboard: 1

[Editor]
Bookmarks: 16774,110247,130458,145616
DistanceSpacing: 1.1
BeatDivisor: 8
GridSize: 16
TimelineZoom: 1.9

[Metadata]
Title:Ticking Away
TitleUnicode:Ticking Away
Artist:Grabbitz & bbno$
ArtistUnicode:Grabbitz & bbno$
Creator:AirinCat
Version:Normal
Source:VALORANT
Tags:fuju kyouren kittyadventure gokugohan12468 vct championship 2023 riot games electronic pop english edm tour​ tournament tourney video game bbnomula bb mula baby no money bbnomoney hip hop hiphop rap hip-hop collab collaboration
BeatmapID:4365302
BeatmapSetID:2037388

[Difficulty]
HPDrainRate:3
CircleSize:3.4
OverallDifficulty:4
ApproachRate:6
SliderMultiplier:1.4
SliderTickRate:1

[Events]
//Background and Video events
0,0,"fdsfdsfdfdseenshot.jpg",0,0
Video,0,"tick.mp4"
//Break Periods
2,90241,96570
2,130661,144570
//Storyboard Layer 0 (Background)
//Storyboard Layer 1 (Fail)
//Storyboard Layer 2 (Pass)
//Storyboard Layer 3 (Foreground)
//Storyboard Layer 4 (Overlay)
//Storyboard Sound Samples

[TimingPoints]
6673,631.578947368421,4,2,2,30,1,0
6673,-76.9230769230769,4,2,2,30,0,0
15515,-76.9230769230769,4,2,2,40,0,0
16146,-76.9230769230769,4,2,2,50,0,0
16778,-76.9230769230769,4,3,1,50,0,0
36988,-76.9230769230769,4,2,1,40,0,0
42041,-76.9230769230769,4,2,1,50,0,0
46462,-76.9230769230769,4,2,1,70,0,0
47094,-76.9230769230769,4,3,1,70,0,0
47725,-76.9230769230769,4,3,1,70,0,0
48673,-76.9230769230769,4,3,1,70,0,0
57199,-76.9230769230769,4,3,1,70,0,0
57830,-76.9230769230769,4,3,1,70,0,0
69830,-100,4,2,1,50,0,0
72357,-83.3333333333333,4,3,1,40,0,0
80567,-71.4285714285714,4,2,1,60,0,0
83094,-71.4285714285714,4,2,1,60,0,0
85462,-71.4285714285714,4,2,1,60,0,0
87515,-83.3333333333333,4,2,1,60,0,0
87594,-83.3333333333333,4,2,2,10,0,0
87830,-83.3333333333333,4,2,1,20,0,0
88146,-83.3333333333333,4,2,2,30,0,0
88462,-83.3333333333333,4,2,1,40,0,0
88778,-83.3333333333333,4,2,2,60,0,0
89094,-83.3333333333333,4,2,1,70,0,0
90041,-166.666666666667,4,2,1,30,0,0
96988,-142.857142857143,4,2,1,40,0,0
97620,-100,4,2,1,50,0,0
98251,-95.2380952380952,4,2,1,50,0,0
98883,-90.9090909090909,4,2,1,50,0,0
99515,-100,4,2,1,40,0,0
100146,-76.9230769230769,4,3,1,70,0,0
100778,-76.9230769230769,4,3,1,70,0,0
110251,-76.9230769230769,4,3,1,70,0,0
110883,-76.9230769230769,4,3,1,70,0,0
114673,-76.9230769230769,4,3,1,70,0,0
115304,-76.9230769230769,4,3,1,70,0,0
117199,-76.9230769230769,4,3,1,70,0,0
117830,-76.9230769230769,4,3,1,70,0,0
120357,-76.9230769230769,4,3,1,70,0,0
120988,-76.9230769230769,4,3,1,70,0,0
125409,-76.9230769230769,4,3,1,70,0,0
127936,-76.9230769230769,4,3,1,70,0,0
129830,-76.9230769230769,4,3,1,60,0,0
157620,-76.9230769230769,4,2,1,70,0,0
158251,-76.9230769230769,4,3,1,70,0,1
158883,-76.9230769230769,4,3,1,70,0,1
168357,-76.9230769230769,4,3,1,70,0,1
168988,-76.9230769230769,4,3,1,70,0,1
177830,-76.9230769230769,4,3,1,70,0,0
178462,-76.9230769230769,4,3,1,70,0,1
178936,-76.9230769230769,4,3,1,70,0,0
183515,-76.9230769230769,4,3,1,70,0,0
185409,-76.9230769230769,4,3,1,70,0,0
186041,-90.9090909090909,4,2,1,50,0,0

[Colours]
Combo1 : 240,85,85
Combo2 : 159,87,240
Combo3 : 219,112,241

[HitObjects]
0,292,16778,6,0,L|94:313,1,90.9999958343508,0|0,1:2|0:2,0:2:0:0:
182,277,17409,1,10,0:2:0:0:
248,351,17725,1,2,0:2:0:0:
334,300,18041,2,0,L|356:202,1,90.9999958343508,2|0,1:2|0:2,0:2:0:0:
332,171,18515,1,0,0:2:0:0:
332,171,18673,1,10,0:2:0:0:
399,97,18988,2,0,P|442:108|503:123,2,90.9999958343508,2|0|0,0:2|1:2|0:2,0:2:0:0:
325,28,19936,6,0,P|281:33|224:40,1,90.9999958343508,8|0,0:2|0:2,0:2:0:0:
150,93,20567,1,0,1:2:0:0:
60,47,20883,1,0,0:0:0:0:
11,134,21199,1,10,0:2:0:0:
90,195,21515,2,0,P|133:202|183:218,1,90.9999958343508,2|0,0:2|1:2,0:2:0:0:
252,148,22146,2,0,P|304:139|357:126,2,90.9999958343508,2|8|0,0:2|0:2|0:2,0:2:0:0:
178,216,23094,5,0,1:2:0:0:
221,305,23409,1,2,0:2:0:0:
319,323,23725,1,10,0:2:0:0:
405,272,24041,2,0,P|415:223|418:173,1,90.9999958343508,2|0,0:2|1:2,0:2:0:0:
324,146,24673,2,0,P|316:185|310:235,1,90.9999958343508,2|8,0:2|0:2,0:2:0:0:
223,287,25304,2,0,P|176:274|123:269,1,90.9999958343508,2|0,0:2|1:2,0:2:0:0:
76,187,25936,2,0,P|51:183|28:176,1,45.4999979171754,2|0,0:2|0:2,0:0:0:0:
5,134,26251,1,10,0:2:0:0:
65,56,26567,5,8,0:1:0:0:
65,56,26725,1,8,0:1:0:0:
65,56,26883,2,0,P|104:68|168:78,1,90.9999958343508,0|2,1:2|0:2,0:2:0:0:
245,116,27515,1,10,0:2:0:0:
312,42,27830,1,2,0:2:0:0:
409,65,28146,2,0,P|423:105|431:161,1,90.9999958343508,2|2,1:2|0:2,0:2:0:0:
411,201,28620,1,0,0:2:0:0:
411,201,28778,1,10,0:2:0:0:
356,284,29094,2,0,P|362:328|377:371,2,90.9999958343508,2|0|0,0:2|1:2|0:2,0:2:0:0:
261,250,30041,6,0,P|218:253|159:270,1,90.9999958343508,8|0,0:2|0:2,0:2:0:0:
139,304,30515,1,0,0:2:0:0:
139,304,30673,1,0,1:2:0:0:
43,276,30988,1,2,0:2:0:0:
11,180,31304,1,10,0:2:0:0:
72,100,31620,2,0,P|120:87|168:82,1,90.9999958343508,2|0,0:2|1:2,0:2:0:0:
217,164,32251,6,0,P|265:171|323:186,1,90.9999958343508,2|8,0:2|0:2,0:2:0:0:
369,102,32883,2,0,P|392:99|423:91,1,45.4999979171754,0|0,0:2|0:2,0:0:0:0:
462,108,33199,1,0,1:2:0:0:
507,197,33515,1,2,0:2:0:0:
435,266,33830,1,10,0:2:0:0:
339,237,34146,2,0,P|297:243|236:263,1,90.9999958343508,2|0,0:2|1:2,0:2:0:0:
161,209,34778,5,2,0:2:0:0:
212,122,35094,1,10,0:2:0:0:
144,48,35409,2,0,P|108:40|51:37,1,90.9999958343508,2|0,0:2|1:2,0:2:0:0:
14,129,36041,2,0,P|9:149|6:180,1,45.4999979171754,2|2,0:2|0:2,0:0:0:0:
34,215,36357,1,10,0:2:0:0:
33,322,36673,5,8,0:1:0:0:
33,322,36830,1,8,0:1:0:0:
33,322,36988,2,0,P|104:343|208:289,2,181.999991668702,2|2|2,1:2|1:2|1:2,0:2:0:0:
80,179,38725,2,0,P|68:123|61:70,2,90.9999958343508,2|2|2,0:2|0:2|0:2,0:2:0:0:
126,199,39515,1,2,1:2:0:0:
294,90,40146,6,0,P|382:88|448:148,1,181.999991668702,2|2,1:2|1:2,0:0:0:0:
324,233,41251,2,0,P|313:273|305:327,2,90.9999958343508,2|2|2,0:2|0:2|0:2,0:2:0:0:
301,188,42041,6,0,B|260:164|260:164|201:175,1,90.9999958343508,8|8,1:1|0:1,0:0:0:0:
133,228,42673,1,8,1:1:0:0:
48,174,42988,1,8,0:1:0:0:
61,74,43304,2,0,L|111:51,1,45.4999979171754,8|8,1:1|0:1,0:0:0:0:
143,25,43620,2,0,L|195:39,1,45.4999979171754,8|8,0:1|0:1,0:0:0:0:
226,68,43936,2,0,L|282:54,1,45.4999979171754,8|8,1:1|0:1,0:0:0:0:
316,37,44251,2,0,L|373:52,1,45.4999979171754,8|8,0:1|0:1,0:0:0:0:
259,384,46462,5,12,0:2:0:0:
417,261,47094,6,0,B|425:198|451:189|457:121,1,136.499993751526,4|0,1:1|0:2,0:2:0:0:
444,82,47725,2,0,P|396:75|345:53,1,90.9999958343508,10|2,0:2|0:2,0:2:0:0:
275,118,48357,2,0,P|227:123|176:139,1,90.9999958343508,2|2,1:2|0:2,0:2:0:0:
141,126,48830,1,0,0:2:0:0:
141,126,48988,1,10,0:2:0:0:
54,176,49304,6,0,B|44:224|44:224|67:269,1,90.9999958343508,2|0,0:1|1:2,0:0:0:0:
147,315,49936,2,0,P|171:307|199:303,1,45.4999979171754,0|0,0:2|0:2,0:0:0:0:
226,268,50251,2,0,P|286:270|323:287,1,90.9999958343508,10|2,0:2|0:2,0:2:0:0:
379,357,50883,1,2,1:2:0:0:
469,314,51199,1,2,0:2:0:0:
449,215,51515,2,0,P|456:187|468:164,1,45.4999979171754,10|0,0:2|0:2,0:0:0:0:
443,138,51830,5,2,0:2:0:0:
443,138,51988,1,2,0:2:0:0:
443,138,52146,2,0,P|355:125|282:176,1,181.999991668702,0|8,1:2|0:2,0:2:0:0:
294,276,53094,1,2,0:2:0:0:
218,341,53409,2,0,P|179:324|115:316,1,90.9999958343508,2|2,1:2|0:2,0:2:0:0:
87,334,53883,1,0,0:2:0:0:
87,334,54041,1,10,0:2:0:0:
15,263,54357,6,0,P|35:215|45:166,1,90.9999958343508,2|0,0:2|1:2,0:2:0:0:
116,113,54988,2,0,P|114:83|108:58,1,45.4999979171754,2|2,0:2|0:2,0:0:0:0:
134,23,55304,1,10,0:2:0:0:
223,67,55620,2,0,P|270:64|322:45,1,90.9999958343508,2|2,0:2|1:2,0:2:0:0:
386,116,56251,1,2,0:2:0:0:
338,204,56567,1,10,0:2:0:0:
427,269,56883,5,8,0:1:0:0:
427,269,57041,1,8,0:1:0:0:
427,269,57199,2,0,P|491:207|492:119,1,181.999991668702,4|8,1:1|0:2,0:2:0:0:
441,32,58146,1,2,0:2:0:0:
342,15,58462,2,0,P|297:29|246:33,1,90.9999958343508,2|2,1:2|0:2,0:2:0:0:
207,36,58936,1,0,0:2:0:0:
207,36,59094,1,10,0:2:0:0:
208,135,59409,6,0,B|228:178|228:178|219:239,1,90.9999958343508,2|0,0:1|1:2,0:0:0:0:
142,283,60041,2,0,L|88:291,1,45.4999979171754,0|2,0:2|0:2,0:0:0:0:
49,272,60357,2,0,B|31:235|31:235|43:174,1,90.9999958343508,10|2,0:2|0:2,0:2:0:0:
76,92,60988,1,2,1:2:0:0:
172,64,61304,1,2,0:2:0:0:
243,133,61620,2,0,L|295:143,1,45.4999979171754,10|0,0:2|0:2,0:0:0:0:
332,183,61936,5,2,0:2:0:0:
332,183,62094,1,2,0:2:0:0:
332,183,62251,2,0,P|415:151|498:183,1,181.999991668702,0|8,1:2|0:2,0:2:0:0:
497,292,63199,1,2,0:2:0:0:
411,344,63515,2,0,P|352:330|318:320,1,90.9999958343508,2|2,1:2|0:2,0:2:0:0:
239,265,64146,1,10,0:2:0:0:
158,324,64462,1,2,0:2:0:0:
67,281,64778,6,0,B|42:241|42:241|51:185,1,90.9999958343508,0|8,1:2|0:1,0:0:0:0:
79,159,65251,1,8,0:1:0:0:
79,159,65409,1,0,1:2:0:0:
173,126,65725,2,0,B|179:82|179:82|154:42,1,90.9999958343508,8|0,0:1|1:2,0:0:0:0:
103,13,66199,1,8,0:1:0:0:
103,13,66357,2,0,L|46:23,2,45.4999979171754,8|8|4,0:1|0:1|1:2,0:0:0:0:
256,192,67304,12,8,69199,0:2:0:0:
79,235,69830,6,2,B|0:227|11:91|166:62|281:88|305:247|210:259|187:212,1,420,2|12,1:1|0:2,0:1:0:0:
321,86,72357,6,0,P|360:99|402:106,1,83.9999974365235,0|0,1:2|0:2,0:2:0:0:
463,175,72988,2,0,L|516:186,2,41.9999987182618,0|0|0,1:2|0:2|0:2,0:0:0:0:
384,224,73620,2,0,L|373:276,1,41.9999987182618,0|0,1:0|0:0,0:0:0:0:
407,298,73936,2,0,L|391:349,1,41.9999987182618
351,355,74251,2,0,L|296:363,1,41.9999987182618,0|0,1:2|0:2,0:0:0:0:
272,332,74567,2,0,L|175:343,1,83.9999974365235,0|0,0:2|1:2,0:0:0:0:
103,304,75199,5,2,0:3:0:0:
46,230,75515,1,0,1:2:0:0:
75,142,75830,1,2,0:3:0:0:
146,83,76146,2,0,L|236:100,1,83.9999974365235,0|2,1:2|0:3,0:2:0:0:
266,133,76620,1,0,0:2:0:0:
266,133,76778,1,0,1:2:0:0:
331,67,77094,1,2,0:3:0:0:
375,147,77409,6,0,L|357:241,1,83.9999974365235,0|2,1:2|0:3,0:2:0:0:
324,259,77883,1,0,0:2:0:0:
324,259,78041,1,0,1:2:0:0:
360,344,78357,1,2,0:3:0:0:
450,362,78673,1,0,1:2:0:0:
508,290,78988,2,0,L|500:235,1,41.9999987182618,2|0,0:3|0:2,0:0:0:0:
479,207,79304,1,12,0:2:0:0:
333,320,79936,6,0,B|267:320|278:345|206:352,1,125.999996154785,2|0,1:1|0:0,0:2:0:0:
166,321,80567,6,0,P|159:267|141:220,1,97.9999970092774,8|2,0:2|0:3,0:2:0:0:
96,214,81041,1,2,0:2:0:0:
96,214,81199,1,2,1:2:0:0:
33,126,81515,2,0,P|41:97|52:76,1,48.9999985046387,2|2,0:3|0:2,0:0:0:0:
95,51,81830,1,10,0:2:0:0:
197,84,82146,1,2,0:3:0:0:
298,119,82462,2,0,B|374:108|360:79|447:74,1,146.999995513916,2|0,1:1|0:2,0:2:0:0:
484,102,83094,6,0,P|489:153|507:205,1,97.9999970092774,10|2,0:2|0:3,0:2:0:0:
470,240,83567,1,2,0:2:0:0:
470,240,83725,1,2,1:2:0:0:
416,336,84041,1,2,0:3:0:0:
416,336,84199,1,2,0:2:0:0:
416,336,84357,1,10,0:2:0:0:
314,298,84673,1,2,0:3:0:0:
215,255,84988,2,0,B|146:237|129:272|58:250,1,146.999995513916,2|0,1:1|0:2,0:2:0:0:
17,269,85620,6,0,P|16:218|1:171,1,97.9999970092774,10|2,0:2|0:3,0:2:0:0:
46,79,86251,1,2,1:2:0:0:
46,79,86409,1,2,0:2:0:0:
46,79,86567,1,2,0:3:0:0:
148,112,86883,2,0,B|223:113|213:81|286:69,1,146.999995513916,10|0,0:2|0:2,0:2:0:0:
331,80,87515,5,2,1:1:0:0:
256,192,87594,12,2,89409,0:2:0:0:
168,123,90041,5,4,1:2:0:0:
24,351,97620,6,0,L|125:325,1,105,2|0,1:2|0:2,0:2:0:0:
155,298,98251,2,0,L|273:324,1,110.249996635437,2|0,1:2|0:2,0:2:0:0:
293,351,98883,2,0,L|419:326,1,115.50000352478,2|0,1:2|0:2,0:2:0:0:
421,293,99515,2,0,L|498:317,1,70,2|2,0:2|0:2,0:2:0:0:
482,213,100146,6,0,P|417:153|330:167,1,181.999991668702,4|8,1:1|0:2,0:2:0:0:
258,238,101094,1,2,0:2:0:0:
258,337,101409,1,2,1:2:0:0:
162,367,101725,1,2,0:2:0:0:
66,338,102041,2,0,P|60:305|54:292,1,45.4999979171754,10|0,0:2|0:2,0:2:0:0:
36,247,102357,2,0,P|81:239|137:217,1,90.9999958343508,2|0,0:1|1:2,0:0:0:0:
164,132,102988,6,0,P|152:104|147:80,1,45.4999979171754,0|2,0:2|0:2,0:0:0:0:
166,42,103304,2,0,P|220:32|270:31,1,90.9999958343508,10|2,0:2|0:2,0:2:0:0:
342,80,103936,1,2,1:2:0:0:
301,171,104251,1,2,0:2:0:0:
375,237,104567,2,0,P|400:229|429:221,1,45.4999979171754,10|0,0:2|0:2,0:0:0:0:
446,185,104883,5,2,0:2:0:0:
446,185,105041,1,2,0:2:0:0:
446,185,105199,2,0,P|509:246|502:334,1,181.999991668702,0|8,1:2|0:2,0:2:0:0:
413,382,106146,1,2,0:2:0:0:
333,320,106462,2,0,P|288:326|237:342,1,90.9999958343508,2|2,1:2|0:2,0:2:0:0:
154,293,107094,2,0,B|128:253|128:253|144:197,1,90.9999958343508,10|2,0:2|0:2,0:2:0:0:
178,179,107567,1,0,0:0:0:0:
178,179,107725,6,0,P|230:172|279:160,1,90.9999958343508,0|8,1:2|0:1,0:0:0:0:
359,203,108357,2,0,P|387:196|464:180,1,90.9999958343508,2|8,1:2|0:1,0:2:0:0:
482,147,108830,1,8,0:1:0:0:
482,147,108988,2,0,L|471:92,1,45.4999979171754,0|8,1:2|0:1,0:0:0:0:
440,63,109304,2,0,L|449:7,2,45.4999979171754,8|8|12,0:1|0:1|0:2,0:0:0:0:
240,82,110251,6,0,B|147:79|157:116|64:121,1,181.999991668702,6|8,1:1|0:2,0:2:0:0:
6,204,111199,2,0,P|22:257|24:303,1,90.9999958343508,2|0,0:2|1:2,0:2:0:0:
96,362,111830,1,2,0:2:0:0:
184,314,112146,2,0,P|224:295|269:301,1,90.9999958343508,10|2,0:2|0:2,0:2:0:0:
363,335,112778,6,0,P|407:337|449:319,1,90.9999958343508,2|2,1:2|0:2,0:0:0:0:
486,285,113251,1,2,0:2:0:0:
486,285,113409,1,8,0:2:0:0:
458,188,113725,2,0,P|443:139|444:80,2,90.9999958343508,2|0|0,0:2|1:2|0:2,0:2:0:0:
376,246,114673,2,0,B|300:250|315:271|227:281,1,136.499993751526,10|0,0:2|0:2,0:2:0:0:
199,300,115304,6,0,P|116:270|85:187,1,181.999991668702,2|8,1:2|0:2,0:2:0:0:
81,87,116251,1,2,0:2:0:0:
175,53,116567,1,2,1:2:0:0:
245,126,116883,1,2,0:2:0:0:
328,70,117199,2,0,P|371:80|439:85,1,90.9999958343508,10|0,0:2|0:0,0:2:0:0:
468,106,117673,1,2,0:2:0:0:
468,106,117830,6,0,B|458:180|444:166|433:257,1,136.499993751526,2|0,1:2|0:2,0:2:0:0:
469,275,118462,1,10,0:2:0:0:
391,338,118778,1,2,0:2:0:0:
295,308,119094,2,0,P|272:260|273:215,1,90.9999958343508,2|2,1:2|0:2,0:0:0:0:
294,180,119567,1,2,0:2:0:0:
294,180,119725,1,10,0:2:0:0:
244,93,120041,1,2,0:2:0:0:
144,85,120357,6,0,P|67:152|71:241,1,181.999991668702,4|8,1:1|0:2,0:2:0:0:
128,305,121304,2,0,P|187:291|233:285,1,90.9999958343508,2|0,0:2|1:2,0:2:0:0:
308,327,121936,1,2,0:2:0:0:
390,270,122251,2,0,P|386:224|371:169,1,90.9999958343508,10|2,0:2|0:2,0:2:0:0:
394,82,122883,6,0,P|341:83|297:98,1,90.9999958343508,2|2,1:2|0:2,0:0:0:0:
266,126,123357,1,2,0:2:0:0:
266,126,123515,1,8,0:2:0:0:
170,155,123830,2,0,P|128:150|72:132,2,90.9999958343508,2|0|0,0:2|1:2|0:2,0:2:0:0:
228,236,124778,2,0,B|218:307|194:299|186:387,1,136.499993751526,10|0,0:2|0:2,0:2:0:0:
138,368,125409,6,0,P|52:349|19:268,1,181.999991668702,2|8,1:2|0:2,0:2:0:0:
41,170,126357,1,2,0:2:0:0:
135,135,126673,1,2,1:2:0:0:
206,204,126988,1,2,0:2:0:0:
301,174,127304,2,0,P|318:130|318:77,1,90.9999958343508,10|0,0:2|0:0,0:2:0:0:
295,48,127778,1,2,0:2:0:0:
295,48,127936,6,0,P|254:45|206:28,1,90.9999958343508,0|8,1:2|0:1,0:0:0:0:
113,63,128567,2,0,P|95:107|85:165,1,90.9999958343508,0|8,1:2|0:1,0:2:0:0:
62,195,129041,1,8,0:1:0:0:
62,195,129199,2,0,P|72:220|79:254,1,45.4999979171754,0|8,1:2|0:1,0:0:0:0:
122,259,129515,2,0,P|118:277|108:308,1,45.4999979171754,8|8,0:1|0:1,0:0:0:0:
64,323,129830,6,0,B|162:337|138:352|247:358,1,181.999991668702,12|4,1:1|0:3,0:2:0:0:
54,175,145620,6,0,L|141:198,1,90.9999958343508,0|0,1:2|0:2,0:2:0:0:
232,155,146251,2,0,L|322:132,1,90.9999958343508,0|0,1:2|0:2,0:2:0:0:
415,165,146883,1,0,1:2:0:0:
464,252,147199,1,0,0:2:0:0:
409,335,147515,1,0,1:2:0:0:
310,348,147830,1,0,0:2:0:0:
226,293,148146,6,0,B|210:221|226:228|212:140,1,136.499993751526,0|0,1:2|0:2,0:0:0:0:
233,110,148778,1,0,1:2:0:0:
151,50,149094,2,0,P|101:56|48:69,1,90.9999958343508,0|0,0:2|1:2,0:0:0:0:
13,154,149725,1,2,0:2:0:0:
76,231,150041,1,2,1:2:0:0:
35,322,150357,6,0,P|79:332|143:339,1,90.9999958343508,2|0,0:2|1:2,0:2:0:0:
214,292,150988,2,0,P|222:242|225:189,1,90.9999958343508,0|0,0:2|1:2,0:0:0:0:
287,122,151620,2,0,P|280:95|278:66,2,45.4999979171754,0|0|0,0:2|0:2|1:2,0:0:0:0:
374,172,152251,1,2,0:2:0:0:
459,120,152567,1,2,1:2:0:0:
512,199,152883,2,0,L|500:258,1,45.4999979171754,2|0,0:2|0:2,0:2:0:0:
483,289,153199,6,0,L|385:266,1,90.9999958343508,0|2,1:2|0:2,0:0:0:0:
358,303,153673,1,0,0:2:0:0:
358,303,153830,2,0,L|270:322,1,90.9999958343508,0|2,1:2|0:2,0:0:0:0:
177,280,154462,2,0,B|154:240|154:240|161:184,1,90.9999958343508,0|2,1:2|0:2,0:0:0:0:
196,161,154936,1,0,0:2:0:0:
196,161,155094,2,0,B|242:156|242:156|289:191,1,90.9999958343508,0|2,1:2|0:2,0:0:0:0:
296,234,155567,1,0,0:2:0:0:
296,234,155725,5,0,1:2:0:0:
395,226,156041,1,0,0:2:0:0:
448,141,156357,2,0,L|435:84,1,45.4999979171754,0|0,1:0|3:0,0:0:0:0:
426,47,156673,2,0,L|374:19,1,45.4999979171754,0|0,3:0|3:2,0:0:0:0:
338,10,156988,2,0,L|293:20,1,45.4999979171754,0|0,1:2|0:2,0:0:0:0:
243,25,157304,2,0,L|223:72,1,45.4999979171754,0|0,0:2|0:2,0:0:0:0:
180,89,157620,2,0,L|209:192,1,90.9999958343508,12|0,0:2|0:0,0:2:0:0:
269,252,158251,6,0,B|200:271|221:293|148:326,1,136.499993751526,4|0,1:1|0:2,0:2:0:0:
104,330,158883,2,0,P|68:317|10:313,1,90.9999958343508,10|2,0:2|0:2,0:2:0:0:
33,213,159515,2,0,P|47:169|47:120,1,90.9999958343508,2|2,1:2|0:2,0:2:0:0:
95,104,159988,1,0,0:2:0:0:
95,104,160146,1,10,0:2:0:0:
163,177,160462,6,0,P|209:190|260:192,1,90.9999958343508,2|0,0:1|1:2,0:0:0:0:
324,122,161094,2,0,P|348:114|376:110,1,45.4999979171754,2|0,0:2|0:2,0:0:0:0:
416,123,161409,2,0,P|438:178|438:219,1,90.9999958343508,10|2,0:2|0:2,0:2:0:0:
415,306,162041,1,2,1:2:0:0:
316,285,162357,1,2,0:2:0:0:
247,358,162673,2,0,P|225:363|198:368,1,45.4999979171754,10|0,0:2|0:2,0:0:0:0:
161,366,162988,5,2,0:2:0:0:
161,366,163146,1,2,0:2:0:0:
161,366,163304,2,0,B|143:276|177:262|158:173,1,181.999991668702,0|8,1:2|0:2,0:2:0:0:
230,112,164252,1,2,0:2:0:0:
312,168,164567,2,0,P|357:167|401:156,1,90.9999958343508,2|2,1:2|0:2,0:2:0:0:
437,121,165041,1,0,0:2:0:0:
437,121,165199,1,10,0:2:0:0:
395,29,165515,6,0,P|349:28|306:42,1,90.9999958343508,2|0,0:2|1:2,0:0:0:0:
207,25,166146,2,0,P|211:47|212:70,1,45.4999979171754,2|0,0:2|0:2,0:0:0:0:
182,110,166462,1,10,0:2:0:0:
120,188,166778,2,0,P|73:185|21:166,1,90.9999958343508,2|0,0:2|1:2,0:0:0:0:
11,269,167409,1,2,0:2:0:0:
73,346,167725,1,10,0:2:0:0:
180,348,168041,5,8,0:1:0:0:
180,348,168199,1,8,0:1:0:0:
180,348,168357,2,0,P|244:286|245:198,1,181.999991668702,4|8,1:1|0:2,0:2:0:0:
176,125,169304,1,2,0:2:0:0:
242,49,169620,2,0,P|287:44|330:30,1,90.9999958343508,2|2,1:2|0:2,0:2:0:0:
382,49,170094,1,0,0:2:0:0:
382,49,170252,1,10,0:2:0:0:
453,118,170567,6,0,P|451:159|464:222,1,90.9999958343508,2|0,0:1|1:2,0:0:0:0:
398,287,171199,2,0,L|344:295,1,45.4999979171754,2|2,0:2|0:2,0:0:0:0:
307,273,171515,2,0,P|289:231|289:186,1,90.9999958343508,10|2,0:2|0:2,0:2:0:0:
337,98,172146,1,2,1:2:0:0:
248,50,172462,1,2,0:2:0:0:
169,112,172778,2,0,L|124:120,1,45.4999979171754,10|0,0:2|0:2,0:0:0:0:
91,98,173094,5,2,0:2:0:0:
91,98,173252,1,2,0:2:0:0:
91,98,173409,2,0,B|105:191|79:164|97:294,1,181.999991668702,0|8,1:2|0:2,0:2:0:0:
162,353,174357,1,2,0:2:0:0:
228,278,174673,1,2,1:2:0:0:
327,278,174988,1,2,0:2:0:0:
384,360,175304,1,10,0:2:0:0:
478,327,175620,2,0,P|484:301|486:269,1,45.4999979171754,2|0,0:2|0:0,0:2:0:0:
464,236,175936,6,0,B|456:190|456:190|484:141,1,90.9999958343508,0|8,1:2|0:1,0:0:0:0:
512,118,176409,1,8,0:1:0:0:
512,118,176567,1,2,1:1:0:0:
445,42,176883,2,0,L|390:52,1,45.4999979171754,8|8,0:1|0:1,0:0:0:0:
357,76,177199,2,0,L|297:65,1,45.4999979171754,2|8,1:1|0:1,0:0:0:0:
266,45,177515,2,0,L|209:60,1,45.4999979171754,8|8,0:1|0:1,0:0:0:0:
203,102,177830,2,0,B|221:152|221:152|204:184|204:184|215:250,1,136.499993751526,6|0,1:1|0:2,0:2:0:0:
221,279,178462,6,0,P|144:323|59:298,1,181.999991668702,4|8,1:1|0:2,0:2:0:0:
9,211,179409,2,0,P|24:156|32:105,1,90.9999958343508,2|0,0:2|1:2,0:2:0:0:
96,47,180041,1,2,0:2:0:0:
178,103,180357,1,10,0:2:0:0:
270,64,180673,1,2,0:2:0:0:
346,127,180988,6,0,P|386:137|453:128,1,90.9999958343508,2|2,1:2|0:2,0:0:0:0:
476,103,181462,1,2,0:2:0:0:
476,103,181620,1,8,0:2:0:0:
508,197,181936,2,0,P|494:239|483:304,2,90.9999958343508,2|0|0,0:2|1:2|0:2,0:2:0:0:
408,211,182883,2,0,P|387:215|346:218,1,45.4999979171754,10|0,0:2|0:0,0:2:0:0:
318,241,183199,2,0,P|289:235|267:226,1,45.4999979171754,0|0,0:0|0:2,0:0:0:0:
223,228,183515,6,0,P|196:143|237:64,1,181.999991668702,2|10,1:2|0:2,0:2:0:0:
327,21,184462,1,2,0:2:0:0:
418,62,184778,2,0,P|428:107|427:154,1,90.9999958343508,2|2,1:2|0:2,0:2:0:0:
471,184,185251,1,0,0:2:0:0:
471,184,185409,2,0,B|393:198|405:215|337:231,1,136.499993751526,10|0,0:2|0:2,0:2:0:0:
302,215,186041,6,0,B|224:209|246:189|134:183,1,154.000004699707,2|0,1:2|0:2,0:2:0:0:
20,290,187304,1,2,0:2:0:0:
62,363,187620,1,2,0:2:0:0:
146,365,187936,2,0,P|153:326|168:285,1,77.0000023498536,2|2,0:2|0:2,0:2:0:0:
104,232,188567,5,4,1:2:0:0:
