osu file format v14

[General]
AudioFilename: audio.ogg
AudioLeadIn: 0
PreviewTime: 110165
Countdown: 0
SampleSet: Soft
StackLeniency: 0.2
Mode: 0
LetterboxInBreaks: 0
WidescreenStoryboard: 1

[Editor]
Bookmarks: 16774,110247,130458,145616
DistanceSpacing: 0.3
BeatDivisor: 8
GridSize: 32
TimelineZoom: 1.9

[Metadata]
Title:Ticking Away
TitleUnicode:Ticking Away
Artist:Grabbitz & bbno$
ArtistUnicode:Grabbitz & bbno$
Creator:AirinCat
Version:Kyouren's Another
Source:VALORANT
Tags:fuju kyouren kittyadventure gokugohan12468 vct championship 2023 riot games electronic pop english edm tour​ tournament tourney video game bbnomula bb mula baby no money bbnomoney hip hop hiphop rap hip-hop collab collaboration
BeatmapID:4376736
BeatmapSetID:2037388

[Difficulty]
HPDrainRate:5
CircleSize:4.2
OverallDifficulty:8
ApproachRate:8.8
SliderMultiplier:2.2
SliderTickRate:1

[Events]
//Background and Video events
Video,0,"tick.mp4"
0,0,"fdsfdsfdfdseenshot.jpg",0,0
//Break Periods
2,131407,144671
//Storyboard Layer 0 (Background)
//Storyboard Layer 1 (Fail)
//Storyboard Layer 2 (Pass)
//Storyboard Layer 3 (Foreground)
//Storyboard Layer 4 (Overlay)
//Storyboard Sound Samples

[TimingPoints]
6673,631.578947368421,4,2,2,30,1,0
6673,-153.846153846153,4,2,2,30,0,0
15515,-153.846153846153,4,2,2,40,0,0
16146,-153.846153846153,4,2,2,50,0,0
16778,-100,4,3,1,50,0,0
36988,-153.846153846153,4,2,1,40,0,0
42041,-117.647058823529,4,2,1,50,0,0
44567,-1000,4,2,1,50,0,0
46462,-285.714285714284,4,2,1,70,0,0
47094,-80,4,3,1,70,0,1
47725,-90.9090909090909,4,3,1,70,0,1
48357,-76.9230769230769,4,3,1,70,0,1
48673,-117.647058823529,4,3,1,70,0,1
49304,-57.1428571428571,4,3,1,70,0,1
49620,-100,4,3,1,70,0,1
50251,-66.6666666666667,4,3,1,70,0,1
50567,-133.333333333333,4,3,1,70,0,1
51830,-66.6666666666667,4,3,1,70,0,1
52462,-100,4,3,1,70,0,1
52778,-66.6666666666667,4,3,1,70,0,1
53094,-133.333333333333,4,3,1,70,0,1
53409,-76.9230769230769,4,3,1,70,0,1
53725,-133.333333333333,4,3,1,70,0,1
54041,-66.6666666666667,4,3,1,70,0,1
54357,-133.333333333333,4,3,1,70,0,1
55304,-66.6666666666667,4,3,1,70,0,1
55620,-133.333333333333,4,3,1,70,0,1
56251,-90.9090909090909,4,3,1,70,0,1
56567,-71.4285714285714,4,3,1,70,0,0
57199,-100,4,3,1,70,0,1
57830,-80,4,3,1,70,0,1
58462,-68.9655172413793,4,3,1,70,0,1
58778,-105.263157894737,4,3,1,70,0,1
59094,-68.9655172413793,4,3,1,70,0,1
59409,-105.263157894737,4,3,1,70,0,1
59725,-76.9230769230769,4,3,1,70,0,1
60357,-66.6666666666667,4,3,1,70,0,1
60673,-111.111111111111,4,3,1,70,0,1
61936,-71.4285714285714,4,3,1,70,0,1
62567,-133.333333333333,4,3,1,70,0,1
62883,-71.4285714285714,4,3,1,70,0,1
63515,-71.4285714285714,4,3,1,70,0,1
63830,-111.111111111111,4,3,1,70,0,1
64146,-71.4285714285714,4,3,1,70,0,1
64462,-111.111111111111,4,3,1,70,0,1
66673,-66.6666666666667,4,3,1,70,0,1
66909,-66.6666666666667,4,3,1,5,0,1
66988,-133.333333333333,4,3,1,70,0,1
67304,-500,4,3,1,70,0,0
68883,-66.6666666666667,4,3,1,70,0,0
69830,-66.6666666666667,4,2,1,50,0,0
70186,-133.333333333333,4,2,1,50,0,0
72357,-133.333333333333,4,3,1,40,0,0
79936,-50,4,3,1,40,0,0
80567,-66.6666666666667,4,2,1,60,0,0
80883,-100,4,2,1,60,0,0
82462,-50,4,2,1,60,0,0
83094,-66.6666666666667,4,2,1,60,0,0
83725,-100,4,2,1,60,0,0
84988,-50,4,2,1,60,0,0
85304,-100,4,2,1,60,0,0
85619,-66.6666666666667,4,2,1,60,0,0
85935,-100,4,2,1,60,0,0
86883,-66.6666666666667,4,2,1,60,0,0
87199,-100,4,2,1,60,0,0
87515,-285.714285714284,4,2,1,60,0,0
87594,-285.714285714284,4,2,2,10,0,0
87830,-285.714285714284,4,2,1,20,0,0
88146,-285.714285714284,4,2,2,30,0,0
88462,-285.714285714284,4,2,1,40,0,0
88778,-285.714285714284,4,2,2,60,0,0
89094,-285.714285714284,4,2,1,70,0,0
90041,-153.846153846153,4,2,1,30,0,0
96988,-153.846153846153,4,2,1,40,0,0
97620,-117.647058823529,4,2,1,50,0,0
99515,-222.222222222221,4,2,1,40,0,0
100146,-100,4,3,1,70,0,1
100777,-80,4,3,1,70,0,1
101409,-68.9655172413793,4,3,1,70,0,1
101725,-105.263157894737,4,3,1,70,0,1
102041,-68.9655172413793,4,3,1,70,0,1
102356,-105.263157894737,4,3,1,70,0,1
102672,-76.9230769230769,4,3,1,70,0,1
103304,-66.6666666666667,4,3,1,70,0,1
103620,-111.111111111111,4,3,1,70,0,1
104883,-71.4285714285714,4,3,1,70,0,1
105514,-133.333333333333,4,3,1,70,0,1
105830,-71.4285714285714,4,3,1,70,0,1
106462,-71.4285714285714,4,3,1,70,0,1
106777,-111.111111111111,4,3,1,70,0,1
107093,-71.4285714285714,4,3,1,70,0,1
107409,-111.111111111111,4,3,1,70,0,1
109620,-66.6666666666667,4,3,1,70,0,0
109857,-66.6666666666667,4,3,1,5,0,0
109935,-133.333333333333,4,3,1,70,0,0
110251,-50,4,3,1,70,0,1
110883,-66.6666666666667,4,3,1,70,0,1
111199,-66.6666666666667,4,3,1,70,0,1
112778,-80,4,3,1,70,0,1
113725,-133.333333333333,4,3,1,70,0,1
114673,-66.6666666666667,4,3,1,70,0,1
115304,-86.9565217391304,4,3,1,70,0,1
116251,-100,4,3,1,70,0,1
117199,-76.9230769230769,4,3,1,70,0,1
117830,-105.263157894737,4,3,1,70,0,1
118462,-83.3333333333333,4,3,1,70,0,1
119094,-58.8235294117647,4,3,1,70,0,1
120278,-58.8235294117647,4,3,1,70,0,0
120357,-50,4,3,1,70,0,1
120988,-66.6666666666667,4,3,1,70,0,1
121304,-66.6666666666667,4,3,1,70,0,1
122883,-80,4,3,1,70,0,1
123830,-133.333333333333,4,3,1,70,0,1
124778,-74.0740740740741,4,3,1,70,0,1
125409,-86.9565217391304,4,3,1,70,0,1
126357,-100,4,3,1,70,0,1
127304,-76.9230769230769,4,3,1,70,0,1
127620,-100,4,3,1,70,0,1
127936,-66.6666666666667,4,3,1,70,0,1
129830,-86.9565217391304,4,3,1,60,0,1
130462,-86.9565217391304,4,3,1,60,0,0
145620,-111.111111111111,4,3,1,60,0,0
155725,-83.3333333333333,4,3,1,60,0,0
157620,-66.6666666666667,4,2,1,70,0,0
158251,-80,4,3,1,70,0,1
158883,-90.9090909090909,4,3,1,70,0,1
159515,-76.9230769230769,4,3,1,70,0,1
159830,-117.647058823529,4,3,1,70,0,1
160462,-57.1428571428571,4,3,1,70,0,1
160777,-100,4,3,1,70,0,1
161409,-66.6666666666667,4,3,1,70,0,1
161725,-133.333333333333,4,3,1,70,0,1
162988,-66.6666666666667,4,3,1,70,0,1
163620,-100,4,3,1,70,0,1
163936,-66.6666666666667,4,3,1,70,0,1
164251,-133.333333333333,4,3,1,70,0,1
164567,-76.9230769230769,4,3,1,70,0,1
164883,-133.333333333333,4,3,1,70,0,1
165199,-76.9230769230769,4,3,1,70,0,1
165515,-133.333333333333,4,3,1,70,0,1
166462,-66.6666666666667,4,3,1,70,0,1
166778,-133.333333333333,4,3,1,70,0,1
167409,-90.9090909090909,4,3,1,70,0,1
167725,-71.4285714285714,4,3,1,70,0,0
168357,-100,4,3,1,70,0,1
168988,-80,4,3,1,70,0,1
169620,-68.9655172413793,4,3,1,70,0,1
169936,-105.263157894737,4,3,1,70,0,1
170251,-68.9655172413793,4,3,1,70,0,1
170567,-105.263157894737,4,3,1,70,0,1
170883,-76.9230769230769,4,3,1,70,0,1
171515,-66.6666666666667,4,3,1,70,0,1
171830,-111.111111111111,4,3,1,70,0,1
173094,-71.4285714285714,4,3,1,70,0,1
173725,-133.333333333333,4,3,1,70,0,1
174041,-71.4285714285714,4,3,1,70,0,1
174672,-71.4285714285714,4,3,1,70,0,1
174987,-111.111111111111,4,3,1,70,0,1
175303,-71.4285714285714,4,3,1,70,0,1
175620,-111.111111111111,4,3,1,70,0,1
177830,-57.1428571428571,4,3,1,70,0,0
178146,-100,4,3,1,70,0,0
178462,-50,4,3,1,70,0,1
179094,-66.6666666666667,4,3,1,70,0,1
179410,-66.6666666666667,4,3,1,70,0,1
180988,-66.6666666666667,4,3,1,70,0,1
181936,-222.222222222221,4,3,1,70,0,1
182251,-153.846153846153,4,3,1,70,0,1
182883,-100,4,3,1,70,0,1
183515,-66.6666666666667,4,3,1,70,0,1
186041,-66.6666666666667,4,2,1,50,0,0
188567,-66.6666666666667,4,2,1,50,0,1
188646,-66.6666666666667,4,2,1,50,0,0

[Colours]
Combo1 : 240,85,85
Combo2 : 159,87,240
Combo3 : 219,112,241

[HitObjects]
0,0,6673,6,0,B|55:15|55:15|69:39|69:39|125:55,2,142.99999345398,0|0|0,1:2|1:2|1:2,0:2:0:0:
0,0,8251,1,0,0:2:0:0:
125,55,8567,1,0,1:2:0:0:
15,125,8883,1,0,0:2:0:0:
255,195,9199,6,0,B|336:180|304:159|387:145,2,142.99999345398,0|0|0,1:2|1:2|1:2,0:2:0:0:
405,335,11094,1,0,1:2:0:0:
200,370,11725,6,0,P|135:351|129:284,1,142.99999345398,0|0,1:2|1:2,0:2:0:0:
185,225,12673,2,0,B|215:233|215:233|223:239|223:239|252:247,1,71.4999967269899,0|0,0:2|1:2,0:2:0:0:
387,145,13620,1,0,1:2:0:0:
50,80,14251,6,0,B|132:58|104:80|190:54,1,142.99999345398,0|0,1:2|1:2,0:2:0:0:
190,54,15515,2,0,L|167:121,1,71.4999967269899,0|0,1:2|0:2,0:2:0:0:
255,5,16146,1,0,1:2:0:0:
255,244,16778,6,0,P|229:233|203:225,1,55,0|0,1:2|0:0,0:2:0:0:
360,190,17094,2,0,P|385:200|411:208,1,55,0|0,0:2|0:2,0:0:0:0:
255,5,17409,2,0,L|269:113,1,110,10|2,0:2|0:2,0:2:0:0:
400,335,18041,6,0,P|426:327|453:320,1,55,2|0,1:2|0:0,0:2:0:0:
325,295,18357,2,0,B|265:274|285:294|218:269,2,110,0|10|2,0:2|0:2|0:2,0:0:0:0:
240,365,19146,1,0,0:0:0:0:
100,300,19304,5,0,1:2:0:0:
50,245,19462,1,0,0:2:0:0:
55,170,19620,1,0,0:2:0:0:
112,118,19778,1,0,0:2:0:0:
255,190,19936,2,0,B|302:176|302:176|314:177|314:177|360:162,1,110,8|0,0:2|0:2,0:2:0:0:
255,15,20567,5,0,1:2:0:0:
307,73,20725,2,0,P|332:62|354:45,1,55,0|0,0:2|0:0,0:2:0:0:
200,120,21041,1,0,0:2:0:0:
120,40,21199,2,0,B|64:23|63:21|63:21|40:32|16:38,1,110,10|2,0:2|0:2,0:2:0:0:
255,190,21830,6,0,L|248:244,1,55,0|0,1:2|0:2,0:0:0:0:
175,355,22146,2,0,P|166:329|164:301,1,55,2|0,0:2|0:0,0:2:0:0:
310,300,22462,2,0,B|370:280|355:298|417:276,1,110,8|0,0:2|0:2,0:0:0:0:
255,190,23094,5,0,1:2:0:0:
314,138,23251,2,0,L|371:154,1,55,0|2,0:2|0:2,0:0:0:0:
175,185,23567,1,0,0:2:0:0:
215,40,23725,2,0,B|174:50|174:50|163:60|163:60|111:72,1,110,10|2,0:2|0:2,0:2:0:0:
360,10,24357,6,0,P|386:17|411:29,1,55,0|0,1:2|0:2,0:0:0:0:
472,118,24673,2,0,L|525:105,1,55,2|0,0:2|0:0,0:2:0:0:
314,138,24988,2,0,P|331:159|344:183,1,55,8|0,0:2|0:2,0:0:0:0:
430,250,25304,2,0,L|473:283,1,55,2|0,0:2|0:0,0:2:0:0:
255,235,25620,5,0,1:2:0:0:
220,305,25778,1,0,0:2:0:0:
155,350,25936,1,2,0:2:0:0:
78,362,26094,1,0,0:2:0:0:
10,190,26251,2,0,B|51:199|51:199|68:216|68:216|110:226,1,110,10|8,0:2|0:1,0:2:0:0:
220,150,26725,1,8,0:1:0:0:
120,65,26883,6,0,P|93:71|66:76,1,55,0|0,1:2|0:0,0:2:0:0:
250,15,27199,2,0,P|276:20|303:26,1,55,2|0,0:2|0:2,0:0:0:0:
220,150,27515,2,0,B|234:214|217:201|229:259,1,110,10|2,0:2|0:2,0:2:0:0:
420,350,28146,6,0,L|472:365,1,55,2|0,1:2|0:2,0:2:0:0:
350,295,28462,2,0,P|328:312|310:332,1,55,2|0,0:2|0:2,0:2:0:0:
495,210,28778,2,0,P|487:183|474:159,1,55,10|0,0:2|0:2,0:2:0:0:
300,230,29094,1,2,0:2:0:0:
95,75,29409,5,0,1:2:0:0:
15,195,29567,1,0,0:2:0:0:
25,120,29725,1,0,0:2:0:0:
70,255,29883,1,0,0:2:0:0:
235,180,30041,2,0,B|195:165|195:165|180:166|180:166|131:147,1,110,8|0,0:2|0:2,0:2:0:0:
365,75,30673,6,0,L|418:63,1,55,0|0,1:2|0:2,0:2:0:0:
290,40,30988,2,0,P|241:15|186:12,2,110,2|10|2,0:2|0:2|0:2,0:2:0:0:
235,180,31778,1,0,0:0:0:0:
420,190,31936,5,0,1:2:0:0:
485,235,32094,1,0,0:2:0:0:
495,315,32251,1,2,0:2:0:0:
450,380,32409,1,0,0:2:0:0:
255,325,32567,2,0,B|298:315|298:315|319:319|319:319|362:307,1,110,8|0,0:2|0:2,0:2:0:0:
80,365,33199,5,0,1:2:0:0:
170,265,33357,2,0,P|156:288|145:314,1,55,0|2,0:2|0:2,0:0:0:0:
25,240,33673,1,0,0:2:0:0:
70,170,33830,2,0,B|133:155|118:171|179:157,1,110,10|2,0:2|0:2,0:2:0:0:
320,95,34304,1,0,0:0:0:0:
200,10,34462,6,0,P|211:35|218:61,1,55,0|0,1:2|0:2,0:0:0:0:
350,210,34778,2,0,L|402:192,1,55,2|0,0:2|0:2,0:2:0:0:
265,165,35094,2,0,P|244:215|250:269,1,110,10|2,0:2|0:2,0:2:0:0:
200,341,35567,1,0,0:0:0:0:
400,380,35725,5,0,1:2:0:0:
490,270,35883,1,0,0:2:0:0:
467,343,36041,1,2,0:2:0:0:
455,200,36199,1,2,0:2:0:0:
265,165,36357,2,0,B|331:148|302:166|373:146,1,110,10|8,0:2|0:1,0:2:0:0:
270,30,36830,1,8,0:1:0:0:
140,110,36988,6,0,L|105:101,1,35.749998363495,2|0,1:2|0:0,0:2:0:0:
265,165,37304,2,0,L|300:174,1,35.749998363495,0|0,0:0|0:2,0:0:0:0:
100,275,37620,5,2,1:2:0:0:
170,245,37778,1,2,0:2:0:0:
230,290,37936,1,2,0:2:0:0:
160,320,38094,1,2,0:2:0:0:
355,235,38251,6,0,P|366:268|366:304,1,71.4999967269899,2|0,1:2|0:2,0:2:0:0:
318,366,38725,1,2,0:2:0:0:
318,366,38883,2,0,L|283:356,1,35.749998363495,0|2,1:2|0:2,0:0:0:0:
448,325,39199,2,0,L|482:315,1,35.749998363495,0|2,0:2|0:2,0:0:0:0:
355,235,39515,6,0,L|348:199,1,35.749998363495,2|0,1:2|0:0,0:2:0:0:
475,130,39830,2,0,L|468:165,1,35.749998363495,0|0,0:0|0:2,0:0:0:0:
255,65,40146,5,2,1:2:0:0:
335,35,40304,1,2,0:2:0:0:
252,58,40462,1,2,0:2:0:0:
338,42,40620,1,2,0:2:0:0:
195,195,40778,6,0,B|175:181|175:181|161:180|161:180|132:162,1,71.4999967269899,2|0,1:2|0:2,0:2:0:0:
55,130,41251,1,2,0:2:0:0:
55,130,41409,2,0,L|47:165,1,35.749998363495,0|2,1:2|0:2,0:0:0:0:
195,195,41725,2,0,L|202:230,1,35.749998363495,0|2,0:2|0:2,0:0:0:0:
338,42,42041,5,8,1:1:0:0:
460,135,42199,1,8,0:1:0:0:
420,60,42357,1,8,0:1:0:0:
445,215,42515,1,8,0:1:0:0:
264,76,42673,6,0,L|220:58,1,46.7500008916855,8|8,1:1|0:1,0:0:0:0:
322,197,42988,2,0,L|365:179,1,46.7500008916855,8|8,0:1|0:1,0:0:0:0:
195,195,43304,5,8,1:1:0:0:
90,325,43462,1,8,0:1:0:0:
250,350,43620,1,8,0:1:0:0:
180,285,43778,1,8,0:1:0:0:
10,295,43936,6,0,L|0:340,1,46.7500008916855,8|8,1:1|0:1,0:0:0:0:
195,195,44251,2,0,L|185:149,1,46.7500008916855,8|8,0:1|0:1,0:0:0:0:
350,260,44567,6,0,L|371:253,2,22
120,130,46462,6,0,P|110:114|123:129,1,57.7499982376099,12|0,0:2|0:0,0:2:0:0:
120,210,47094,6,0,P|37:158|47:60,1,206.25,4|0,1:1|0:2,0:2:0:0:
255,256,47725,6,0,L|248:316,1,60.5000018463135,10|0,0:2|0:2,0:2:0:0:
390,190,48041,2,0,L|383:129,1,60.5000018463135,2|0,0:2|0:2,0:2:0:0:
195,170,48357,6,0,B|209:112|193:126|208:63,1,107.249995090485,2|0,1:2|2:2,0:2:0:0:
208,64,48673,2,0,L|248:89,1,46.7500008916855,2|0,0:2|0:2,0:2:0:0:
120,210,48988,1,10,0:2:0:0:
40,180,49146,1,0,0:2:0:0:
248,316,49304,6,0,P|301:271|369:289,1,144.375001376867,2|0,0:1|0:0,0:0:0:0:
368,288,49620,1,0,1:2:0:0:
350,370,49778,1,0,0:0:0:0:
460,200,49936,6,0,P|454:226|452:254,1,55,0|0,0:2|0:2,0:0:0:0:
365,20,50251,2,0,L|375:143,1,123.750004720688,10|0,0:2|0:0,0:2:0:0:
370,150,50567,2,0,L|329:139,1,41.2500015735627,2|0,0:2|0:2,0:2:0:0:
105,120,50883,5,2,1:2:0:0:
225,80,51041,1,0,0:2:0:0:
150,50,51199,1,2,0:2:0:0:
180,150,51357,1,0,0:2:0:0:
150,50,51515,6,0,L|141:9,1,41.2500015735627,10|0,0:2|0:2,0:0:0:0:
260,185,51830,2,0,P|260:226|249:265,1,82.5000031471254,2|2,0:2|0:2,0:0:0:0:
414,76,52146,5,0,1:2:0:0:
485,105,52304,1,0,0:0:0:0:
360,135,52462,2,0,L|370:189,1,55,0|0,0:2|0:2,0:0:0:0:
225,80,52778,2,0,P|226:39|242:1,1,82.5000031471254,8|0,0:2|0:2,0:0:0:0:
180,150,53094,2,0,L|140:161,1,41.2500015735627,2|0,0:2|0:2,0:2:0:0:
249,265,53409,6,0,P|284:271|316:285,1,71.4999967269899,2|0,1:2|0:0,0:2:0:0:
395,295,53725,2,0,L|432:276,1,41.2500015735627,2|0,0:2|0:2,0:0:0:0:
345,55,54041,6,0,P|356:94|359:135,1,82.5000031471254,10|0,0:2|0:2,0:2:0:0:
430,170,54357,2,0,L|467:189,1,41.2500015735627,2|0,0:2|0:0,0:2:0:0:
225,80,54673,5,0,1:2:0:0:
150,60,54830,1,2,0:2:0:0:
75,40,54988,1,2,0:2:0:0:
65,45,55146,1,2,0:2:0:0:
180,190,55304,6,0,P|139:196|101:213,1,82.5000031471254,10|0,0:2|0:2,0:2:0:0:
50,280,55620,2,0,L|43:320,1,41.2500015735627,2|0,0:2|0:0,0:2:0:0:
270,270,55936,5,2,1:2:0:0:
280,350,56094,1,2,0:2:0:0:
360,190,56251,2,0,P|360:220|363:250,1,60.5000018463135,2|0,0:2|0:2,0:0:0:0:
130,300,56567,2,0,P|167:307|202:324,1,76.9999976501466,10|0,0:2|0:1,0:0:0:0:
295,135,56883,5,8,0:1:0:0:
180,190,57041,1,8,0:1:0:0:
15,25,57199,6,0,B|104:39|67:76|162:92,1,165,4|0,1:1|0:2,0:2:0:0:
325,15,57830,2,0,L|259:34,1,68.75,8|0,0:2|0:0,0:2:0:0:
440,130,58146,2,0,L|374:110,1,68.75,2|0,0:2|0:2,0:2:0:0:
295,135,58462,6,0,P|268:187|277:245,1,119.625003650665,2|0,1:2|0:0,0:2:0:0:
285,250,58778,2,0,L|271:300,1,52.2499986047745,2|0,0:2|0:2,0:2:0:0:
420,380,59094,2,0,P|426:340|420:301,1,79.7500024337769,10|0,0:2|0:2,0:2:0:0:
180,190,59409,6,0,L|187:267,1,78.3749979071618,2|0,0:1|0:0,0:0:0:0:
187,267,59725,1,0,1:2:0:0:
115,310,59883,1,0,0:0:0:0:
269,371,60041,2,0,P|265:335|271:300,1,71.4999967269899,0|2,0:2|0:2,0:0:0:0:
355,175,60357,6,0,L|345:256,1,82.5000031471254,10|0,0:2|0:2,0:2:0:0:
240,130,60673,2,0,L|288:118,1,49.4999984893799,2|0,0:2|0:2,0:2:0:0:
445,25,60988,5,2,1:2:0:0:
435,105,61146,1,0,0:2:0:0:
370,55,61304,1,2,0:2:0:0:
510,75,61462,1,0,0:2:0:0:
370,55,61620,6,0,L|322:43,1,49.4999984893799,10|0,0:2|0:2,0:0:0:0:
180,10,61936,2,0,P|171:47|168:85,1,76.9999976501466,2|2,0:2|0:2,0:0:0:0:
15,225,62251,5,0,1:2:0:0:
140,195,62409,1,0,0:0:0:0:
68,162,62567,2,0,L|60:121,1,41.2500015735627,0|0,0:2|0:2,0:0:0:0:
220,180,62883,2,0,P|217:218|208:255,1,76.9999976501466,8|0,0:2|0:2,0:0:0:0:
274,366,63199,2,0,L|287:290,1,76.9999976501466,2|0,0:2|0:2,0:2:0:0:
134,285,63515,6,0,P|98:298|60:307,1,76.9999976501466,2|0,1:2|0:0,0:2:0:0:
0,260,63830,2,0,L|10:211,1,49.4999984893799,2|0,0:2|0:2,0:0:0:0:
220,180,64146,6,0,P|182:171|147:155,1,76.9999976501466,10|0,0:2|0:2,0:2:0:0:
95,95,64462,2,0,L|84:46,1,49.4999984893799,2|0,0:2|0:0,0:2:0:0:
134,285,64778,5,0,1:2:0:0:
220,180,64936,1,8,0:1:0:0:
274,366,65094,1,8,0:1:0:0:
360,261,65251,1,8,0:1:0:0:
227,283,65409,2,0,L|275:273,2,49.4999984893799,0|8|8,1:2|0:1|0:1,0:0:0:0:
410,180,65883,5,8,0:1:0:0:
290,90,66041,1,0,1:2:0:0:
325,165,66199,1,8,0:1:0:0:
470,120,66357,1,8,0:1:0:0:
325,15,66515,1,8,0:1:0:0:
220,180,66673,6,0,P|164:153|103:153,1,123.750004720688,4|0,1:2|0:0,0:0:0:0:
95,160,66988,2,0,L|84:200,1,41.2500015735627
10,230,67304,6,0,L|18:262,1,33
80,315,67936,2,0,L|83:304,2,11
220,180,68567,1,0,0:0:0:0:
220,180,68883,5,0,0:0:0:0:
305,370,69199,1,8,0:2:0:0:
340,295,69357,1,0,0:0:0:0:
470,370,69830,6,2,L|509:358,1,41.2500015735627,2|0,1:1|0:0,0:1:0:0:
340,295,70186,2,0,L|347:254,1,41.2500015735627,2|2,0:0|0:0,0:0:0:0:
305,370,70817,2,0,L|255:357,1,51.5625019669534,2|2,0:0|0:0,0:0:0:0:
190,295,71449,6,0,L|166:314,1,30.937501180172,2|0,0:0|0:0,0:0:0:0:
145,200,71725,2,0,L|136:240,1,41.2500015735627,14|0,0:2|0:0,0:0:0:0:
60,260,72041,2,0,L|73:299,1,41.2500015735627,2|0,0:0|0:0,0:0:0:0:
10,20,72357,5,0,1:2:0:0:
10,20,72673,2,0,L|63:34,1,41.2500015735627,0|0,0:2|0:2,0:0:0:0:
190,75,72988,1,0,1:2:0:0:
235,5,73146,1,0,0:2:0:0:
110,85,73304,2,0,L|116:125,1,41.2500015735627,0|0,0:2|0:2,0:0:0:0:
255,240,73620,5,0,1:0:0:0:
270,160,73778,1,0,0:0:0:0:
330,215,73936,1,0,0:0:0:0:
195,185,74094,1,0,0:0:0:0:
330,215,74251,2,0,L|370:223,1,41.2500015735627,0|0,1:2|0:2,0:0:0:0:
180,320,74567,1,0,0:2:0:0:
180,320,74725,1,0,0:2:0:0:
250,360,74883,6,0,L|290:351,1,41.2500015735627,0|0,1:2|0:2,0:2:0:0:
465,380,75199,1,2,0:3:0:0:
490,305,75357,1,0,0:2:0:0:
410,320,75515,2,0,L|369:311,1,41.2500015735627,0|0,1:2|0:2,0:2:0:0:
270,160,75830,2,0,L|310:151,1,41.2500015735627,2|0,0:3|0:2,0:0:0:0:
390,15,76146,6,0,L|377:96,1,82.5000031471254,0|2,1:2|0:3,0:2:0:0:
290,25,76620,1,0,0:2:0:0:
290,25,76778,2,0,L|299:65,1,41.2500015735627,0|0,1:2|0:2,0:2:0:0:
455,110,77094,2,0,L|446:150,1,41.2500015735627,2|0,0:3|0:2,0:2:0:0:
270,160,77409,6,0,L|283:241,1,82.5000031471254,0|2,1:2|0:3,0:2:0:0:
230,305,77883,1,0,0:2:0:0:
370,225,78041,2,0,L|357:306,1,82.5000031471254,0|2,1:2|0:3,0:2:0:0:
145,280,78673,6,0,L|158:361,1,82.5000031471254,0|2,1:2|0:3,0:2:0:0:
80,375,79146,1,0,0:2:0:0:
0,250,79304,1,12,0:2:0:0:
15,330,79462,1,0,0:2:0:0:
43,177,79620,2,0,L|83:168,1,41.2500015735627,0|0,0:2|0:0,0:0:0:0:
180,100,79936,6,0,P|252:224|257:80,1,385,2|0,1:1|2:2,0:2:0:0:
258,80,80567,6,0,P|231:115|237:157,1,82.5000031471254,8|0,0:2|0:2,0:2:0:0:
410,255,80883,6,0,L|423:201,1,55,2|2,0:3|0:2,0:0:0:0:
255,310,81199,2,0,L|268:363,1,55,2|0,1:2|0:0,0:2:0:0:
320,230,81515,1,2,0:3:0:0:
160,280,81673,1,2,0:2:0:0:
320,230,81830,5,10,0:2:0:0:
75,150,82146,1,2,0:3:0:0:
310,135,82462,6,0,P|238:11|233:155,1,385,2|0,1:1|0:0,0:2:0:0:
232,154,83094,6,0,P|259:119|253:77,1,82.5000031471254,10|0,0:2|0:2,0:2:0:0:
206,28,83409,1,2,0:3:0:0:
182,98,83567,1,2,0:2:0:0:
290,215,83725,6,0,L|343:204,1,55,2|0,1:2|0:2,0:2:0:0:
210,300,84041,1,2,0:3:0:0:
135,270,84199,1,2,0:2:0:0:
210,300,84357,5,10,0:2:0:0:
405,140,84673,1,2,0:3:0:0:
206,28,84988,6,0,B|172:118|221:102|188:189,1,165,2|0,1:1|0:0,0:2:0:0:
188,189,85304,2,0,L|138:167,1,55,0|0,0:0|0:2,0:0:0:0:
315,345,85620,2,0,P|311:303|317:263,1,82.5000031471254,10|0,0:2|0:2,0:2:0:0:
90,360,85936,2,0,L|143:347,1,55,2|0,0:3|0:2,0:2:0:0:
210,300,86251,5,2,1:2:0:0:
135,270,86409,1,2,0:2:0:0:
270,200,86567,2,0,L|283:146,1,55,2|0,0:3|0:2,0:2:0:0:
160,10,86883,2,0,P|165:50|168:92,1,82.5000031471254,10|0,0:2|0:0,0:2:0:0:
110,150,87199,1,2,0:3:0:0:
110,150,87357,1,0,0:2:0:0:
255,25,87515,6,2,L|251:43,1,19.2499994125366,2|0,1:1|0:0,0:1:0:0:
345,70,87830,2,0,L|326:73,1,19.2499994125366,2|2,0:0|0:0,0:0:0:0:
445,25,88146,2,0,P|426:18|407:15,1,38.4999988250733,2|2,0:0|0:0,0:0:0:0:
490,100,88620,1,2,0:0:0:0:
490,100,88778,6,0,P|484:118|479:137,2,38.4999988250733,2|2|2,0:0|0:0|0:2,0:0:0:0:
505,225,90041,6,0,P|435:220|381:264,1,142.99999345398,4|0,1:2|1:2,0:2:0:0:
381,264,90988,1,0,0:0:0:0:
255,190,91304,2,0,P|290:184|325:176,2,71.4999967269899,0|0|0,1:2|0:2|1:2,0:0:0:0:
145,135,92251,2,0,P|165:202|151:272,1,142.99999345398,0|0,0:2|0:0,0:0:0:0:
255,375,93199,6,0,L|265:304,1,71.4999967269899,0|0,1:2|0:0,0:0:0:0:
75,235,93830,2,0,L|64:305,1,71.4999967269899,0|0,1:2|0:2,0:0:0:0:
190,190,94462,1,0,1:2:0:0:
190,190,94778,1,0,0:2:0:0:
10,145,95094,6,0,B|86:135|67:115|146:106,1,142.99999345398,0|0,1:2|1:2,0:2:0:0:
210,50,96041,1,0,0:0:0:0:
300,150,96357,2,0,P|291:184|285:220,1,71.4999967269899,0|0,1:2|0:2,0:0:0:0:
210,50,96988,2,0,P|218:84|224:120,1,71.4999967269899,0|0,1:2|0:2,0:2:0:0:
385,135,97620,6,0,P|468:97|509:15,2,187.000003566742,2|2|2,1:2|1:2|1:2,0:2:0:0:
335,70,99199,1,0,0:2:0:0:
140,190,99515,6,0,L|187:204,1,49.4999984893799,2|2,0:2|0:2,0:2:0:0:
187,204,100146,6,0,B|98:218|135:255|40:271,1,165,4|0,1:1|0:2,0:2:0:0:
220,370,100778,2,0,P|224:335|232:302,1,68.75,8|0,0:2|0:0,0:2:0:0:
200,137,101094,2,0,P|195:171|187:204,1,68.75,2|0,0:2|0:0,0:0:0:0:
310,275,101409,6,0,P|357:309|416:309,1,119.625003650665,2|0,1:2|0:0,0:2:0:0:
425,305,101725,2,0,P|427:279|432:253,1,52.2499986047745,2|0,0:2|0:2,0:2:0:0:
280,95,102041,2,0,P|286:134|290:174,1,79.7500024337769,10|0,0:2|0:2,0:2:0:0:
505,60,102357,6,0,L|428:41,1,78.3749979071618,2|0,0:1|0:0,0:0:0:0:
428,41,102673,1,0,1:2:0:0:
370,100,102830,1,0,0:0:0:0:
195,15,102988,2,0,P|197:50|195:86,1,71.4999967269899,0|2,0:2|0:2,0:0:0:0:
284,256,103304,6,0,L|290:173,1,82.5000031471254,10|0,0:2|0:2,0:2:0:0:
220,310,103620,2,0,P|219:334|216:359,1,49.4999984893799,2|0,0:2|0:2,0:2:0:0:
15,255,103936,5,2,1:2:0:0:
155,215,104094,1,0,0:0:0:0:
75,195,104251,1,2,0:2:0:0:
95,275,104409,1,0,0:2:0:0:
75,195,104567,6,0,P|70:170|65:146,1,49.4999984893799,10|0,0:2|0:2,0:0:0:0:
220,310,104883,2,0,L|201:384,1,76.9999976501466,2|2,0:2|0:2,0:0:0:0:
310,195,105199,5,0,1:2:0:0:
390,215,105357,1,0,0:0:0:0:
470,235,105515,2,0,L|509:245,1,41.2500015735627,0|0,0:2|0:2,0:0:0:0:
330,275,105830,2,0,P|323:312|321:351,1,76.9999976501466,8|0,0:2|0:2,0:2:0:0:
255,130,106146,2,0,P|261:92|263:53,1,76.9999976501466,2|0,0:2|0:2,0:0:0:0:
163,239,106462,6,0,P|128:255|94:274,1,76.9999976501466,2|0,1:2|0:0,0:2:0:0:
15,260,106778,2,0,P|4:238|-2:206,1,49.4999984893799,2|0,0:2|0:2,0:0:0:0:
170,130,107094,6,0,P|135:112|99:100,1,76.9999976501466,10|0,0:2|0:2,0:2:0:0:
30,60,107409,2,0,P|29:35|32:10,1,49.4999984893799,2|0,0:2|0:0,0:2:0:0:
375,285,107725,5,0,1:2:0:0:
290,180,107883,1,8,0:1:0:0:
235,365,108041,1,8,0:1:0:0:
150,260,108198,1,8,0:1:0:0:
285,285,108356,2,0,L|237:275,2,49.4999984893799,2|8|8,1:2|0:1|0:1,0:2:0:0:
380,110,108830,5,8,0:1:0:0:
260,30,108988,1,0,1:2:0:0:
336,44,109146,1,8,0:1:0:0:
185,55,109304,1,8,0:1:0:0:
380,190,109462,1,8,0:1:0:0:
185,55,109620,6,0,P|204:113|215:174,1,123.750004720688,12|0,0:2|0:0,0:0:0:0:
215,174,109936,2,0,L|176:158,1,41.2500015735627
15,345,110251,6,0,P|74:291|153:304,1,165,6|0,1:1|0:0,0:2:0:0:
152,303,110567,1,0,0:0:0:0:
215,365,110725,1,0,0:2:0:0:
384,186,110883,2,0,P|363:243|362:305,1,123.750004720688,8|0,0:2|0:0,0:2:0:0:
360,310,111199,2,0,L|280:286,1,82.5000031471254,2|0,0:2|0:0,0:2:0:0:
70,150,111515,6,0,B|139:129|121:151|191:127,1,123.750004720688,0|0,1:2|0:0,0:0:0:0:
191,127,111830,2,0,P|196:86|209:47,1,82.5000031471254,2|0,0:2|0:2,0:0:0:0:
340,165,112146,2,0,P|374:190|401:221,1,82.5000031471254,10|0,0:2|0:2,0:2:0:0:
235,275,112462,2,0,P|198:291|158:300,1,82.5000031471254,2|0,0:2|0:2,0:2:0:0:
310,75,112778,6,0,P|371:45|439:47,1,137.5,2|2,1:2|0:2,0:0:0:0:
485,115,113251,1,2,0:2:0:0:
250,190,113409,2,0,P|240:157|237:122,1,68.75,8|0,0:2|0:2,0:2:0:0:
420,260,113725,6,0,L|408:320,1,61.875002360344,2|0,0:2|0:0,0:2:0:0:
408,321,114041,6,0,P|348:304|287:307,1,123.750004720688,0|0,1:2|0:2,0:0:0:0:
65,320,114673,6,0,P|183:349|165:228,1,288.750011014939,10|0,0:2|0:0,0:2:0:0:
164,227,115304,6,0,L|156:289,1,63.250001206398,2|0,1:2|0:0,0:2:0:0:
70,190,115620,1,0,0:2:0:0:
230,155,115778,1,0,0:2:0:0:
0,30,115936,2,0,P|46:38|90:55,1,94.8750018095971,8|0,0:2|0:0,0:2:0:0:
100,50,116251,2,0,L|153:36,1,55,2|0,0:2|0:0,0:2:0:0:
310,160,116567,6,0,L|298:218,1,55,2|0,1:2|0:2,0:2:0:0:
230,155,116883,2,0,L|241:101,1,55,2|0,0:2|0:2,0:2:0:0:
390,30,117199,6,0,P|443:27|490:51,1,107.249995090485,10|0,0:2|0:0,0:2:0:0:
485,50,117515,2,0,P|476:84|476:120,1,71.4999967269899,0|0,0:0|0:2,0:0:0:0:
230,155,117830,6,0,B|143:172|179:203|91:224,1,156.749995814324,2|0,1:2|0:2,0:2:0:0:
25,180,118462,6,0,P|30:147|47:119,1,65.9999979858399,10|0,0:2|0:2,0:2:0:0:
137,293,118778,2,0,P|168:285|195:266,1,65.9999979858399,2|0,0:2|0:2,0:2:0:0:
340,375,119094,5,2,1:2:0:0:
300,310,119251,1,2,0:2:0:0:
300,235,119409,1,2,0:2:0:0:
345,175,119567,1,2,0:2:0:0:
250,10,119725,6,0,P|258:56|261:102,1,93.500001783371,10|0,0:2|0:2,0:2:0:0:
400,230,120041,1,2,0:2:0:0:
190,140,120199,1,0,0:2:0:0:
400,230,120357,6,0,P|440:159|439:77,1,165,4|0,1:1|0:0,0:2:0:0:
439,77,120673,1,0,0:0:0:0:
385,20,120830,1,0,0:2:0:0:
261,102,120988,2,0,P|271:162|262:223,1,123.750004720688,8|0,0:2|0:0,0:2:0:0:
262,224,121304,2,0,L|276:305,1,82.5000031471254,2|0,0:2|0:0,0:2:0:0:
0,110,121620,6,0,B|69:89|51:111|121:87,1,123.750004720688,0|0,1:2|0:0,0:0:0:0:
121,87,121935,2,0,P|126:46|139:7,1,82.5000031471254,2|0,0:2|0:2,0:0:0:0:
270,125,122251,2,0,P|304:150|331:181,1,82.5000031471254,10|0,0:2|0:2,0:2:0:0:
165,235,122567,2,0,P|128:251|88:260,1,82.5000031471254,2|0,0:2|0:2,0:2:0:0:
215,55,122883,6,0,P|276:25|344:28,1,137.5,2|2,1:2|0:2,0:0:0:0:
410,75,123357,1,2,0:2:0:0:
170,140,123515,2,0,P|138:127|107:110,1,68.75,8|0,0:2|0:2,0:2:0:0:
330,190,123830,6,0,P|332:220|330:251,1,61.875002360344,2|0,0:2|0:0,0:2:0:0:
330,252,124146,6,0,B|263:230|275:248|209:226,1,123.750004720688,0|0,1:2|0:2,0:0:0:0:
255,380,124778,6,0,P|371:327|497:348,1,259.875000991345,10|0,0:2|0:0,0:2:0:0:
497,348,125409,6,0,L|435:362,1,63.250001206398,2|0,1:2|0:0,0:2:0:0:
340,215,125725,1,0,0:2:0:0:
420,235,125883,1,0,0:2:0:0:
510,85,126041,2,0,B|458:95|476:106|422:119,1,94.8750018095971,8|0,0:2|0:0,0:2:0:0:
415,125,126357,2,0,L|423:70,1,55,2|0,0:2|0:0,0:2:0:0:
285,5,126673,6,0,L|293:59,1,55,2|0,1:2|0:2,0:2:0:0:
210,35,126988,2,0,L|218:89,1,55,2|0,0:2|0:2,0:2:0:0:
5,120,127304,6,0,L|21:13,1,107.249995090485,10|0,0:2|0:0,0:2:0:0:
21,13,127620,2,0,L|29:67,1,55,0|0,0:0|0:2,0:0:0:0:
135,285,127936,6,0,P|101:260|63:245,1,82.5000031471254,0|8,1:2|0:1,0:0:0:0:
280,210,128251,2,0,L|359:188,1,82.5000031471254,8|8,0:1|0:1,0:0:0:0:
110,60,128567,2,0,P|121:99|127:140,1,82.5000031471254,0|8,1:2|0:1,0:2:0:0:
240,370,128883,2,0,P|245:329|257:289,1,82.5000031471254,8|8,0:1|0:1,0:2:0:0:
235,60,129199,5,0,1:2:0:0:
198,233,129357,1,8,0:1:0:0:
370,270,129515,1,8,0:1:0:0:
407,97,129673,1,8,0:1:0:0:
205,145,129830,6,0,B|102:162|150:211|39:229,1,189.750003619194,12|0,1:1|0:0,0:2:0:0:
198,233,130462,1,4,0:3:0:0:
200,300,145620,6,0,L|194:349,1,49.4999984893799,0|0,1:2|0:2,0:2:0:0:
132,247,145936,1,0,0:2:0:0:
132,247,146094,1,0,0:2:0:0:
277,262,146251,6,0,L|283:311,1,49.4999984893799,0|0,1:2|0:2,0:2:0:0:
345,209,146567,1,0,0:2:0:0:
345,209,146725,1,0,0:2:0:0:
217,162,146883,6,0,L|211:211,1,49.4999984893799,0|0,1:2|0:2,0:2:0:0:
149,109,147199,1,0,0:2:0:0:
149,109,147357,1,0,0:2:0:0:
290,85,147515,6,0,L|296:134,1,49.4999984893799,0|0,1:2|0:2,0:2:0:0:
358,32,147831,1,0,0:2:0:0:
358,32,147989,1,0,0:2:0:0:
220,0,148146,6,0,L|214:49,1,49.4999984893799,0|0,1:2|0:2,0:0:0:0:
290,85,148462,2,0,L|296:134,1,49.4999984893799,0|0,0:2|0:2,0:0:0:0:
217,162,148778,2,0,L|211:211,1,49.4999984893799,0|0,1:2|0:2,0:0:0:0:
277,262,149094,2,0,L|283:311,1,49.4999984893799,0|0,0:2|0:2,0:0:0:0:
200,300,149409,2,0,L|194:349,1,49.4999984893799,0|0,1:2|0:2,0:2:0:0:
15,190,149725,6,0,P|38:183|60:172,1,49.4999984893799,2|0,0:2|0:2,0:2:0:0:
115,55,150041,2,0,P|108:78|107:103,1,49.4999984893799,2|0,1:2|0:2,0:2:0:0:
180,210,150357,2,0,P|162:192|141:179,1,49.4999984893799,2|0,0:2|0:2,0:2:0:0:
265,20,150673,5,0,1:2:0:0:
250,100,150830,1,0,0:2:0:0:
325,75,150988,2,0,L|373:65,1,49.4999984893799,0|0,0:2|0:2,0:0:0:0:
505,185,151304,5,0,1:2:0:0:
485,265,151462,1,0,0:2:0:0:
425,165,151620,1,0,0:2:0:0:
405,245,151778,1,0,0:2:0:0:
255,375,151936,6,0,P|253:350|249:325,1,49.4999984893799,0|0,1:2|0:2,0:2:0:0:
300,265,152251,2,0,L|306:215,1,49.4999984893799,2|0,0:2|0:2,0:2:0:0:
175,295,152567,6,0,P|157:278|136:263,1,49.4999984893799,2|0,1:2|0:2,0:2:0:0:
255,155,152883,2,0,L|287:117,1,49.4999984893799,2|0,0:2|0:2,0:2:0:0:
455,20,153199,5,0,1:2:0:0:
470,105,153357,1,0,0:2:0:0:
385,120,153515,1,2,0:2:0:0:
370,35,153673,1,0,0:2:0:0:
170,140,153830,5,0,1:2:0:0:
155,225,153988,1,0,0:2:0:0:
240,240,154146,1,2,0:2:0:0:
255,155,154304,1,0,0:2:0:0:
460,235,154462,5,0,1:2:0:0:
475,320,154620,1,0,0:2:0:0:
390,335,154778,1,2,0:2:0:0:
375,250,154936,1,0,0:2:0:0:
170,140,155094,5,0,1:2:0:0:
155,225,155252,1,0,0:2:0:0:
240,240,155410,1,2,0:2:0:0:
255,155,155568,1,0,0:2:0:0:
115,15,155725,5,0,1:2:0:0:
105,17,155804,1,0,0:2:0:0:
95,20,155883,1,0,0:2:0:0:
85,23,155962,1,0,0:2:0:0:
75,26,156041,2,0,L|69:59,3,32.99999899292,0|0|0|0,0:2|0:2|0:2|0:2,0:2:0:0:
10,115,156357,5,0,1:0:0:0:
11,124,156436,1,0,3:0:0:0:
12,133,156515,1,0,3:0:0:0:
13,142,156594,1,0,3:0:0:0:
15,151,156673,2,0,L|19:183,3,32.99999899292,0|0|0|0,3:0|3:0|3:2|3:2,0:0:0:0:
0,260,156988,5,0,1:2:0:0:
10,262,157067,1,0,0:2:0:0:
20,265,157146,1,0,0:2:0:0:
30,268,157225,1,0,0:2:0:0:
40,271,157304,2,0,L|46:304,3,32.99999899292,0|0|0|0,0:2|0:2|0:2|0:2,0:0:0:0:
105,360,157620,6,0,B|237:337|161:261|309:236,1,247.500009441376,12|0,0:2|0:0,0:2:0:0:
465,245,158251,6,0,B|355:225|418:163|296:142,1,206.25,4|0,1:1|0:2,0:2:0:0:
415,35,158883,2,0,L|401:93,1,60.5000018463135,10|0,0:2|0:0,0:2:0:0:
220,190,159199,2,0,L|206:131,1,60.5000018463135,2|0,0:2|0:2,0:2:0:0:
135,90,159515,6,0,P|151:40|199:23,1,107.249995090485,2|0,1:2|2:2,0:2:0:0:
210,25,159830,2,0,L|253:41,1,46.7500008916855,2|0,0:2|0:2,0:2:0:0:
105,195,160146,1,10,0:2:0:0:
42,143,160304,1,0,0:2:0:0:
220,190,160462,6,0,B|216:284|243:238|238:331,1,144.375001376867,2|0,0:1|0:0,0:0:0:0:
238,331,160778,1,0,1:2:0:0:
165,365,160936,1,0,0:0:0:0:
335,235,161094,6,0,L|388:247,1,55,0|0,0:2|0:2,0:0:0:0:
220,190,161409,6,0,B|196:137|196:137|216:75,1,123.750004720688,10|0,0:2|0:0,0:2:0:0:
225,70,161725,2,0,L|218:29,1,41.2500015735627,2|0,0:2|0:2,0:2:0:0:
470,120,162041,5,2,1:2:0:0:
350,80,162199,1,0,0:0:0:0:
425,50,162357,1,2,0:2:0:0:
395,150,162515,1,0,0:2:0:0:
425,50,162673,6,0,L|431:9,1,41.2500015735627,10|0,0:2|0:2,0:0:0:0:
310,190,162988,2,0,P|315:230|310:271,1,82.5000031471254,2|2,0:2|0:2,0:0:0:0:
30,190,163304,5,0,1:2:0:0:
150,150,163462,1,0,0:0:0:0:
75,120,163620,2,0,L|60:66,1,55,0|0,0:2|0:2,0:0:0:0:
220,110,163936,2,0,P|224:69|217:28,1,82.5000031471254,8|0,0:2|0:2,0:2:0:0:
150,150,164251,2,0,L|144:190,1,41.2500015735627,2|0,0:2|0:2,0:0:0:0:
310,190,164567,6,0,P|330:160|341:126,1,71.4999967269899,2|0,1:2|0:0,0:2:0:0:
375,55,164883,2,0,L|366:14,1,41.2500015735627,2|0,0:2|0:2,0:2:0:0:
300,275,165199,6,0,P|335:269|366:252,1,71.4999967269899,10|0,0:2|0:2,0:2:0:0:
440,225,165515,2,0,L|462:190,1,41.2500015735627,2|2,0:2|0:2,0:0:0:0:
232,358,165830,5,0,1:2:0:0:
150,360,165988,1,0,0:0:0:0:
75,325,166146,1,0,0:2:0:0:
30,255,166303,1,0,0:2:0:0:
245,45,166462,6,0,P|262:82|265:123,1,82.5000031471254,10|0,0:2|0:2,0:2:0:0:
215,190,166778,2,0,L|176:204,1,41.2500015735627,2|2,0:2|0:2,0:0:0:0:
5,15,167094,5,0,1:2:0:0:
80,45,167251,1,0,0:0:0:0:
30,255,167409,2,0,L|86:233,1,60.5000018463135,2|0,0:2|0:2,0:0:0:0:
215,190,167725,2,0,P|227:226|230:264,1,76.9999976501466,10|0,0:2|0:2,0:0:0:0:
245,45,168040,5,8,0:1:0:0:
112,158,168198,1,8,0:1:0:0:
185,335,168357,6,0,P|252:290|333:294,1,165,4|0,1:1|0:2,0:2:0:0:
92,248,168988,2,0,L|26:228,1,68.75,8|0,0:2|0:0,0:2:0:0:
215,190,169304,2,0,P|248:183|280:170,1,68.75,2|0,0:2|0:2,0:2:0:0:
340,110,169620,6,0,P|378:153|374:212,1,119.625003650665,2|0,1:2|0:0,0:2:0:0:
375,212,169936,2,0,L|425:199,1,52.2499986047745,2|0,0:2|0:2,0:2:0:0:
258,92,170251,2,0,P|218:84|182:68,1,79.7500024337769,10|0,0:2|0:2,0:2:0:0:
395,40,170567,6,0,P|428:19|466:11,1,78.3749979071618,2|0,0:1|0:0,0:0:0:0:
466,10,170883,1,0,1:2:0:0:
510,80,171041,1,0,0:0:0:0:
340,110,171199,2,0,P|341:145|340:181,1,71.4999967269899,2|2,0:2|0:2,0:0:0:0:
455,365,171515,6,0,P|452:323|457:283,1,82.5000031471254,10|0,0:2|0:2,0:2:0:0:
465,200,171830,2,0,L|417:212,1,49.4999984893799,2|0,0:2|0:2,0:2:0:0:
255,365,172146,5,2,1:2:0:0:
180,240,172304,1,0,0:2:0:0:
190,320,172462,1,2,0:2:0:0:
225,170,172620,1,0,0:2:0:0:
365,270,172778,6,0,L|317:258,1,49.4999984893799,10|0,0:2|0:2,0:0:0:0:
236,94,173094,2,0,P|227:131|225:170,1,76.9999976501466,2|2,0:2|0:2,0:0:0:0:
5,125,173409,5,0,1:2:0:0:
130,95,173567,1,0,0:0:0:0:
58,62,173725,2,0,L|50:21,1,41.2500015735627,0|0,0:2|0:2,0:0:0:0:
225,170,174041,2,0,P|221:208|212:245,1,76.9999976501466,8|0,0:2|0:0,0:0:0:0:
365,105,174357,2,0,L|352:29,1,76.9999976501466,2|0,0:2|0:2,0:2:0:0:
155,305,174673,6,0,P|119:318|81:327,1,76.9999976501466,2|0,1:2|0:0,0:2:0:0:
15,285,174988,2,0,P|20:260|24:236,1,49.4999984893799,2|0,0:2|0:2,0:2:0:0:
225,170,175304,6,0,P|187:161|152:145,1,76.9999976501466,10|0,0:2|0:2,0:2:0:0:
95,95,175620,2,0,P|90:70|84:46,1,49.4999984893799,2|0,0:2|0:0,0:2:0:0:
365,105,175936,5,0,1:2:0:0:
290,275,176094,1,8,0:1:0:0:
505,365,176251,5,8,0:1:0:0:
475,290,176409,1,8,0:1:0:0:
340,380,176567,5,2,1:1:0:0:
380,310,176725,1,8,0:1:0:0:
215,305,176883,5,8,0:1:0:0:
290,275,177041,1,8,0:1:0:0:
195,155,177199,6,0,L|241:172,1,49.4999984893799,2|8,1:1|0:1,0:0:0:0:
270,25,177515,2,0,L|281:73,1,49.4999984893799,8|8,0:1|0:1,0:0:0:0:
510,60,177830,6,0,B|435:34|451:60|368:35,1,144.375001376867,6|0,1:1|0:0,0:2:0:0:
369,35,178146,6,0,L|423:23,1,55,0|0,0:0|0:2,0:0:0:0:
195,155,178462,6,0,P|116:160|72:94,1,165,4|0,1:1|0:0,0:2:0:0:
72,94,178778,1,0,0:0:0:0:
130,40,178936,1,0,0:2:0:0:
260,215,179094,2,0,P|248:275|242:337,1,123.750004720688,8|0,0:2|0:0,0:2:0:0:
242,337,179409,2,0,B|214:323|214:323|194:330|163:332,1,82.5000031471254,2|0,0:2|0:0,0:2:0:0:
340,170,179725,6,0,P|400:170|446:131,1,123.750004720688,0|0,1:2|0:0,0:0:0:0:
440,125,180041,2,0,P|424:163|423:204,1,82.5000031471254,2|0,0:2|0:2,0:2:0:0:
320,10,180357,2,0,P|336:47|364:77,1,82.5000031471254,10|0,0:2|0:0,0:2:0:0:
160,30,180673,2,0,P|198:45|239:46,1,82.5000031471254,2|0,0:2|0:2,0:2:0:0:
45,240,180988,6,0,P|109:190|143:115,1,165.000006294251,2|2,1:2|0:2,0:0:0:0:
64,116,181462,1,2,0:2:0:0:
255,285,181620,2,0,P|253:326|246:366,1,82.5000031471254,8|0,0:2|0:2,0:2:0:0:
405,230,181936,6,0,L|399:193,1,37.1249988670349,2|0,0:2|0:0,0:2:0:0:
399,193,182251,6,0,L|502:222,1,107.249995090485,0|0,1:2|0:2,0:0:0:0:
390,50,182883,6,0,P|298:56|261:140,1,192.5,10|0,0:2|0:0,0:2:0:0:
261,139,183515,6,0,P|272:178|271:219,1,82.5000031471254,2|0,1:2|0:0,0:2:0:0:
90,300,183830,1,0,0:2:0:0:
70,220,183988,1,0,0:0:0:0:
325,335,184146,2,0,P|264:349|207:372,1,123.750004720688,10|0,0:2|0:0,0:2:0:0:
207,372,184462,2,0,P|203:331|187:293,1,82.5000031471254,2|0,0:2|0:0,0:2:0:0:
380,270,184778,6,0,L|460:288,1,82.5000031471254,2|0,1:2|0:2,0:2:0:0:
220,220,185094,2,0,P|194:187|161:163,1,82.5000031471254,2|0,0:2|0:2,0:2:0:0:
380,85,185409,2,0,L|460:66,1,82.5000031471254,10|0,0:2|0:0,0:2:0:0:
175,85,185725,2,0,P|116:65|56:75,1,123.750004720688
56,74,186041,5,2,1:2:0:0:
5,140,186673,5,2,0:2:0:0:
5,140,186988,1,2,0:0:0:0:
85,160,187936,5,2,0:2:0:0:
85,160,188251,1,2,0:2:0:0:
255,5,188567,5,4,1:2:0:0:
