osu file format v14

[General]
AudioFilename: audio.ogg
AudioLeadIn: 0
PreviewTime: 110165
Countdown: 0
SampleSet: Drum
StackLeniency: 0.7
Mode: 0
LetterboxInBreaks: 0
WidescreenStoryboard: 1

[Editor]
Bookmarks: 16774,110247,130458,145616
DistanceSpacing: 1.6
BeatDivisor: 8
GridSize: 16
TimelineZoom: 1.9

[Metadata]
Title:Ticking Away
TitleUnicode:Ticking Away
Artist:Grabbitz & bbno$
ArtistUnicode:Grabbitz & bbno$
Creator:AirinCat
Version:Hard
Source:VALORANT
Tags:fuju kyouren kittyadventure gokugohan12468 vct championship 2023 riot games electronic pop english edm tour​ tournament tourney video game bbnomula bb mula baby no money bbnomoney hip hop hiphop rap hip-hop collab collaboration
BeatmapID:4355931
BeatmapSetID:2037388

[Difficulty]
HPDrainRate:4
CircleSize:3.6
OverallDifficulty:6
ApproachRate:8
SliderMultiplier:1.8
SliderTickRate:1

[Events]
//Background and Video events
0,0,"fdsfdsfdfdseenshot.jpg",0,0
Video,0,"tick.mp4"
//Break Periods
2,130661,144870
//Storyboard Layer 0 (Background)
//Storyboard Layer 1 (Fail)
//Storyboard Layer 2 (Pass)
//Storyboard Layer 3 (Foreground)
//Storyboard Layer 4 (Overlay)
//Storyboard Sound Samples

[TimingPoints]
6673,631.578947368421,4,2,2,30,1,0
6673,-111.111111111111,4,2,2,30,0,0
15515,-83.3333333333333,4,2,2,40,0,0
16146,-76.9230769230769,4,2,2,50,0,0
16778,-66.6666666666667,4,3,1,50,0,0
36988,-90.9090909090909,4,2,1,40,0,0
42041,-90.9090909090909,4,2,1,50,0,0
46462,-125,4,2,1,70,0,0
47094,-55.5555555555556,4,3,1,70,0,0
47725,-58.8235294117647,4,3,1,70,0,0
48673,-58.8235294117647,4,3,1,70,0,0
57199,-55.5555555555556,4,3,1,70,0,0
57830,-58.8235294117647,4,3,1,70,0,0
69830,-111.111111111111,4,2,1,50,0,0
72357,-83.3333333333333,4,3,1,40,0,0
80567,-71.4285714285714,4,2,1,60,0,0
83094,-71.4285714285714,4,2,1,60,0,0
85462,-71.4285714285714,4,2,1,60,0,0
87515,-142.857142857143,4,2,1,60,0,0
87594,-250.000000000001,4,2,2,10,0,0
87830,-250.000000000001,4,2,1,20,0,0
88146,-250.000000000001,4,2,2,30,0,0
88462,-250.000000000001,4,2,1,40,0,0
88778,-250.000000000001,4,2,2,60,0,0
89094,-250.000000000001,4,2,1,70,0,0
90041,-166.666666666667,4,2,1,30,0,0
96988,-142.857142857143,4,2,1,40,0,0
97620,-125,4,2,1,50,0,0
98251,-111.111111111111,4,2,1,50,0,0
98883,-83.3333333333335,4,2,1,50,0,0
99515,-250.000000000001,4,2,1,40,0,0
100146,-55.5555555555556,4,3,1,70,0,0
100778,-58.8235294117647,4,3,1,70,0,0
110251,-66.6666666666667,4,3,1,70,0,0
110883,-58.8235294117647,4,3,1,70,0,0
114673,-58.8235294117647,4,3,1,70,0,0
115304,-58.8235294117647,4,3,1,70,0,0
117199,-58.8235294117647,4,3,1,70,0,0
117830,-62.5,4,3,1,70,0,0
120357,-76.9230769230769,4,3,1,70,0,0
120988,-58.8235294117647,4,3,1,70,0,0
125409,-58.8235294117647,4,3,1,70,0,0
127936,-58.8235294117647,4,3,1,70,0,0
129830,-90.9090909090909,4,3,1,60,0,0
157620,-166.666666666667,4,2,1,70,0,0
158251,-55.5555555555556,4,3,1,70,0,1
158883,-58.8235294117647,4,3,1,70,0,1
168357,-55.5555555555556,4,3,1,70,0,1
168988,-58.8235294117647,4,3,1,70,0,1
177830,-100,4,3,1,70,0,0
178462,-58.8235294117647,4,3,1,70,0,1
178936,-58.8235294117647,4,3,1,70,0,0
183515,-58.8235294117647,4,3,1,70,0,0
185409,-76.9230769230769,4,3,1,70,0,0
186041,-111.111111111111,4,2,1,50,0,0

[Colours]
Combo1 : 240,85,85
Combo2 : 159,87,240
Combo3 : 219,112,241

[HitObjects]
236,299,16778,6,0,P|169:306|105:328,1,135.000005149842,0|0,1:2|0:2,0:2:0:0:
22,299,17251,1,0,0:2:0:0:
22,299,17409,2,0,P|12:266|9:233,1,67.5000025749208,10|0,0:2|0:2,0:2:0:0:
34,145,17725,2,0,P|69:131|115:126,1,67.5000025749208,2|0,0:2|0:2,0:2:0:0:
184,168,18041,2,0,B|245:173|259:191|327:197,1,135.000005149842,2|0,1:2|0:2,0:2:0:0:
394,138,18515,1,0,0:2:0:0:
394,138,18673,2,0,P|382:98|382:63,1,67.5000025749208,10|0,0:2|0:2,0:2:0:0:
468,28,18988,2,0,P|490:88|493:165,1,135.000005149842,2|0,0:2|1:2,0:2:0:0:
442,317,19620,6,0,P|414:324|373:330,1,67.5000025749208,0|0,0:2|0:2,0:0:0:0:
300,283,19936,2,0,P|232:281|169:304,2,135.000005149842,8|0|0,0:2|0:2|1:2,0:2:0:0:
413,78,20883,2,0,P|383:87|332:93,1,67.5000025749208,0|0,0:0|0:2,0:0:0:0:
253,65,21199,2,0,P|243:28|247:-12,1,67.5000025749208,10|0,0:2|0:2,0:2:0:0:
277,151,21515,6,0,P|298:215|299:300,1,135.000005149842,2|0,0:2|1:2,0:2:0:0:
141,383,22146,2,0,P|129:345|129:305,1,67.5000025749208,2|0,0:2|0:0,0:2:0:0:
191,251,22462,2,0,P|129:225|65:241,1,135.000005149842,8|0,0:2|0:2,0:0:0:0:
8,297,22936,1,0,0:2:0:0:
8,297,23094,1,0,1:2:0:0:
123,81,23409,2,0,P|113:48|105:3,1,67.5000025749208,2|0,0:2|0:2,0:2:0:0:
2,44,23725,2,0,P|11:76|20:122,1,67.5000025749208,10|0,0:2|0:2,0:2:0:0:
101,174,24041,6,0,P|178:159|248:127,1,135.000005149842,2|0,0:2|1:2,0:2:0:0:
319,273,24673,2,0,P|384:288|443:320,1,135.000005149842,2|8,0:2|0:2,0:2:0:0:
512,266,25146,1,0,0:2:0:0:
501,176,25304,2,0,P|435:160|376:128,1,135.000005149842,2|0,0:2|1:2,0:2:0:0:
284,150,25778,1,0,0:2:0:0:
284,150,25936,2,0,P|267:176|256:225,1,67.5000025749208,2|0,0:2|0:2,0:0:0:0:
310,298,26251,1,10,0:2:0:0:
33,355,26567,5,8,0:1:0:0:
33,355,26725,1,8,0:1:0:0:
99,316,26883,2,0,P|164:335|252:370,1,135.000005149842,0|2,1:2|0:2,0:2:0:0:
302,309,27357,1,0,0:2:0:0:
302,309,27515,2,0,P|338:298|385:289,1,67.5000025749208,10|0,0:2|0:2,0:2:0:0:
438,340,27830,2,0,P|476:347|523:360,1,67.5000025749208,2|0,0:2|0:2,0:2:0:0:
468,256,28146,2,0,B|480:194|500:194|512:128,1,135.000005149842,2|2,1:2|0:2,0:2:0:0:
467,52,28620,1,0,0:2:0:0:
467,52,28778,2,0,P|438:44|399:28,1,67.5000025749208,10|0,0:2|0:2,0:2:0:0:
320,68,29094,2,0,B|247:77|254:90|184:97,1,135.000005149842,2|0,0:2|1:2,0:2:0:0:
231,268,29725,6,0,P|268:261|312:251,1,67.5000025749208,0|0,0:2|0:2,0:0:0:0:
350,168,30041,2,0,P|396:217|395:283,1,135.000005149842,8|0,0:2|0:2,0:2:0:0:
339,348,30515,1,0,0:2:0:0:
339,348,30673,2,0,P|311:354|256:366,1,67.5000025749208,0|0,1:2|0:2,0:2:0:0:
178,339,30988,2,0,P|146:329|102:321,1,67.5000025749208,2|0,0:2|0:2,0:2:0:0:
19,357,31304,1,10,0:2:0:0:
138,186,31620,6,0,P|138:118|123:52,1,135.000005149842,2|0,0:2|1:2,0:2:0:0:
55,0,32094,1,0,0:2:0:0:
0,65,32251,2,0,P|0:132|14:198,1,135.000005149842,2|8,0:2|0:2,0:2:0:0:
212,286,32883,2,0,P|227:248|234:204,1,67.5000025749208,0|0,0:2|0:2,0:0:0:0:
160,156,33199,1,0,1:2:0:0:
298,66,33515,2,0,P|343:75|369:93,1,67.5000025749208,2|0,0:2|0:2,0:2:0:0:
450,136,33830,2,0,P|495:127|521:109,1,67.5000025749208,10|0,0:2|0:2,0:2:0:0:
370,190,34146,6,0,P|342:251|335:318,1,135.000005149842,2|0,0:2|1:2,0:2:0:0:
406,384,34620,1,0,0:2:0:0:
406,384,34778,2,0,P|424:352|429:305,1,67.5000025749208,2|0,0:2|0:2,0:2:0:0:
335,318,35094,2,0,P|293:322|253:332,1,67.5000025749208,10|0,0:2|0:2,0:2:0:0:
184,374,35409,2,0,B|117:356|125:338|53:324,1,135.000005149842,2|0,0:2|1:2,0:2:0:0:
36,234,35883,1,0,0:2:0:0:
104,185,36041,2,0,P|145:179|180:167,1,67.5000025749208,2|2,0:2|0:2,0:0:0:0:
249,229,36357,1,10,0:2:0:0:
249,229,36673,5,8,0:1:0:0:
307,168,36830,1,8,0:1:0:0:
372,226,36988,2,0,L|436:246,3,49.5000015106202,2|0|0|0,1:2|0:0|0:0|0:2,0:2:0:0:
491,193,37620,2,0,L|503:127,1,49.5000015106202,2|2,1:2|0:2,0:0:0:0:
447,71,37936,2,0,L|459:5,1,49.5000015106202,2|2,0:2|0:2,0:0:0:0:
359,47,38251,2,0,P|307:36|247:15,1,99.0000030212403,2|0,1:2|0:2,0:2:0:0:
181,50,38725,2,0,P|175:70|165:106,1,49.5000015106202,2|0,0:2|1:2,0:2:0:0:
254,148,39041,2,0,L|264:226,1,49.5000015106202,2|0,0:2|0:2,0:2:0:0:
176,237,39357,2,0,L|161:308,2,49.5000015106202,2|2|0,0:2|1:2|0:0,0:0:0:0:
336,103,40146,6,0,L|391:116,1,49.5000015106202,2|2,1:2|0:2,0:0:0:0:
458,180,40462,2,0,L|513:167,1,49.5000015106202,2|2,0:2|0:2,0:0:0:0:
505,261,40778,2,0,P|491:307|487:366,1,99.0000030212403,2|0,1:2|0:2,0:2:0:0:
395,384,41251,2,0,P|390:358|378:331,1,49.5000015106202,2|0,0:2|1:2,0:2:0:0:
286,312,41567,2,0,P|256:314|227:328,2,49.5000015106202,2|0|2,0:2|0:2|0:2,0:2:0:0:
344,230,42041,5,8,1:1:0:0:
344,230,42199,1,8,0:1:0:0:
262,180,42357,2,0,P|248:150|240:118,1,49.5000015106202,8|8,0:1|0:1,0:0:0:0:
291,51,42673,1,8,1:1:0:0:
291,51,42830,1,8,0:1:0:0:
373,89,42988,2,0,P|408:82|435:70,1,49.5000015106202,8|8,0:1|0:1,0:0:0:0:
468,164,43304,6,0,P|433:171|406:183,1,49.5000015106202,8|8,1:1|0:1,0:0:0:0:
356,256,43620,1,8,0:1:0:0:
356,256,43778,2,0,P|363:280|368:319,1,49.5000015106202,8|8,0:1|1:1,0:0:0:0:
276,360,44094,1,8,0:1:0:0:
276,360,44251,2,0,P|268:335|264:297,1,49.5000015106202,8|8,0:1|0:1,0:0:0:0:
203,255,44567,6,0,P|107:242|27:297,2,198.000006042481
437,51,46462,2,0,B|421:19|421:19|416:97,1,108,12|0,0:2|0:0,0:2:0:0:
462,161,47094,6,0,P|358:105|252:156,1,242.999992584229,4|0,1:1|0:2,0:2:0:0:
175,222,47725,2,0,P|138:238|92:239,1,76.5000014591217,10|0,0:2|0:2,0:2:0:0:
24,175,48041,2,0,P|12:138|10:100,1,76.5000014591217,2|0,0:2|0:2,0:2:0:0:
70,26,48357,2,0,P|160:16|218:66,1,153.000002918243,2|2,1:2|0:2,0:2:0:0:
280,132,48830,1,0,0:2:0:0:
280,132,48988,2,0,P|330:119|366:97,1,76.5000014591217,10|0,0:2|0:2,0:2:0:0:
417,17,49304,2,0,B|434:88|466:84|474:157,2,153.000002918243,2|0|0,0:1|1:2|0:2,0:0:0:0:
181,141,50251,6,0,P|195:175|206:225,1,76.5000014591217,10|0,0:2|0:2,0:2:0:0:
287,277,50567,2,0,P|295:239|310:204,1,76.5000014591217,2|0,0:2|0:2,0:2:0:0:
204,213,50883,2,0,P|109:228|68:269,1,153.000002918243,2|2,1:2|0:2,0:2:0:0:
15,190,51357,1,0,0:2:0:0:
83,119,51515,2,0,P|78:81|63:46,1,76.5000014591217,10|0,0:2|0:2,0:0:0:0:
142,0,51830,1,2,0:2:0:0:
142,0,51988,1,2,0:2:0:0:
212,67,52146,6,0,P|274:78|370:38,1,153.000002918243,0|0,1:2|0:2,0:2:0:0:
457,66,52620,1,0,0:2:0:0:
457,66,52778,2,0,P|468:98|476:147,1,76.5000014591217,8|0,0:2|0:2,0:0:0:0:
430,222,53094,2,0,P|397:236|342:241,1,76.5000014591217,2|0,0:2|0:2,0:2:0:0:
271,185,53409,6,0,P|197:169|129:211,1,153.000002918243,2|2,1:2|0:2,0:2:0:0:
62,267,53883,1,0,0:2:0:0:
62,267,54041,2,0,P|74:301|86:353,1,76.5000014591217,10|0,0:2|0:2,0:2:0:0:
132,207,54357,2,0,B|122:131|95:141|94:59,2,153.000002918243,2|0|2,0:2|1:2|0:2,0:2:0:0:
375,256,55304,6,0,P|361:291|354:343,1,76.5000014591217,10|0,0:2|0:2,0:2:0:0:
279,230,55620,2,0,B|288:154|316:164|316:82,1,153.000002918243,2|2,0:2|1:2,0:2:0:0:
261,7,56094,1,2,0:2:0:0:
316,83,56251,2,0,P|350:100|387:109,1,76.5000014591217,2|0,0:2|0:2,0:0:0:0:
512,162,56567,2,0,P|443:184|413:252,1,153.000002918243,10|8,0:2|0:1,0:0:0:0:
464,317,57041,1,8,0:1:0:0:
348,300,57199,6,0,P|211:327|91:354,1,242.999992584229,4|0,1:1|0:2,0:2:0:0:
21,308,57830,1,8,0:2:0:0:
136,149,58146,2,0,P|123:112|120:74,1,76.5000014591217,2|0,0:2|0:2,0:2:0:0:
12,104,58462,2,0,P|24:140|28:179,1,76.5000014591217,2|0,1:2|0:2,0:2:0:0:
110,247,58778,2,0,P|151:233|197:235,1,76.5000014591217,2|0,0:2|0:2,0:2:0:0:
245,143,59094,2,0,P|283:141|335:122,1,76.5000014591217,10|0,0:2|0:2,0:2:0:0:
350,227,59409,2,0,B|443:241|425:270|499:281,2,153.000002918243,2|0|0,0:1|1:2|0:2,0:0:0:0:
273,288,60199,5,2,0:2:0:0:
179,254,60357,2,0,P|144:187|162:114,1,153.000002918243,10|2,0:2|0:2,0:2:0:0:
369,19,60988,2,0,P|404:32|457:44,1,76.5000014591217,2|0,1:2|0:2,0:2:0:0:
492,123,61304,2,0,P|479:155|473:206,1,76.5000014591217,2|0,0:2|0:2,0:2:0:0:
379,238,61620,2,0,P|337:220|279:214,1,76.5000014591217,10|0,0:2|0:2,0:0:0:0:
285,112,61936,1,2,0:2:0:0:
285,112,62094,1,2,0:2:0:0:
186,133,62251,6,0,P|141:193|137:268,2,153.000002918243,0|0|8,1:2|0:2|0:2,0:2:0:0:
332,333,63199,2,0,P|345:297|350:259,1,76.5000014591217,2|0,0:2|0:2,0:2:0:0:
231,288,63515,2,0,B|165:288|163:323|76:334,1,153.000002918243,2|2,1:2|0:2,0:2:0:0:
6,307,63988,1,0,0:2:0:0:
32,219,64146,2,0,P|22:181|19:143,1,76.5000014591217,10|0,0:2|0:2,0:2:0:0:
88,70,64462,2,0,P|125:73|162:84,1,76.5000014591217,2|0,0:2|0:0,0:2:0:0:
222,174,64778,5,0,1:2:0:0:
222,174,64936,1,8,0:1:0:0:
301,125,65094,2,0,B|318:91|318:91|314:52,1,76.5000014591217,8|8,0:1|0:1,0:0:0:0:
387,0,65409,1,0,1:2:0:0:
387,0,65567,1,8,0:1:0:0:
467,37,65725,2,0,B|484:71|484:71|480:109,1,76.5000014591217,8|8,0:1|0:1,0:0:0:0:
403,178,66041,1,0,1:2:0:0:
403,178,66199,1,8,0:1:0:0:
429,262,66357,2,0,B|457:285|457:285|514:284,1,76.5000014591217,8|8,0:1|0:1,0:0:0:0:
324,232,66673,6,0,L|21:278,1,306.000005836487,4|0,1:2|0:0,0:0:0:0:
256,192,67462,12,8,69199,0:2:0:0:
134,182,69830,6,2,B|78:136|125:6|299:-9|470:104|376:293|225:250|218:179|260:152,1,485.999985168458,2|12,1:1|0:2,0:1:0:0:
244,171,72357,6,0,P|267:183|293:191,1,53.9999983520508,0|0,1:2|0:0,0:2:0:0:
367,255,72673,2,0,P|392:247|416:234,1,53.9999983520508,0|0,0:2|0:2,0:0:0:0:
472,155,72988,2,0,P|449:105|438:53,1,107.999996704102,0|0,1:2|0:2,0:0:0:0:
368,12,73462,1,0,0:2:0:0:
288,66,73620,2,0,P|267:74|230:88,1,53.9999983520508,0|0,1:0|0:0,0:0:0:0:
152,33,73936,2,0,P|121:29|84:12,1,53.9999983520508
134,132,74251,2,0,P|131:155|118:190,2,53.9999983520508,0|0|0,1:2|0:2|0:2,0:0:0:0:
50,99,74725,1,0,0:2:0:0:
0,181,74883,6,0,P|25:237|35:301,1,107.999996704102,0|2,1:2|0:3,0:2:0:0:
104,345,75357,1,0,0:2:0:0:
182,318,75515,2,0,P|193:290|193:261,1,53.9999983520508,0|0,1:2|0:2,0:2:0:0:
271,221,75830,2,0,P|269:194|259:169,1,53.9999983520508,2|0,0:3|0:2,0:0:0:0:
358,245,76146,2,0,P|403:229|474:231,1,107.999996704102,0|2,1:2|0:3,0:2:0:0:
512,305,76620,1,0,0:2:0:0:
466,377,76778,2,0,P|437:383|394:384,1,53.9999983520508,0|0,1:2|0:2,0:2:0:0:
326,341,77094,1,2,0:3:0:0:
326,341,77251,1,0,0:2:0:0:
239,369,77409,6,0,P|221:318|229:250,1,107.999996704102,0|2,1:2|0:3,0:2:0:0:
281,198,77883,1,0,0:2:0:0:
213,137,78041,2,0,P|191:138|158:150,1,53.9999983520508,0|0,1:2|0:2,0:2:0:0:
97,210,78357,2,0,P|75:208|42:197,1,53.9999983520508,2|0,0:3|0:2,0:2:0:0:
18,113,78673,1,0,1:2:0:0:
239,36,78988,5,2,0:3:0:0:
239,36,79146,1,0,0:2:0:0:
157,60,79304,2,0,P|143:36|138:5,2,53.9999983520508,12|0|0,0:2|0:2|0:2,0:2:0:0:
448,140,79936,6,0,P|481:86|438:134,1,188.999994232178,2|0,1:1|2:2,0:2:0:0:
417,136,80567,6,0,P|387:146|356:152,1,62.9999980773926,8|0,0:2|0:2,0:2:0:0:
279,107,80883,1,2,0:3:0:0:
279,107,81041,1,2,0:2:0:0:
217,181,81199,2,0,P|233:233|237:305,1,125.999996154785,2|2,1:2|0:3,0:2:0:0:
167,362,81673,1,2,0:2:0:0:
71,338,81830,2,0,P|61:313|54:275,1,62.9999980773926,10|0,0:2|0:2,0:2:0:0:
93,190,82146,2,0,P|83:165|76:127,1,62.9999980773926,2|0,0:3|0:2,0:2:0:0:
178,71,82462,6,0,P|188:7|164:67,1,188.999994232178,2|0,1:1|0:2,0:2:0:0:
268,119,83094,2,0,P|299:118|329:110,1,62.9999980773926,10|0,0:2|0:2,0:2:0:0:
380,37,83409,1,2,0:3:0:0:
380,37,83567,1,2,0:2:0:0:
456,74,83725,2,0,P|479:130|480:209,1,125.999996154785,2|2,1:2|0:3,0:2:0:0:
403,250,84199,1,2,0:2:0:0:
441,328,84357,2,0,P|471:342|510:350,1,62.9999980773926,10|0,0:2|0:2,0:2:0:0:
356,348,84673,2,0,P|325:355|297:369,1,62.9999980773926,2|0,0:3|0:2,0:2:0:0:
212,281,84988,6,0,P|203:216|222:278,1,188.999994232178,2|0,1:1|0:2,0:2:0:0:
155,354,85620,2,0,P|124:339|87:330,1,62.9999980773926,10|0,0:2|0:2,0:2:0:0:
0,340,85936,2,0,P|12:300|17:270,1,62.9999980773926,2|0,0:3|0:2,0:2:0:0:
92,233,86251,1,2,1:2:0:0:
92,233,86409,1,2,0:2:0:0:
33,162,86567,2,0,P|18:125|12:93,1,62.9999980773926,2|0,0:3|0:2,0:2:0:0:
144,152,86883,2,0,P|191:127|282:120,1,125.999996154785,10|2,0:2|0:3,0:2:0:0:
335,162,87357,1,0,0:2:0:0:
343,72,87515,6,2,B|313:59|331:12|416:-8|430:96|382:197|351:136|260:234|300:349|422:326|392:234|352:244,1,377.999988464356,2|2,1:1|0:2,0:1:0:0:
105,318,90041,6,0,P|44:332|-9:347,2,107.999996704102,4|0|0,1:2|1:2|1:2,0:2:0:0:
278,179,91936,2,0,L|334:195,1,53.9999983520508,0|0,1:2|0:2,0:2:0:0:
411,298,92567,2,0,P|466:276|522:258,2,107.999996704102,0|0|0,1:2|1:2|1:2,0:2:0:0:
226,177,94462,2,0,P|218:145|215:124,1,53.9999983520508,0|0,1:2|0:2,0:2:0:0:
117,81,95094,2,0,P|65:96|0:108,2,107.999996704102,0|0|0,1:2|1:2|1:2,0:2:0:0:
319,146,96988,6,0,B|362:136|363:129|417:123,1,94.499997116089,0|0,1:2|0:0,0:2:0:0:
479,172,97620,2,0,B|481:233|497:222|499:288,1,108,2|0,1:2|0:2,0:2:0:0:
434,341,98251,2,0,B|376:333|386:318|315:316,1,121.499996292114,2|0,1:2|0:2,0:2:0:0:
248,261,98883,2,0,B|149:278|177:300|96:314,1,161.999995056153,2|0,1:2|0:2,0:2:0:0:
16,275,99515,1,2,0:2:0:0:
247,0,100146,6,0,P|284:114|283:235,1,242.999992584229,4|0,1:1|0:2,0:2:0:0:
204,294,100778,1,8,0:2:0:0:
204,294,100936,1,0,0:0:0:0:
272,353,101094,2,0,P|315:344|349:329,1,76.5000014591217,2|0,0:2|0:0,0:0:0:0:
403,262,101409,2,0,P|440:265|477:278,1,76.5000014591217,2|0,1:2|0:2,0:2:0:0:
463,175,101725,2,0,P|468:139|481:95,1,76.5000014591217,2|0,0:2|0:2,0:2:0:0:
373,138,102041,2,0,P|339:132|290:115,1,76.5000014591217,10|0,0:2|0:2,0:2:0:0:
230,199,102356,2,0,B|225:270|202:272|195:374,2,153.000002918243,2|0|0,0:1|1:2|0:2,0:0:0:0:
24,123,103303,6,0,P|15:85|0:50,1,76.5000014591217,10|0,0:2|0:2,0:2:0:0:
104,14,103619,2,0,P|112:52|127:87,1,76.5000014591217,2|0,0:2|0:2,0:2:0:0:
221,121,103935,2,0,P|316:106|357:65,1,153.000002918243,2|2,1:2|0:2,0:2:0:0:
426,8,104409,1,0,0:2:0:0:
487,72,104567,2,0,P|472:107|468:145,1,76.5000014591217,10|0,0:2|0:2,0:0:0:0:
388,193,104882,1,2,0:2:0:0:
388,193,105040,1,2,0:2:0:0:
457,258,105198,6,0,P|388:299|313:289,1,153.000002918243,0|0,1:2|0:2,0:2:0:0:
241,230,105672,1,0,0:2:0:0:
241,230,105830,2,0,P|252:198|260:149,1,76.5000014591217,8|0,0:2|0:2,0:2:0:0:
228,75,106146,2,0,P|195:61|140:56,1,76.5000014591217,0|0,0:2|0:2,0:0:0:0:
53,88,106461,6,0,B|40:168|19:158|9:236,1,153.000002918243,2|2,1:2|0:2,0:2:0:0:
58,327,106935,1,0,0:2:0:0:
58,327,107093,2,0,P|92:337|143:337,1,76.5000014591217,10|0,0:2|0:2,0:2:0:0:
216,287,107409,2,0,B|213:210|242:216|231:132,2,153.000002918243,2|0|8,0:2|1:2|0:1,0:2:0:0:
283,356,108199,5,8,0:1:0:0:
372,333,108357,2,0,B|387:297|387:297|374:245,1,76.5000014591217,2|8,1:2|0:1,0:2:0:0:
314,177,108673,2,0,B|343:159|343:159|385:160,1,76.5000014591217,8|8,0:1|0:1,0:0:0:0:
465,222,108988,1,0,1:2:0:0:
465,222,109146,1,8,0:1:0:0:
512,142,109304,2,0,B|515:106|515:106|496:70,1,76.5000014591217,8|8,0:1|0:1,0:0:0:0:
397,36,109620,5,12,0:2:0:0:
397,36,110251,6,0,P|299:27|234:100,1,202.500007724762,6|0,1:1|0:2,0:2:0:0:
205,191,110883,2,0,P|212:230|212:275,1,76.5000014591217,8|0,0:2|0:2,0:2:0:0:
140,329,111199,2,0,P|65:326|20:268,1,153.000002918243,2|0,0:2|1:2,0:2:0:0:
60,57,111830,2,0,P|105:56|147:45,1,76.5000014591217,2|0,0:2|0:2,0:0:0:0:
219,100,112146,2,0,P|257:102|309:121,1,76.5000014591217,10|0,0:2|0:2,0:2:0:0:
365,49,112462,2,0,P|403:46|446:27,1,76.5000014591217,2|0,0:2|0:2,0:2:0:0:
420,134,112778,6,0,B|412:209|384:200|374:279,1,153.000002918243,2|2,1:2|0:2,0:0:0:0:
451,361,113251,1,2,0:2:0:0:
451,361,113409,2,0,P|464:325|472:287,1,76.5000014591217,8|0,0:2|0:2,0:2:0:0:
374,278,113725,2,0,P|298:273|232:321,2,153.000002918243,2|0|0,0:2|1:2|0:2,0:2:0:0:
381,50,114673,2,0,P|313:82|241:61,1,153.000002918243,10|0,0:2|0:0,0:2:0:0:
174,0,115146,1,0,0:2:0:0:
124,82,115304,6,0,P|149:154|159:229,1,153.000002918243,2|0,1:2|0:2,0:2:0:0:
75,296,115778,1,0,0:2:0:0:
75,296,115936,2,0,P|62:260|57:222,1,76.5000014591217,8|0,0:2|0:2,0:2:0:0:
170,328,116251,2,0,P|202:316|256:311,1,76.5000014591217,2|0,0:2|0:0,0:2:0:0:
330,346,116567,2,0,P|403:357|467:316,1,153.000002918243,2|2,1:2|0:2,0:2:0:0:
507,239,117040,1,0,0:2:0:0:
507,239,117198,2,0,P|503:198|494:163,1,76.5000014591217,10|0,0:2|0:0,0:2:0:0:
422,105,117514,2,0,P|383:108|347:119,1,76.5000014591217,2|0,0:2|0:2,0:2:0:0:
272,185,117830,6,0,P|201:190|136:149,1,144,2|0,1:2|0:2,0:2:0:0:
0,24,118462,2,0,P|8:55|17:109,1,72,10|0,0:2|0:2,0:2:0:0:
45,185,118778,2,0,P|34:220|26:255,1,72,2|0,0:2|0:2,0:2:0:0:
86,325,119094,2,0,P|159:331|216:290,1,144,2|2,1:2|0:2,0:0:0:0:
181,207,119567,1,2,0:2:0:0:
214,292,119725,2,0,P|245:301|290:317,1,72,10|0,0:2|0:2,0:2:0:0:
374,281,120041,2,0,P|383:250|394:203,1,72,2|0,0:2|0:2,0:2:0:0:
299,148,120357,6,0,P|381:167|450:116,1,175.499991966248,4|0,1:1|0:2,0:2:0:0:
420,31,120988,2,0,P|383:26|337:6,1,76.5000014591217,8|0,0:2|0:2,0:2:0:0:
250,25,121304,2,0,P|214:104|216:185,1,153.000002918243,2|0,0:2|1:2,0:2:0:0:
398,334,121936,2,0,P|412:296|414:258,1,76.5000014591217,2|0,0:2|0:2,0:0:0:0:
483,183,122251,2,0,P|447:169|409:162,1,76.5000014591217,10|0,0:2|0:2,0:2:0:0:
326,112,122567,2,0,P|314:140|312:188,1,76.5000014591217,2|0,0:2|0:2,0:2:0:0:
221,274,122883,6,0,P|148:292|80:261,1,153.000002918243,2|2,1:2|0:2,0:0:0:0:
18,191,123357,1,2,0:2:0:0:
18,191,123515,2,0,P|26:147|31:97,1,76.5000014591217,8|0,0:2|0:2,0:2:0:0:
92,41,123830,2,0,P|165:24|233:56,2,153.000002918243,2|0|0,0:2|1:2|0:2,0:2:0:0:
104,264,124778,2,0,P|178:272|241:231,1,153.000002918243,10|0,0:2|0:0,0:2:0:0:
267,149,125251,1,0,0:2:0:0:
188,116,125409,6,0,B|104:123|121:149|43:163,1,153.000002918243,2|0,1:2|0:2,0:2:0:0:
0,238,125883,1,0,0:2:0:0:
0,238,126041,2,0,P|10:274|21:328,1,76.5000014591217,8|0,0:2|0:2,0:2:0:0:
104,376,126357,2,0,P|112:340|124:301,1,76.5000014591217,2|0,0:2|0:0,0:2:0:0:
200,249,126673,2,0,P|274:236|339:273,1,153.000002918243,2|2,1:2|0:2,0:2:0:0:
396,344,127146,1,0,0:2:0:0:
454,274,127304,2,0,B|463:202|491:207|512:133,1,153.000002918243,10|0,0:2|0:0,0:2:0:0:
234,3,127936,6,0,B|230:41|230:41|249:73,1,76.5000014591217,0|8,1:2|0:1,0:0:0:0:
339,109,128251,1,8,0:1:0:0:
339,109,128409,1,8,0:1:0:0:
308,196,128567,2,0,B|276:215|276:215|236:212,1,76.5000014591217,0|8,1:2|0:1,0:2:0:0:
160,150,128883,1,8,0:1:0:0:
160,150,129041,1,8,0:1:0:0:
72,182,129199,2,0,B|51:212|51:212|50:264,1,76.5000014591217,0|8,1:2|0:1,0:0:0:0:
116,327,129515,1,8,0:1:0:0:
116,327,129673,1,8,0:1:0:0:
213,293,129830,6,0,B|393:319|225:301|407:328,1,198.000006042481,12|4,1:1|0:3,0:2:0:0:
90,328,145620,6,0,L|41:340,3,49.5000015106202,0|0|0|0,1:2|0:2|0:2|0:2,0:2:0:0:
15,252,146251,2,0,L|69:238,3,49.5000015106202,0|0|0|0,1:2|0:2|0:2|0:2,0:2:0:0:
113,155,146883,2,0,L|101:101,3,49.5000015106202,0|0|0|0,1:2|0:2|0:2|0:2,0:2:0:0:
193,81,147515,2,0,L|205:130,3,49.5000015106202,0|0|0|0,1:2|0:2|0:2|0:2,0:2:0:0:
293,164,148146,6,0,L|341:152,1,49.5000015106202,0|0,1:2|0:2,0:0:0:0:
400,85,148462,2,0,L|448:96,1,49.5000015106202,0|0,0:2|0:2,0:0:0:0:
512,181,148778,2,0,L|460:196,1,49.5000015106202,0|0,1:2|0:2,0:0:0:0:
413,268,149094,2,0,L|354:250,3,49.5000015106202,0|0|0|0,0:2|0:2|1:2|0:2,0:0:0:0:
286,300,149725,2,0,L|274:348,1,49.5000015106202,2|0,0:2|0:2,0:2:0:0:
185,328,150041,2,0,L|196:279,1,49.5000015106202,2|0,1:2|0:2,0:2:0:0:
167,197,150357,6,0,L|101:182,1,49.5000015106202,2|0,0:2|0:2,0:2:0:0:
42,230,150673,1,0,1:2:0:0:
42,230,150830,1,0,0:2:0:0:
0,145,150988,2,0,L|14:81,1,49.5000015106202,0|0,0:2|0:2,0:0:0:0:
84,36,151304,1,0,1:2:0:0:
84,36,151462,1,0,0:2:0:0:
152,90,151620,2,0,L|213:102,1,49.5000015106202,0|0,0:2|0:2,0:0:0:0:
260,37,151936,2,0,L|318:25,3,49.5000015106202,0|0|2|0,1:2|0:2|0:2|0:2,0:2:0:0:
391,68,152567,2,0,L|378:118,1,49.5000015106202,2|0,1:2|0:2,0:2:0:0:
307,170,152883,2,0,L|319:228,1,49.5000015106202,2|0,0:2|0:2,0:2:0:0:
407,249,153199,5,0,1:2:0:0:
407,249,153357,1,0,0:2:0:0:
369,326,153515,2,0,L|304:347,1,49.5000015106202,2|0,0:2|0:2,0:0:0:0:
242,295,153830,1,0,1:2:0:0:
242,295,153988,1,0,0:2:0:0:
162,349,154146,2,0,L|98:329,1,49.5000015106202,2|0,0:2|0:2,0:0:0:0:
74,249,154462,1,0,1:2:0:0:
256,192,154620,12,12,157620,0:2:0:0:
26,265,158251,6,0,B|72:249|168:287|111:289|168:347|264:323,1,242.999992584229,4|0,1:1|0:2,0:2:0:0:
342,296,158883,2,0,P|348:251|360:216,1,76.5000014591217,10|0,0:2|0:0,0:2:0:0:
326,127,159199,2,0,P|290:122|247:102,1,76.5000014591217,2|0,0:2|0:2,0:2:0:0:
166,158,159515,2,0,P|80:152|32:95,1,153.000002918243,2|2,1:2|0:2,0:2:0:0:
52,21,159988,1,0,0:2:0:0:
52,21,160146,2,0,P|99:14|135:-6,1,76.5000014591217,10|0,0:2|0:2,0:2:0:0:
228,37,160462,2,0,B|255:83|230:120|254:186,2,153.000002918243,2|0|0,0:1|1:2|0:2,0:0:0:0:
34,217,161409,6,0,P|68:231|112:239,1,76.5000014591217,10|0,0:2|0:2,0:2:0:0:
172,317,161725,2,0,P|211:315|255:300,1,76.5000014591217,2|0,0:2|0:2,0:2:0:0:
345,345,162041,2,0,P|393:287|399:211,1,153.000002918243,2|2,1:2|0:2,0:2:0:0:
323,153,162515,1,0,0:2:0:0:
341,68,162673,2,0,P|367:53|435:46,1,76.5000014591217,10|0,0:2|0:2,0:0:0:0:
499,94,162988,1,2,0:2:0:0:
499,94,163146,1,2,0:2:0:0:
461,169,163304,6,0,B|472:235|454:256|481:349,2,153.000002918243,0|0|8,1:2|0:2|0:2,0:2:0:0:
346,34,164251,2,0,P|318:40|265:46,1,76.5000014591217,2|0,0:2|0:2,0:0:0:0:
197,107,164567,2,0,P|122:107|67:56,1,153.000002918243,2|2,1:2|0:2,0:2:0:0:
0,120,165041,1,0,0:2:0:0:
0,120,165199,2,0,P|10:155|12:212,1,76.5000014591217,10|0,0:2|0:2,0:2:0:0:
20,300,165515,2,0,P|81:257|156:263,2,153.000002918243,2|0|0,0:2|1:2|0:2,0:0:0:0:
353,365,166462,6,0,P|355:326|366:290,1,76.5000014591217,10|0,0:2|0:2,0:2:0:0:
417,213,166778,2,0,P|355:255|280:249,2,153.000002918243,2|0|2,0:2|1:2|0:2,0:0:0:0:
428,119,167567,1,0,0:2:0:0:
428,119,167725,2,0,P|412:80|408:24,1,76.5000014591217,10|0,0:2|0:2,0:0:0:0:
322,2,168041,1,8,0:1:0:0:
322,2,168199,1,8,0:1:0:0:
242,65,168357,6,0,B|253:261|250:113|258:307,1,242.999992584229,4|0,1:1|0:2,0:2:0:0:
191,373,168988,1,8,0:2:0:0:
23,281,169304,2,0,P|26:237|17:184,1,76.5000014591217,2|0,0:2|0:2,0:2:0:0:
90,139,169620,2,0,P|86:101|89:62,1,76.5000014591217,2|0,1:2|0:2,0:2:0:0:
185,104,169936,2,0,P|233:101|275:105,1,76.5000014591217,2|0,0:2|0:2,0:2:0:0:
329,35,170251,2,0,P|367:37|405:34,1,76.5000014591217,10|0,0:2|0:2,0:2:0:0:
481,106,170567,2,0,B|479:178|459:176|453:256,1,153.000002918243,2|0,0:1|1:2,0:0:0:0:
266,367,171199,6,0,P|260:329|248:294,1,76.5000014591217,2|2,0:2|0:2,0:0:0:0:
331,207,171515,2,0,P|337:245|350:281,1,76.5000014591217,10|0,0:2|0:2,0:2:0:0:
247,293,171830,2,0,P|212:279|156:274,1,76.5000014591217,2|0,0:2|0:2,0:2:0:0:
121,191,172146,2,0,P|193:172|234:110,1,153.000002918243,2|2,1:2|0:2,0:2:0:0:
204,26,172620,1,0,0:2:0:0:
204,26,172778,2,0,P|165:15|120:-3,1,76.5000014591217,10|0,0:2|0:2,0:0:0:0:
39,17,173094,1,2,0:2:0:0:
39,17,173251,1,2,0:2:0:0:
60,113,173409,2,0,B|47:193|14:179|0:252,2,153.000002918243,0|0|8,1:2|0:2|0:2,0:2:0:0:
239,34,174357,6,0,P|264:46|325:61,1,76.5000014591217,2|0,0:2|0:2,0:2:0:0:
391,123,174673,2,0,P|428:113|462:97,1,76.5000014591217,2|0,1:2|0:0,0:2:0:0:
457,206,174988,2,0,P|471:243|480:285,1,76.5000014591217,2|0,0:2|0:2,0:2:0:0:
379,274,175304,2,0,P|353:287|299:297,1,76.5000014591217,10|0,0:2|0:2,0:2:0:0:
324,195,175620,2,0,P|288:129|314:54,2,153.000002918243,2|0|8,0:2|1:2|0:1,0:2:0:0:
306,296,176409,5,8,0:1:0:0:
232,252,176567,2,0,B|191:252|191:252|161:272,1,76.5000014591217,2|8,1:1|0:1,0:0:0:0:
126,364,176883,1,8,0:1:0:0:
126,364,177041,1,8,0:1:0:0:
34,320,177199,2,0,B|14:286|14:286|18:239,1,76.5000014591217,2|8,1:1|0:1,0:0:0:0:
86,185,177515,1,8,0:1:0:0:
86,185,177673,1,8,0:1:0:0:
182,216,177830,6,0,B|232:202|232:202|256:172|256:172|315:150,1,135,6|0,1:1|0:2,0:2:0:0:
391,202,178462,6,0,P|282:188|243:85,1,229.500004377365,4|0,1:1|0:2,0:2:0:0:
290,9,179094,2,0,P|324:17|372:13,1,76.5000014591217,8|0,0:2|0:2,0:2:0:0:
469,47,179409,2,0,B|465:109|502:128|500:195,1,153.000002918243,2|0,0:2|1:2,0:2:0:0:
351,351,180041,2,0,P|338:315|336:269,1,76.5000014591217,2|0,0:2|0:2,0:2:0:0:
281,200,180357,2,0,P|213:167|140:184,1,153.000002918243,10|2,0:2|0:2,0:2:0:0:
90,265,180830,1,0,0:2:0:0:
16,208,180988,6,0,B|-8:133|20:119|0:56,1,153.000002918243,2|2,1:2|0:2,0:0:0:0:
81,8,181462,1,2,0:2:0:0:
81,8,181620,2,0,P|123:7|181:-9,1,76.5000014591217,8|0,0:2|0:2,0:2:0:0:
225,70,181936,2,0,P|288:31|362:44,2,153.000002918243,2|0|0,0:2|1:2|0:2,0:2:0:0:
251,244,182883,2,0,P|325:255|388:215,1,153.000002918243,10|0,0:2|0:0,0:2:0:0:
348,125,183357,1,0,0:2:0:0:
270,155,183515,6,0,B|185:164|204:176|120:184,1,153.000002918243,2|0,1:2|0:2,0:2:0:0:
44,142,183988,1,0,0:0:0:0:
44,142,184146,2,0,P|55:99|58:60,1,76.5000014591217,10|0,0:2|0:2,0:2:0:0:
120,184,184462,2,0,P|111:216|105:272,1,76.5000014591217,2|0,0:2|0:0,0:2:0:0:
166,332,184778,2,0,P|236:356|306:328,1,153.000002918243,2|2,1:2|0:2,0:2:0:0:
384,282,185251,1,0,0:2:0:0:
314,218,185409,6,0,P|387:173|470:193,1,175.499991966248,10|0,0:2|0:2,0:2:0:0:
512,119,186041,2,0,L|482:278,1,161.999995056153,2|0,1:2|0:2,0:2:0:0:
233,375,187304,1,2,0:2:0:0:
143,277,187620,1,2,0:2:0:0:
268,183,187936,2,0,L|321:198,1,40.4999987640381,2|2,0:2|0:2,0:2:0:0:
391,267,188251,2,0,L|335:284,1,40.4999987640381,2|2,0:2|0:2,0:2:0:0:
263,285,188567,5,4,1:2:0:0:
