osu file format v14

[General]
AudioFilename: audio.ogg
AudioLeadIn: 0
PreviewTime: 110165
Countdown: 0
SampleSet: Soft
StackLeniency: 0.8
Mode: 0
LetterboxInBreaks: 0
WidescreenStoryboard: 1

[Editor]
Bookmarks: 16774,26891,36996,47086,57197,110247,130458,145616
DistanceSpacing: 0.4
BeatDivisor: 8
GridSize: 32
TimelineZoom: 1.9

[Metadata]
Title:Ticking Away
TitleUnicode:Ticking Away
Artist:Grabbitz & bbno$
ArtistUnicode:Grabbitz & bbno$
Creator:AirinCat
Version:Fujirin's Insane
Source:VALORANT
Tags:fuju kyouren kittyadventure gokugohan12468 vct championship 2023 riot games electronic pop english edm tour​ tournament tourney video game bbnomula bb mula baby no money bbnomoney hip hop hiphop rap hip-hop collab collaboration
BeatmapID:4252849
BeatmapSetID:2037388

[Difficulty]
HPDrainRate:5
CircleSize:4
OverallDifficulty:7
ApproachRate:9
SliderMultiplier:3.2
SliderTickRate:1

[Events]
//Background and Video events
0,0,"fdsfdsfdfdseenshot.jpg",0,0
Video,0,"tick.mp4"
//Break Periods
2,130661,145020
//Storyboard Layer 0 (Background)
//Storyboard Layer 1 (Fail)
//Storyboard Layer 2 (Pass)
//Storyboard Layer 3 (Foreground)
//Storyboard Layer 4 (Overlay)
//Storyboard Sound Samples

[TimingPoints]
6673,631.578947368421,4,2,2,30,1,0
6673,-111.111111111111,4,2,2,30,0,0
15515,-83.3333333333333,4,2,2,40,0,0
16146,-76.9230769230769,4,2,2,50,0,0
16778,-105.263157894737,4,3,1,50,0,0
36988,-222.222222222221,4,2,1,40,0,0
37620,-133.333333333333,4,2,1,40,0,0
42041,-105.263157894737,4,2,1,50,0,0
44409,-153.846153846154,4,2,1,50,0,0
46462,-200,4,2,1,70,0,0
47094,-86.9565217391304,4,3,1,70,0,0
47725,-95.2380952380952,4,3,1,70,0,0
57199,-86.9565217391304,4,3,1,70,0,0
57830,-95.2380952380951,4,3,1,70,0,0
66673,-181.818181818182,4,3,1,70,0,0
69830,-142.857142857143,4,2,1,50,0,0
72357,-105.263157894737,4,3,1,40,0,0
79304,-181.818181818182,4,3,1,40,0,0
80567,-100,4,2,1,60,0,0
82462,-142.857142857143,4,2,1,60,0,0
83094,-100,4,2,1,60,0,0
84988,-142.857142857143,4,2,1,60,0,0
85462,-100,4,2,1,60,0,0
87515,-250.000000000001,4,2,1,60,0,0
87594,-250.000000000001,4,2,2,10,0,0
87830,-250.000000000001,4,2,1,20,0,0
88146,-250.000000000001,4,2,2,30,0,0
88462,-250.000000000001,4,2,1,40,0,0
88778,-250.000000000001,4,2,2,60,0,0
89094,-250.000000000001,4,2,1,70,0,0
90041,-333.333333333336,4,2,1,30,0,0
96988,-200.000000000001,4,2,1,40,0,0
97620,-166.666666666667,4,2,1,50,0,0
98251,-125,4,2,1,50,0,0
98883,-100,4,2,1,50,0,0
99515,-333.333333333336,4,2,1,40,0,0
100146,-86.9565217391303,4,3,1,70,0,0
100778,-95.2380952380951,4,3,1,70,0,0
110251,-74.0740740740741,4,3,1,70,0,0
110883,-95.2380952380952,4,3,1,70,0,0
120357,-86.9565217391304,4,3,1,70,0,0
120988,-95.2380952380952,4,3,1,70,0,0
124778,-95.2380952380952,4,3,1,70,0,0
127936,-133.333333333333,4,3,1,70,0,0
129830,-222.222222222222,4,3,1,60,0,0
157620,-166.666666666667,4,2,1,70,0,0
158251,-71.4285714285714,4,3,1,70,0,1
158883,-90.9090909090909,4,3,1,70,0,1
168357,-90.9090909090909,4,3,1,70,0,1
168988,-90.9090909090909,4,3,1,70,0,1
177830,-142.857142857143,4,3,1,70,0,0
178462,-76.9230769230769,4,3,1,70,0,0
179094,-90.9090909090909,4,3,1,70,0,0
182883,-90.9090909090909,4,3,1,70,0,0
183515,-90.9090909090909,4,3,1,70,0,0
185409,-125,4,3,1,70,0,0
186041,-200,4,2,1,50,0,0

[Colours]
Combo1 : 240,85,85
Combo2 : 159,87,240
Combo3 : 219,112,241

[HitObjects]
0,220,16778,6,0,B|80:188|69:219|147:186,1,151.999995941162,0|0,1:2|0:2,0:2:0:0:
201,239,17251,1,0,0:2:0:0:
34,311,17409,2,0,P|69:324|106:331,1,75.9999979705811,10|0,0:2|0:2,0:2:0:0:
278,244,17725,2,0,P|271:188|237:142,1,113.999996955872,2|0,0:2|0:0,0:2:0:0:
237,142,18041,6,0,P|272:155|309:162,1,75.9999979705811,2|0,1:2|0:0,0:2:0:0:
153,43,18357,2,0,P|117:53|87:76,1,75.9999979705811,0|0,0:2|0:2,0:0:0:0:
430,158,18673,2,0,P|372:109|300:87,1,151.999995941162,10|2,0:2|0:2,0:2:0:0:
373,203,19146,5,0,0:0:0:0:
373,203,19304,2,0,P|380:240|383:278,1,75.9999979705811,0|0,1:2|0:2,0:0:0:0:
386,379,19620,1,0,0:2:0:0:
457,270,19778,1,0,0:2:0:0:
298,258,19936,6,0,B|244:246|244:246|201:255|201:255|149:243,1,151.999995941162,8|0,0:2|0:2,0:2:0:0:
149,243,20567,2,0,P|114:259|77:267,1,75.9999979705811,0|0,1:2|0:2,0:0:0:0:
122,126,20883,2,0,P|154:146|190:159,1,75.9999979705811,0|0,0:0|0:2,0:0:0:0:
202,384,21199,6,0,P|207:327|231:276,1,113.999996955872,10|0,0:2|0:0,0:2:0:0:
231,276,21515,1,2,0:2:0:0:
295,377,21673,1,0,0:0:0:0:
310,251,21830,2,0,P|329:283|338:320,1,75.9999979705811,0|0,1:2|0:2,0:0:0:0:
326,126,22146,2,0,P|363:119|401:120,1,75.9999979705811,2|0,0:2|0:0,0:2:0:0:
122,126,22462,6,0,P|183:169|258:178,1,151.999995941162,8|0,0:2|0:2,0:0:0:0:
258,178,22857,1,0,0:0:0:0:
258,178,22936,1,0,0:2:0:0:
185,87,23094,2,0,P|177:49|175:11,1,75.9999979705811,0|0,1:2|0:2,0:2:0:0:
115,215,23409,2,0,P|122:252|124:290,1,75.9999979705811,2|0,0:2|0:2,0:2:0:0:
49,280,23725,1,10,0:2:0:0:
256,104,24041,6,0,P|325:74|400:59,1,151.999995941162,2|0,0:2|1:2,0:2:0:0:
400,59,24673,1,2,0:2:0:0:
360,124,24830,1,0,0:0:0:0:
188,148,24988,6,0,P|221:165|257:177,1,75.9999979705811,8|0,0:2|0:2,0:0:0:0:
431,208,25304,2,0,P|430:170|435:133,1,75.9999979705811,2|0,0:2|0:0,0:2:0:0:
256,104,25620,1,0,1:2:0:0:
256,104,25778,1,0,0:2:0:0:
351,277,25936,6,0,P|355:239|354:201,1,75.9999979705811,2|0,0:2|0:2,0:0:0:0:
188,0,26251,2,0,P|183:37|184:75,1,75.9999979705811,10|0,0:2|0:2,0:2:0:0:
115,215,26567,1,8,0:1:0:0:
256,104,26725,1,8,0:1:0:0:
29,212,26883,6,0,P|84:263|157:277,1,151.999995941162,0|2,1:2|0:2,0:2:0:0:
338,204,27357,1,0,0:2:0:0:
338,204,27515,2,0,P|296:214|261:227,1,75.9999979705811,10|0,0:2|0:2,0:2:0:0:
394,368,27830,2,0,P|408:324|419:282,1,75.9999979705811,2|0,0:2|0:2,0:2:0:0:
431,84,28146,2,0,P|419:161|467:227,1,151.999995941162,2|2,1:2|0:2,0:2:0:0:
512,159,28620,1,0,0:2:0:0:
331,133,28778,2,0,P|297:140|249:163,1,75.9999979705811,10|0,0:2|0:2,0:2:0:0:
181,111,29094,1,2,0:2:0:0:
259,156,29251,1,0,0:0:0:0:
133,303,29409,6,0,P|93:239|93:164,1,151.999995941162,0|0,1:2|0:2,0:0:0:0:
170,207,29883,1,0,0:2:0:0:
33,299,30041,2,0,P|14:260|15:223,1,75.9999979705811,8|0,0:2|0:0,0:2:0:0:
220,269,30357,2,0,P|257:275|302:295,1,75.9999979705811,0|0,0:2|0:2,0:0:0:0:
444,191,30673,1,0,1:2:0:0:
444,191,30830,1,0,0:2:0:0:
388,281,30988,6,0,P|369:248|364:210,1,75.9999979705811,2|0,0:2|0:2,0:2:0:0:
467,46,31304,2,0,P|484:78|493:116,1,75.9999979705811,10|0,0:2|0:2,0:2:0:0:
192,79,31620,2,0,P|265:67|331:102,1,151.999995941162,2|0,0:2|1:2,0:2:0:0:
331,102,32251,1,2,0:2:0:0:
400,72,32409,1,0,0:2:0:0:
278,190,32567,2,0,P|351:200|417:164,1,151.999995941162,8|0,0:2|0:2,0:2:0:0:
485,101,33041,1,0,0:2:0:0:
485,101,33199,2,0,P|500:129|515:196,1,75.9999979705811,0|0,1:2|0:2,0:2:0:0:
335,382,33515,6,0,P|316:349|311:296,1,75.9999979705811,2|0,0:2|0:2,0:2:0:0:
506,315,33830,2,0,P|476:337|425:347,1,75.9999979705811,10|0,0:2|0:2,0:2:0:0:
209,246,34146,2,0,P|219:171|269:115,1,151.999995941162,2|0,0:2|1:2,0:2:0:0:
338,89,34620,1,0,0:2:0:0:
350,242,34778,6,0,P|371:211|383:175,1,75.9999979705811,2|0,0:2|0:2,0:2:0:0:
185,35,35094,2,0,P|163:65|150:101,1,75.9999979705811,10|0,0:2|0:2,0:2:0:0:
0,164,35409,2,0,P|57:235|140:240,1,151.999995941162,2|0,0:2|1:2,0:2:0:0:
243,236,35883,1,0,0:2:0:0:
209,384,36041,2,0,P|191:346|183:309,1,75.9999979705811,2|2,0:2|0:2,0:0:0:0:
296,105,36357,2,0,P|317:141|323:189,1,75.9999979705811,10|0,0:2|0:2,0:2:0:0:
209,154,36673,5,8,0:1:0:0:
375,62,36830,1,8,0:1:0:0:
149,108,36988,6,0,P|132:105|114:99,3,35.9999989013672,2|0|0|0,1:2|0:0|0:0|0:2,0:2:0:0:
246,157,37620,2,0,P|274:148|304:143,1,60.0000022888184,2|2,1:2|0:2,0:0:0:0:
206,46,37936,1,2,0:2:0:0:
206,46,38094,1,2,0:2:0:0:
136,189,38251,6,0,B|121:256|140:240|124:308,1,120.000004577637,2|0,1:2|0:2,0:2:0:0:
64,195,38725,2,0,P|56:166|46:137,1,60.0000022888184,2|0,0:2|1:2,0:2:0:0:
211,224,39041,2,0,P|239:231|268:241,1,60.0000022888184,2|0,0:2|0:2,0:2:0:0:
5,384,39357,6,0,P|91:371|142:300,1,180.000006866455,2|0,0:2|0:0,0:0:0:0:
142,299,40146,2,0,P|140:269|134:239,1,60.0000022888184,2|2,1:2|0:2,0:0:0:0:
0,284,40462,2,0,P|28:292|58:298,1,60.0000022888184,2|2,0:2|0:2,0:0:0:0:
314,179,40778,2,0,P|262:149|203:146,1,120.000004577637,2|0,1:2|0:2,0:2:0:0:
55,165,41251,2,0,P|56:194|62:224,1,60.0000022888184,2|0,0:2|1:2,0:2:0:0:
223,384,41567,2,0,P|221:354|215:324,1,60.0000022888184,2|0,0:2|0:2,0:2:0:0:
137,187,41883,1,2,0:2:0:0:
137,187,42041,5,8,1:1:0:0:
257,99,42199,1,8,0:1:0:0:
34,129,42357,5,8,0:1:0:0:
209,218,42515,1,8,0:1:0:0:
137,35,42673,6,0,B|120:69|120:69|116:106,1,75.9999979705811,8|8,1:1|0:1,0:0:0:0:
148,262,42988,5,8,0:1:0:0:
332,99,43146,1,8,0:1:0:0:
307,249,43304,2,0,B|303:211|303:211|286:177,1,75.9999979705811,8|8,1:1|0:1,0:0:0:0:
216,28,43620,1,8,0:1:0:0:
374,170,43778,2,0,P|410:181|445:195,1,75.9999979705811,8|8,0:1|1:1,0:0:0:0:
357,27,44094,2,0,P|345:63|331:98,1,75.9999979705811,8|8,0:1|0:1,0:0:0:0:
217,377,44409,5,8,0:1:0:0:
217,377,44567,2,0,B|168:303|234:225|234:225,1,155.999992858887
425,265,45199,1,0,0:0:0:0:
425,265,45357,2,0,P|400:272|375:281,1,51.999997619629
342,384,45673,2,0,P|334:359|325:334,1,51.999997619629
325,334,45988,2,0,P|313:339|301:344,2,25.9999988098145
510,220,46304,5,0,0:0:0:0:
510,220,46462,2,0,P|454:196|395:191,1,120,12|0,0:2|0:0,0:2:0:0:
382,0,47094,6,0,P|327:72|322:162,1,184.000003509522,4|0,1:1|0:0,0:2:0:0:
338,379,47567,1,0,0:2:0:0:
137,275,47725,2,0,P|172:252|212:239,1,83.9999974365235,10|0,0:2|0:2,0:2:0:0:
212,0,48041,2,0,P|234:35|247:75,1,83.9999974365235,2|0,0:2|0:2,0:2:0:0:
371,270,48357,5,2,1:2:0:0:
371,270,48673,2,0,P|350:264|330:258,1,41.9999987182618,2|0,0:2|0:0,0:2:0:0:
279,315,48830,2,0,P|258:320|238:326,1,41.9999987182618,0|0,0:2|0:0,0:0:0:0:
115,129,48988,2,0,P|177:131|232:159,1,125.999996154785,10|0,0:2|0:0,0:2:0:0:
232,159,49304,6,0,P|228:200|212:239,1,83.9999974365235,2|0,0:1|0:1,0:0:0:0:
132,384,49620,2,0,P|115:345|112:303,1,83.9999974365235,0|0,1:2|0:0,0:2:0:0:
265,27,49936,6,0,P|307:98|313:181,1,167.999994873047,2|10,0:2|0:2,0:0:0:0:
313,181,50567,2,0,P|353:172|391:154,1,83.9999974365235,2|0,0:2|0:2,0:2:0:0:
506,271,50883,1,2,1:2:0:0:
406,227,51041,1,0,0:2:0:0:
307,384,51199,6,0,P|311:342|329:304,1,83.9999974365235,2|0,0:2|0:2,0:2:0:0:
443,98,51515,2,0,P|461:135|465:177,1,83.9999974365235,10|0,0:2|0:2,0:0:0:0:
272,250,51830,1,2,0:2:0:0:
431,322,51988,1,2,0:2:0:0:
369,75,52146,6,0,B|307:61|307:61|262:75|262:75|205:63,1,167.999994873047,0|0,1:2|0:2,0:2:0:0:
196,248,52620,1,0,0:2:0:0:
223,171,52778,2,0,P|161:181|105:209,1,125.999996154785,8|0,0:2|0:0,0:0:0:0:
105,209,53094,6,0,P|99:250|86:290,1,83.9999974365235,2|0,0:2|0:2,0:2:0:0:
367,176,53409,2,0,P|332:152|292:141,1,83.9999974365235,2|0,1:2|0:0,0:2:0:0:
91,366,53725,2,0,P|131:355|165:331,1,83.9999974365235,2|0,0:2|0:2,0:0:0:0:
249,71,54041,2,0,P|226:105|216:146,1,83.9999974365235,10|0,0:2|0:2,0:2:0:0:
234,377,54357,1,2,0:2:0:0:
234,377,54673,5,0,1:2:0:0:
284,203,54830,1,2,0:2:0:0:
184,237,54988,2,0,P|143:233|103:219,1,83.9999974365235,2|2,0:2|0:2,0:0:0:0:
249,71,55304,2,0,P|306:45|368:43,1,125.999996154785,10|0,0:2|0:0,0:2:0:0:
368,43,55620,2,0,P|389:78|398:119,1,83.9999974365235,2|0,0:2|0:0,0:2:0:0:
396,264,55936,1,2,1:2:0:0:
470,93,56094,1,2,0:2:0:0:
512,160,56251,6,0,P|474:178|433:189,1,83.9999974365235,2|0,0:2|0:2,0:0:0:0:
325,384,56567,2,0,P|301:326|305:263,1,125.999996154785,10|0,0:2|0:0,0:0:0:0:
305,263,56883,1,8,0:1:0:0:
435,336,57041,1,8,0:1:0:0:
172,235,57199,6,0,B|214:169|294:160|294:160|324:178,1,184.000003509522,4|0,1:1|0:0,0:2:0:0:
404,192,57673,1,0,0:2:0:0:
227,85,57830,2,0,P|208:43|205:-2,1,83.9999974365235,8|0,0:2|0:0,0:2:0:0:
434,62,58146,2,0,P|403:79|351:96,1,83.9999974365235,2|0,0:2|0:2,0:2:0:0:
105,253,58462,2,0,B|170:257|177:278|240:279,1,125.999996154785,2|0,1:2|0:0,0:0:0:0:
227,278,58778,2,0,P|242:237|243:191,1,83.9999974365235,2|0,0:2|0:0,0:0:0:0:
131,8,59094,2,0,P|99:62|96:124,1,125.999996154785,10|0,0:2|0:0,0:2:0:0:
96,124,59409,6,0,P|56:113|11:108,1,83.9999974365235,2|0,0:1|0:2,0:0:0:0:
291,57,59725,2,0,P|330:75|369:84,1,83.9999974365235,0|0,1:2|0:0,0:2:0:0:
271,312,60041,2,0,P|217:250|221:168,2,167.999994873047,2|10|2,0:2|0:2|0:2,0:0:0:0:
461,251,60830,1,0,0:2:0:0:
433,160,60988,2,0,P|395:142|353:136,1,83.9999974365235,2|0,1:2|0:2,0:2:0:0:
116,222,61304,2,0,P|153:241|194:247,1,83.9999974365235,2|0,0:2|0:2,0:2:0:0:
265,28,61620,2,0,P|248:71|244:109,1,83.9999974365235,10|0,0:2|0:2,0:0:0:0:
334,384,61936,5,2,0:2:0:0:
439,295,62094,1,2,0:2:0:0:
316,217,62251,2,0,P|233:226|179:295,1,167.999994873047,0|0,1:2|0:2,0:2:0:0:
148,360,62725,1,0,0:2:0:0:
132,205,62883,2,0,B|115:150|91:155|75:89,1,125.999996154785,8|0,0:2|0:0,0:0:0:0:
77,92,63199,2,0,P|42:114|1:123,1,83.9999974365235,2|0,0:2|0:2,0:2:0:0:
353,177,63515,6,0,B|423:191|422:215|482:230,1,125.999996154785,2|0,1:2|0:0,0:2:0:0:
468,226,63830,2,0,P|448:265|440:305,1,83.9999974365235,2|0,0:2|0:2,0:0:0:0:
282,380,64146,2,0,P|278:338|266:297,1,83.9999974365235,10|0,0:2|0:2,0:2:0:0:
457,73,64462,2,0,P|409:113|347:119,1,125.999996154785,2|0,0:2|0:0,0:2:0:0:
347,119,64778,6,0,P|329:80|322:39,1,83.9999974365235,0|8,1:2|0:1,0:0:0:0:
485,205,65094,1,8,0:1:0:0:
485,205,65251,1,8,0:1:0:0:
342,251,65409,2,0,P|280:230|245:222,1,83.9999974365235,0|8,1:2|0:1,0:0:0:0:
128,85,65725,2,0,P|183:70|210:58,1,83.9999974365235,8|8,0:1|0:1,0:0:0:0:
204,302,66041,5,0,1:2:0:0:
105,159,66199,1,8,0:1:0:0:
204,302,66357,1,8,0:1:0:0:
285,127,66515,5,8,0:1:0:0:
0,173,66673,2,0,P|65:240|155:246,1,176.000005371094,4|0,1:2|0:0,0:0:0:0:
256,192,67462,12,8,69199,0:2:0:0:
235,259,69830,6,2,B|277:264|352:244|358:42|203:-10|42:12|-42:102|22:269|119:262|160:227|228:204|188:116,1,671.999979492188,2|12,1:1|0:2,0:1:0:0:
188,117,72357,6,0,P|194:79|194:41,1,75.9999979705811,0|0,1:2|0:0,0:2:0:0:
228,183,72673,2,0,P|227:220|234:258,1,75.9999979705811,0|0,0:2|0:2,0:0:0:0:
272,115,72988,1,0,1:2:0:0:
272,115,73146,1,0,0:2:0:0:
124,157,73304,2,0,P|86:157|48:150,1,75.9999979705811,0|0,0:2|0:2,0:0:0:0:
235,259,73620,5,0,1:0:0:0:
164,327,73778,2,0,B|242:290|235:334|308:289,1,151.999995941162
408,384,74251,2,0,B|401:347|401:347|379:315,1,75.9999979705811,0|0,1:2|0:2,0:0:0:0:
348,137,74567,1,0,0:2:0:0:
295,217,74725,1,0,0:2:0:0:
498,298,74883,6,0,P|438:251|364:239,1,151.999995941162,0|2,1:2|0:3,0:2:0:0:
190,87,75357,1,0,0:2:0:0:
259,134,75515,2,0,P|265:96|267:58,1,75.9999979705811,0|0,1:2|0:2,0:2:0:0:
435,105,75830,2,0,P|398:116|364:133,1,75.9999979705811,2|0,0:3|0:2,0:0:0:0:
225,269,76146,6,0,P|152:269|105:213,1,151.999995941162,0|2,1:2|0:3,0:2:0:0:
324,174,76620,1,0,0:2:0:0:
335,307,76778,2,0,B|305:330|305:330|267:335,1,75.9999979705811,0|0,1:2|0:2,0:2:0:0:
129,140,77094,6,0,P|132:83|142:27,1,113.999996955872,2|0,0:3|0:0,0:2:0:0:
142,27,77409,2,0,P|179:34|217:35,1,75.9999979705811,0|0,1:2|0:0,0:2:0:0:
356,106,77725,1,2,0:3:0:0:
262,114,77883,1,0,0:2:0:0:
395,26,78041,5,0,1:2:0:0:
161,157,78357,1,2,0:3:0:0:
419,306,78673,1,0,1:2:0:0:
419,306,78830,1,0,0:0:0:0:
490,214,78988,1,2,0:3:0:0:
425,118,79146,1,0,0:2:0:0:
339,268,79304,6,0,P|295:262|253:249,1,88.000002685547,12|0,0:2|0:2,0:2:0:0:
253,249,79778,2,0,P|242:252|232:256,1,22.0000006713867
70,378,79936,2,0,B|116:375|156:302|108:249,1,154.000004699707,2|0,1:1|2:2,0:2:0:0:
111,250,80567,6,0,P|69:265|32:277,1,80,8|0,0:2|0:2,0:2:0:0:
222,362,80883,2,0,P|263:346|303:339,1,80,2|2,0:3|0:2,0:0:0:0:
283,96,81199,2,0,P|208:166|210:231,1,160,2|2,1:2|0:3,0:2:0:0:
279,248,81673,1,2,0:2:0:0:
130,134,81830,2,0,P|86:125|51:106,1,80,10|0,0:2|0:2,0:2:0:0:
124,265,82146,2,0,P|83:280|48:301,1,80,2|0,0:3|0:2,0:2:0:0:
342,141,82462,6,0,B|414:141|423:195|496:202,1,167.999994873047,2|0,1:1|0:2,0:2:0:0:
445,55,83094,6,0,P|435:97|420:139,1,80,10|0,0:2|0:2,0:2:0:0:
412,323,83409,1,2,0:3:0:0:
502,283,83567,1,2,0:2:0:0:
348,214,83725,2,0,P|270:223|222:284,1,160,2|2,1:2|0:3,0:2:0:0:
300,317,84199,1,2,0:2:0:0:
286,132,84357,2,0,P|270:95|259:47,1,80,10|0,0:2|0:2,0:2:0:0:
460,105,84673,2,0,P|429:119|380:134,1,80,2|0,0:3|0:2,0:2:0:0:
40,121,84988,6,0,B|39:56|144:28|174:77,1,167.999994873047,2|0,1:1|0:2,0:2:0:0:
196,220,85620,2,0,P|155:204|111:196,1,80,10|0,0:2|0:2,0:2:0:0:
268,17,85936,2,0,P|276:61|291:98,1,80,2|0,0:3|0:2,0:2:0:0:
442,272,86251,1,2,1:2:0:0:
501,148,86409,1,2,0:2:0:0:
350,167,86567,2,0,P|389:183|444:194,1,80,2|0,0:3|0:2,0:2:0:0:
240,384,86883,2,0,P|184:330|194:253,1,160,10|2,0:2|0:3,0:2:0:0:
267,281,87357,1,0,0:2:0:0:
9,284,87515,6,2,P|177:220|169:41,1,384,2|2,1:1|0:2,0:1:0:0:
406,320,90041,6,0,P|446:331|498:346,2,95.9999970703126,4|0|0,1:2|1:2|1:2,0:2:0:0:
363,248,91620,1,0,0:2:0:0:
283,259,91936,2,0,L|275:313,1,47.9999985351563,0|0,1:2|0:2,0:2:0:0:
490,97,92567,6,0,L|469:2,2,95.9999970703126,0|0|0,1:2|1:2|1:2,0:2:0:0:
448,164,94146,1,0,0:2:0:0:
383,122,94462,2,0,L|332:135,1,47.9999985351563,0|0,1:2|0:2,0:2:0:0:
96,271,95094,6,0,L|-4:247,2,95.9999970703126,0|0|0,1:2|1:2|1:2,0:2:0:0:
157,330,96673,1,0,0:2:0:0:
228,291,96988,2,0,L|243:212,1,80,0|0,1:2|0:2,0:2:0:0:
77,3,97620,6,0,L|216:39,1,143.999995605469,2|0,1:2|0:2,0:2:0:0:
404,67,98251,2,0,L|281:106,1,128,2|0,1:2|0:2,0:2:0:0:
281,105,98725,1,0,0:2:0:0:
224,293,98883,2,0,L|185:112,1,160,2|0,1:2|0:2,0:2:0:0:
190,136,99357,1,0,0:2:0:0:
0,57,99515,2,0,L|52:72,1,47.9999985351563,2|2,0:2|0:2,0:2:0:0:
473,74,100146,6,0,B|384:69|391:125|299:137,1,184.000003509522,4|0,1:1|0:0,0:2:0:0:
244,71,100620,1,0,0:2:0:0:
406,237,100778,2,0,P|443:255|484:264,1,83.9999974365235,8|0,0:2|0:0,0:2:0:0:
312,382,101094,2,0,P|292:345|282:304,1,83.9999974365235,2|0,0:2|0:0,0:0:0:0:
330,37,101409,2,0,P|365:88|370:150,1,125.999996154785,2|0,1:2|0:0,0:0:0:0:
370,150,101725,2,0,P|414:153|459:138,1,83.9999974365235,2|0,0:2|0:0,0:0:0:0:
226,271,102041,2,0,B|157:259|170:234|96:218,1,125.999996154785,10|0,0:2|0:0,0:2:0:0:
111,221,102357,6,0,P|66:233|34:256,1,83.9999974365235,2|0,0:1|0:2,0:0:0:0:
281,104,102673,2,0,P|304:61|335:33,1,83.9999974365235,0|0,1:2|0:0,0:2:0:0:
88,1,102988,2,0,B|149:49|132:90|183:143,2,167.999994873047,2|10|2,0:2|0:2|0:2,0:0:0:0:
194,0,103778,1,0,0:2:0:0:
76,121,103936,2,0,P|34:115|0:93,1,83.9999974365235,2|0,1:2|0:0,0:2:0:0:
262,65,104251,2,0,P|303:68|341:86,1,83.9999974365235,2|0,0:2|0:2,0:2:0:0:
190,294,104567,2,0,P|172:256|167:214,1,83.9999974365235,10|0,0:2|0:2,0:0:0:0:
343,305,104883,5,2,0:2:0:0:
230,367,105041,1,2,0:2:0:0:
283,193,105199,2,0,P|365:201|424:271,1,167.999994873047,0|0,1:2|0:2,0:2:0:0:
493,224,105673,1,0,0:2:0:0:
371,384,105830,2,0,P|351:343|343:284,1,83.9999974365235,8|0,0:2|0:2,0:2:0:0:
448,25,106146,6,0,P|491:77|495:152,1,125.999996154785,2|0,0:2|0:0,0:0:0:0:
491,131,106462,2,0,P|444:138|399:159,1,83.9999974365235,2|0,1:2|0:0,0:2:0:0:
167,68,106778,2,0,P|202:81|252:89,1,83.9999974365235,2|0,0:2|0:2,0:0:0:0:
361,274,107094,2,0,P|337:231|321:178,1,83.9999974365235,10|0,0:2|0:2,0:2:0:0:
373,14,107409,2,0,P|362:54|342:96,1,83.9999974365235,2|0,0:2|0:0,0:2:0:0:
148,269,107725,5,0,1:2:0:0:
219,167,107883,1,8,0:1:0:0:
55,245,108041,1,8,0:1:0:0:
219,167,108199,1,8,0:1:0:0:
240,329,108357,6,0,B|264:297|264:297|258:238,1,83.9999974365235,2|8,1:2|0:1,0:2:0:0:
86,57,108673,2,0,B|62:89|62:89|66:132,1,83.9999974365235,8|8,0:1|0:1,0:0:0:0:
278,78,108988,5,0,1:2:0:0:
142,197,109146,1,8,0:1:0:0:
342,184,109304,1,8,0:1:0:0:
142,197,109462,1,8,0:1:0:0:
374,87,109620,5,12,0:2:0:0:
374,87,110251,6,0,B|278:107|278:107|189:197|189:197|93:224,1,324.000001235962,6|0,1:1|0:2,0:2:0:0:
81,223,110804,1,0,0:0:0:0:
71,221,110883,2,0,P|111:230|153:234,1,83.9999974365235,8|0,0:2|0:2,0:2:0:0:
274,278,111199,6,0,P|235:291|194:300,1,83.9999974365235,2|0,0:2|0:0,0:2:0:0:
0,164,111515,2,0,P|55:135|117:127,1,125.999996154785,0|0,1:2|0:0,0:0:0:0:
117,127,111830,1,2,0:2:0:0:
223,203,111988,1,0,0:2:0:0:
120,11,112146,2,0,P|151:38|173:73,1,83.9999974365235,10|0,0:2|0:2,0:2:0:0:
79,314,112462,2,0,P|57:278|52:236,1,83.9999974365235,2|0,0:2|0:2,0:2:0:0:
247,118,112778,6,0,B|340:116|318:138|413:138,1,167.999994873047,2|2,1:2|0:2,0:0:0:0:
460,197,113251,1,2,0:2:0:0:
238,229,113409,2,0,P|278:220|316:200,1,83.9999974365235,8|0,0:2|0:2,0:2:0:0:
412,52,113725,2,0,P|371:60|333:80,1,83.9999974365235,2|0,0:2|0:0,0:2:0:0:
144,229,114041,6,0,P|209:279|292:289,1,167.999994873047,0|0,1:2|0:2,0:0:0:0:
346,232,114515,2,0,P|365:223|385:218,1,41.9999987182618,0|0,0:2|0:0,0:0:0:0:
87,339,114673,6,0,P|58:261|80:181,1,167.999994873047,10|0,0:2|0:0,0:2:0:0:
79,181,115146,1,0,0:2:0:0:
255,57,115304,6,0,P|287:133|272:214,1,167.999994873047,2|0,1:2|0:2,0:2:0:0:
216,164,115778,1,0,0:2:0:0:
80,104,115936,2,0,P|39:98|0:82,1,83.9999974365235,8|0,0:2|0:2,0:2:0:0:
144,229,116251,2,0,B|169:295|146:283|173:351,1,125.999996154785,2|0,0:2|2:2,0:2:0:0:
173,350,116567,6,0,P|211:332|236:298,1,83.9999974365235,2|0,1:2|0:2,0:2:0:0:
68,186,116883,2,0,P|46:221|41:263,1,83.9999974365235,2|0,0:2|0:2,0:2:0:0:
328,384,117199,2,0,B|318:356|318:356|326:308|303:262,1,125.999996154785,10|0,0:2|0:0,0:2:0:0:
303,262,117515,1,2,0:2:0:0:
210,153,117673,1,0,0:2:0:0:
439,252,117830,6,0,P|372:201|290:188,1,167.999994873047,2|0,1:2|0:2,0:2:0:0:
290,188,118304,1,0,0:2:0:0:
512,99,118462,2,0,B|469:107|477:113|431:121,1,83.9999974365235,10|0,0:2|0:2,0:2:0:0:
226,259,118778,1,2,0:2:0:0:
274,102,118936,1,0,0:2:0:0:
358,297,119094,6,0,P|372:335|376:378,1,83.9999974365235,2|2,1:2|0:2,0:0:0:0:
439,252,119409,2,0,P|453:212|481:181,1,83.9999974365235,2|2,0:2|0:2,0:0:0:0:
316,214,119725,2,0,P|255:205|208:163,1,125.999996154785,10|0,0:2|0:0,0:2:0:0:
208,163,120041,2,0,P|162:175|117:178,1,83.9999974365235,2|0,0:2|0:2,0:2:0:0:
74,326,120357,6,0,B|90:188|112:217|119:53,1,276.000005264282,4|0,1:1|3:2,0:2:0:0:
112,65,120909,1,0,3:0:0:0:
106,76,120988,2,0,P|147:63|187:55,1,83.9999974365235,8|0,0:2|0:2,0:2:0:0:
0,141,121304,6,0,P|37:159|78:161,1,83.9999974365235,2|0,0:2|0:0,0:2:0:0:
287,64,121620,2,0,P|257:120|242:181,1,125.999996154785,0|0,1:2|0:0,0:0:0:0:
242,181,121936,1,2,0:2:0:0:
286,291,122094,1,0,0:2:0:0:
124,200,122251,2,0,P|87:219|46:230,1,83.9999974365235,10|0,0:2|0:2,0:2:0:0:
162,382,122567,2,0,P|164:340|177:300,1,83.9999974365235,2|0,0:2|0:2,0:2:0:0:
459,279,122883,6,0,P|396:225|313:221,1,167.999994873047,2|2,1:2|0:2,0:0:0:0:
285,291,123357,1,2,0:2:0:0:
512,164,123515,2,0,P|473:179|432:188,1,83.9999974365235,8|0,0:2|0:2,0:2:0:0:
176,300,123830,2,0,P|258:311|335:345,1,167.999994873047,2|0,0:2|1:2,0:2:0:0:
275,138,124304,1,0,0:2:0:0:
292,212,124462,1,0,0:2:0:0:
350,157,124620,1,0,0:2:0:0:
96,295,124778,6,0,P|108:213|173:163,1,167.999994873047,10|0,0:2|0:0,0:2:0:0:
173,163,125251,1,0,0:2:0:0:
255,381,125409,6,0,B|231:294|257:315|228:215,1,167.999994873047,2|0,1:2|0:2,0:2:0:0:
422,208,125883,1,0,0:2:0:0:
421,208,126041,2,0,P|389:235|351:251,1,83.9999974365235,8|0,0:2|0:2,0:2:0:0:
171,39,126357,2,0,P|201:67|222:104,1,83.9999974365235,2|0,0:2|0:0,0:2:0:0:
85,312,126673,6,0,P|116:284|154:268,1,83.9999974365235,2|0,1:2|0:2,0:2:0:0:
335,69,126988,2,0,P|332:110|313:148,1,83.9999974365235,2|0,0:2|0:2,0:2:0:0:
0,192,127304,2,0,B|61:172|61:172|103:184|103:184|159:165,1,167.999994873047,10|0,0:2|0:0,0:2:0:0:
271,216,127778,1,0,0:2:0:0:
63,76,127936,6,0,P|89:89|118:98,1,60.0000022888184,0|8,1:2|0:1,0:0:0:0:
200,0,128251,2,0,P|209:28|223:55,1,60.0000022888184,8|8,0:1|0:1,0:0:0:0:
400,142,128567,1,0,1:2:0:0:
400,142,128725,1,8,0:1:0:0:
363,0,128883,2,0,P|349:26|340:55,1,60.0000022888184,8|8,0:1|0:1,0:2:0:0:
383,222,129199,5,0,1:2:0:0:
474,145,129357,1,8,0:1:0:0:
312,134,129515,5,8,0:1:0:0:
275,250,129673,1,8,0:1:0:0:
438,324,129830,6,0,B|474:312|470:318|507:304,2,71.9999978027344,12|0|4,1:1|0:0|0:3,0:2:0:0:
61,330,145620,6,0,L|18:345,1,35.9999989013672,0|0,1:2|0:2,0:2:0:0:
0,263,145936,2,0,L|43:248,1,35.9999989013672,0|0,0:2|0:2,0:2:0:0:
165,129,146251,6,0,L|154:96,1,35.9999989013672,0|0,1:2|0:2,0:2:0:0:
78,127,146567,2,0,L|90:161,1,35.9999989013672,0|0,0:2|0:2,0:2:0:0:
268,201,146883,6,0,L|315:217,1,35.9999989013672,0|0,1:2|0:2,0:2:0:0:
438,95,147199,2,0,L|398:109,1,35.9999989013672,0|0,0:2|0:2,0:2:0:0:
430,305,147515,2,0,P|438:273|443:258,1,35.9999989013672,0|0,1:2|0:2,0:2:0:0:
384,205,147830,1,0,0:2:0:0:
384,205,147988,1,0,0:2:0:0:
265,323,148146,6,0,P|230:334|197:347,1,71.9999978027344,0|0,1:2|0:2,0:0:0:0:
126,324,148620,1,0,0:2:0:0:
172,192,148778,2,0,L|164:157,1,35.9999989013672,0|0,1:2|0:2,0:0:0:0:
90,129,149094,1,0,0:2:0:0:
90,129,149251,1,0,0:2:0:0:
265,157,149409,2,0,P|299:146|346:129,1,71.9999978027344,0|2,1:2|0:2,0:2:0:0:
413,157,149883,1,0,0:2:0:0:
336,251,150041,2,0,L|349:296,1,35.9999989013672,2|0,1:2|0:2,0:2:0:0:
443,362,150357,2,0,L|454:316,1,35.9999989013672,2|0,0:2|0:2,0:2:0:0:
218,272,150673,6,0,L|148:291,1,71.9999978027344,0|0,1:2|0:2,0:0:0:0:
104,360,151146,1,0,0:2:0:0:
10,288,151304,2,0,L|-2:247,1,35.9999989013672,0|0,1:2|0:2,0:0:0:0:
142,131,151620,2,0,L|131:165,1,35.9999989013672,0|0,0:2|0:2,0:0:0:0:
21,120,151936,1,0,1:2:0:0:
21,120,152094,1,0,0:2:0:0:
201,32,152251,2,0,L|152:21,1,35.9999989013672,2|0,0:2|0:2,0:2:0:0:
246,176,152567,2,0,L|281:166,1,35.9999989013672,2|0,1:2|0:2,0:2:0:0:
419,34,152883,2,0,L|375:22,1,35.9999989013672,2|0,0:2|0:2,0:2:0:0:
278,77,153199,5,0,1:2:0:0:
278,77,153357,1,0,0:2:0:0:
413,226,153515,2,0,L|424:180,1,35.9999989013672,2|0,0:2|0:2,0:0:0:0:
382,114,153830,1,0,1:2:0:0:
382,114,153988,1,0,0:2:0:0:
199,250,154146,2,0,L|186:200,1,35.9999989013672,2|0,0:2|0:2,0:0:0:0:
247,147,154462,5,0,1:2:0:0:
247,147,154620,1,0,0:2:0:0:
314,205,154778,1,2,0:2:0:0:
300,287,154936,1,0,0:2:0:0:
225,339,155094,1,0,1:2:0:0:
124,323,155251,1,0,0:2:0:0:
79,231,155409,1,2,0:2:0:0:
136,144,155567,1,0,0:2:0:0:
216,223,155725,6,0,L|211:240,3,17.9999994506836,0|0|0|0,1:2|0:2|0:2|0:2,0:2:0:0:
296,140,156041,2,0,L|288:106,3,17.9999994506836,0|0|0|0,0:2|0:2|0:2|0:2,0:2:0:0:
365,233,156357,2,0,L|371:262,3,17.9999994506836,0|0|0|0,1:2|0:2|0:2|0:2,0:2:0:0:
453,155,156673,2,0,L|460:127,3,17.9999994506836,0|0|0|0,0:2|0:2|0:2|0:2,0:2:0:0:
512,244,156988,1,0,1:2:0:0:
510,251,157067,1,0,0:2:0:0:
509,258,157146,1,0,0:2:0:0:
507,265,157225,1,0,0:2:0:0:
506,272,157304,1,0,0:2:0:0:
505,279,157383,1,0,0:2:0:0:
503,286,157462,1,0,0:2:0:0:
502,293,157541,1,0,0:2:0:0:
499,299,157620,6,0,B|438:278|389:325|389:325|411:335|436:313,1,167.999994873047,12|0,0:2|2:2,0:2:0:0:
433,306,158251,6,0,B|412:204|353:228|337:107,1,223.999993164063,4|0,1:1|0:0,0:2:0:0:
401,37,158725,1,0,0:2:0:0:
247,120,158883,2,0,P|201:113|165:89,1,88.000002685547,10|0,0:2|0:0,0:2:0:0:
401,37,159199,2,0,P|448:44|485:62,1,88.000002685547,2|0,0:2|0:2,0:2:0:0:
366,337,159515,2,0,P|320:256|349:181,1,176.000005371094,2|2,1:2|0:2,0:2:0:0:
410,233,159988,1,0,0:2:0:0:
239,330,160146,2,0,P|174:332|124:291,1,132.00000402832,10|0,0:2|0:0,0:2:0:0:
124,291,160462,6,0,P|114:330|96:383,1,88.000002685547,2|0,0:1|0:2,0:0:0:0:
240,112,160778,2,0,P|226:65|217:25,1,88.000002685547,0|0,1:2|0:0,0:2:0:0:
127,132,161094,1,0,0:2:0:0:
253,213,161251,1,0,0:2:0:0:
381,42,161409,2,0,P|421:25|465:27,1,88.000002685547,10|0,0:2|0:2,0:2:0:0:
362,230,161725,2,0,P|398:255|455:264,1,88.000002685547,2|0,0:2|0:2,0:2:0:0:
240,112,162041,2,0,B|175:117|169:140|112:143,1,132.00000402832,2|0,1:2|2:2,0:2:0:0:
114,156,162357,2,0,P|66:148|28:127,1,88.000002685547,2|0,0:2|0:2,0:2:0:0:
273,274,162673,2,0,P|287:321|289:367,1,88.000002685547,10|0,0:2|0:2,0:0:0:0:
156,228,162988,5,2,0:2:0:0:
297,172,163146,1,2,0:2:0:0:
196,349,163304,2,0,P|109:337|49:275,1,176.000005371094,0|0,1:2|0:2,0:2:0:0:
49,276,163778,1,0,0:2:0:0:
162,151,163936,2,0,P|162:85|120:25,1,132.00000402832,8|0,0:2|0:0,0:2:0:0:
127,30,164251,6,0,P|86:36|30:65,1,88.000002685547,2|0,0:2|0:2,0:0:0:0:
272,159,164567,2,0,P|330:146|374:118,1,88.000002685547,2|0,1:2|0:0,0:2:0:0:
128,281,164883,2,0,P|116:329|121:377,1,88.000002685547,2|0,0:2|0:2,0:2:0:0:
217,84,165199,2,0,P|212:44|186:-6,1,88.000002685547,10|0,0:2|0:2,0:2:0:0:
72,135,165515,5,2,0:2:0:0:
180,220,165673,1,2,0:2:0:0:
315,109,165830,2,0,P|401:108|476:153,1,176.000005371094,0|0,1:2|0:2,0:2:0:0:
476,153,166304,1,0,0:2:0:0:
373,291,166462,2,0,P|348:253|338:184,1,88.000002685547,10|0,0:2|0:2,0:2:0:0:
469,284,166778,1,2,0:2:0:0:
377,384,166936,1,2,0:2:0:0:
214,270,167094,2,0,P|222:183|274:113,1,176.000005371094,0|2,1:2|0:2,0:2:0:0:
352,12,167567,5,0,0:2:0:0:
496,125,167725,2,0,P|463:140|396:151,1,88.000002685547,10|0,0:2|0:2,0:0:0:0:
155,116,168041,1,8,0:1:0:0:
155,116,168199,1,8,0:1:0:0:
236,308,168357,6,0,P|313:198|261:79,1,264.000008056641,4|0,1:1|0:2,0:2:0:0:
17,78,168988,2,0,P|38:133|46:209,1,132.00000402832,8|0,0:2|2:2,0:2:0:0:
46,205,169304,2,0,P|106:200|146:179,1,88.000002685547,2|0,0:2|0:2,0:2:0:0:
334,20,169620,2,0,P|295:4|246:1,1,88.000002685547,2|0,1:2|0:2,0:2:0:0:
314,248,169936,2,0,P|285:211|237:187,1,88.000002685547,2|0,0:2|0:2,0:2:0:0:
96,378,170251,2,0,P|143:321|154:249,1,132.00000402832,10|0,0:2|0:0,0:2:0:0:
154,265,170567,6,0,P|110:250|68:251,1,88.000002685547,2|0,0:1|0:0,0:0:0:0:
330,379,170883,2,0,B|388:362|389:334|456:330,1,132.00000402832,0|0,1:2|0:0,0:2:0:0:
451,330,171199,2,0,P|426:285|418:238,1,88.000002685547,2|0,0:2|0:2,0:0:0:0:
484,76,171515,2,0,P|507:120|512:172,1,88.000002685547,10|0,0:2|0:2,0:2:0:0:
281,36,171830,2,0,P|324:7|371:-1,1,88.000002685547,2|0,0:2|0:2,0:2:0:0:
328,277,172146,2,0,P|244:243|223:138,1,176.000005371094,2|2,1:2|0:2,0:2:0:0:
217,167,172620,1,0,0:2:0:0:
355,84,172778,2,0,P|393:104|410:143,1,88.000002685547,10|0,0:2|0:2,0:0:0:0:
424,371,173094,5,2,0:2:0:0:
500,229,173251,1,2,0:2:0:0:
268,239,173409,2,0,P|358:304|438:272,1,176.000005371094,2|0,1:2|2:2,2:2:0:0:
360,212,173883,1,0,0:2:0:0:
230,338,174041,2,0,P|167:322|112:355,1,132.00000402832,8|0,0:2|0:0,0:0:0:0:
112,355,174357,6,0,P|92:313|87:270,1,88.000002685547,2|0,0:2|0:2,0:2:0:0:
190,23,174673,2,0,P|206:61|216:116,1,88.000002685547,2|0,1:2|0:0,0:2:0:0:
360,212,174988,2,0,P|365:166|378:126,1,88.000002685547,2|0,0:2|0:2,0:2:0:0:
2,152,175304,2,0,B|75:175|68:195|138:219,1,132.00000402832,10|0,0:2|0:0,0:2:0:0:
119,211,175620,2,0,P|167:196|207:192,1,88.000002685547,2|0,0:2|0:0,0:0:0:0:
461,332,175936,6,0,P|419:344|376:352,1,88.000002685547,0|8,1:2|0:1,0:0:0:0:
296,146,176251,1,8,0:1:0:0:
296,146,176409,1,8,0:1:0:0:
248,371,176567,6,0,P|234:327|230:285,1,88.000002685547,2|8,1:1|0:1,0:0:0:0:
372,192,176883,1,8,0:1:0:0:
372,192,177041,1,8,0:1:0:0:
117,118,177199,5,2,1:1:0:0:
318,276,177357,1,8,0:1:0:0:
328,89,177515,1,8,0:1:0:0:
143,262,177673,1,8,0:1:0:0:
203,18,177830,2,0,B|209:10|209:10|190:94|232:70|207:169,1,167.999994873047,6|0,1:1|0:2,0:2:0:0:
0,258,178462,6,0,P|126:178|258:246,1,311.999985717774,4|0,1:1|0:2,0:2:0:0:
258,246,179094,2,0,P|283:196|293:153,1,88.000002685547,8|0,0:2|0:2,0:2:0:0:
207,323,179409,2,0,P|158:331|108:350,1,88.000002685547,2|0,0:2|0:0,0:2:0:0:
432,383,179725,2,0,P|423:318|384:266,1,132.00000402832,0|0,1:2|0:0,0:0:0:0:
384,266,180041,2,0,P|426:256|466:237,1,88.000002685547,2|0,0:2|0:2,0:2:0:0:
244,361,180357,2,0,P|189:371|149:389,1,88.000002685547,10|0,0:2|0:0,0:2:0:0:
229,108,180673,2,0,P|237:151|257:191,1,88.000002685547,2|0,0:2|0:2,0:2:0:0:
46,364,180988,6,0,P|86:288|169:271,1,176.000005371094,2|2,1:2|0:2,0:0:0:0:
303,323,181462,1,2,0:2:0:0:
405,178,181620,2,0,P|405:130|394:91,1,88.000002685547,8|0,0:2|0:2,0:2:0:0:
167,5,181936,2,0,P|157:87|178:187,1,176.000005371094,2|0,0:2|1:2,0:2:0:0:
274,243,182409,1,0,0:2:0:0:
175,178,182567,1,0,0:2:0:0:
274,243,182725,1,0,0:2:0:0:
149,384,182883,6,0,P|93:314|108:211,1,176.000005371094,10|0,0:2|0:0,0:2:0:0:
97,231,183357,1,0,0:2:0:0:
339,145,183515,6,0,P|399:218|384:302,1,176.000005371094,2|0,1:2|0:2,0:2:0:0:
307,314,183988,1,0,0:0:0:0:
218,151,184146,2,0,P|214:107|223:64,1,88.000002685547,10|0,0:2|0:2,0:2:0:0:
446,111,184462,2,0,P|438:156|414:193,1,88.000002685547,2|0,0:2|0:0,0:2:0:0:
117,219,184778,2,0,P|73:170|56:106,1,132.00000402832,2|0,1:2|0:0,0:2:0:0:
56,106,185094,2,0,P|91:85|144:73,1,88.000002685547,2|0,0:2|0:2,0:2:0:0:
229,318,185409,6,0,P|122:322|69:397,1,192,10|0,0:2|0:0,0:2:0:0:
14,225,186041,2,0,B|7:150|27:138|16:61,1,160,2|0,1:2|0:2,0:2:0:0:
16,65,187304,1,2,0:2:0:0:
304,136,187620,1,2,0:2:0:0:
87,124,187936,2,0,P|114:118|138:111,1,40,2|2,0:2|0:2,0:2:0:0:
290,7,188251,2,0,P|270:14|239:20,1,40,2|2,0:2|0:2,0:2:0:0:
195,76,188567,5,4,1:2:0:0:
