osu file format v14

[General]
AudioFilename: Gowrock - bloom.mp3
AudioLeadIn: 0
PreviewTime: 77154
Countdown: 0
SampleSet: Soft
StackLeniency: 0.2
Mode: 0
LetterboxInBreaks: 0
WidescreenStoryboard: 1

[Editor]
DistanceSpacing: 0.8
BeatDivisor: 4
GridSize: 32
TimelineZoom: 1.8

[Metadata]
Title:bloom
TitleUnicode:bloom
Artist:Gowrock
ArtistUnicode:Gowrock
Creator:Krimek
Version:ProBox's GRAVITY
Source:SOUND VOLTEX III GRAVITY WARS
Tags:electronic instrumental 水曜日締め切りコンピ SDVX NOFX Frey Famous captin1 Smoothie ProfessionalBox ProBox
BeatmapID:1073250
BeatmapSetID:313558

[Difficulty]
HPDrainRate:6
CircleSize:4
OverallDifficulty:8.4
ApproachRate:9.3
SliderMultiplier:1.84
SliderTickRate:2

[Events]
//Background and Video events
0,0,"background.jpg",0,0
//Break Periods
//Storyboard Layer 0 (Background)
//Storyboard Layer 1 (Fail)
//Storyboard Layer 2 (Pass)
//Storyboard Layer 3 (Foreground)
//Storyboard Layer 4 (Overlay)
//Storyboard Sound Samples

[TimingPoints]
603,344.827586206897,4,2,12,45,1,0
1982,-100,4,2,12,55,0,0
3361,-100,4,2,12,65,0,0
6120,-100,4,2,12,75,0,0
8878,-90.9090909090909,4,2,12,75,0,0
9396,-100,4,2,12,75,0,0
10258,-83.3333333333333,4,2,12,75,0,0
11637,-100,4,2,12,60,0,0
33706,-100,4,2,12,60,0,0
55775,-100,4,2,12,70,0,0
64568,-100,4,2,12,70,0,0
66809,-100,4,2,12,70,0,0
70947,-100,4,2,12,70,0,0
71637,-100,4,2,12,70,0,0
72930,-100,4,2,12,70,0,0
74051,-100,4,2,12,70,0,0
76465,-100,4,2,12,70,0,0
77844,-100,4,2,12,65,0,1
99913,-100,4,2,12,55,0,0
105430,-100,4,2,12,55,0,0
105775,-100,4,2,12,55,0,0
108189,-100,4,2,12,45,0,0
108534,-133.333333333333,4,2,12,35,0,0
110861,-100,4,2,12,35,0,0
110947,-100,4,2,12,35,0,0
112327,-100,4,2,12,45,0,0
113706,-100,4,2,12,55,0,0
115085,-100,4,2,12,30,0,0
116465,-100,4,2,12,5,0,0

[Colours]
Combo1 : 148,243,254
Combo2 : 249,104,169
Combo3 : 255,255,128
Combo4 : 133,243,171

[HitObjects]
439,207,603,5,0,3:2:0:0:
425,381,775,1,0,0:0:0:0:
384,297,947,2,0,B|493:290,1,92,8|0,0:0|0:0,0:0:0:0:
494,290,1206,1,0,0:0:0:0:
512,288,1292,1,0,0:0:0:0:
316,204,1465,6,0,L|310:265,1,46,0|0,3:2|0:0,0:0:0:0:
302,330,1637,1,8,0:0:0:0:
324,125,1809,1,0,0:0:0:0:
302,330,1982,5,0,3:0:0:0:
410,213,2154,1,0,3:0:0:0:
197,230,2327,2,0,P|149:234|94:237,1,92,8|0,0:0|0:0,0:0:0:0:
78,237,2585,1,0,0:0:0:0:
79,209,2671,1,0,0:0:0:0:
81,181,2758,1,0,0:0:0:0:
83,153,2844,1,0,3:0:0:0:
170,308,3016,6,0,P|175:332|177:361,1,46,8|0,0:0|0:0,0:0:0:0:
332,353,3189,2,0,P|334:330|340:308,1,46
256,167,3361,5,0,3:0:0:0:
253,318,3534,1,0,0:0:0:0:
164,162,3706,6,0,L|276:167,1,92,8|0,0:0|0:0,0:0:0:0:
337,173,3965,1,0,0:0:0:0:
337,173,4051,5,0,0:0:0:0:
256,58,4224,1,0,3:0:0:0:
164,162,4396,6,0,L|170:216,1,46,8|0,0:0|0:0,0:0:0:0:
347,258,4568,2,0,L|342:312,1,46
255,383,4740,5,0,3:0:0:0:
187,304,4913,1,0,3:0:0:0:
425,370,5085,2,0,L|428:271,1,92,8|0,0:0|0:0,0:0:0:0:
429,243,5344,1,0,0:0:0:0:
430,210,5430,1,0,0:0:0:0:
431,177,5516,1,0,3:0:0:0:
432,144,5603,1,0,3:0:0:0:
336,271,5775,5,8,0:0:0:0:
512,275,5947,1,0,0:0:0:0:
256,369,6120,6,0,P|212:375|152:342,1,92,0|0,3:0|0:0,0:0:0:0:
146,341,6378,1,0,0:0:0:0:
133,316,6465,1,8,0:0:0:0:
256,369,6637,1,0,0:0:0:0:
219,243,6809,2,0,L|212:183,2,46,0|0|0,0:0|0:0|3:0,0:0:0:0:
38,362,7154,2,0,P|40:312|45:232,1,92,8|0,0:0|0:0,0:0:0:0:
44,241,7413,1,0,0:0:0:0:
44,241,7499,5,0,3:0:0:0:
219,243,7671,1,0,3:0:0:0:
143,65,7844,6,0,P|147:110|154:201,1,92,8|0,0:0|0:0,0:0:0:0:
195,139,8103,1,0,0:0:0:0:
240,135,8189,1,0,0:0:0:0:
282,152,8275,1,0,0:0:0:0:
310,187,8361,1,0,3:0:0:0:
401,351,8534,6,0,L|404:288,1,46,8|0,0:0|0:0,0:0:0:0:
410,215,8706,1,0,0:0:0:0:
192,339,8878,6,0,B|145:312|146:264|146:264|173:228|221:238|221:238|225:251|219:272,1,202.400006176758,0|8,3:0|0:0,0:0:0:0:
54,319,9396,2,0,L|-1:311,2,46
287,354,9740,1,0,3:0:0:0:
310,187,9913,1,8,0:0:0:0:
310,187,9999,1,0,0:0:0:0:
310,187,10085,1,0,0:0:0:0:
417,382,10258,6,0,B|454:339|431:269|431:269|421:297|403:315,1,165.599994946289,0|0,3:0|0:0,0:0:0:0:
303,276,10603,2,0,B|318:232|309:187|309:187|324:232|355:257,1,165.599994946289,0|0,3:0|0:0,0:0:0:0:
214,356,10947,5,0,3:0:0:0:
215,311,11034,1,0,3:0:0:0:
218,267,11120,1,0,3:0:0:0:
219,222,11206,1,0,3:0:0:0:
221,178,11292,1,8,3:2:0:0:
318,354,11465,1,0,0:0:0:0:
142,276,11637,6,0,B|82:240|82:240|11:279,1,138,6|0,0:0|0:0,0:0:0:0:
0,287,11982,2,0,L|10:198,1,46,8|0,0:0|0:0,0:0:0:0:
18,140,12154,1,0,0:0:0:0:
18,140,12240,1,0,0:0:0:0:
18,140,12327,1,0,0:0:0:0:
78,350,12499,1,0,0:0:0:0:
221,178,12671,2,0,L|215:264,1,46,10|0,0:0|0:0,0:0:0:0:
210,325,12844,6,0,B|256:329|295:284|295:284|303:326|337:357,1,184,2|0,0:0|0:0,0:0:0:0:
114,308,13361,1,8,0:0:0:0:
396,272,13534,5,0,0:0:0:0:
423,274,13620,1,0,0:0:0:0:
450,277,13706,1,0,0:0:0:0:
477,279,13792,1,0,0:0:0:0:
504,281,13878,1,0,0:0:0:0:
278,356,14051,2,0,P|255:355|216:332,1,46,10|0,0:0|0:0,0:0:0:0:
234,195,14223,6,0,B|287:155|287:155|271:296,1,184,2|0,0:0|0:0,0:0:0:0:
402,191,14740,1,8,0:0:0:0:
162,265,14913,2,0,L|87:256,2,46
278,356,15258,1,2,0:0:0:0:
146,173,15430,1,8,0:0:0:0:
49,355,15603,1,2,0:0:0:0:
49,355,15689,1,2,0:0:0:0:
49,355,15775,6,0,L|40:243,1,92,2|2,0:0|0:0,0:0:0:0:
140,83,16120,1,10,0:0:0:0:
9,153,16292,2,0,B|99:126|88:217|197:166,1,184,2|2,0:0|0:0,0:0:0:0:
360,37,16809,2,0,P|314:32|259:78,1,92,10|0,0:0|0:0,0:0:0:0:
329,251,17154,6,0,B|360:202|360:202|325:94,1,138,2|0,0:0|0:0,0:0:0:0:
336,126,17499,2,0,L|381:128,1,46,8|0,0:0|0:0,0:0:0:0:
423,267,17671,2,0,L|468:264,1,46
512,174,17844,1,0,0:0:0:0:
454,347,18016,1,0,0:0:0:0:
381,128,18189,1,10,0:0:0:0:
229,295,18361,6,0,L|235:110,1,184,2|0,0:0|0:0,0:0:0:0:
329,251,18878,1,8,0:0:0:0:
123,122,19051,5,0,0:0:0:0:
120,158,19137,1,0,0:0:0:0:
117,194,19223,1,0,0:0:0:0:
114,230,19309,1,0,0:0:0:0:
111,267,19396,1,0,0:0:0:0:
234,111,19568,1,10,0:0:0:0:
20,303,19740,6,0,B|-31:236|31:175|31:175|23:242,1,184,2|0,0:0|0:0,0:0:0:0:
89,374,20258,1,8,0:0:0:0:
216,269,20430,2,0,L|277:274,1,46
380,288,20603,2,0,L|425:291,1,46
305,374,20775,1,2,0:0:0:0:
332,195,20947,2,0,P|334:149|337:85,1,92,8|2,0:0|0:0,0:0:0:0:
337,66,21206,1,2,0:0:0:0:
337,66,21292,6,0,L|217:65,1,92,2|2,0:0|0:0,0:0:0:0:
84,230,21637,1,10,0:0:0:0:
40,125,21809,2,0,P|106:117|195:206,1,184,2|2,0:0|0:0,0:0:0:0:
339,314,22327,1,8,0:0:0:0:
187,297,22499,1,0,0:0:0:0:
357,322,22671,6,0,P|424:327|517:308,1,138,6|0,0:0|0:0,0:0:0:0:
512,309,23016,1,8,0:0:0:0:
289,182,23189,1,0,0:0:0:0:
289,182,23275,1,0,0:0:0:0:
289,182,23361,2,0,L|285:245,1,46
274,355,23534,1,0,0:0:0:0:
395,215,23706,1,10,0:0:0:0:
179,240,23878,6,0,B|112:250|112:250|70:286|70:286|-6:298,1,184,2|0,0:0|0:0,0:0:0:0:
178,363,24396,1,8,0:0:0:0:
31,201,24568,5,0,0:0:0:0:
33,178,24654,1,0,0:0:0:0:
35,155,24740,2,0,L|40:86,2,46
26,370,25085,1,10,0:0:0:0:
179,240,25258,6,0,P|245:233|341:323,1,184,2|0,0:0|0:0,0:0:0:0:
422,178,25775,2,0,P|416:132|408:54,1,92,8|0,0:0|0:0,0:0:0:0:
407,52,26034,1,0,0:0:0:0:
407,52,26120,1,0,0:0:0:0:
493,240,26292,1,2,0:0:0:0:
261,90,26465,2,0,P|267:153|273:225,1,92,8|2,0:0|0:0,0:0:0:0:
272,217,26723,1,2,0:0:0:0:
272,217,26809,5,2,0:0:0:0:
374,126,26982,1,2,0:0:0:0:
128,201,27154,1,10,0:0:0:0:
117,1,27327,2,0,B|158:43|158:43|141:147,1,138,2|0,0:0|0:0,0:0:0:0:
128,201,27671,2,0,L|77:196,1,46,2|0,0:0|0:0,0:0:0:0:
0,182,27844,1,10,0:0:0:0:
70,71,28016,1,0,0:0:0:0:
140,296,28189,6,0,P|209:300|298:308,1,138,2|0,0:0|0:0,0:0:0:0:
314,308,28534,2,0,L|309:252,1,46,8|0,0:0|0:0,0:0:0:0:
300,173,28706,1,0,0:0:0:0:
300,173,28792,1,0,0:0:0:0:
300,173,28878,1,0,0:0:0:0:
140,296,29051,1,0,0:0:0:0:
385,212,29223,2,0,L|470:218,1,46,10|0,0:0|0:0,0:0:0:0:
449,312,29396,6,0,B|411:346|411:346|433:194,1,184,2|0,0:0|0:0,0:0:0:0:
448,85,29913,1,8,0:0:0:0:
301,260,30085,1,0,0:0:0:0:
256,271,30171,1,0,0:0:0:0:
210,261,30258,1,0,0:0:0:0:
175,233,30344,1,0,0:0:0:0:
151,193,30430,1,0,0:0:0:0:
255,154,30603,1,10,0:0:0:0:
68,265,30775,6,0,B|35:218|47:157|47:157|30:200|-6:219,1,184,2|0,0:0|0:0,0:0:0:0:
70,78,31292,1,8,0:0:0:0:
175,233,31465,6,0,L|170:296,1,46
158,364,31637,1,0,0:0:0:0:
68,265,31809,1,2,0:0:0:0:
305,347,31982,2,0,P|347:351|413:321,1,92,8|0,0:0|0:0,0:0:0:0:
420,306,32240,1,0,0:0:0:0:
420,306,32327,6,0,L|426:151,2,138,2|2|2,0:0|0:0|0:0,0:0:0:0:
181,245,33016,6,0,L|251:239,1,46,2|0,0:0|0:0,0:0:0:0:
322,236,33189,1,0,0:0:0:0:
322,236,33275,1,2,0:0:0:0:
322,236,33361,1,8,0:0:0:0:
228,94,33534,1,2,0:0:0:0:
176,346,33706,5,6,3:2:0:0:
176,346,33878,1,0,0:0:0:0:
3,223,34051,2,0,P|47:217|101:247,1,92,10|0,0:2|0:2,0:2:0:0:
170,263,34309,1,2,0:2:0:0:
170,263,34396,2,0,L|162:185,1,46,0|0,0:2|0:2,0:2:0:0:
153,101,34568,1,2,3:2:0:0:
33,303,34740,1,8,0:2:0:0:
259,167,34913,2,0,L|266:230,1,46,2|0,0:2|0:2,0:0:0:0:
279,331,35085,5,0,3:2:0:0:
279,331,35258,1,0,3:2:0:0:
494,255,35430,2,0,P|446:253|382:249,1,92,10|0,0:2|0:2,0:2:0:0:
365,245,35689,1,2,0:2:0:0:
367,208,35775,1,0,0:2:0:0:
369,171,35861,1,0,0:2:0:0:
371,134,35947,1,2,3:2:0:0:
413,341,36120,1,8,0:2:0:0:
262,207,36292,2,0,P|239:207|215:214,1,46,2|0,0:2|0:2,0:2:0:0:
127,271,36465,5,0,3:2:0:0:
151,53,36637,1,0,0:2:0:0:
18,162,36809,2,0,B|63:178|63:178|116:153,1,92,10|0,0:2|0:2,0:2:0:0:
142,141,37068,1,2,0:2:0:0:
142,141,37154,2,0,L|135:194,1,46,0|0,0:2|0:2,0:2:0:0:
117,351,37327,1,2,3:2:0:0:
236,268,37499,5,8,0:2:0:0:
23,283,37671,1,2,0:2:0:0:
23,283,37758,1,2,0:2:0:0:
23,283,37844,5,2,3:2:0:0:
142,141,38016,1,0,3:2:0:0:
117,351,38189,1,8,0:2:0:0:
306,224,38361,6,0,B|347:202|347:202|419:231,1,92,2|0,0:2|0:2,0:0:0:0:
413,232,38620,1,0,3:2:0:0:
410,204,38706,1,2,3:2:0:0:
407,176,38792,1,0,0:2:0:0:
404,148,38878,1,8,0:2:0:0:
352,308,39051,1,0,0:0:0:0:
247,29,39223,6,0,P|245:77|243:157,1,92,2|0,3:2|0:0,0:0:0:0:
106,330,39568,2,0,P|104:282|100:201,1,92,10|0,0:2|0:2,0:2:0:0:
99,196,39827,1,2,0:2:0:0:
99,196,39913,2,0,L|156:201,1,46,0|0,0:2|0:2,0:2:0:0:
235,209,40085,1,2,3:2:0:0:
145,85,40258,5,8,0:2:0:0:
106,330,40430,1,2,0:2:0:0:
323,225,40603,5,0,3:2:0:0:
323,225,40775,1,0,3:2:0:0:
144,200,40947,2,0,L|264:212,1,92,10|0,0:2|0:2,0:2:0:0:
323,225,41206,5,2,0:2:0:0:
318,261,41292,1,0,0:2:0:0:
313,297,41378,1,0,0:2:0:0:
309,333,41465,1,2,3:2:0:0:
418,136,41637,1,8,0:2:0:0:
480,303,41809,2,0,P|448:304|409:274,1,46,2|0,0:2|0:2,0:2:0:0:
323,225,41982,5,0,3:2:0:0:
467,211,42154,1,0,0:0:0:0:
307,353,42327,2,0,L|321:239,1,92,10|0,0:2|0:2,0:2:0:0:
323,225,42585,1,2,0:2:0:0:
323,225,42671,1,0,0:2:0:0:
409,373,42844,1,2,3:2:0:0:
201,288,43016,2,0,P|146:286|94:328,1,92,8|2,0:2|0:2,0:2:0:0:
61,367,43275,1,0,0:2:0:0:
61,367,43361,5,2,3:2:0:0:
125,125,43534,1,0,3:2:0:0:
174,368,43706,1,0,0:2:0:0:
0,222,43878,6,0,L|66:218,1,46,0|0,0:2|0:2,0:0:0:0:
150,212,44051,1,0,0:2:0:0:
150,212,44137,1,0,3:2:0:0:
150,212,44223,1,2,3:2:0:0:
34,102,44396,1,8,0:2:0:0:
114,302,44568,1,0,0:0:0:0:
264,155,44740,6,0,B|303:162|328:201|328:201|343:163|402:144,1,138,6|0,3:2|0:0,0:0:0:0:
409,239,45085,2,0,L|403:350,1,92,10|0,0:2|0:2,0:2:0:0:
402,354,45344,1,2,0:2:0:0:
401,376,45430,1,0,0:2:0:0:
512,304,45603,1,2,3:2:0:0:
224,252,45775,2,0,L|152:242,2,46,8|0|2,0:2|0:2|0:2,0:2:0:0:
274,372,46120,5,0,3:2:0:0:
274,372,46292,1,0,3:2:0:0:
294,203,46465,2,0,B|315:240|315:240|296:306,1,92,10|0,0:2|0:2,0:2:0:0:
274,372,46723,1,2,0:2:0:0:
274,372,46809,6,0,P|245:377|221:371,1,46,0|0,0:2|0:2,0:0:0:0:
178,245,46982,2,0,P|149:240|125:246,1,46,2|0,3:2|0:2,0:2:0:0:
37,333,47154,1,8,0:2:0:0:
115,114,47327,1,2,0:2:0:0:
301,287,47499,6,0,P|370:289|463:241,1,138,0|0,3:2|0:0,0:0:0:0:
456,248,47844,2,0,L|449:313,1,46,10|0,0:2|0:0,0:2:0:0:
442,379,48016,1,0,0:2:0:0:
442,379,48103,1,2,0:2:0:0:
442,379,48189,1,0,0:2:0:0:
352,162,48361,1,2,3:2:0:0:
208,342,48534,2,0,L|199:232,1,92,8|2,0:2|0:2,0:2:0:0:
185,152,48792,1,0,0:2:0:0:
185,152,48878,6,0,P|135:139|72:156,2,92,2|0|8,3:2|3:2|0:2,0:0:0:0:
352,162,49396,2,0,P|347:116|343:63,1,92,2|0,0:2|0:2,0:0:0:0:
300,87,49654,1,0,3:2:0:0:
254,85,49740,1,2,3:2:0:0:
211,66,49827,1,0,0:2:0:0:
188,25,49913,1,8,0:2:0:0:
129,243,50085,1,0,0:0:0:0:
9,130,50258,6,0,B|102:109|102:109|80:157,1,138,2|0,3:2|0:2,0:2:0:0:
27,255,50603,2,0,L|31:190,1,46,10|0,0:2|0:2,0:2:0:0:
41,39,50775,1,0,0:2:0:0:
129,243,50947,1,0,0:2:0:0:
9,130,51120,5,2,3:2:0:0:
258,108,51292,1,8,0:2:0:0:
143,27,51465,6,0,L|139:92,1,46,2|0,0:2|0:2,0:2:0:0:
129,243,51637,1,0,3:2:0:0:
129,243,51809,1,0,3:2:0:0:
349,101,51982,6,0,P|301:105|254:108,1,92,8|2,0:2|0:2,0:0:0:0:
225,110,52240,1,0,0:2:0:0:
230,142,52327,1,0,0:2:0:0:
235,173,52413,1,0,0:2:0:0:
240,204,52499,1,2,3:2:0:0:
143,27,52671,1,8,0:2:0:0:
378,16,52844,1,2,0:2:0:0:
254,24,53016,5,0,3:2:0:0:
334,235,53189,1,2,0:2:0:0:
334,235,53275,1,2,0:2:0:0:
334,235,53361,2,0,B|399:224|399:224|448:251|448:251|514:235,1,184,10|0,0:2|0:0,0:2:0:0:
455,140,53878,5,2,3:2:0:0:
383,333,54051,1,8,0:2:0:0:
302,114,54223,1,2,0:2:0:0:
386,356,54396,5,2,3:2:0:0:
386,356,54568,1,0,0:2:0:0:
508,236,54740,1,8,0:2:0:0:
298,371,54913,6,0,P|253:375|189:336,1,92,2|0,0:2|0:0,0:0:0:0:
185,319,55171,1,0,3:2:0:0:
154,284,55258,1,2,3:2:0:0:
110,268,55344,1,0,0:2:0:0:
64,274,55430,5,10,0:2:0:0:
72,219,55516,1,0,0:2:0:0:
78,163,55603,1,2,0:2:0:0:
85,108,55689,1,0,0:2:0:0:
93,53,55775,5,4,3:1:0:0:
0,181,55947,1,0,0:0:0:0:
217,121,56120,2,0,L|311:128,1,92,10|0,0:0|0:0,0:0:0:0:
401,139,56378,1,0,0:0:0:0:
401,139,56465,2,0,L|396:84,1,46,2|0,0:0|0:0,0:0:0:0:
387,9,56637,1,0,3:0:0:0:
481,206,56809,6,0,P|425:243|340:223,1,138,10|0,0:0|0:0,0:0:0:0:
323,212,57154,1,2,3:2:0:0:
398,354,57327,1,0,3:0:0:0:
401,139,57499,1,10,0:0:0:0:
280,355,57671,6,0,L|285:285,1,46
201,187,57844,2,0,L|196:257,1,46,2|0,0:0|0:0,0:0:0:0:
187,333,58016,1,0,3:0:0:0:
0,279,58189,2,0,B|48:249|48:249|150:302,1,138,10|0,0:0|0:0,0:0:0:0:
187,333,58534,5,2,3:2:0:0:
208,104,58706,1,2,3:2:0:0:
197,232,58878,1,8,0:0:0:0:
29,165,59051,5,0,0:0:0:0:
14,167,59137,1,0,0:0:0:0:
0,169,59223,1,0,0:0:0:0:
95,363,59396,1,2,3:2:0:0:
289,249,59568,2,0,L|387:258,1,92,10|2,0:0|0:0,0:0:0:0:
492,274,59913,5,2,3:2:0:0:
426,137,60085,1,2,3:2:0:0:
427,366,60258,1,10,0:0:0:0:
225,177,60430,2,0,P|198:230|209:300,1,92,2|0,0:0|0:0,0:0:0:0:
207,306,60689,1,0,3:0:0:0:
237,340,60775,1,2,3:2:0:0:
281,349,60861,1,0,0:0:0:0:
333,332,60947,5,10,0:0:0:0:
367,288,61034,1,0,0:0:0:0:
419,271,61120,1,2,0:0:0:0:
473,281,61206,1,0,0:0:0:0:
512,315,61292,6,0,L|501:227,1,46,0|0,3:0|0:0,0:0:0:0:
398,131,61465,2,0,L|407:217,1,46
275,253,61637,1,8,0:0:0:0:
275,253,61723,1,0,0:0:0:0:
275,253,61809,2,0,L|269:198,1,46
312,102,61982,2,0,B|263:79|263:79|166:116,1,138,2|0,0:0|0:0,0:0:0:0:
143,125,62327,2,0,L|144:14,1,92,10|0,0:0|0:0,0:0:0:0:
138,231,62671,5,2,3:2:0:0:
138,231,62844,1,0,3:0:0:0:
12,179,63016,6,0,L|78:176,1,46,8|0,0:0|0:0,0:0:0:0:
217,177,63189,1,2,0:0:0:0:
217,177,63275,1,0,0:0:0:0:
217,177,63361,1,2,0:0:0:0:
55,72,63534,1,0,3:0:0:0:
33,266,63706,2,0,L|25:364,1,92,8|2,0:0|0:0,0:0:0:0:
25,357,63965,1,0,0:0:0:0:
25,357,64051,5,2,3:2:0:0:
138,231,64223,1,0,0:0:0:0:
249,364,64396,2,0,P|299:367|354:335,1,92,10|0,0:0|0:0,0:0:0:0:
367,317,64654,1,0,0:0:0:0:
385,274,64740,1,2,0:0:0:0:
376,228,64827,1,0,0:0:0:0:
337,189,64913,5,2,3:2:0:0:
284,161,64999,1,0,0:0:0:0:
267,103,65085,1,10,0:0:0:0:
290,48,65171,1,0,0:0:0:0:
345,25,65258,1,2,0:0:0:0:
402,40,65344,1,0,0:0:0:0:
443,88,65430,5,2,3:2:0:0:
453,151,65516,1,0,0:0:0:0:
461,215,65603,1,0,3:2:0:0:
468,278,65689,1,0,0:0:0:0:
475,341,65775,1,10,0:0:0:0:
367,116,65947,1,2,0:0:0:0:
280,272,66120,6,0,B|255:279|255:279|213:269,1,46,2|0,0:0|3:0,0:0:0:0:
235,109,66292,2,0,B|255:105|255:105|280:112,1,46,0|0,3:0|0:0,0:0:0:0:
363,193,66465,1,8,0:0:0:0:
144,193,66637,1,2,0:0:0:0:
275,363,66809,6,0,L|280:255,1,92,4|0,3:1|0:0,0:0:0:0:
134,17,67154,2,0,L|139:125,1,92,10|0,0:0|0:0,0:0:0:0:
144,193,67413,1,0,0:0:0:0:
144,193,67499,1,2,0:0:0:0:
18,77,67671,1,0,3:0:0:0:
249,83,67844,2,0,P|315:81|402:72,1,138,8|0,0:0|0:0,0:0:0:0:
470,60,68189,6,0,L|465:140,1,46,2|0,3:2|0:0,0:0:0:0:
460,215,68361,1,0,3:0:0:0:
249,83,68534,1,10,0:0:0:0:
329,277,68706,5,0,0:0:0:0:
331,249,68792,1,0,0:0:0:0:
333,221,68878,1,2,0:0:0:0:
335,193,68965,1,0,0:0:0:0:
337,165,69051,1,0,3:0:0:0:
432,316,69223,1,10,0:0:0:0:
242,180,69396,1,0,0:0:0:0:
187,367,69568,6,0,P|137:371|86:340,1,92,2|0,3:2|0:0,0:0:0:0:
76,321,69827,1,0,0:0:0:0:
76,321,69913,1,10,0:0:0:0:
415,224,70085,6,0,P|461:227|547:235,1,92,6|0,3:2|0:0,0:0:0:0:
100,109,70430,2,0,P|53:112|-32:120,1,92,6|0,3:2|0:0,0:0:0:0:
255,306,70775,6,0,L|260:115,1,184,6|2,3:2|3:2,0:0:0:0:
305,144,71206,1,0,3:0:0:0:
354,154,71292,1,10,0:0:0:0:
403,142,71378,1,0,0:0:0:0:
445,112,71465,1,2,0:0:0:0:
461,64,71551,1,0,0:0:0:0:
449,16,71637,5,2,0:0:0:0:
449,16,71723,1,0,3:0:0:0:
449,16,71809,1,0,3:0:0:0:
479,225,71982,1,10,0:0:0:0:
357,53,72154,1,0,0:0:0:0:
379,319,72327,6,0,P|381:269|384:205,1,92,6|0,3:2|0:0,0:0:0:0:
133,65,72671,2,0,P|130:113|128:179,1,92,8|2,3:2|0:0,0:0:0:0:
100,364,73016,5,2,3:2:0:0:
68,358,73103,1,0,0:0:0:0:
40,343,73189,1,2,0:0:0:0:
22,316,73275,1,0,0:0:0:0:
16,275,73361,5,10,3:2:0:0:
30,236,73447,1,0,0:0:0:0:
63,210,73534,1,2,0:0:0:0:
103,203,73620,1,0,0:0:0:0:
149,223,73706,5,2,3:2:0:0:
188,254,73792,1,0,0:0:0:0:
236,266,73878,1,2,0:0:0:0:
286,255,73965,1,0,0:0:0:0:
331,216,74051,5,2,3:2:0:0:
346,158,74137,1,0,0:0:0:0:
335,99,74223,1,0,0:0:0:0:
291,58,74309,1,0,0:0:0:0:
231,49,74396,1,2,3:2:0:0:
240,156,74568,1,0,0:0:0:0:
472,32,74740,2,0,P|468:97|467:214,1,138,10|0,3:2|3:0,0:0:0:0:
469,258,75085,5,2,3:2:0:0:
335,99,75258,1,2,3:2:0:0:
340,364,75430,1,2,3:2:0:0:
467,169,75603,1,2,3:2:0:0:
180,153,75775,5,0,3:0:0:0:
196,275,75947,1,0,3:0:0:0:
327,24,76120,5,0,3:0:0:0:
315,249,76292,1,0,3:0:0:0:
82,49,76465,5,2,3:2:0:0:
80,113,76551,1,2,3:2:0:0:
75,177,76637,1,2,3:2:0:0:
70,241,76723,1,2,3:2:0:0:
66,305,76809,5,12,3:2:0:0:
246,64,77154,5,2,0:0:0:0:
257,239,77327,1,2,0:0:0:0:
375,144,77499,2,0,P|332:148|282:151,1,92,2|2,0:0|0:0,0:0:0:0:
108,132,77844,6,0,B|206:98|182:197|319:139,1,184,6|8,3:2|0:0,0:0:0:0:
430,43,78361,1,2,0:0:0:0:
430,43,78447,1,0,0:0:0:0:
430,43,78534,1,0,0:0:0:0:
417,276,78706,1,2,3:2:0:0:
283,151,78878,1,10,0:2:0:0:
484,165,79051,6,0,L|430:162,1,46,2|0,0:2|0:0,0:0:0:0:
283,151,79223,1,0,3:0:0:0:
339,67,79396,1,0,3:0:0:0:
408,262,79568,2,0,P|413:308|418:362,1,92,8|0,0:0|0:0,0:0:0:0:
418,378,79827,1,0,0:0:0:0:
418,378,79913,6,0,L|353:373,1,46,2|0,0:2|0:0,0:0:0:0:
274,359,80085,1,2,3:2:0:0:
383,153,80258,2,0,P|437:155|476:177,1,92,10|2,0:2|0:2,0:0:0:0:
218,224,80603,6,0,L|220:59,1,138,2|0,3:2|0:0,0:0:0:0:
220,42,80947,1,10,0:2:0:0:
106,183,81120,2,0,B|62:197|62:197|19:178,1,92,2|0,0:2|0:0,0:0:0:0:
69,91,81465,1,2,3:2:0:0:
56,295,81637,1,8,0:0:0:0:
218,224,81809,1,2,0:2:0:0:
218,224,81896,1,0,0:0:0:0:
218,224,81982,5,0,3:0:0:0:
18,158,82154,1,2,3:2:0:0:
311,113,82327,2,0,P|360:112|428:106,1,92,8|0,0:0|0:0,0:0:0:0:
448,104,82585,5,0,0:0:0:0:
443,149,82671,1,2,0:2:0:0:
438,195,82758,1,0,3:0:0:0:
433,240,82844,1,2,3:2:0:0:
197,108,83016,2,0,B|177:66|177:66|199:-8,1,92,10|2,0:2|0:2,0:0:0:0:
300,192,83361,6,0,B|320:234|320:234|298:308,1,92,2|0,3:2|0:0,0:0:0:0:
98,245,83706,1,8,0:0:0:0:
229,241,83878,5,2,0:0:0:0:
229,241,83965,1,0,0:0:0:0:
229,241,84051,2,0,L|147:245,1,46,2|0,0:0|0:0,0:0:0:0:
14,248,84223,1,0,3:0:0:0:
106,383,84396,2,0,L|98:241,1,138,8|0,0:0|0:0,0:0:0:0:
93,160,84740,5,2,3:2:0:0:
13,335,84913,1,0,3:0:0:0:
229,241,85085,2,0,L|350:247,1,92,10|0,0:2|0:0,0:0:0:0:
360,250,85344,1,0,0:0:0:0:
360,250,85430,1,2,0:2:0:0:
414,352,85603,1,0,3:0:0:0:
490,192,85775,2,0,P|495:243|500:309,1,92,10|0,0:2|0:0,0:0:0:0:
483,88,86120,5,2,3:2:0:0:
360,250,86292,1,0,0:0:0:0:
206,140,86465,6,0,B|168:157|142:206|142:206|108:165|44:156,1,184,10|0,0:2|0:0,0:0:0:0:
126,79,86982,1,0,3:0:0:0:
154,289,87154,2,0,L|163:388,1,92,10|0,0:2|0:0,0:0:0:0:
274,199,87499,5,2,3:2:0:0:
303,177,87585,1,0,0:0:0:0:
339,171,87671,1,0,3:0:0:0:
373,185,87758,1,0,0:0:0:0:
406,199,87844,5,10,0:2:0:0:
451,192,87930,1,0,0:0:0:0:
487,164,88016,1,0,0:0:0:0:
498,118,88103,1,0,0:0:0:0:
491,61,88189,5,0,0:0:0:0:
457,14,88275,1,0,3:0:0:0:
399,5,88361,1,2,3:2:0:0:
347,25,88447,1,0,0:0:0:0:
312,75,88534,5,10,0:2:0:0:
260,105,88620,1,0,0:0:0:0:
200,102,88706,1,2,0:2:0:0:
147,74,88792,1,0,0:0:0:0:
120,20,88878,6,0,L|111:189,1,138,6|0,3:2|0:0,0:0:0:0:
108,240,89223,1,8,0:0:0:0:
220,196,89396,6,0,B|234:236|234:236|220:283,1,92,2|0,0:0|0:0,0:0:0:0:
5,277,89740,2,0,B|-9:236|-9:236|4:189,1,92,2|10,3:2|0:2,0:0:0:0:
97,379,90085,2,0,L|100:324,1,46,2|0,0:2|0:0,0:0:0:0:
108,240,90258,5,0,3:0:0:0:
224,368,90430,2,0,P|247:363|292:324,1,46,0|0,3:0|0:0,0:0:0:0:
317,225,90603,2,0,P|311:275|313:291,1,46,8|0,0:0|0:0,0:0:0:0:
374,344,90775,2,0,P|397:351|457:337,1,46
511,309,90947,5,2,0:2:0:0:
422,90,91120,1,2,3:2:0:0:
411,264,91292,1,10,0:2:0:0:
512,133,91465,1,2,0:2:0:0:
319,207,91637,6,0,L|188:194,1,92,2|0,3:2|0:0,0:0:0:0:
69,253,91982,1,10,0:2:0:0:
50,91,92154,2,0,B|97:49|97:49|78:184,1,184,2|2,0:2|3:2,0:0:0:0:
58,341,92671,1,8,0:0:0:0:
255,192,92844,1,2,0:2:0:0:
255,192,92930,1,0,0:0:0:0:
255,192,93016,1,0,3:0:0:0:
477,327,93189,5,2,3:2:0:0:
435,355,93275,1,0,0:0:0:0:
382,361,93361,1,8,0:0:0:0:
338,335,93447,1,0,0:0:0:0:
310,292,93534,1,0,0:0:0:0:
260,282,93620,1,0,0:0:0:0:
212,303,93706,6,0,L|217:376,2,46,2|0|2,0:2|3:0|3:2,0:0:0:0:
392,124,94051,2,0,B|426:166|426:166|401:265,1,138,10|0,0:2|0:0,0:0:0:0:
400,266,94396,5,2,3:2:0:0:
302,196,94568,1,0,0:0:0:0:
512,171,94740,1,8,0:0:0:0:
223,164,94913,2,0,L|151:157,2,46,2|0|2,0:0|0:0|0:0,0:0:0:0:
107,355,95258,5,0,0:0:0:0:
70,355,95344,1,0,0:0:0:0:
38,338,95430,1,8,0:0:0:0:
13,293,95516,1,0,0:0:0:0:
14,242,95602,1,2,0:0:0:0:
45,201,95689,1,0,0:0:0:0:
98,187,95775,5,2,3:2:0:0:
152,196,95861,1,0,0:0:0:0:
200,170,95947,1,0,3:0:0:0:
221,119,96033,1,0,0:0:0:0:
207,63,96120,1,10,0:2:0:0:
92,271,96292,5,0,0:0:0:0:
0,80,96465,1,2,0:2:0:0:
0,80,96551,1,0,0:0:0:0:
0,80,96637,1,0,3:0:0:0:
217,264,96809,2,0,L|390:251,1,138,10|0,0:2|0:0,0:0:0:0:
391,250,97154,5,2,3:2:0:0:
404,351,97327,1,0,0:0:0:0:
405,100,97499,2,0,B|368:75|368:75|383:183,1,138,10|0,0:2|0:0,0:0:0:0:
391,250,97844,1,0,0:0:0:0:
58,165,98016,5,0,3:0:0:0:
46,124,98103,1,0,0:0:0:0:
57,84,98189,1,10,0:2:0:0:
91,53,98275,1,0,0:0:0:0:
136,45,98361,1,0,0:0:0:0:
179,58,98447,1,0,0:0:0:0:
213,101,98534,5,2,3:2:0:0:
249,141,98620,1,0,0:0:0:0:
301,158,98706,1,0,3:0:0:0:
355,150,98792,1,0,0:0:0:0:
396,113,98878,1,10,0:2:0:0:
311,2,99051,5,0,0:0:0:0:
311,2,99137,1,0,0:0:0:0:
311,2,99223,2,0,L|308:53,1,46,0|0,0:0|3:0,0:0:0:0:
301,158,99396,1,8,3:1:0:0:
460,53,99568,2,0,L|507:41,2,46,10|0|2,0:2|0:0|0:2,0:0:0:0:
200,122,99913,5,4,3:1:0:0:
311,2,100085,1,0,0:0:0:0:
388,179,100258,2,0,L|400:301,1,92,8|0,0:0|0:0,0:0:0:0:
156,229,100603,2,0,L|146:320,1,92
272,327,100947,1,8,0:0:0:0:
254,128,101120,1,0,0:0:0:0:
156,229,101292,5,0,3:0:0:0:
367,210,101465,1,0,3:0:0:0:
156,229,101637,1,8,0:0:0:0:
243,20,101809,2,0,B|308:28|308:28|352:65|352:65|437:74,1,184,0|0,0:0|3:0,0:0:0:0:
254,128,102327,1,8,0:0:0:0:
254,128,102499,1,0,0:0:0:0:
81,31,102671,5,0,3:0:0:0:
79,86,102758,1,0,0:0:0:0:
76,141,102844,1,0,0:0:0:0:
73,196,102930,1,0,0:0:0:0:
69,250,103016,1,8,0:0:0:0:
244,352,103189,6,0,B|256:251|256:251|204:293,1,138
120,326,103534,2,0,L|174:322,1,46,0|0,3:0|0:0,0:0:0:0:
344,306,103706,1,8,0:0:0:0:
200,155,103878,1,0,0:0:0:0:
35,382,104051,6,0,P|18:331|32:275,1,92,2|0,3:2|3:0,0:0:0:0:
105,132,104396,1,10,0:2:0:0:
120,326,104568,5,0,0:0:0:0:
120,326,104654,1,0,0:0:0:0:
120,326,104740,1,2,0:2:0:0:
120,326,104827,1,0,3:0:0:0:
120,326,104913,1,0,3:0:0:0:
0,184,105085,1,10,0:2:0:0:
220,239,105258,1,0,0:0:0:0:
155,15,105430,5,6,3:2:0:0:
131,227,105603,1,0,0:0:0:0:
113,136,105775,5,2,0:0:0:0:
148,319,105947,1,0,0:0:0:0:
298,175,106120,5,2,0:0:0:0:
293,311,106292,1,0,0:0:0:0:
220,239,106465,5,2,0:0:0:0:
373,249,106637,1,0,0:0:0:0:
293,311,106809,5,2,0:0:0:0:
298,175,106982,1,0,0:0:0:0:
302,37,107154,1,0,0:0:0:0:
499,89,107327,2,0,B|433:111|433:111|367:80,1,138,2|0,0:0|0:0,0:0:0:0:
302,37,107671,1,0,0:0:0:0:
220,239,107844,1,2,0:0:0:0:
0,148,108016,6,0,P|44:144|110:138,1,92,2|2,0:0|0:0,0:0:0:0:
119,135,108275,1,2,0:0:0:0:
116,162,108361,1,2,0:0:0:0:
114,189,108447,1,2,0:0:0:0:
114,210,108534,6,0,B|172:219|216:162|216:162|211:245|297:290|297:290|276:230|316:177,1,379.500014476777,2|0,0:0|0:0,0:0:0:0:
256,192,109568,12,0,110861,0:0:0:0:
256,192,110947,12,0,112240,0:0:0:0:
386,95,112327,5,2,0:0:0:0:
395,178,112499,1,0,0:0:0:0:
404,262,112671,1,8,0:0:0:0:
270,197,112844,5,0,0:0:0:0:
235,187,112930,1,0,0:0:0:0:
199,192,113016,1,0,0:0:0:0:
167,209,113103,1,0,0:0:0:0:
143,238,113189,2,0,L|151:298,1,46,8|0,0:0|0:0,0:0:0:0:
167,373,113361,1,0,0:0:0:0:
37,326,113534,1,0,0:0:0:0:
306,289,113706,5,4,3:1:0:0:
