osu file format v14

[General]
AudioFilename: TENSHI.ogg
AudioLeadIn: 0
PreviewTime: 57388
Countdown: 0
SampleSet: Soft
StackLeniency: 0.6
Mode: 3
LetterboxInBreaks: 0
SpecialStyle: 0
WidescreenStoryboard: 1

[Editor]
DistanceSpacing: 0.8
BeatDivisor: 4
GridSize: 4
TimelineZoom: 1.5

[Metadata]
Title:Tenshi
TitleUnicode:Tenshi
Artist:Gouryella
ArtistUnicode:Gouryella
Creator:Falcon
Version:Beginner
Source:DanceDanceRevolution X2
Tags:Jesuren electronic instrumental Cyber Trance 10th Anniversary AVCD-38223 Ferry Corsten DJ Tiesto Tiësto Tijs Michiel Verwest angel 天使 DDR Dance Revolution X 2 video game
BeatmapID:2755969
BeatmapSetID:1330167

[Difficulty]
HPDrainRate:6.5
CircleSize:4
OverallDifficulty:6.5
ApproachRate:5
SliderMultiplier:1.4
SliderTickRate:1

[Events]
//Background and Video events
0,0,"TENSHI-bg.jpg",0,0
//Break Periods
//Storyboard Layer 0 (Background)
//Storyboard Layer 1 (Fail)
//Storyboard Layer 2 (Pass)
//Storyboard Layer 3 (Foreground)
//Storyboard Layer 4 (Overlay)
//Storyboard Sound Samples

[TimingPoints]
1736,434.782608695652,4,2,1,70,1,0
57388,-100,4,2,1,70,0,1
85214,-100,4,2,1,70,0,0

[HitObjects]
320,192,8909,5,0,0:0:0:0:
320,192,9344,1,0,0:0:0:0:
320,192,9779,1,0,0:0:0:0:
320,192,10214,1,0,0:0:0:0:
192,192,10431,1,0,0:0:0:0:
64,192,10649,1,0,0:0:0:0:
64,192,11083,1,0,0:0:0:0:
64,192,11518,1,0,0:0:0:0:
64,192,11953,1,0,0:0:0:0:
320,192,12170,1,0,0:0:0:0:
192,192,12388,1,0,0:0:0:0:
192,192,12822,1,0,0:0:0:0:
192,192,13257,1,0,0:0:0:0:
192,192,13692,1,0,0:0:0:0:
192,192,14127,1,0,0:0:0:0:
192,192,14562,1,0,0:0:0:0:
192,192,14996,1,0,0:0:0:0:
192,192,15431,1,0,0:0:0:0:
64,192,15649,1,0,0:0:0:0:
320,192,15866,1,0,0:0:0:0:
320,192,16301,1,0,0:0:0:0:
320,192,16735,1,0,0:0:0:0:
320,192,17170,1,0,0:0:0:0:
192,192,17388,1,0,0:0:0:0:
448,192,17605,1,0,0:0:0:0:
448,192,18040,1,0,0:0:0:0:
448,192,18475,1,0,0:0:0:0:
448,192,18909,1,0,0:0:0:0:
320,192,19127,1,0,0:0:0:0:
64,192,19344,1,0,0:0:0:0:
64,192,19779,1,0,0:0:0:0:
64,192,20214,1,0,0:0:0:0:
64,192,20649,1,0,0:0:0:0:
192,192,20866,1,0,0:0:0:0:
320,192,21083,1,0,0:0:0:0:
320,192,21518,1,0,0:0:0:0:
320,192,21953,1,0,0:0:0:0:
320,192,22388,1,0,0:0:0:0:
64,192,22605,128,0,24344:0:0:0:0:
192,192,24344,128,0,26083:0:0:0:0:
320,192,26083,128,0,27822:0:0:0:0:
448,192,27822,128,0,28692:0:0:0:0:
192,192,28692,128,0,29562:0:0:0:30:soft-hitwhistle.wav
448,192,29562,1,6,0:0:0:0:
64,192,29779,1,0,0:0:0:0:
64,192,30214,1,0,0:0:0:0:
448,192,30431,1,2,0:0:0:0:
64,192,30649,1,0,0:0:0:0:
64,192,31083,1,0,0:0:0:0:
320,192,31301,1,2,0:0:0:0:
192,192,31518,1,0,0:0:0:0:
192,192,31953,1,0,0:0:0:0:
320,192,32170,1,2,0:0:0:0:
192,192,32388,1,0,0:0:0:0:
192,192,32822,1,0,0:0:0:0:
448,192,33040,1,2,0:0:0:0:
192,192,33257,1,0,0:0:0:0:
192,192,33692,1,0,0:0:0:0:
448,192,33909,1,2,0:0:0:0:
192,192,34127,1,0,0:0:0:0:
192,192,34562,1,0,0:0:0:0:
448,192,34779,1,2,0:0:0:0:
192,192,34996,1,0,0:0:0:0:
192,192,35431,1,0,0:0:0:0:
448,192,35649,1,2,0:0:0:0:
192,192,35866,1,0,0:0:0:0:
192,192,36301,1,0,0:0:0:0:
64,192,36518,1,2,0:0:0:0:
320,192,36735,1,0,0:0:0:0:
320,192,37170,1,0,0:0:0:0:
64,192,37388,1,2,0:0:0:0:
320,192,37605,1,0,0:0:0:0:
320,192,38040,1,0,0:0:0:0:
192,192,38257,1,2,0:0:0:0:
448,192,38475,1,0,0:0:0:0:
448,192,38909,1,0,0:0:0:0:
192,192,39127,1,2,0:0:0:0:
448,192,39344,1,0,0:0:0:0:
448,192,39779,1,0,0:0:0:0:
320,192,39996,1,2,0:0:0:0:
64,192,40214,1,0,0:0:0:0:
64,192,40649,1,0,0:0:0:0:
320,192,40866,1,2,0:0:0:0:
64,192,41083,1,0,0:0:0:0:
64,192,41518,1,0,0:0:0:0:
320,192,41735,1,2,0:0:0:0:
64,192,41953,1,0,0:0:0:0:
64,192,42388,1,0,0:0:0:0:
320,192,42605,1,2,0:0:0:0:
64,192,42822,1,0,0:0:0:0:
64,192,43257,1,0,0:0:0:0:
192,192,43475,1,2,0:0:0:0:
448,192,43692,1,0,0:0:0:0:
448,192,44127,1,0,0:0:0:0:
192,192,44344,1,2,0:0:0:0:
448,192,44562,1,0,0:0:0:0:
448,192,44996,1,0,0:0:0:0:
64,192,45214,1,2,0:0:0:0:
320,192,45431,1,0,0:0:0:0:
320,192,45866,1,0,0:0:0:0:
64,192,46083,1,2,0:0:0:0:
320,192,46301,1,0,0:0:0:0:
320,192,46735,1,0,0:0:0:0:
448,192,46953,1,2,0:0:0:0:
192,192,47170,1,0,0:0:0:0:
192,192,47605,1,0,0:0:0:0:
448,192,47822,1,2,0:0:0:0:
192,192,48040,1,0,0:0:0:0:
192,192,48475,1,0,0:0:0:0:
320,192,48692,1,2,0:0:0:0:
64,192,48909,1,0,0:0:0:0:
64,192,49344,1,0,0:0:0:0:
320,192,49562,1,2,0:0:0:0:
64,192,49779,1,0,0:0:0:0:
64,192,50214,1,0,0:0:0:0:
192,192,50431,128,2,52170:0:0:0:0:
320,192,50866,1,2,0:0:0:0:
64,192,51301,1,2,0:0:0:0:
448,192,51735,1,2,0:0:0:0:
64,192,52170,128,2,53909:0:0:0:0:
448,192,52605,1,2,0:0:0:0:
192,192,53040,1,2,0:0:0:0:
320,192,53475,1,2,0:0:0:0:
448,192,53909,128,2,55649:0:0:0:0:
192,192,54344,1,2,0:0:0:0:
320,192,54779,1,2,0:0:0:0:
64,192,55214,1,2,0:0:0:0:
320,192,55649,128,0,57388:0:0:0:0:
448,192,57388,1,6,0:0:0:0:
64,192,57605,1,0,0:0:0:70:hhat.wav
320,192,57822,1,2,0:0:0:0:
192,192,57822,1,8,0:0:0:0:
448,192,58257,1,2,0:0:0:0:
64,192,58475,1,0,0:0:0:70:hhat.wav
320,192,58692,1,2,0:0:0:0:
192,192,58692,1,8,0:0:0:0:
320,192,59127,1,2,0:0:0:0:
192,192,59344,1,0,0:0:0:70:hhat.wav
448,192,59562,1,8,0:0:0:0:
64,192,59562,1,2,0:0:0:0:
320,192,59996,1,2,0:0:0:0:
192,192,60214,1,0,0:0:0:70:hhat.wav
448,192,60431,1,2,0:0:0:0:
64,192,60431,1,8,0:0:0:0:
64,192,60866,1,2,0:0:0:0:
192,192,61083,1,0,0:0:0:70:hhat.wav
448,192,61301,1,2,0:0:0:0:
320,192,61301,1,8,0:0:0:0:
64,192,61735,1,2,0:0:0:0:
192,192,61953,1,0,0:0:0:70:hhat.wav
320,192,62170,1,8,0:0:0:0:
448,192,62170,1,2,0:0:0:0:
192,192,62605,1,2,0:0:0:0:
64,192,62822,1,0,0:0:0:70:hhat.wav
320,192,63040,1,8,0:0:0:0:
448,192,63040,1,2,0:0:0:0:
192,192,63475,1,2,0:0:0:0:
64,192,63692,1,0,0:0:0:70:hhat.wav
320,192,63909,1,2,0:0:0:0:
448,192,63909,1,8,0:0:0:0:
320,192,64344,1,2,0:0:0:0:
64,192,64562,1,0,0:0:0:70:hhat.wav
192,192,64779,1,2,0:0:0:0:
448,192,64779,1,8,0:0:0:0:
320,192,65214,1,2,0:0:0:0:
64,192,65431,1,0,0:0:0:70:hhat.wav
448,192,65649,1,8,0:0:0:0:
192,192,65649,1,2,0:0:0:0:
448,192,66083,1,2,0:0:0:0:
192,192,66301,1,0,0:0:0:70:hhat.wav
320,192,66518,1,8,0:0:0:0:
64,192,66518,1,2,0:0:0:0:
448,192,66953,1,2,0:0:0:0:
192,192,67170,1,0,0:0:0:70:hhat.wav
320,192,67388,1,2,0:0:0:0:
64,192,67388,1,8,0:0:0:0:
320,192,67822,1,2,0:0:0:0:
448,192,68040,1,0,0:0:0:70:hhat.wav
64,192,68257,1,2,0:0:0:0:
192,192,68257,1,8,0:0:0:0:
320,192,68692,1,2,0:0:0:0:
448,192,68909,1,0,0:0:0:70:hhat.wav
64,192,69127,1,8,0:0:0:0:
192,192,69127,1,2,0:0:0:0:
448,192,69562,1,2,0:0:0:0:
320,192,69779,1,0,0:0:0:70:hhat.wav
192,192,69996,1,8,0:0:0:0:
64,192,69996,1,2,0:0:0:0:
448,192,70431,1,2,0:0:0:0:
320,192,70649,1,0,0:0:0:70:hhat.wav
192,192,70866,1,2,0:0:0:0:
64,192,70866,1,8,0:0:0:0:
64,192,71301,1,2,0:0:0:0:
320,192,71518,1,0,0:0:0:70:hhat.wav
192,192,71735,1,2,0:0:0:0:
448,192,71735,1,8,0:0:0:0:
64,192,72170,1,2,0:0:0:0:
320,192,72388,1,0,0:0:0:70:hhat.wav
192,192,72605,1,8,0:0:0:0:
448,192,72605,1,2,0:0:0:0:
192,192,73040,1,2,0:0:0:0:
320,192,73257,1,0,0:0:0:70:hhat.wav
448,192,73475,1,8,0:0:0:0:
64,192,73475,1,2,0:0:0:0:
192,192,73909,1,2,0:0:0:0:
320,192,74127,1,0,0:0:0:70:hhat.wav
448,192,74344,1,2,0:0:0:0:
64,192,74344,1,8,0:0:0:0:
448,192,74779,1,2,0:0:0:0:
192,192,74996,1,0,0:0:0:70:hhat.wav
320,192,75214,1,2,0:0:0:0:
64,192,75214,1,8,0:0:0:0:
448,192,75649,1,2,0:0:0:0:
192,192,75866,1,0,0:0:0:70:hhat.wav
64,192,76083,1,8,0:0:0:0:
320,192,76083,1,2,0:0:0:0:
448,192,76518,1,2,0:0:0:0:
64,192,76735,1,0,0:0:0:70:hhat.wav
192,192,76953,1,8,0:0:0:0:
320,192,76953,1,2,0:0:0:0:
448,192,77388,1,2,0:0:0:0:
64,192,77605,1,0,0:0:0:70:hhat.wav
192,192,77822,1,2,0:0:0:0:
320,192,77822,1,8,0:0:0:0:
320,192,78257,1,2,0:0:0:0:
192,192,78692,1,2,0:0:0:0:
448,192,78692,1,8,0:0:0:0:
64,192,79127,1,2,0:0:0:0:
320,192,79562,1,8,0:0:0:0:
448,192,79562,1,2,0:0:0:0:
192,192,79996,1,2,0:0:0:0:
64,192,80431,1,8,0:0:0:0:
320,192,80431,1,2,0:0:0:0:
448,192,80866,1,2,0:0:0:0:
320,192,81301,1,2,0:0:0:0:
192,192,81301,1,8,0:0:0:0:
64,192,81735,1,2,0:0:0:0:
192,192,82170,1,2,0:0:0:0:
448,192,82170,1,8,0:0:0:0:
320,192,82605,1,2,0:0:0:0:
448,192,83040,1,8,0:0:0:0:
64,192,83040,1,2,0:0:0:0:
192,192,83475,128,0,85214:0:0:0:0:
320,192,85214,1,6,0:0:0:0:
64,192,85649,1,10,0:0:0:0:
448,192,85975,1,0,0:0:0:0:
192,192,86192,1,0,0:0:0:0:
64,192,86518,1,10,0:0:0:0:
192,192,86953,1,2,0:0:0:0:
320,192,87388,1,10,0:0:0:0:
64,192,87714,1,0,0:0:0:0:
448,192,87931,1,0,0:0:0:0:
320,192,88257,1,10,0:0:0:0:
448,192,88692,1,2,0:0:0:0:
192,192,89127,1,10,0:0:0:0:
320,192,89453,1,0,0:0:0:0:
64,192,89670,1,0,0:0:0:0:
192,192,89996,1,10,0:0:0:0:
64,192,90431,1,2,0:0:0:0:
448,192,90866,1,10,0:0:0:0:
192,192,91192,1,0,0:0:0:0:
320,192,91409,1,0,0:0:0:0:
448,192,91735,1,8,0:0:0:0:
320,192,92170,1,2,0:0:0:0:
192,192,92170,1,4,0:0:0:0:
448,192,92605,1,10,0:0:0:0:
192,192,92931,1,0,0:0:0:0:
64,192,93149,1,0,0:0:0:0:
448,192,93475,1,10,0:0:0:0:
192,192,93909,1,2,0:0:0:0:
64,192,94344,1,10,0:0:0:0:
320,192,94670,1,0,0:0:0:0:
448,192,94888,1,0,0:0:0:0:
64,192,95214,1,10,0:0:0:0:
448,192,95649,1,2,0:0:0:0:
320,192,96083,1,10,0:0:0:0:
64,192,96409,1,0,0:0:0:0:
192,192,96627,1,0,0:0:0:0:
320,192,96953,1,10,0:0:0:0:
64,192,97388,1,2,0:0:0:0:
192,192,97822,1,10,0:0:0:0:
448,192,98149,1,0,0:0:0:0:
320,192,98366,1,0,0:0:0:0:
64,192,98692,1,6,0:0:0:0:
192,192,98692,1,8,0:0:0:0:
