osu file format v14

[General]
AudioFilename: audio.mp3
AudioLeadIn: 0
PreviewTime: 42723
Countdown: 0
SampleSet: Soft
StackLeniency: 0.7
Mode: 0
LetterboxInBreaks: 0
WidescreenStoryboard: 0

[Editor]
Bookmarks: 11085,22119,33154,44188,55223,66257,77292,88326,99361,110395,121430,132464
DistanceSpacing: 1.3
BeatDivisor: 4
GridSize: 32
TimelineZoom: 1

[Metadata]
Title:Silence
TitleUnicode:Silence
Artist:Gourski x Himmes
ArtistUnicode:Gourski x Himmes
Creator:BOUYAAA
Version:Hard
Source:
Tags:electronic edm high tea music featured artist mao neilperry
BeatmapID:1657684
BeatmapSetID:789905

[Difficulty]
HPDrainRate:5
CircleSize:4
OverallDifficulty:6.5
ApproachRate:8
SliderMultiplier:1.3
SliderTickRate:1

[Events]
//Background and Video events
0,0,"dnbhd.png",0,0
//Break Periods
//Storyboard Layer 0 (Background)
//Storyboard Layer 1 (Fail)
//Storyboard Layer 2 (Pass)
//Storyboard Layer 3 (Foreground)
//Storyboard Sound Samples

[TimingPoints]
51,344.827586206897,4,2,1,33,1,0
19188,-100,4,2,1,50,0,0
22119,-100,4,2,1,50,0,0
43499,-100,4,2,1,26,0,0
44188,-90.9090909090909,4,2,2,70,0,0
63499,-100,4,2,2,70,0,0
66257,-90.9090909090909,4,2,2,70,0,0
107464,-100,4,2,2,70,0,0
130395,-100,4,2,2,27,0,0
130740,-100,4,2,2,50,0,0
131430,-100,4,2,2,27,0,0
131775,-100,4,2,2,50,0,0
132119,-100,4,2,2,27,0,0

[Colours]
Combo1 : 223,164,180
Combo2 : 165,216,254
Combo3 : 252,216,167
Combo4 : 203,216,215

[HitObjects]
108,127,51,6,0,L|200:131,1,65,4|0,0:0|0:0,0:0:0:0:
246,103,395,1,2,0:0:0:0:
313,142,568,2,0,P|335:202|290:258,1,130,0|0,0:0|0:0,0:0:0:0:
225,273,1085,2,0,P|210:320|229:360,1,65,2|0,0:0|0:0,0:0:0:0:
278,376,1430,1,0,0:0:0:0:
343,334,1602,6,0,L|500:325,1,130,0|0,0:0|0:0,0:0:0:0:
496,252,2119,2,0,B|442:249|442:249|417:232|417:232|353:227,1,130,0|2,0:0|0:0,0:0:0:0:
300,263,2637,5,2,0:3:0:0:
277,75,2982,2,0,P|324:46|396:64,1,130,2|2,0:3|0:3,0:0:0:0:
471,91,3499,2,0,P|436:132|404:138,1,65,2|2,0:3|0:3,0:0:0:0:
342,131,3844,1,2,0:2:0:0:
285,193,4016,5,0,0:0:0:0:
120,154,4361,2,0,B|94:111|94:111|108:23,1,130,0|0,0:0|0:0,0:0:0:0:
190,17,4878,2,0,P|201:56|246:78,1,65,2|0,0:3|0:0,0:0:0:0:
302,84,5223,1,2,0:2:0:0:
200,218,5568,5,0,0:0:0:0:
157,291,5740,2,0,L|166:370,1,65,0|2,0:0|0:0,0:0:0:0:
110,214,6085,1,0,0:0:0:0:
67,288,6257,2,0,L|76:367,1,65,0|0,0:0|0:0,0:0:0:0:
168,364,6602,1,2,0:0:0:0:
237,314,6775,6,0,P|286:300|355:354,1,130,0|0,0:0|0:0,0:0:0:0:
430,362,7292,2,0,P|446:319|473:297,1,65,2|0,0:0|0:0,0:0:0:0:
495,229,7637,2,0,L|420:222,1,65,0|0,0:0|0:0,0:0:0:0:
362,150,7982,2,0,L|437:143,1,65,0|0,0:0|0:0,0:0:0:0:
485,83,8326,2,0,P|491:42|478:9,2,65,2|2|2,0:3|0:3|0:2,0:0:0:0:
404,54,8844,6,0,B|347:46|347:46|330:31|330:31|256:22,1,130,2|2,0:3|0:3,0:0:0:0:
198,46,9361,2,0,P|187:89|200:121,1,65,2|2,0:2|0:3,0:0:0:0:
255,164,9706,1,0,0:0:0:0:
184,210,9878,2,0,P|119:216|75:163,1,130,0|0,0:0|0:0,0:0:0:0:
1,209,10395,6,0,L|3:282,1,65,0|0,0:0|0:0,0:0:0:0:
73,362,10740,2,0,L|78:290,1,65,2|0,0:0|0:0,0:0:0:0:
179,313,11085,6,0,P|220:344|258:342,1,65,0|0,0:0|0:0,0:0:0:0:
305,302,11430,2,0,B|336:277|336:277|454:273,1,130,2|0,0:0|0:0,0:0:0:0:
454,193,11947,2,0,B|363:189|363:189|332:164,1,130,2|0,0:0|0:0,0:0:0:0:
284,95,12464,6,0,B|290:27|290:27|216:19,1,130,2|0,0:0|0:0,0:0:0:0:
143,11,12982,2,0,B|75:5|75:5|67:79,1,130,2|0,0:0|0:0,0:0:0:0:
59,152,13499,2,0,B|53:220|53:220|127:228,1,130,2|2,0:0|0:3,0:0:0:0:
198,218,14016,1,2,0:3:0:0:
244,287,14188,2,0,P|242:347|227:366,1,65,2|2,0:3|0:3,0:0:0:0:
326,263,14533,6,0,L|465:250,1,130,2|2,0:3|0:3,0:0:0:0:
483,170,15051,2,0,L|417:167,1,65,2|0,0:0|0:0,0:0:0:0:
346,122,15395,2,0,P|355:88|289:18,1,130,2|0,0:0|0:0,0:0:0:0:
215,26,15913,2,0,P|184:72|184:104,1,65,2|0,0:0|0:0,0:0:0:0:
218,156,16257,2,0,P|249:184|255:220,1,65,2|0,0:0|0:0,0:0:0:0:
224,284,16602,5,0,0:0:0:0:
155,333,16775,2,0,L|22:327,1,130,2|0,0:0|0:0,0:0:0:0:
0,246,17292,2,0,B|11:199|11:199|1:174|1:174|16:103,1,130,2|0,0:0|0:0,0:0:0:0:
74,62,17809,6,0,P|128:98|200:81,1,130,2|0,0:0|0:0,0:0:0:0:
261,43,18326,2,0,P|289:27|339:32,1,65,2|0,0:0|0:0,0:0:0:0:
391,72,18671,2,0,L|380:204,1,130,2|0,0:0|0:0,0:0:0:0:
425,273,19188,2,0,B|450:298|450:298|450:354,1,65,2|0,0:0|0:0,0:0:0:0:
376,370,19533,2,0,B|358:342|358:342|253:331,1,130,2|0,0:0|0:0,0:0:0:0:
182,300,20051,2,0,P|158:246|201:178,1,130,2|0,0:0|0:0,0:0:0:0:
270,205,20568,6,0,L|420:196,1,130,2|0,0:0|0:0,0:0:0:0:
475,158,21085,2,0,B|445:122|445:122|449:34,1,130,2|0,0:0|0:0,0:0:0:0:
370,6,21602,2,0,P|306:14|278:68,1,130,2|0,0:0|0:0,0:0:0:0:
207,152,22119,6,0,P|181:102|158:82,1,65,0|0,1:0|0:0,0:0:0:0:
107,45,22464,2,0,L|24:51,1,65,8|2,0:0|0:3,0:0:0:0:
35,55,22723,1,2,0:3:0:0:
29,61,22809,1,2,0:3:0:0:
72,133,22982,1,2,1:3:0:0:
21,219,23154,2,0,L|15:312,1,65,8|2,0:0|0:3,0:0:0:0:
96,356,23499,6,0,L|102:279,1,65,2|0,0:3|1:0,0:0:0:0:
164,209,23844,1,8,0:0:0:0:
215,284,24016,2,0,L|259:278,2,32.5,2|2|2,0:3|0:3|0:3,0:0:0:0:
188,368,24361,1,0,1:0:0:0:
315,345,24533,2,0,L|408:354,1,65,8|0,0:0|0:0,0:0:0:0:
439,252,24878,6,0,L|361:254,1,65,0|0,1:0|0:0,0:0:0:0:
287,207,25223,2,0,P|277:177|286:131,2,65,8|0|0,0:0|0:0|0:0,0:0:0:0:
287,207,25654,1,0,0:0:0:0:
287,207,25740,1,2,1:2:0:0:
226,272,25913,2,0,L|137:263,1,65,10|0,0:0|0:0,0:0:0:0:
52,230,26257,6,0,B|24:174|91:170|50:90,1,130,2|10,0:0|0:0,0:0:0:0:
5,37,26775,2,0,P|49:20|125:52,1,130,2|2,0:0|1:2,0:0:0:0:
147,130,27292,2,0,L|226:122,1,65,8|2,0:0|0:0,0:0:0:0:
311,47,27637,6,0,L|389:54,1,65,0|0,1:0|0:0,0:0:0:0:
468,62,27982,1,8,0:0:0:0:
428,140,28154,2,0,L|371:142,2,32.5,2|2|2,0:3|0:3|0:3,0:0:0:0:
476,209,28499,1,2,1:3:0:0:
409,260,28671,2,0,L|337:262,1,65,8|0,0:0|0:0,0:0:0:0:
231,238,29016,6,0,P|221:289|227:327,1,65,0|0,0:0|1:0,0:0:0:0:
173,371,29361,2,0,L|29:360,1,130,8|2,0:0|0:3,0:0:0:0:
38,356,29792,1,2,0:3:0:0:
33,350,29878,1,2,1:3:0:0:
82,281,30051,2,0,P|89:233|65:202,1,65,8|0,0:0|0:0,0:0:0:0:
21,100,30395,6,0,L|157:86,1,130,0|8,1:0|0:0,0:0:0:0:
218,35,30913,2,0,B|241:71|241:71|347:88,1,130,0|2,0:0|1:2,0:0:0:0:
400,43,31430,2,0,P|455:48|480:68,1,65,10|0,0:0|0:0,0:0:0:0:
501,164,31775,6,0,P|461:209|472:275,1,130,2|10,0:0|0:0,0:0:0:0:
434,350,32292,2,0,P|400:330|359:332,1,65,2|0,0:0|0:0,0:0:0:0:
290,327,32637,2,0,P|257:345|214:344,1,65,2|8,1:2|0:0,0:0:0:0:
159,300,32982,1,2,0:0:0:0:
219,195,33154,6,0,L|294:201,1,65,0|0,1:0|0:0,0:0:0:0:
349,146,33499,2,0,P|352:101|335:66,1,65,8|0,0:0|0:0,0:0:0:0:
339,78,33757,1,0,0:0:0:0:
332,73,33844,1,2,0:3:0:0:
252,100,34016,1,2,1:3:0:0:
189,43,34188,2,0,L|109:50,1,65,8|0,0:0|0:0,0:0:0:0:
2,110,34533,6,0,P|48:133|60:215,1,130,0|8,0:0|0:0,0:0:0:0:
24,281,35051,1,0,0:0:0:0:
87,337,35223,2,0,L|171:332,1,65,0|0,0:0|1:0,0:0:0:0:
225,290,35568,2,0,L|311:294,1,65,8|0,0:0|0:0,0:0:0:0:
397,370,35913,6,0,P|419:337|424:284,1,65,0|0,1:0|0:0,0:0:0:0:
377,242,36257,2,0,P|352:196|354:160,1,65,8|2,0:0|0:3,0:0:0:0:
357,179,36516,1,2,0:3:0:0:
363,175,36602,1,2,0:3:0:0:
410,104,36775,1,2,1:3:0:0:
349,45,36947,2,0,L|260:50,1,65,10|0,0:0|0:0,0:0:0:0:
167,86,37292,6,0,B|146:50|146:50|53:43,1,130,2|10,0:0|0:0,0:0:0:0:
3,108,37809,2,0,P|50:148|36:225,1,130,2|2,0:0|1:2,0:0:0:0:
15,290,38326,2,0,P|41:318|87:327,1,65,8|2,0:0|0:2,0:0:0:0:
171,278,38671,6,0,L|252:274,1,65,0|0,1:0|1:0,0:0:0:0:
303,326,39016,1,8,0:0:0:0:
356,260,39188,1,0,1:0:0:0:
479,293,39361,2,0,L|472:373,1,65,8|0,0:0|1:0,0:0:0:0:
436,221,39706,1,8,0:0:0:0:
492,158,39878,6,0,P|498:117|419:58,1,130,0|0,1:0|1:0,0:0:0:0:
368,104,40395,2,0,L|296:108,1,65,8|0,0:0|1:0,0:0:0:0:
228,67,40740,2,0,P|201:52|143:41,2,65,8|0|8,0:0|1:0|0:0,0:0:0:0:
228,151,41257,5,0,0:0:0:0:
264,227,41430,2,0,L|253:305,1,65,0|0,1:0|1:0,0:0:0:0:
192,348,41775,1,0,1:0:0:0:
116,309,41947,1,0,1:0:0:0:
32,317,42119,2,0,L|12:242,1,65,0|0,1:0|1:0,0:0:0:0:
71,190,42464,1,0,1:0:0:0:
64,105,42637,1,0,1:0:0:0:
4,45,42809,5,2,0:0:0:0:
371,43,44188,6,0,B|341:80|341:80|361:197,1,143.000004364014,6|8,1:2|0:0,0:0:0:0:
416,246,44706,2,0,P|417:311|336:360,1,143.000004364014,2|0,0:0|1:0,0:0:0:0:
269,334,45223,2,0,P|249:300|248:260,1,71.5000021820069,10|0,0:0|0:0,0:0:0:0:
335,272,45568,1,0,0:0:0:0:
266,178,45740,6,0,L|106:189,1,143.000004364014,2|0,1:2|0:0,0:0:0:0:
36,154,46257,2,0,P|15:93|66:17,1,143.000004364014,2|8,0:0|0:0,0:0:0:0:
134,67,46775,2,0,P|176:79|222:58,1,71.5000021820069,2|0,0:0|1:0,0:0:0:0:
306,15,47119,6,0,L|460:26,1,143.000004364014,2|0,0:0|0:0,0:0:0:0:
503,101,47637,1,2,0:3:0:0:
503,101,47723,1,2,0:3:0:0:
503,101,47809,1,2,1:3:0:0:
431,161,47982,1,8,0:0:0:0:
490,231,48154,6,0,B|509:272|509:272|492:374,1,143.000004364014,2|2,0:0|0:0,0:0:0:0:
400,381,48671,1,10,0:0:0:0:
362,295,48844,2,0,L|360:248,2,35.7500010910034,2|2|2,1:3|0:3|0:3,0:0:0:0:
285,347,49188,1,2,1:3:0:0:
214,285,49361,2,0,L|133:293,1,71.5000021820069,10|0,0:0|0:0,0:0:0:0:
39,362,49706,6,0,P|15:326|46:231,1,143.000004364014,2|8,1:2|0:0,0:0:0:0:
125,199,50223,1,0,0:0:0:0:
73,121,50395,2,0,L|14:124,2,35.7500010910034,2|2|2,0:0|0:3|1:3,0:0:0:0:
133,50,50740,1,8,0:0:0:0:
240,36,50913,6,0,B|275:67|275:67|262:179,1,143.000004364014,2|0,0:0|1:0,0:0:0:0:
246,254,51430,2,0,B|288:285|288:285|391:271,1,143.000004364014,10|2,0:0|0:3,0:0:0:0:
469,291,51947,1,2,1:2:0:0:
503,204,52119,2,0,P|496:152|475:127,1,71.5000021820069,10|0,0:0|0:0,0:0:0:0:
446,21,52464,6,0,B|384:37|384:37|369:56|369:56|313:71,1,143.000004364014,2|8,1:2|0:0,0:0:0:0:
225,72,52982,2,0,B|172:57|172:57|157:38|157:38|95:22,1,143.000004364014,2|2,0:0|1:3,0:0:0:0:
12,66,53499,2,0,P|-3:122|14:161,1,71.5000021820069,10|0,0:0|0:0,0:0:0:0:
72,232,53844,5,2,1:2:0:0:
163,216,54016,2,0,B|254:202|254:202|299:235,1,143.000004364014,2|2,0:0|1:3,0:0:0:0:
349,307,54533,2,0,L|345:353,2,35.7500010910034,2|2|2,0:3|0:3|1:3,0:0:0:0:
427,256,54878,2,0,L|416:177,1,71.5000021820069,2|2,3:0|1:3,0:0:0:0:
420,178,55137,1,2,3:0:0:0:
423,171,55223,5,6,1:2:0:0:
458,85,55395,1,0,0:0:0:0:
373,46,55568,2,0,L|290:42,1,71.5000021820069,10|0,0:0|0:0,0:0:0:0:
228,100,55913,2,0,L|234:141,2,35.7500010910034,0|0|2,0:0|0:0|1:2,0:0:0:0:
162,33,56257,2,0,L|81:29,1,71.5000021820069,8|0,0:0|0:0,0:0:0:0:
7,120,56602,6,0,P|76:131|114:194,1,143.000004364014,2|8,0:0|0:0,0:0:0:0:
37,242,57119,2,0,P|-7:286|4:368,1,143.000004364014,2|2,0:2|1:3,0:0:0:0:
91,380,57637,2,0,L|185:370,1,71.5000021820069,10|0,0:0|0:0,0:0:0:0:
252,288,57982,5,2,1:2:0:0:
325,344,58154,1,2,0:0:0:0:
395,283,58326,2,0,L|484:266,1,71.5000021820069,10|0,0:0|0:0,0:0:0:0:
482,177,58671,2,0,L|520:182,2,35.7500010910034,2|2|2,0:0|0:3|1:3,0:0:0:0:
390,158,59016,2,0,P|369:115|372:72,1,71.5000021820069,8|0,0:0|0:0,0:0:0:0:
295,33,59361,6,0,L|213:44,1,71.5000021820069,2|2,1:2|0:0,0:0:0:0:
148,97,59706,1,10,0:0:0:0:
67,51,59878,1,2,1:3:0:0:
67,51,59964,1,2,0:3:0:0:
67,51,60051,2,0,P|45:100|44:146,1,71.5000021820069,2|0,0:3|0:0,0:0:0:0:
98,190,60395,2,0,P|123:231|125:275,1,71.5000021820069,10|0,0:0|0:0,0:0:0:0:
60,319,60740,5,2,1:2:0:0:
137,371,60913,2,0,L|294:360,1,143.000004364014,2|2,0:0|0:3,0:0:0:0:
333,285,61430,2,0,P|381:302|396:319,1,71.5000021820069,2|0,0:3|1:0,0:0:0:0:
465,376,61775,1,8,0:0:0:0:
498,260,61947,6,0,L|508:109,1,143.000004364014,2|0,0:0|1:0,0:0:0:0:
453,41,62464,2,0,B|418:31|418:31|370:55,1,71.5000021820069,10|0,0:0|0:0,0:0:0:0:
337,125,62809,2,0,P|290:137|216:80,1,143.000004364014,2|8,0:0|0:0,0:0:0:0:
148,22,63326,5,2,0:0:0:0:
76,67,63499,2,0,L|9:73,2,65,0|2|8,1:0|1:2|0:0,0:0:0:0:
120,139,64016,2,0,L|159:144,2,32.5,2|2|2,0:3|0:3|0:3,0:0:0:0:
54,193,64361,1,0,1:0:0:0:
98,264,64533,2,0,L|190:255,1,65,2|8,0:3|0:0,0:0:0:0:
273,290,64878,6,0,P|287:351|281:380,2,65,0|0|8,1:0|1:0|0:0,0:0:0:0:
303,211,65395,2,0,P|324:223|335:233,2,32.5,2|2|2,0:3|0:3|0:3,0:0:0:0:
221,187,65740,1,0,1:0:0:0:
276,122,65913,2,0,L|361:116,1,65,2|8,0:3|0:0,0:0:0:0:
448,66,66257,6,0,P|475:110|480:137,2,71.5000021820069,6|0|8,1:2|0:0|0:0,0:0:0:0:
361,30,66775,2,0,B|297:34|297:34|279:27|279:27|185:33,1,143.000004364014,2|0,0:0|1:0,0:0:0:0:
149,92,67292,2,0,P|83:90|55:73,1,71.5000021820069,10|0,0:0|0:0,0:0:0:0:
4,143,67637,5,0,0:0:0:0:
57,218,67809,1,2,1:2:0:0:
90,305,67982,2,0,L|79:387,1,71.5000021820069,8|0,0:0|0:0,0:0:0:0:
173,376,68326,2,0,P|221:337|311:355,1,143.000004364014,2|8,0:0|0:0,0:0:0:0:
385,379,68844,6,0,B|426:357|426:357|441:229,1,143.000004364014,0|2,0:0|0:0,0:0:0:0:
379,187,69361,2,0,L|327:192,2,35.7500010910034,8|0|0,0:0|0:0|0:3,0:0:0:0:
455,133,69706,2,0,P|461:75|381:25,1,143.000004364014,2|10,0:2|0:0,0:0:0:0:
316,65,70223,1,0,0:0:0:0:
229,31,70395,6,0,B|168:35|168:35|147:54|147:54|66:59,1,143.000004364014,2|8,1:2|0:0,0:0:0:0:
16,111,70913,2,0,P|55:136|63:233,1,143.000004364014,2|2,1:2|1:2,0:0:0:0:
7,298,71430,2,0,P|44:318|86:315,1,71.5000021820069,8|2,0:0|0:0,0:0:0:0:
197,244,71775,5,0,1:0:0:0:
266,305,71947,2,0,L|255:381,2,71.5000021820069,2|8|0,0:0|0:0|0:0,0:0:0:0:
346,258,72464,2,0,B|440:272|440:272|492:233,1,143.000004364014,2|8,0:0|0:0,0:0:0:0:
511,155,72982,6,0,P|498:92|421:62,1,143.000004364014,2|0,0:0|1:0,0:0:0:0:
351,108,73499,2,0,B|312:127|312:127|199:112,1,143.000004364014,10|2,0:0|0:3,0:0:0:0:
140,55,74016,1,2,1:2:0:0:
51,84,74188,2,0,P|24:114|22:158,1,71.5000021820069,8|0,0:0|0:0,0:0:0:0:
88,206,74533,6,0,P|120:301|75:350,1,143.000004364014,2|8,1:2|0:0,0:0:0:0:
170,383,75051,2,0,P|229:344|305:371,1,143.000004364014,2|2,0:0|1:2,0:0:0:0:
387,375,75568,2,0,L|490:363,1,71.5000021820069,10|0,0:0|0:0,0:0:0:0:
503,285,75913,6,0,B|445:282|445:282|418:268|418:268|330:263,1,143.000004364014,2|10,1:2|0:0,0:0:0:0:
278,226,76430,2,0,L|221:227,2,35.7500010910034,2|2|2,1:3|0:3|0:3,0:0:0:0:
351,168,76775,2,0,L|391:172,2,35.7500010910034,2|2|8,1:3|0:3|0:0,0:0:0:0:
302,88,77119,1,2,0:3:0:0:
302,88,77206,1,2,0:3:0:0:
302,88,77292,6,0,P|345:46|428:59,1,143.000004364014,4|10,0:0|0:0,0:0:0:0:
478,129,77809,2,0,B|471:175|471:175|479:212|479:212|467:276,1,143.000004364014,0|2,0:0|1:2,0:0:0:0:
424,351,78326,2,0,P|376:347|335:371,1,71.5000021820069,8|0,0:0|0:0,0:0:0:0:
228,371,78671,6,0,P|209:332|217:274,1,71.5000021820069,2|0,0:2|0:0,0:0:0:0:
275,239,79016,1,8,0:0:0:0:
229,158,79188,2,0,B|171:160|171:160|151:177|151:177|72:182,1,143.000004364014,2|0,0:2|1:0,0:0:0:0:
14,128,79706,2,0,P|0:84|18:42,1,71.5000021820069,10|0,0:2|0:0,0:0:0:0:
133,18,80051,6,0,L|223:24,1,71.5000021820069,0|2,1:0|0:0,0:0:0:0:
285,67,80395,2,0,L|432:56,1,143.000004364014,8|2,0:0|0:0,0:0:0:0:
506,106,80913,1,0,1:0:0:0:
477,186,81085,1,8,0:0:0:0:
449,267,81257,1,2,0:0:0:0:
383,322,81430,6,0,B|329:314|329:314|308:298|308:298|228:289,1,143.000004364014,2|8,1:2|0:0,0:0:0:0:
181,347,81947,2,0,P|106:379|48:350,1,143.000004364014,2|2,1:2|1:2,0:0:0:0:
19,277,82464,2,0,P|26:242|66:200,1,71.5000021820069,8|2,0:0|0:0,0:0:0:0:
129,190,82809,5,0,1:0:0:0:
93,111,82982,2,0,P|87:65|163:2,1,143.000004364014,2|0,0:0|0:0,0:0:0:0:
237,4,83499,2,0,B|283:34|283:34|375:41,1,143.000004364014,2|8,0:0|0:0,0:0:0:0:
491,30,84016,6,0,B|515:70|515:70|495:179,1,143.000004364014,2|0,0:0|1:0,0:0:0:0:
438,226,84533,1,10,0:0:0:0:
469,306,84706,1,0,0:0:0:0:
408,366,84878,2,0,P|339:383|272:327,1,143.000004364014,2|8,0:0|0:0,0:0:0:0:
238,235,85395,5,2,0:0:0:0:
158,283,85568,2,0,B|131:286|131:286|116:294|116:294|65:296,1,71.5000021820069,0|0,1:0|0:0,0:0:0:0:
18,232,85913,2,0,P|6:184|16:157,1,71.5000021820069,8|0,0:0|0:0,0:0:0:0:
91,115,86257,1,2,0:3:0:0:
91,115,86344,1,2,0:3:0:0:
91,115,86430,2,0,L|185:121,1,71.5000021820069,8|2,0:0|0:0,0:0:0:0:
265,56,86775,6,0,L|259:10,2,35.7500010910034,2|2|2,0:0|0:0|0:0,0:0:0:0:
337,114,87119,2,0,L|332:163,2,35.7500010910034,2|2|2,0:3|0:3|0:3,0:0:0:0:
408,54,87464,1,2,0:0:0:0:
408,54,87551,1,2,0:0:0:0:
408,54,87637,1,2,0:3:0:0:
485,104,87809,1,8,0:0:0:0:
425,354,88326,6,0,B|432:295|432:295|453:274|453:274|459:213,1,143.000004364014,6|10,1:2|0:2,0:0:0:0:
404,143,88844,2,0,P|326:137|285:196,1,143.000004364014,0|0,0:2|1:2,0:0:0:0:
310,272,89361,1,8,0:2:0:0:
244,337,89533,6,0,L|92:327,1,143.000004364014,0|0,0:0|0:2,0:0:0:0:
41,255,90051,2,0,P|59:216|51:160,1,71.5000021820069,8|0,0:2|0:2,0:0:0:0:
60,95,90395,2,0,P|47:65|46:15,2,71.5000021820069,2|0|10,0:2|1:2|0:2,0:0:0:0:
144,136,90913,1,0,0:2:0:0:
211,72,91085,6,0,B|311:59|311:59|360:96,1,143.000004364014,2|8,1:2|0:2,0:0:0:0:
417,142,91602,2,0,B|412:206|412:206|423:227|423:227|415:304,1,143.000004364014,0|0,0:2|1:2,0:0:0:0:
368,361,92119,1,8,0:2:0:0:
274,364,92292,1,0,0:2:0:0:
235,279,92464,6,0,B|241:182|241:182|196:131,1,143.000004364014,0|8,1:2|0:2,0:0:0:0:
123,182,92982,2,0,P|149:236|100:305,1,143.000004364014,0|0,1:2|1:2,0:0:0:0:
17,289,93499,2,0,P|-3:244|12:197,1,71.5000021820069,8|0,0:2|0:2,0:0:0:0:
44,141,93844,5,2,1:2:0:0:
62,50,94016,2,0,P|108:16|196:40,1,143.000004364014,0|0,0:2|0:2,0:0:0:0:
251,99,94533,2,0,L|325:106,1,71.5000021820069,2|0,0:2|1:2,0:0:0:0:
404,61,94878,1,8,0:2:0:0:
486,149,95051,6,0,B|481:251|481:251|441:293,1,143.000004364014,0|0,0:2|1:2,0:0:0:0:
370,325,95568,2,0,L|294:323,1,71.5000021820069,8|0,0:2|0:2,0:0:0:0:
205,321,95913,1,2,0:2:0:0:
131,377,96085,2,0,P|115:304|169:235,1,143.000004364014,0|0,1:2|0:2,0:0:0:0:
124,158,96602,6,0,L|38:164,1,71.5000021820069,2|0,1:2|0:0,0:0:0:0:
8,80,96947,2,0,L|181:68,1,143.000004364014,8|0,0:2|0:2,0:0:0:0:
232,26,97464,1,0,1:2:0:0:
297,92,97637,2,0,P|355:107|390:94,1,71.5000021820069,8|0,0:2|0:2,0:0:0:0:
491,69,97982,5,0,1:0:0:0:
465,158,98154,2,0,L|487:310,1,143.000004364014,0|2,0:0|1:3,0:0:0:0:
406,348,98671,2,0,L|403:387,2,35.7500010910034,2|2|2,0:3|0:3|0:3,0:0:0:0:
337,284,99016,1,8,0:0:0:0:
255,327,99188,1,2,0:3:0:0:
255,327,99275,1,2,0:3:0:0:
255,327,99361,6,0,B|209:355|209:355|101:347,1,143.000004364014,6|10,1:2|0:2,0:0:0:0:
50,285,99878,2,0,B|30:247|30:247|54:128,1,143.000004364014,0|0,0:0|1:2,0:0:0:0:
121,88,100395,2,0,P|169:118|204:117,1,71.5000021820069,8|0,0:2|0:2,0:0:0:0:
271,37,100740,6,0,L|440:23,1,143.000004364014,0|8,0:2|0:2,0:0:0:0:
500,57,101257,2,0,P|512:117|447:176,1,143.000004364014,0|0,0:2|1:2,0:0:0:0:
366,182,101775,1,10,0:2:0:0:
285,136,101947,1,0,0:2:0:0:
192,203,102119,6,0,L|202:361,1,143.000004364014,2|8,1:2|0:2,0:0:0:0:
113,378,102637,1,2,0:3:0:0:
34,327,102809,2,0,P|26:269|41:233,1,71.5000021820069,2|0,0:3|1:2,0:0:0:0:
90,187,103154,1,8,0:2:0:0:
38,109,103326,6,0,B|26:62|26:62|131:38,1,143.000004364014,0|0,0:2|0:2,0:0:0:0:
197,90,103844,1,8,0:2:0:0:
269,31,104016,2,0,P|344:22|409:82,1,143.000004364014,0|0,3:2|1:2,0:0:0:0:
432,145,104533,2,0,P|407:186|406:232,1,71.5000021820069,8|0,0:2|0:2,0:0:0:0:
437,322,104878,5,2,1:2:0:0:
351,284,105051,2,0,B|285:292|285:292|268:303|268:303|200:313,1,143.000004364014,0|0,0:2|0:2,0:0:0:0:
130,356,105568,2,0,P|88:344|58:313,1,71.5000021820069,2|2,0:3|1:3,0:0:0:0:
63,233,105913,1,8,0:2:0:0:
121,161,106085,6,0,B|158:135|158:135|150:17,1,143.000004364014,0|0,0:2|1:2,0:0:0:0:
239,6,106602,2,0,P|254:54|285:89,1,71.5000021820069,8|0,0:2|0:2,0:0:0:0:
346,118,106947,2,0,P|389:128|441:116,1,71.5000021820069,2|0,0:2|1:2,0:0:0:0:
488,66,107292,1,10,0:2:0:0:
503,148,107464,1,0,0:2:0:0:
492,230,107637,6,0,L|486:306,1,65,0|2,1:0|0:0,0:0:0:0:
486,305,107895,1,2,0:0:0:0:
486,314,107982,2,0,P|501:354|509:389,2,65,2|2|2,0:0|0:0|0:0,0:0:0:0:
402,298,108499,1,2,0:0:0:0:
329,340,108671,2,0,L|245:333,1,65,2|2,0:0|0:0,0:0:0:0:
178,271,109016,6,0,L|110:276,1,65,2|2,0:0|0:0,0:0:0:0:
38,315,109361,1,2,0:0:0:0:
1,239,109533,2,0,B|10:183|10:183|21:172|21:172|34:100,1,130,2|2,0:0|0:0,0:0:0:0:
2,34,110051,1,0,0:0:0:0:
222,26,110395,6,0,P|243:69|248:115,1,65,6|0,1:2|0:0,0:0:0:0:
234,169,110740,1,8,0:0:0:0:
172,226,110913,2,0,B|146:266|146:266|166:375,1,130,0|0,0:0|1:0,0:0:0:0:
239,377,111430,2,0,P|298:344|372:369,1,130,10|0,0:0|0:0,0:0:0:0:
437,332,111947,6,0,L|510:319,2,65,2|10|2,1:2|0:0|0:0,0:0:0:0:
380,269,112464,2,0,L|310:264,2,65,2|2|10,0:2|1:2|0:0,0:0:0:0:
442,210,112982,1,0,0:0:0:0:
471,131,113154,6,0,P|455:78|429:58,1,65,2|0,1:2|0:0,0:0:0:0:
371,37,113499,1,8,0:0:0:0:
303,87,113671,2,0,L|168:99,1,130,0|0,0:0|1:0,0:0:0:0:
105,47,114188,2,0,P|34:56|0:109,1,130,10|0,0:0|1:0,0:0:0:0:
48,171,114706,5,2,0:2:0:0:
64,253,114878,2,0,L|52:333,1,65,10|2,0:2|1:2,0:0:0:0:
129,356,115223,2,0,L|140:279,1,65,2|2,0:2|1:2,0:0:0:0:
215,256,115568,2,0,L|223:335,1,65,8|0,0:0|0:0,0:0:0:0:
321,378,115913,6,0,P|366:378|400:354,1,65,2|0,1:2|0:0,0:0:0:0:
436,303,116257,1,8,0:0:0:0:
382,237,116430,2,0,B|359:202|359:202|370:91,1,130,0|0,0:0|1:0,0:0:0:0:
432,59,116947,2,0,P|379:29|297:66,1,130,10|0,0:0|0:0,0:0:0:0:
272,137,117464,5,2,0:0:0:0:
210,78,117637,2,0,L|126:74,1,65,10|2,0:0|0:0,0:0:0:0:
72,118,117982,2,0,P|96:147|103:176,1,65,2|2,0:2|1:2,0:0:0:0:
64,247,118326,2,0,P|40:298|42:329,1,65,8|0,0:0|0:0,0:0:0:0:
135,378,118671,6,0,L|271:368,1,130,2|8,1:2|0:0,0:0:0:0:
326,310,119188,1,0,0:0:0:0:
400,351,119361,2,0,P|461:354|483:333,1,65,0|0,0:0|1:0,0:0:0:0:
500,277,119706,2,0,B|476:237|476:237|487:137,1,130,10|0,0:2|1:0,0:0:0:0:
438,49,120223,6,0,P|366:86|316:69,1,130,0|0,0:0|1:0,0:0:0:0:
247,34,120740,2,0,L|243:-4,2,32.5,2|2|2,0:3|0:3|1:3,0:0:0:0:
191,97,121085,1,8,0:0:0:0:
123,47,121257,1,0,1:0:0:0:
123,47,121344,1,2,0:3:0:0:
123,47,121430,6,0,B|86:75|86:75|75:177,1,130,6|8,1:2|0:0,0:0:0:0:
43,236,121947,2,0,P|15:291|63:357,1,130,0|0,0:0|1:0,0:0:0:0:
128,358,122464,2,0,B|161:323|161:323|255:314,1,130,10|0,0:0|0:0,0:0:0:0:
351,308,122982,6,0,P|369:354|371:373,2,65,2|10|2,1:2|0:2|0:2,0:0:0:0:
389,228,123499,2,0,P|441:257|457:278,2,65,2|2|8,0:2|1:2|0:0,0:0:0:0:
305,212,124016,1,0,0:0:0:0:
353,142,124188,6,0,B|378:98|378:98|356:7,1,130,2|8,1:2|0:0,0:0:0:0:
274,11,124706,2,0,P|230:55|158:39,1,130,0|0,0:0|1:0,0:0:0:0:
83,33,125223,2,0,B|58:77|58:77|80:168,1,130,10|0,0:2|1:0,0:0:0:0:
166,204,125740,5,2,0:2:0:0:
125,280,125913,2,0,L|114:371,1,65,10|2,0:2|1:2,0:0:0:0:
201,352,126257,2,0,L|208:287,1,65,2|2,0:2|1:2,0:0:0:0:
288,258,126602,2,0,L|295:322,1,65,8|0,0:0|0:0,0:0:0:0:
389,358,126947,6,0,P|448:358|494:283,1,130,2|8,1:2|0:0,0:0:0:0:
498,222,127464,2,0,B|472:184|472:184|481:76,1,130,0|0,0:0|1:0,0:0:0:0:
423,35,127982,2,0,L|290:42,1,130,10|0,0:0|0:0,0:0:0:0:
214,73,128499,6,0,P|203:119|214:155,2,65,2|10|2,1:2|0:2|0:2,0:0:0:0:
144,24,129016,2,0,L|69:33,1,65,2|2,0:2|1:2,0:0:0:0:
8,78,129361,2,0,P|-1:124|2:158,1,65,8|0,0:0|0:0,0:0:0:0:
103,207,129706,6,0,B|137:242|141:340|76:367|20:363|-8:322|1:290|21:273|38:261,1,260,0|0,1:0|0:0,0:0:0:0:
217,294,130740,2,0,B|245:316|250:355|250:355|282:303|325:291|325:291|366:336|423:313,1,260,0|0,0:0|0:0,0:0:0:0:
483,195,131775,6,0,B|498:153|449:110|413:112|413:112|368:115|351:77|360:49|394:34|420:51|420:80,1,260,0|0,0:0|0:0,0:0:0:0:
