osu file format v14

[General]
AudioFilename: audio.mp3
AudioLeadIn: 0
PreviewTime: 178400
Countdown: 0
SampleSet: Soft
StackLeniency: 0.7
Mode: 2
LetterboxInBreaks: 0
WidescreenStoryboard: 0

[Editor]
Bookmarks: 93051,137702,145144,182353,241655
DistanceSpacing: 1
BeatDivisor: 4
GridSize: 8
TimelineZoom: 1

[Metadata]
Title:Somebody That I Used to Know (feat. Kimbra)
TitleUnicode:Somebody That I Used to Know (feat. Kimbra)
Artist:Gotye
ArtistUnicode:Gotye
Creator:wonjae
Version:Nobody
Source:
Tags:art Wouter Wally De Backer english pop paranoid grapes making mirrors
BeatmapID:2649420
BeatmapSetID:1275097

[Difficulty]
HPDrainRate:5
CircleSize:3.8
OverallDifficulty:8
ApproachRate:8
SliderMultiplier:2.12
SliderTickRate:1

[Events]
//Background and Video events
0,0,"nelly bg.jpg",0,0
//Break Periods
2,137902,142533
//Storyboard Layer 0 (Background)
//Storyboard Layer 1 (Fail)
//Storyboard Layer 2 (Pass)
//Storyboard Layer 3 (Foreground)
//Storyboard Layer 4 (Overlay)
//Storyboard Sound Samples

[TimingPoints]
28,465.116279069767,4,2,1,25,1,0
3748,-100,4,2,1,45,0,0
89330,-100,4,2,1,25,0,0
93051,-100,4,2,1,60,0,0
143283,-100,4,2,1,25,0,0
145144,-100,4,2,1,35,0,0
167469,-100,4,2,1,47,0,0
182353,-100,4,2,1,60,0,1
227004,-100,4,2,1,45,0,0

[Colours]
Combo1 : 149,74,74
Combo2 : 92,176,9
Combo3 : 152,162,177
Combo4 : 255,96,0

[HitObjects]
346,311,28,6,0,P|383:210|333:118,1,212
246,116,725,1,0,0:0:0:0:
150,116,958,2,0,L|162:370,1,212,0|0,0:0|0:0,0:0:0:0:
240,328,1655,1,0,0:0:0:0:
368,316,1888,6,0,P|400:226|298:148,1,212
227,142,2585,1,0,0:0:0:0:
118,128,2818,2,0,L|102:389,1,212,0|0,0:0|0:0,0:0:0:0:
199,341,3516,1,0,0:0:0:0:
424,330,3748,6,0,L|421:192,1,106,2|0,3:0|0:0,0:0:0:0:
310,188,4214,2,0,L|306:50,1,106,2|0,3:2|3:0,0:0:0:0:
204,46,4679,2,0,L|71:45,1,106,2|8,3:2|3:0,0:0:0:0:
215,98,5144,2,0,L|370:102,1,106,2|0,3:2|0:0,0:0:0:0:
96,100,5609,5,2,3:0:0:0:
210,136,5841,1,2,3:2:0:0:
243,229,6074,1,2,3:2:0:0:
222,313,6307,1,2,3:2:0:0:
91,322,6539,2,0,L|96:194,1,106,2|8,3:2|3:0,0:0:0:0:
216,185,7004,2,0,L|219:44,1,106,0|0,3:0|0:0,0:0:0:0:
447,64,7469,6,0,P|449:134|312:188,1,212,2|2,3:0|3:2,0:0:0:0:
250,253,8167,1,0,0:0:0:0:
353,256,8400,2,0,L|352:370,1,106,2|8,3:2|3:0,0:0:0:0:
462,260,8865,2,0,L|466:117,1,106,2|0,3:2|0:0,0:0:0:0:
237,120,9330,6,0,L|104:131,1,106,2|0,3:0|0:0,0:0:0:0:
255,176,9795,2,0,L|367:185,1,106,2|0,3:2|0:0,0:0:0:0:
211,222,10260,1,2,3:2:0:0:
212,303,10493,1,8,3:0:0:0:
290,340,10725,1,0,3:0:0:0:
375,341,10958,1,0,0:0:0:0:
149,275,11190,6,0,L|146:136,1,106,2|0,3:0|0:0,0:0:0:0:
255,156,11655,2,0,L|257:13,1,106,2|0,3:2|3:0,0:0:0:0:
370,46,12121,2,0,L|484:37,1,106,2|8,3:2|3:0,0:0:0:0:
354,127,12586,2,0,L|228:141,1,106,2|0,3:2|0:0,0:0:0:0:
477,142,13051,5,2,3:0:0:0:
371,170,13283,1,2,3:2:0:0:
342,258,13516,1,2,3:2:0:0:
363,348,13748,1,2,3:2:0:0:
480,338,13981,2,0,L|481:216,1,106,2|8,3:2|3:0,0:0:0:0:
377,184,14446,2,0,L|493:182,1,106,0|0,3:0|0:0,0:0:0:0:
256,111,14911,6,0,L|33:114,1,212,2|2,3:0|3:2,0:0:0:0:
44,113,15609,1,0,3:0:0:0:
149,199,15841,2,0,L|155:324,1,106,0|8,3:0|3:0,0:0:0:0:
43,340,16307,2,0,L|165:339,1,106,2|0,3:2|0:0,0:0:0:0:
366,291,16772,6,0,P|436:237|364:172,1,212,2|2,3:0|3:2,0:0:0:0:
281,161,17469,1,0,3:0:0:0:
368,144,17702,2,0,L|368:32,1,106,0|8,3:0|3:0,0:0:0:0:
297,39,18012,1,0,0:0:0:0:
227,37,18090,1,0,0:0:0:0:
159,37,18167,2,0,L|157:156,1,106,2|0,3:2|0:0,0:0:0:0:
387,215,18632,5,2,3:0:0:0:
492,212,19097,2,0,L|253:214,1,212,0|2,3:0|3:2,0:0:0:0:
279,152,19795,1,8,3:0:0:0:
382,164,20028,2,0,L|380:47,1,106,0|0,3:0|0:0,0:0:0:0:
152,66,20493,6,0,P|83:133|178:192,1,212,2|0,3:0|3:0,0:0:0:0:
236,215,21190,1,0,3:0:0:0:
321,253,21423,2,0,L|93:277,1,212,2|0,3:2|3:0,0:0:0:0:
109,334,22121,1,0,0:0:0:0:
335,326,22353,6,0,P|407:266|324:223,1,212,2|0,3:0|3:0,0:0:0:0:
254,191,23051,1,0,3:0:0:0:
218,107,23283,1,2,3:2:0:0:
260,31,23516,1,8,3:0:0:0:
349,30,23748,2,0,L|477:30,1,106,0|0,3:0|0:0,0:0:0:0:
230,147,24214,6,0,L|0:154,1,212,2|0,3:0|3:0,0:0:0:0:
16,212,24911,1,0,3:0:0:0:
110,217,25144,2,0,L|117:334,1,106,2|8,3:2|3:0,0:0:0:0:
222,305,25609,2,0,L|222:181,1,106,0|0,3:0|0:0,0:0:0:0:
451,149,26074,5,2,3:0:0:0:
348,229,26307,2,0,L|351:348,1,106,0|0,0:0|3:0,0:0:0:0:
457,341,26772,1,0,3:0:0:0:
350,334,27004,2,0,L|136:331,1,212,2|0,3:2|3:0,0:0:0:0:
138,331,27702,1,0,0:0:0:0:
365,309,27934,6,0,P|416:208|372:89,1,212,2|0,3:0|3:0,0:0:0:0:
245,186,28865,2,0,P|382:158|401:61,1,212,2|0,3:2|3:0,0:0:0:0:
406,45,29562,1,0,0:0:0:0:
193,57,29795,6,0,L|6:180,1,212,2|0,3:0|3:0,0:0:0:0:
112,183,30493,1,0,3:0:0:0:
202,273,30725,2,0,L|311:296,2,106,2|8|0,3:2|3:0|3:0,0:0:0:0:
111,333,31423,1,0,0:0:0:0:
338,292,31655,6,0,P|409:240|329:172,1,212,2|0,3:0|3:0,0:0:0:0:
241,169,32353,1,0,3:0:0:0:
338,175,32586,2,0,L|342:52,1,106,2|8,3:2|3:0,0:0:0:0:
231,84,33051,2,0,L|227:200,1,106,0|0,3:0|0:0,0:0:0:0:
458,251,33516,6,0,L|213:276,1,212,2|2,3:0|3:0,0:0:0:0:
345,261,34214,1,0,3:0:0:0:
239,274,34446,2,0,L|90:293,2,106,2|8|0,3:2|3:0|3:0,0:0:0:0:
338,197,35144,1,0,0:0:0:0:
115,215,35376,6,0,P|42:165|125:111,1,212,2|0,3:0|3:0,0:0:0:0:
257,46,36307,2,0,L|270:279,1,212,2|0,3:2|3:0,0:0:0:0:
366,294,37004,1,0,0:0:0:0:
140,314,37237,6,0,L|363:337,1,212,2|2,3:0|3:0,0:0:0:0:
263,280,37934,1,0,3:0:0:0:
355,240,38167,1,2,3:2:0:0:
388,153,38400,1,8,3:0:0:0:
348,60,38632,1,0,3:0:0:0:
258,37,38865,1,0,0:0:0:0:
348,60,39097,6,0,L|479:83,1,106,2|0,3:0|0:0,0:0:0:0:
382,124,39562,1,0,3:0:0:0:
305,159,39795,2,0,P|287:235|402:327,1,212,0|8,3:0|3:0,0:0:0:0:
470,344,40493,2,0,L|350:351,1,106,0|0,3:0|0:0,0:0:0:0:
133,339,40958,6,0,P|59:290|151:224,1,212,2|2,3:0|3:0,0:0:0:0:
218,211,41655,1,0,3:0:0:0:
123,219,41888,2,0,L|120:101,1,106,2|8,3:2|3:0,0:0:0:0:
226,74,42353,2,0,L|110:80,1,106,2|0,3:0|0:0,0:0:0:0:
343,162,42818,6,0,P|464:191|494:287,2,212,2|0|2,3:0|3:0|3:2,0:0:0:0:
256,169,43981,1,8,3:0:0:0:
346,164,44214,2,0,L|372:291,1,106,8|0,3:0|0:0,0:0:0:0:
143,314,44679,6,0,P|33:246|37:158,1,212,2|2,3:0|3:0,0:0:0:0:
123,143,45376,1,0,3:0:0:0:
220,135,45609,2,0,L|223:270,1,106,2|8,3:2|3:0,0:0:0:0:
118,264,46074,2,0,L|245:279,1,106,2|0,3:0|0:0,0:0:0:0:
449,297,46539,6,0,L|190:313,1,212,2|2,3:0|3:0,0:0:0:0:
334,249,47237,1,0,3:0:0:0:
237,189,47469,2,0,L|91:184,2,106,2|8|8,3:2|3:0|3:0,0:0:0:0:
338,155,48167,1,2,0:0:0:0:
105,86,48400,6,0,P|49:164|128:213,1,212,2|0,3:0|3:0,0:0:0:0:
227,214,49097,1,0,3:0:0:0:
121,256,49330,1,0,3:0:0:0:
96,306,49562,1,8,3:0:0:0:
114,354,49795,1,2,3:2:0:0:
230,361,50028,1,0,0:0:0:0:
463,255,50260,6,0,L|214:242,1,212,2|0,3:0|3:0,0:0:0:0:
362,227,50958,1,0,3:0:0:0:
131,218,51190,2,0,P|142:142|273:112,1,212,2|2,3:2|3:0,0:0:0:0:
262,78,51888,1,2,0:0:0:0:
28,58,52121,6,0,L|53:301,1,212,2|0,3:0|3:0,0:0:0:0:
156,293,52818,1,0,3:0:0:0:
253,302,53051,1,0,3:0:0:0:
159,298,53283,1,8,3:0:0:0:
61,302,53516,1,2,3:2:0:0:
165,297,53748,1,0,0:0:0:0:
397,244,53981,6,0,L|405:106,1,106,2|0,3:0|0:0,0:0:0:0:
291,131,54446,2,0,L|153:130,1,106,0|0,3:0|3:0,0:0:0:0:
414,41,54911,2,0,P|406:149|305:191,1,212,2|2,3:2|3:0,0:0:0:0:
410,202,55609,1,2,0:0:0:0:
185,324,55841,6,0,P|115:238|178:119,1,212,2|0,3:0|3:0,0:0:0:0:
224,85,56539,1,0,3:0:0:0:
122,118,56772,1,0,3:0:0:0:
88,188,57004,1,8,3:0:0:0:
103,276,57237,1,2,3:2:0:0:
203,316,57469,1,0,0:0:0:0:
439,334,57702,6,0,L|210:348,1,212,2|0,3:0|3:0,0:0:0:0:
328,318,58400,1,0,3:0:0:0:
94,243,58632,2,0,P|112:133|227:119,1,212,2|2,3:2|3:0,0:0:0:0:
309,112,59330,1,2,0:0:0:0:
75,242,59562,6,0,L|322:262,1,212,2|0,3:0|3:0,0:0:0:0:
289,319,60260,1,0,3:0:0:0:
182,329,60493,2,0,L|165:201,1,106,0|8,3:0|3:0,0:0:0:0:
59,196,60958,2,0,L|73:79,1,106,2|0,3:2|0:0,0:0:0:0:
327,20,61423,5,2,3:0:0:0:
433,63,61655,1,0,0:0:0:0:
446,140,61888,1,0,3:0:0:0:
430,220,62121,1,0,3:0:0:0:
332,269,62353,2,0,L|218:288,1,106,0|8,3:0|3:0,0:0:0:0:
342,317,62818,2,0,L|451:334,1,106,2|2,3:0|0:0,0:0:0:0:
209,330,63283,6,0,P|109:238|118:173,1,212,2|0,3:0|3:0,0:0:0:0:
224,115,63981,1,0,3:0:0:0:
113,63,64214,2,0,L|268:53,2,106,0|8|2,3:0|3:0|3:2,0:0:0:0:
113,63,64911,1,0,0:0:0:0:
338,118,65144,6,0,P|437:145|422:267,1,212,2|0,3:0|3:0,0:0:0:0:
348,278,65841,1,0,3:0:0:0:
453,291,66074,2,0,L|460:45,1,212,2|2,3:2|3:0,0:0:0:0:
366,57,66772,1,2,0:0:0:0:
132,113,67004,6,0,P|76:188|158:239,1,212,2|0,3:0|3:0,0:0:0:0:
253,264,67702,1,0,3:0:0:0:
152,308,67934,2,0,L|36:333,2,106,0|8|2,3:0|3:0|3:2,0:0:0:0:
257,260,68632,1,0,0:0:0:0:
26,81,68865,6,0,L|284:104,1,212,2|0,3:0|3:0,0:0:0:0:
329,160,69562,1,0,3:0:0:0:
221,181,69795,2,0,L|219:308,1,106,0|8,3:0|3:0,0:0:0:0:
102,237,70260,2,0,L|98:363,1,106,2|2,3:0|0:0,0:0:0:0:
330,338,70725,6,0,P|438:300|461:182,1,212,2|0,3:0|3:0,0:0:0:0:
373,183,71423,1,0,3:0:0:0:
275,142,71655,2,0,L|275:21,1,106,0|8,3:0|3:0,0:0:0:0:
380,33,72121,2,0,L|497:40,1,106,2|0,3:2|0:0,0:0:0:0:
254,164,72586,6,0,L|-8:184,1,212,2|0,3:0|3:0,0:0:0:0:
195,83,73516,2,0,P|272:144|203:247,1,212,2|2,3:2|3:0,0:0:0:0:
136,262,74214,1,2,0:0:0:0:
367,317,74446,6,0,L|493:342,1,106,2|0,3:0|0:0,0:0:0:0:
340,277,74911,2,0,L|214:288,1,106,0|0,3:0|3:0,0:0:0:0:
326,217,75376,1,0,3:0:0:0:
363,138,75609,1,8,3:0:0:0:
324,63,75841,1,2,3:2:0:0:
230,40,76074,1,0,0:0:0:0:
462,69,76307,6,0,L|483:300,1,212,2|0,3:0|3:0,0:0:0:0:
386,317,77004,1,0,3:0:0:0:
482,278,77237,2,0,L|264:281,1,212,0|2,3:0|3:0,0:0:0:0:
357,234,77934,1,2,0:0:0:0:
126,212,78167,6,0,P|68:161|169:101,1,212,2|0,3:0|3:0,0:0:0:0:
246,93,78865,1,0,3:0:0:0:
134,104,79097,2,0,L|108:249,1,106,0|8,3:0|3:0,0:0:0:0:
230,192,79562,2,0,L|246:316,1,106,2|0,3:2|0:0,0:0:0:0:
477,308,80028,6,0,L|215:319,2,212,2|0|0,3:0|3:0|3:0,0:0:0:0:
366,254,81190,1,8,3:0:0:0:
471,209,81423,2,0,L|480:76,1,106,2|2,3:0|0:0,0:0:0:0:
245,80,81888,6,0,P|171:93|132:225,1,212,2|0,3:0|3:0,0:0:0:0:
230,237,82586,1,2,3:2:0:0:
121,282,82818,2,0,L|-4:324,2,106,0|8|2,3:0|3:0|3:2,0:0:0:0:
224,235,83516,1,0,0:0:0:0:
459,267,83748,6,0,L|450:39,1,212,2|0,3:0|3:0,0:0:0:0:
361,53,84446,1,0,3:0:0:0:
283,52,84679,2,0,L|271:189,1,106,0|8,3:0|3:0,0:0:0:0:
395,152,85144,2,0,L|436:272,1,106,2|2,3:2|0:0,0:0:0:0:
195,338,85609,5,2,3:0:0:0:
60,278,86074,2,0,L|294:246,1,212,0|0,3:0|3:0,0:0:0:0:
269,178,86772,1,8,3:0:0:0:
182,143,87004,2,0,L|70:136,1,106,2|0,3:2|0:0,0:0:0:0:
312,62,87469,6,0,P|423:84|457:200,1,212,2|0,3:0|3:0,0:0:0:0:
371,205,88167,1,0,3:0:0:0:
467,239,88400,2,0,L|484:350,1,106,0|8,3:0|3:0,0:0:0:0:
377,337,88865,2,0,L|253:367,1,106,2|0,3:2|0:0,0:0:0:0:
42,345,89330,5,0,2:0:0:0:
242,203,89795,1,0,3:0:0:0:
203,207,90028,1,0,0:0:0:0:
168,207,90260,1,0,0:0:0:0:
323,149,90725,1,0,3:0:0:0:
282,146,90958,1,0,0:0:0:0:
182,137,91190,5,0,2:0:0:0:
309,150,91655,1,0,3:0:0:0:
374,165,91888,1,0,0:0:0:0:
387,219,92121,1,0,0:0:0:0:
222,300,92586,1,0,3:0:0:0:
116,306,92818,1,0,0:0:0:0:
441,281,93051,6,0,P|471:226|373:123,1,212,2|2,1:2|3:0,0:0:0:0:
274,125,93748,1,0,3:0:0:0:
51,179,93981,1,8,3:0:0:0:
60,260,94214,1,0,3:0:0:0:
123,313,94446,1,2,3:0:0:0:
227,311,94679,1,0,0:0:0:0:
448,257,94911,6,0,L|204:256,1,212,0|2,1:0|3:0,0:0:0:0:
131,250,95609,1,0,3:0:0:0:
455,273,95841,2,0,P|472:173|440:38,1,212,2|2,3:2|3:0,0:0:0:0:
242,140,96539,6,0,L|115:150,1,106,2|0,0:0|1:0,0:0:0:0:
362,226,97004,1,2,0:0:0:0:
257,269,97237,2,0,L|144:325,2,106,2|0|8,3:0|3:0|3:0,0:0:0:0:
362,226,97934,1,0,0:0:0:0:
490,157,98167,2,0,L|367:166,1,106,2|0,3:0|3:0,0:0:0:0:
92,308,98632,5,2,1:2:0:0:
22,174,98865,1,0,3:0:0:0:
65,72,99097,1,2,3:0:0:0:
188,57,99330,1,0,3:0:0:0:
424,159,99562,2,0,L|450:283,1,106,8|0,3:0|0:0,0:0:0:0:
332,254,100028,2,0,L|309:366,1,106,2|2,3:0|0:0,0:0:0:0:
16,182,100493,6,0,L|256:193,1,212,0|2,1:0|3:0,0:0:0:0:
327,246,101190,1,0,3:0:0:0:
116,309,101423,2,0,L|13:331,2,106,8|0|2,3:0|0:0|3:0,0:0:0:0:
214,288,102121,1,0,3:0:0:0:
445,294,102353,6,0,P|416:212|291:184,1,212,0|2,1:0|3:0,0:0:0:0:
182,182,103051,1,0,3:0:0:0:
473,285,103283,2,0,L|492:65,1,212,8|2,3:0|3:0,0:0:0:0:
266,122,103981,6,0,L|128:144,1,106,2|0,0:0|1:0,0:0:0:0:
392,157,104446,2,0,P|457:198|407:323,1,212,2|0,0:0|3:0,0:0:0:0:
222,346,105144,1,8,3:0:0:0:
128,283,105376,1,0,0:0:0:0:
104,179,105609,1,2,3:0:0:0:
147,89,105841,1,2,0:0:0:0:
382,86,106074,6,0,L|137:50,2,212,0|2|8,1:0|1:3|3:0,0:0:0:0:
482,137,107237,1,0,0:0:0:0:
480,226,107469,1,2,3:0:0:0:
375,272,107702,1,2,0:0:0:0:
82,311,107934,6,0,P|46:220|128:100,1,212,0|2,1:0|3:0,0:0:0:0:
198,84,108632,1,0,3:0:0:0:
417,149,108865,2,0,P|489:179|499:221,2,106,8|0|2,3:0|0:0|3:0,0:0:0:0:
308,155,109562,1,0,3:0:0:0:
90,159,109795,6,0,P|18:263|94:317,1,212,0|2,1:0|3:0,0:0:0:0:
152,310,110493,1,0,3:0:0:0:
448,309,110725,2,0,P|491:212|427:133,1,212,8|2,3:0|3:0,0:0:0:0:
229,157,111423,6,0,L|348:127,1,106,2|0,0:0|1:0,0:0:0:0:
136,84,111888,1,2,0:0:0:0:
353,66,112121,2,0,L|481:78,2,106,2|0|8,3:0|3:0|3:0,0:0:0:0:
254,122,112818,1,0,0:0:0:0:
265,226,113051,1,2,3:0:0:0:
375,272,113283,1,0,3:0:0:0:
72,284,113516,6,0,L|57:141,1,106,0|0,1:0|3:0,0:0:0:0:
177,174,113981,2,0,L|187:57,1,106,2|0,3:0|3:0,0:0:0:0:
412,49,114446,2,0,L|219:50,2,159,8|0|2,3:0|0:0|0:0,0:0:0:0:
110,95,115376,6,0,P|62:195|168:230,1,212,0|2,1:0|3:0,0:0:0:0:
235,242,116074,1,0,3:0:0:0:
467,245,116307,2,0,L|475:373,1,106,8|0,3:0|0:0,0:0:0:0:
379,341,116772,2,0,L|498:350,1,106,2|0,3:0|3:0,0:0:0:0:
254,296,117237,6,0,P|274:206|407:185,1,212,0|2,1:0|3:0,0:0:0:0:
472,186,117934,1,0,3:0:0:0:
170,282,118167,2,0,L|38:102,1,212,8|2,3:0|3:0,0:0:0:0:
160,54,118865,1,2,0:0:0:0:
457,39,119097,5,0,1:0:0:0:
449,111,119330,1,2,0:0:0:0:
385,163,119562,1,2,3:0:0:0:
289,177,119795,1,0,3:0:0:0:
63,229,120028,2,0,L|52:353,1,106,8|0,3:0|0:0,0:0:0:0:
164,231,120493,2,0,L|178:342,1,106,2|2,3:0|0:0,0:0:0:0:
472,224,120958,6,0,L|256:249,2,212,0|2|0,1:0|1:3|1:0,0:0:0:0:
357,196,122121,1,0,0:0:0:0:
474,220,122353,2,0,L|471:79,1,106,2|2,3:0|0:0,0:0:0:0:
177,217,122818,6,0,P|80:156|120:71,1,212,0|2,1:0|3:2,0:0:0:0:
314,64,123748,2,0,L|57:60,1,212,2|2,3:2|3:2,0:0:0:0:
476,65,124679,6,0,L|486:184,1,106,0|2,1:0|0:0,0:0:0:0:
372,192,125144,2,0,L|356:303,1,106,2|2,3:2|0:0,0:0:0:0:
52,322,125609,2,0,P|30:222|105:148,1,212,2|0,3:2|3:0,0:0:0:0:
199,135,126307,1,8,3:0:0:0:
490,95,126539,6,0,P|416:96|362:235,1,212,0|2,1:0|3:2,0:0:0:0:
29,225,127469,2,0,P|53:313|197:338,1,212,2|2,3:2|3:2,0:0:0:0:
496,278,128400,6,0,L|266:243,2,212,0|0|0,1:0|1:0|1:0,0:0:0:0:
185,321,129795,2,0,P|144:268|151:215,1,106,0|0,3:0|0:0,0:0:0:0:
437,198,130260,6,0,P|459:119|340:58,1,212,0|2,1:0|3:2,0:0:0:0:
67,117,131190,2,0,L|26:357,1,212,2|2,3:2|3:2,0:0:0:0:
364,191,132121,6,0,L|234:211,1,106,0|2,1:0|0:0,0:0:0:0:
386,256,132586,2,0,L|515:291,1,106,2|2,3:2|0:0,0:0:0:0:
195,132,133051,2,0,P|165:211|292:246,1,212,2|0,3:2|3:0,0:0:0:0:
373,274,133748,1,8,3:0:0:0:
75,264,133981,6,0,P|27:193|111:97,1,212,0|0,1:0|3:0,0:0:0:0:
189,96,134679,1,0,3:0:0:0:
392,304,134911,2,0,L|412:160,1,106,0|0,3:0|0:0,0:0:0:0:
292,187,135376,2,0,L|276:46,1,106,2|0,3:2|0:0,0:0:0:0:
83,48,135841,5,0,1:0:0:0:
289,84,136074,2,0,L|420:111,2,106,4|4|0,1:2|1:2|0:0,0:0:0:0:
83,135,136772,2,0,L|36:264,1,106,4|0,1:2|0:0,0:0:0:0:
116,257,137082,1,0,0:0:0:0:
184,271,137159,1,0,0:0:0:0:
251,283,137237,2,0,L|284:152,1,106,2|0,3:2|0:0,0:0:0:0:
47,144,137702,5,0,3:0:0:0:
256,192,143283,12,0,144679,0:0:0:0:
151,88,145144,5,0,3:0:0:0:
288,137,145609,1,2,2:0:0:0:
193,171,145841,1,0,2:0:0:0:
290,179,146074,1,2,2:0:0:0:
292,245,146307,1,0,2:0:0:0:
193,219,146539,1,0,2:0:0:0:
290,179,146772,1,2,2:0:0:0:
60,146,147004,5,0,3:0:0:0:
196,168,147237,1,0,0:0:0:0:
106,189,147469,1,2,2:0:0:0:
106,189,147702,1,0,2:0:0:0:
336,209,147934,1,2,3:2:0:0:
233,244,148167,1,0,2:0:0:0:
233,244,148400,1,0,2:0:0:0:
129,270,148632,1,2,3:2:0:0:
359,327,148865,5,0,3:0:0:0:
224,137,149330,1,2,2:0:0:0:
319,171,149562,1,0,3:0:0:0:
222,179,149795,1,2,2:0:0:0:
220,245,150028,1,0,2:0:0:0:
319,219,150260,1,0,3:0:0:0:
220,245,150493,1,2,2:0:0:0:
454,274,150725,5,0,3:0:0:0:
343,319,150958,1,0,0:0:0:0:
343,319,151190,1,2,2:0:0:0:
434,298,151423,1,0,2:0:0:0:
197,341,151655,1,2,2:0:0:0:
100,283,151888,1,0,2:0:0:0:
100,283,152121,1,0,2:0:0:0:
9,229,152353,1,2,2:0:0:0:
232,209,152586,5,2,3:0:0:0:
384,176,153051,2,0,L|385:51,1,106,0|0,3:0|3:0,0:0:0:0:
158,66,153516,2,0,P|67:78|29:205,1,212,2|0,3:2|3:0,0:0:0:0:
114,209,154214,1,0,0:0:0:0:
342,293,154446,6,0,L|481:320,1,106,2|0,3:0|0:0,0:0:0:0:
329,326,154911,2,0,L|212:354,1,106,0|0,3:0|3:0,0:0:0:0:
331,272,155376,2,0,L|98:252,1,212,0|0,3:2|3:0,0:0:0:0:
118,186,156074,1,0,0:0:0:0:
335,211,156307,6,0,L|345:101,1,106
120,166,156772,2,0,L|1:183,1,106,0|0,3:0|0:0,0:0:0:0:
116,49,157237,2,0,L|341:49,1,212,2|0,3:2|3:0,0:0:0:0:
413,117,157934,1,0,0:0:0:0:
183,205,158167,6,0,L|179:321,1,106,2|0,3:0|0:0,0:0:0:0:
311,213,158632,2,0,L|462:210,1,106,0|0,3:0|0:0,0:0:0:0:
328,335,159097,2,0,L|104:332,1,212,2|0,3:2|3:0,0:0:0:0:
119,236,159795,1,0,0:0:0:0:
344,196,160028,6,0,L|492:192,2,106,2|0|0,3:0|0:0|3:0,0:0:0:0:
247,257,160725,1,0,3:0:0:0:
341,252,160958,2,0,L|352:374,1,106,2|8,3:2|3:0,0:0:0:0:
448,242,161423,2,0,L|457:116,1,106,0|0,3:0|0:0,0:0:0:0:
229,129,161888,6,0,L|84:126,1,106,2|0,3:0|0:0,0:0:0:0:
59,162,162353,2,0,L|189:158,1,106,0|0,3:0|3:0,0:0:0:0:
276,179,162818,2,0,L|300:305,1,106,2|8,3:2|3:0,0:0:0:0:
185,234,163283,2,0,L|161:344,1,106,0|0,3:0|0:0,0:0:0:0:
394,326,163748,6,0,L|422:192,1,106,2|0,3:0|0:0,0:0:0:0:
203,180,164214,2,0,L|318:179,1,106,0|0,3:0|0:0,0:0:0:0:
303,72,164679,2,0,L|43:78,1,212,2|0,3:2|3:0,0:0:0:0:
92,136,165376,1,0,0:0:0:0:
318,180,165609,6,0,L|441:198,1,106,2|0,3:0|0:0,0:0:0:0:
313,234,166074,2,0,L|191:235,1,106,0|0,3:0|0:0,0:0:0:0:
324,348,166539,2,0,L|68:343,1,212,2|0,3:2|3:0,0:0:0:0:
216,308,167237,1,0,0:0:0:0:
447,292,167469,6,0,L|455:145,1,106,2|0,1:3|0:0,0:0:0:0:
385,165,167779,1,0,0:0:0:0:
316,152,167857,1,0,0:0:0:0:
249,138,167934,2,0,L|240:8,1,106,2|0,3:0|3:0,0:0:0:0:
474,33,168400,2,0,L|234:50,1,212,2|0,3:2|3:0,0:0:0:0:
378,99,169097,1,0,0:0:0:0:
148,130,169330,6,0,L|138:269,1,106,2|0,1:3|0:0,0:0:0:0:
36,241,169795,2,0,L|32:374,1,106,0|0,3:0|3:0,0:0:0:0:
265,359,170260,2,0,L|476:359,1,212,2|0,3:2|3:0,0:0:0:0:
480,288,170958,1,0,0:0:0:0:
258,263,171190,6,0,P|183:248|150:187,1,106,2|0,1:3|0:0,0:0:0:0:
234,185,171500,1,0,0:0:0:0:
304,164,171578,1,0,0:0:0:0:
372,153,171655,2,0,L|387:45,1,106,2|0,3:0|3:0,0:0:0:0:
171,84,172121,2,0,L|178:207,1,106,2|8,3:2|3:0,0:0:0:0:
296,256,172586,2,0,L|435:276,1,106,2|0,0:0|0:0,0:0:0:0:
169,159,173051,6,0,P|75:189|69:292,1,212,2|0,1:3|3:0,0:0:0:0:
419,311,173981,2,0,L|188:315,1,212,2|0,3:2|3:0,0:0:0:0:
288,248,174679,1,0,0:0:0:0:
94,231,174911,6,0,L|80:120,1,106,2|0,1:3|0:0,0:0:0:0:
151,103,175221,1,0,0:0:0:0:
223,88,175299,1,0,0:0:0:0:
290,76,175376,2,0,L|300:191,1,106,2|0,3:0|3:0,0:0:0:0:
70,326,175841,2,0,L|175:330,1,106,2|8,3:2|3:0,0:0:0:0:
265,283,176307,2,0,L|135:289,1,106,2|0,3:0|0:0,0:0:0:0:
383,224,176772,5,2,1:3:0:0:
162,227,177004,2,0,P|95:152|181:84,1,212,0|0,0:0|3:0,0:0:0:0:
384,59,177702,2,0,L|151:56,1,212,2|8,3:2|3:0,0:0:0:0:
172,120,178400,1,0,0:0:0:0:
407,164,178632,6,0,L|422:275,1,106,2|0,1:3|0:0,0:0:0:0:
354,296,178942,1,0,0:0:0:0:
283,321,179020,1,0,0:0:0:0:
214,342,179097,2,0,L|192:237,1,106,2|0,3:0|3:0,0:0:0:0:
412,125,179562,2,0,L|306:130,2,106,2|8|2,3:2|3:0|3:0,0:0:0:0:
179,94,180260,1,0,0:0:0:0:
414,60,180493,5,0,1:0:0:0:
416,64,182121,1,0,0:0:0:0:
103,137,182353,6,0,L|365:144,1,212,2|2,1:2|3:0,0:0:0:0:
402,198,183051,1,0,3:0:0:0:
187,223,183283,2,0,P|108:255|99:295,1,106,8|0,3:0|3:0,0:0:0:0:
317,276,183748,2,0,P|400:284|452:324,1,106,2|0,3:0|0:0,0:0:0:0:
94,264,184214,6,0,B|13:173|256:176,1,212,0|0,1:0|0:0,0:0:0:0:
348,183,184911,1,0,3:0:0:0:
42,81,185144,2,0,L|182:107,2,106,2|0|2,3:2|0:0|3:0,0:0:0:0:
251,105,185841,6,0,P|309:146|260:266,1,212,2|2,0:0|0:0,0:0:0:0:
49,306,186539,2,0,L|39:155,1,106,2|0,3:0|3:0,0:0:0:0:
234,52,187004,1,8,3:0:0:0:
355,61,187237,1,0,0:0:0:0:
433,156,187469,1,2,3:0:0:0:
450,279,187702,1,0,3:0:0:0:
150,326,187934,5,2,1:2:0:0:
175,273,188167,1,0,3:0:0:0:
263,236,188400,1,2,3:0:0:0:
383,234,188632,1,0,3:0:0:0:
172,200,188865,2,0,L|160:67,1,106,8|0,3:0|0:0,0:0:0:0:
42,133,189330,2,0,L|29:12,1,106,2|2,3:0|0:0,0:0:0:0:
349,222,189795,6,0,L|-19:235,1,318,0|0,1:0|3:0,0:0:0:0:
337,326,190725,2,0,L|473:329,1,106,8|0,3:0|0:0,0:0:0:0:
246,271,191190,2,0,L|92:287,1,106,2|0,3:0|3:0,0:0:0:0:
445,244,191655,6,0,P|493:152|393:75,1,212,0|2,1:0|3:0,0:0:0:0:
324,78,192353,1,0,3:0:0:0:
27,177,192586,2,0,L|271:195,1,212,8|0,3:0|0:0,0:0:0:0:
452,203,193283,6,0,L|450:315,1,106,2|0,0:0|1:0,0:0:0:0:
239,182,193748,2,0,L|-13:206,1,212,2|0,0:0|3:0,0:0:0:0:
135,245,194446,2,0,L|251:242,1,106,8|0,3:0|0:0,0:0:0:0:
314,296,194911,1,0,0:0:0:0:
229,337,195144,1,2,0:0:0:0:
446,273,195376,6,0,L|453:124,1,106,0|2,1:0|0:0,0:0:0:0:
233,121,195841,2,0,L|385:121,1,106,2|0,1:3|3:0,0:0:0:0:
114,58,196307,2,0,P|46:111|105:235,1,212,8|0,1:3|0:0,0:0:0:0:
174,241,197004,1,2,0:0:0:0:
492,300,197237,6,0,L|171:317,1,318,0|0,1:0|3:0,0:0:0:0:
472,220,198167,2,0,L|475:81,1,106,8|0,3:0|0:0,0:0:0:0:
363,122,198632,2,0,L|358:10,1,106,2|0,3:0|3:0,0:0:0:0:
63,33,199097,6,0,P|131:47|197:189,1,212,0|2,1:0|3:0,0:0:0:0:
99,199,199795,1,0,3:0:0:0:
413,228,200028,2,0,P|470:150|363:97,1,212,8|0,3:0|0:0,0:0:0:0:
176,110,200725,6,0,L|41:125,2,106,2|0|2,0:0|1:0|0:0,0:0:0:0:
382,135,201423,2,0,L|403:263,1,106
184,63,201888,2,0,L|355:71,1,159,2|0,0:0|0:0,0:0:0:0:
380,78,202353,1,2,3:0:0:0:
445,157,202586,1,0,3:0:0:0:
128,246,202818,6,0,L|121:114,1,106,0|0,1:0|3:0,0:0:0:0:
235,93,203283,2,0,L|85:97,1,106,2|0,3:0|3:0,0:0:0:0:
351,139,203748,2,0,P|426:155|445:260,1,159,8|0,3:0|0:0,0:0:0:0:
362,279,204446,1,2,0:0:0:0:
43,323,204679,6,0,L|389:344,1,318,0|0,1:0|3:0,0:0:0:0:
59,280,205609,2,0,L|49:142,1,106,8|0,3:0|0:0,0:0:0:0:
259,158,206074,2,0,L|397:122,1,106,2|0,3:0|3:0,0:0:0:0:
57,49,206539,6,0,P|75:162|166:188,1,212,0|2,1:0|3:0,0:0:0:0:
367,238,207237,1,0,3:0:0:0:
166,287,207469,2,0,P|94:197|174:135,1,212,8|2,3:0|3:0,0:0:0:0:
351,119,208167,6,0,L|458:68,1,106,2|0,0:0|1:0,0:0:0:0:
235,40,208632,1,2,0:0:0:0:
111,71,208865,1,2,3:0:0:0:
51,189,209097,1,0,3:0:0:0:
52,306,209330,2,0,L|183:329,1,106,8|0,3:0|0:0,0:0:0:0:
378,326,209795,2,0,L|379:216,1,106,2|2,3:0|0:0,0:0:0:0:
150,189,210260,6,0,L|406:173,2,212,0|2|0,1:0|1:3|1:0,0:0:0:0:
265,234,211423,1,0,0:0:0:0:
40,244,211655,2,0,L|36:353,1,106,2|2,3:0|0:0,0:0:0:0:
388,327,212121,6,0,P|441:263|368:147,1,212,0|0,1:0|0:0,0:0:0:0:
73,76,213051,2,0,L|327:57,1,212,2|2,3:2|3:2,0:0:0:0:
381,98,213748,1,0,0:0:0:0:
285,140,213981,6,0,L|267:262,1,106,0|2,1:0|0:0,0:0:0:0:
146,233,214446,2,0,L|123:356,1,106,2|2,3:2|0:0,0:0:0:0:
343,289,214911,2,0,L|82:303,1,212,2|0,3:2|3:0,0:0:0:0:
127,228,215609,1,8,3:0:0:0:
443,86,215841,6,0,L|450:215,1,106,0|0,1:0|0:0,0:0:0:0:
342,206,216307,2,0,L|336:318,1,106,2|0,3:2|3:0,0:0:0:0:
122,157,216772,2,0,L|131:290,1,106,2|0,3:2|3:0,0:0:0:0:
336,311,217237,2,0,L|452:319,1,106,2|0,3:2|3:0,0:0:0:0:
113,255,217702,6,0,P|69:178|168:100,1,212,0|0,1:0|1:0,0:0:0:0:
466,35,218632,2,0,L|213:63,1,212,0|0,1:0|3:0,0:0:0:0:
364,109,219330,1,0,0:0:0:0:
64,149,219562,6,0,P|37:234|132:300,1,212,0|2,1:0|3:2,0:0:0:0:
450,305,220493,2,0,L|208:327,1,212,2|0,3:2|0:0,0:0:0:0:
218,246,221190,1,0,3:0:0:0:
436,219,221423,6,0,L|448:78,1,106,0|2,1:0|0:0,0:0:0:0:
326,126,221888,2,0,L|340:-17,1,106,2|2,3:2|0:0,0:0:0:0:
124,43,222353,2,0,L|360:42,1,212,2|0,3:2|3:0,0:0:0:0:
345,134,223051,1,8,3:0:0:0:
43,197,223283,6,0,L|43:322,1,106,0|0,1:0|0:0,0:0:0:0:
156,309,223748,2,0,L|156:172,1,106,0|0,3:0|3:0,0:0:0:0:
379,189,224214,2,0,L|483:151,1,106,0|0,3:0|0:0,0:0:0:0:
361,115,224679,2,0,L|249:101,1,106,2|0,3:2|0:0,0:0:0:0:
465,60,225144,5,0,1:0:0:0:
256,100,225376,2,0,L|247:245,1,106,4|4,1:2|1:2,0:0:0:0:
352,248,225841,1,0,0:0:0:0:
132,278,226074,2,0,L|369:304,1,212,4|2,1:2|3:2,0:0:0:0:
60,259,227004,6,0,P|37:155|129:108,1,212,2|2,3:0|3:2,0:0:0:0:
204,112,227702,1,0,3:0:0:0:
418,148,227934,2,0,L|438:279,1,106,2|8,3:2|3:0,0:0:0:0:
345,249,228400,2,0,L|314:379,1,106,2|0,3:2|0:0,0:0:0:0:
134,335,228865,5,2,3:0:0:0:
46,248,229097,1,2,3:2:0:0:
27,135,229330,1,2,3:2:0:0:
65,54,229562,1,2,3:2:0:0:
168,51,229795,2,0,L|297:41,1,106,2|8,3:2|3:0,0:0:0:0:
154,110,230260,2,0,L|28:98,1,106,0|0,3:0|0:0,0:0:0:0:
274,152,230725,6,0,P|275:228|142:295,1,212,2|2,3:0|3:2,0:0:0:0:
259,326,231423,1,0,0:0:0:0:
478,323,231655,2,0,L|497:183,1,106,2|8,3:2|3:0,0:0:0:0:
390,205,232121,2,0,L|382:96,1,106,2|0,3:2|0:0,0:0:0:0:
155,77,232586,6,0,L|382:69,2,212,2|2|2,3:0|3:2|3:2,0:0:0:0:
65,129,233748,1,8,3:0:0:0:
165,134,233981,2,0,L|174:267,1,106,0|0,3:0|0:0,0:0:0:0:
401,233,234446,6,0,P|489:169|440:90,1,212,2|2,3:0|3:2,0:0:0:0:
341,94,235144,1,0,3:0:0:0:
125,233,235376,2,0,L|131:109,1,106,2|8,3:2|3:0,0:0:0:0:
234,74,235841,2,0,L|115:76,1,106,2|0,3:2|0:0,0:0:0:0:
349,62,236307,5,2,3:0:0:0:
441,109,236539,1,2,3:2:0:0:
469,190,236772,1,2,3:2:0:0:
445,266,237004,1,2,3:2:0:0:
351,290,237237,2,0,L|224:336,1,106,2|8,3:2|3:0,0:0:0:0:
372,332,237702,2,0,L|468:272,1,106,0|0,3:0|0:0,0:0:0:0:
249,234,238167,6,0,P|207:153|302:79,1,212,2|2,3:0|3:2,0:0:0:0:
469,68,239097,1,0,3:0:0:0:
165,278,239562,2,0,L|146:131,1,106,2|0,3:2|0:0,0:0:0:0:
365,101,240028,6,0,L|131:103,2,212,2|2|0,3:0|3:2|3:0,0:0:0:0:
259,166,241190,1,8,3:0:0:0:
204,191,241268,1,0,0:0:0:0:
177,234,241345,1,0,0:0:0:0:
172,271,241423,1,2,3:2:0:0:
408,325,241655,5,8,3:0:0:0:
