osu file format v14

[General]
AudioFilename: audio.mp3
AudioLeadIn: 0
PreviewTime: 60020
Countdown: 0
SampleSet: Soft
StackLeniency: 0.7
Mode: 0
LetterboxInBreaks: 0
WidescreenStoryboard: 0

[Editor]
DistanceSpacing: 0.7
BeatDivisor: 4
GridSize: 4
TimelineZoom: 2

[Metadata]
Title:Hoshi o Tsunagete (TV Size)
TitleUnicode:星をつなげて (TV Size)
Artist:Gothic x Luck
ArtistUnicode:Gothic×Luck
Creator:rosario wknd
Version:Starlight
Source:けものフレンズ2
Tags:kemono friends 2 けものフレンズ furenzu kemofure ed ending japanese pop jpop j-pop western parotia カンザシフウチョウ greater lophorina カタカケフウチョウ kan madoka 菅 まどか yagi mashiro 八木 ましろ デビューEP starry story EP animals animal birds
BeatmapID:3523249
BeatmapSetID:1723936

[Difficulty]
HPDrainRate:6.5
CircleSize:4.5
OverallDifficulty:7
ApproachRate:9
SliderMultiplier:1.8
SliderTickRate:1

[Events]
//Background and Video events
0,0,"birdsofafeather.png",0,0
//Break Periods
//Storyboard Layer 0 (Background)
//Storyboard Layer 1 (Fail)
//Storyboard Layer 2 (Pass)
//Storyboard Layer 3 (Foreground)
//Storyboard Layer 4 (Overlay)
//Storyboard Sound Samples

[TimingPoints]
304,377.358490566038,4,2,1,40,1,0
2190,-166.666666666667,4,2,1,40,0,0
3322,-100,4,2,1,40,0,0
5775,-100,4,2,1,45,0,0
6341,-100,4,2,1,50,0,0
6719,-83.3333333333333,4,2,1,50,0,0
12379,-83.3333333333333,4,2,1,40,0,0
12568,-111.111111111111,4,2,1,40,0,0
23134,-99.9999999999999,4,2,1,40,0,0
24454,-99.9999999999999,4,2,1,45,0,0
34832,-90.9090909090909,4,2,1,45,0,0
36530,-111.111111111111,4,2,1,40,0,0
48417,-99.9999999999999,4,2,1,40,0,0
54454,-90.9090909090909,4,2,1,45,0,0
57473,-90.9090909090909,4,2,1,50,0,0
60115,-90.9090909090909,4,2,1,55,0,0
60492,-83.3333333333333,4,2,1,65,0,1
69549,-76.9230769230769,4,2,1,65,0,1
71058,-71.4285714285714,4,2,1,70,0,1
72568,-83.3333333333333,4,2,1,65,0,1
84643,-125,4,2,1,40,0,0
88228,-142.857142857143,4,2,1,30,0,0

[Colours]
Combo1 : 128,0,255
Combo2 : 255,255,128
Combo3 : 128,255,255
Combo4 : 17,17,255

[HitObjects]
24,223,304,5,2,3:0:0:0:
73,169,492,2,0,L|66:142,4,22.5,2|0|2|0|2,0:0|0:0|0:0|0:0|0:0,0:0:0:0:
162,232,870,2,0,L|139:319,1,90,2|0,0:0|0:0,0:0:0:0:
44,342,1247,2,0,B|110:333|110:333|155:363|155:363|239:350,1,180,2|2,0:0|0:0,0:0:0:0:
345,302,2002,2,0,L|355:273,3,22.5,2|0|2|0,0:0|0:0|0:0|0:0,0:0:0:0:
325,324,2190,6,0,L|357:209,1,107.999996704102
377,150,2756,2,0,L|423:159,1,26.9999991760254
469,140,2945,2,0,B|481:157|481:157|417:147,1,80.9999975280763
292,64,3322,5,2,3:0:0:0:
255,123,3511,2,0,L|269:157,4,22.5,2|0|2|0|2,0:0|0:0|0:0|0:0|0:0,0:0:0:0:
206,10,3888,2,0,P|164:0|151:77,1,135,2|0,0:0|0:0,0:0:0:0:
157,141,4266,2,0,B|163:109|195:87|195:87|65:109,1,180,2|2,0:0|0:0,0:0:0:0:
84,105,5020,5,2,0:0:0:0:
42,44,5209,1,2,0:0:0:0:
157,141,5398,2,0,P|176:166|109:216,1,135,2|0,0:0|0:0,0:0:0:0:
17,175,5775,1,2,0:0:0:0:
17,175,5870,1,2,0:0:0:0:
17,175,5964,2,0,P|72:153|80:148,1,45,2|0,0:0|0:0,0:0:0:0:
120,234,6153,2,0,P|175:256|183:261,1,45,2|2,0:0|0:0,0:0:0:0:
280,172,6341,5,6,3:0:0:0:
328,299,6530,1,0,0:0:0:0:
280,172,6719,2,0,P|305:96|314:66,1,107.999996704102,0|0,3:0|0:0,0:0:0:0:
435,0,7096,2,0,P|410:76|401:106,1,107.999996704102,0|2,3:0|0:0,0:0:0:0:
398,117,7379,1,0,0:0:0:0:
398,117,7473,1,10,0:0:0:0:
499,227,7662,6,0,P|430:198|398:283,1,161.999995056153,2|0,0:0|0:0,0:0:0:0:
396,272,8039,1,0,0:0:0:0:
495,326,8228,2,0,P|475:376|426:364,1,107.999996704102,0|0,3:0|0:0,0:0:0:0:
334,324,8605,1,0,3:0:0:0:
452,217,8794,1,0,0:0:0:0:
461,187,8888,1,2,0:0:0:0:
451,155,8983,1,10,0:0:0:0:
422,140,9077,1,2,0:0:0:0:
390,145,9171,1,2,0:0:0:0:
358,153,9266,1,2,0:0:0:0:
327,163,9360,5,2,3:0:0:0:
237,266,9549,1,0,0:0:0:0:
139,177,9737,2,0,B|108:198|108:198|135:288,1,107.999996704102,0|0,3:0|0:0,0:0:0:0:
220,176,10115,2,0,B|251:155|251:155|224:65,1,107.999996704102,0|2,3:0|0:0,0:0:0:0:
182,36,10398,1,0,0:0:0:0:
182,36,10492,2,0,L|200:102,1,53.9999983520508,10|0,0:0|0:0,0:0:0:0:
30,111,10681,6,0,B|3:64|3:64|128:105,1,161.999995056153,2|0,0:0|0:0,0:0:0:0:
121,102,11058,1,2,0:0:0:0:
11,184,11247,1,2,3:0:0:0:
33,250,11436,1,14,0:0:0:0:
129,321,11624,1,2,3:0:0:0:
198,183,11813,1,2,3:0:0:0:
198,183,11907,1,0,3:0:0:0:
198,183,12002,1,10,0:0:0:0:
129,208,12190,1,2,3:0:0:0:
250,357,12379,5,6,3:0:0:0:
303,303,12568,1,2,0:0:0:0:
303,303,12756,2,0,L|388:291,1,80.9999975280763,2|2,3:0|0:0,0:0:0:0:
395,191,13134,2,0,P|441:219|431:257,2,80.9999975280763,2|2|2,3:0|0:0|3:0,0:0:0:0:
303,185,13700,2,0,P|382:188|372:92,1,161.999995056153,2|2,0:0|0:0,0:0:0:0:
397,119,14266,1,0,3:0:0:0:
329,43,14454,2,0,B|301:48|275:57|275:57|234:32|234:32|198:33|152:50,1,161.999995056153,2|2,0:0|0:0,0:0:0:0:
93,84,15020,2,0,L|194:64,1,80.9999975280763,2|0,3:0|0:0,0:0:0:0:
176,59,15304,1,0,0:0:0:0:
176,59,15398,5,0,3:0:0:0:
48,17,15587,1,2,0:0:0:0:
5,117,15775,1,2,3:0:0:0:
48,17,15964,1,2,0:0:0:0:
107,116,16153,2,0,L|79:207,1,80.9999975280763,2|2,3:0|0:0,0:0:0:0:
24,228,16530,1,2,3:0:0:0:
198,360,16719,6,0,P|203:306|180:288,1,80.9999975280763,2|0,0:0|3:0,0:0:0:0:
67,207,17096,2,0,P|111:238|138:227,1,80.9999975280763,2|0,0:0|3:0,0:0:0:0:
296,217,17473,2,0,P|216:215|212:285,1,161.999995056153,2|2,0:0|0:0,0:0:0:0:
328,353,18039,2,0,B|350:332|350:332|321:264,1,80.9999975280763,10|0,3:2|0:0,0:0:0:0:
324,272,18322,1,0,0:0:0:0:
324,272,18417,1,4,3:0:0:0:
182,367,18605,6,0,P|145:360|84:349,1,80.9999975280763,2|2,0:0|3:0,0:0:0:0:
50,300,18983,1,2,0:0:0:0:
155,205,19171,2,0,P|163:253|173:298,1,80.9999975280763,2|2,3:0|0:0,0:0:0:0:
88,153,19549,1,2,3:0:0:0:
57,223,19737,1,2,0:0:0:0:
205,135,19926,5,2,3:0:0:0:
169,69,20115,2,0,P|111:67|100:100,1,80.9999975280763,2|0,0:0|3:0,0:0:0:0:
200,250,20492,2,0,P|220:176|246:91,1,161.999995056153,2|2,0:0|0:0,0:0:0:0:
288,31,21058,2,0,P|275:71|260:126,1,80.9999975280763,2|2,3:0|0:0,0:0:0:0:
430,223,21436,6,0,B|379:245|353:201|353:137|270:187,1,161.999995056153,2|2,3:0|3:0,0:0:0:0:
199,143,22002,2,0,P|256:149|213:231,1,161.999995056153,2|2,0:0|0:0,0:0:0:0:
237,230,22568,1,2,3:0:0:0:
421,258,22756,2,0,P|361:256|371:329,1,121.499996292114,2|0,0:0|0:0,0:0:0:0:
398,374,23134,6,0,P|422:369|445:367,1,45,2|2,0:0|0:0,0:0:0:0:
502,340,23322,2,0,L|375:357,1,90,10|2,3:2|0:0,0:0:0:0:
325,374,23605,1,2,0:0:0:0:
325,374,23700,2,0,P|297:365|262:356,1,45,2|0,3:0|0:0,0:0:0:0:
228,259,23888,1,2,3:0:0:0:
228,259,23983,1,0,3:0:0:0:
228,259,24077,2,0,P|206:314|204:323,1,45,10|0,3:2|0:0,0:0:0:0:
119,366,24266,2,0,P|107:330|95:301,1,45,2|0,3:0|0:0,0:0:0:0:
310,213,24454,5,6,3:0:0:0:
246,176,24643,2,0,P|234:131|218:56,1,90,2|8,0:0|0:0,0:0:0:0:
274,37,25020,1,2,0:0:0:0:
147,129,25209,2,0,P|93:111|50:101,1,90,2|2,3:0|0:0,0:0:0:0:
57,89,25492,1,0,0:0:0:0:
57,90,25587,1,10,0:0:0:0:
256,237,25775,6,0,P|277:183|347:202,1,135,2|0,0:0|0:0,0:0:0:0:
356,215,26153,2,0,B|332:197|332:197|356:101,1,90,2|8,0:0|0:0,0:0:0:0:
460,99,26530,2,0,B|480:116|480:116|455:213,1,90,2|0,0:0|3:0,0:0:0:0:
329,343,26907,2,0,L|317:270,1,45,2|2,0:0|0:0,0:0:0:0:
368,248,27096,1,10,0:0:0:0:
408,247,27190,1,2,0:0:0:0:
440,272,27285,1,2,0:0:0:0:
441,312,27379,1,2,0:0:0:0:
418,345,27473,5,2,3:0:0:0:
271,234,27662,1,2,0:0:0:0:
232,343,27851,1,10,0:0:0:0:
271,234,28039,1,2,0:0:0:0:
152,287,28228,2,0,L|55:309,1,90,2|2,3:0|0:0,0:0:0:0:
30,360,28511,1,0,0:0:0:0:
30,360,28605,2,0,L|46:305,1,45,10|0,0:0|0:0,0:0:0:0:
88,181,28794,6,0,P|20:197|21:214,1,90,2|0,0:0|3:0,0:0:0:0:
144,119,29171,2,0,P|100:64|85:72,1,90,2|10,0:0|0:0,0:0:0:0:
170,207,29549,1,2,0:0:0:0:
53,120,29737,1,2,3:0:0:0:
226,76,29926,1,2,0:0:0:0:
76,205,30115,2,0,L|96:294,1,90,10|2,0:0|0:0,0:0:0:0:
99,307,30398,1,0,0:0:0:0:
99,307,30492,5,4,3:0:0:0:
244,217,30681,2,0,P|286:210|311:260,1,90,2|8,0:0|0:0,0:0:0:0:
330,310,31058,1,2,0:0:0:0:
448,189,31247,1,2,3:0:0:0:
468,260,31436,1,2,0:0:0:0:
468,260,31530,1,0,0:0:0:0:
468,260,31624,1,10,0:0:0:0:
347,162,31813,6,0,B|332:119|332:119|343:77|343:77|320:4,1,135,2|0,0:0|0:0,0:0:0:0:
290,17,32190,2,0,P|339:28|407:42,1,90,2|8,0:0|0:0,0:0:0:0:
498,131,32568,2,0,P|449:120|381:106,1,90,2|0,0:0|3:0,0:0:0:0:
207,117,32945,2,0,P|230:123|272:131,1,45,2|2,0:0|0:0,0:0:0:0:
307,167,33134,1,10,0:0:0:0:
307,202,33228,1,2,0:0:0:0:
283,229,33322,1,2,0:0:0:0:
247,236,33417,1,2,0:0:0:0:
214,219,33511,6,0,B|110:244|110:244|160:250|188:295,1,180,2|10,3:0|0:0,0:0:0:0:
69,345,34077,2,0,L|102:189,1,135,2|0,0:0|0:0,0:0:0:0:
100,201,34454,1,2,0:0:0:0:
0,283,34643,1,10,0:0:0:0:
166,370,34832,6,0,B|223:388|237:351|243:300|318:339,1,148.50000453186,6|0,0:0|0:0,0:0:0:0:
311,336,35209,1,2,0:0:0:0:
414,237,35398,1,10,0:0:0:0:
346,254,35587,1,6,0:0:0:0:
454,344,35775,1,2,3:0:0:0:
346,254,35964,2,0,L|328:190,1,49.5000015106202,2|0,0:0|0:0,0:0:0:0:
358,185,36153,1,10,0:0:0:0:
476,139,36341,2,0,L|489:91,1,49.5000015106202,10|8,0:0|0:0,0:0:0:0:
362,22,36530,5,4,3:0:0:0:
343,90,36719,2,0,L|263:102,2,80.9999975280763,2|2|2,0:0|3:0|0:0,0:0:0:0:
165,102,37285,1,2,3:0:0:0:
182,33,37473,1,2,0:0:0:0:
266,117,37662,1,10,0:0:0:0:
55,173,37851,6,0,B|110:157|110:157|161:180|161:180|225:162,1,161.999995056153,6|2,0:0|0:0,0:0:0:0:
207,166,38417,1,2,3:0:0:0:
17,87,38605,2,0,B|65:82|71:131|71:131|27:232,1,161.999995056153,6|2,0:0|0:0,0:0:0:0:
38,206,39171,1,10,0:0:0:0:
173,320,39360,6,0,P|192:277|121:249,1,121.499996292114,6|0,0:0|0:0,0:0:0:0:
122,238,39737,1,2,0:0:0:0:
12,314,39926,2,0,P|82:301|104:298,1,80.9999975280763,2|2,3:0|0:0,0:0:0:0:
185,356,40304,2,0,P|145:362|105:370,2,80.9999975280763,2|2|10,3:0|0:0|0:0,0:0:0:0:
283,166,40870,6,0,B|306:221|277:240|195:246|262:336,1,161.999995056153,6|0,0:0|0:0,0:0:0:0:
388,368,41436,1,10,0:0:0:0:
447,332,41624,2,0,P|434:286|394:285,1,80.9999975280763,2|0,0:0|3:0,0:0:0:0:
410,175,42002,1,2,3:0:0:0:
410,175,42096,2,0,L|345:162,2,40.4999987640381,0|2|0,3:0|0:0|0:0,0:0:0:0:
482,175,42379,6,0,L|286:135,1,161.999995056153,6|2,0:0|0:0,0:0:0:0:
364,7,42945,2,0,B|387:22|387:22|370:82,1,80.9999975280763,2|2,3:0|0:0,0:0:0:0:
216,70,43322,1,2,3:0:0:0:
269,17,43511,1,2,0:0:0:0:
216,70,43700,1,10,0:0:0:0:
323,142,43888,6,0,P|346:219|277:232,1,161.999995056153,6|2,0:0|0:0,0:0:0:0:
284,235,44454,1,2,3:0:0:0:
445,305,44643,2,0,P|386:286|375:356,1,121.499996292114,6|0,0:0|0:0,0:0:0:0:
362,342,45020,1,2,0:0:0:0:
417,384,45209,1,8,0:0:0:0:
269,313,45398,6,0,L|108:336,1,161.999995056153,6|2,0:0|0:0,0:0:0:0:
31,330,45964,2,0,L|125:315,1,80.9999975280763,2|2,3:0|0:0,0:0:0:0:
230,381,46341,2,0,B|237:354|249:325|249:325|231:285|231:285|253:215,1,161.999995056153,2|8,3:0|0:0,0:0:0:0:
309,190,46813,1,0,0:0:0:0:
309,190,46907,6,0,B|274:211|274:211|307:292,1,121.499996292114,6|0,0:0|0:0,0:0:0:0:
304,285,47285,1,0,0:0:0:0:
376,161,47473,1,0,3:0:0:0:
399,227,47662,1,0,0:0:0:0:
253,148,47851,1,0,3:0:0:0:
336,74,48039,2,0,P|360:69|395:63,1,40.4999987640381,10|0,0:0|0:0,0:0:0:0:
253,148,48228,2,0,P|228:143|190:137,1,40.4999987640381,10|0,0:0|0:0,0:0:0:0:
96,30,48417,6,0,P|24:39|48:123,1,180,6|2,3:0|0:0,0:0:0:0:
117,182,48983,2,0,P|82:187|21:202,1,90,2|2,3:0|0:0,0:0:0:0:
183,272,49360,1,2,3:0:0:0:
231,217,49549,1,2,0:0:0:0:
113,249,49737,1,10,0:0:0:0:
241,319,49926,6,0,B|348:293|348:293|355:320|384:366,1,180,6|2,0:0|0:0,0:0:0:0:
378,356,50492,1,2,3:0:0:0:
501,302,50681,2,0,L|315:255,1,180,6|2,0:0|0:0,0:0:0:0:
326,257,51247,1,8,0:0:0:0:
243,330,51436,6,0,P|175:345|196:260,1,180,6|2,0:0|0:0,0:0:0:0:
248,175,52002,2,0,L|270:285,1,90,2|2,3:0|0:0,0:0:0:0:
126,211,52379,1,2,3:0:0:0:
155,144,52568,1,2,0:0:0:0:
222,170,52756,1,10,0:0:0:0:
107,288,52945,6,0,B|19:313|19:313|-18:363|48:399,1,180,6|0,0:0|0:0,0:0:0:0:
118,357,53511,2,0,P|127:315|146:247,1,90,8|0,3:2|0:0,0:0:0:0:
51,184,53888,2,0,P|42:226|25:296,1,90,0|10,3:0|0:0,0:0:0:0:
29,287,54171,1,8,0:0:0:0:
29,287,54266,1,10,0:0:0:0:
157,119,54454,6,0,B|210:100|252:125|243:219|339:169,1,198.000006042481,6|2,3:0|0:0,0:0:0:0:
387,134,55020,1,10,0:0:0:0:
225,52,55209,2,0,L|181:194,1,148.50000453186,2|0,0:0|0:0,0:0:0:0:
189,208,55587,1,2,0:0:0:0:
90,131,55775,1,10,0:0:0:0:
307,29,55964,6,0,B|242:45|242:45|191:17|191:17|162:27|111:31,1,198.000006042481,6|2,0:0|0:0,0:0:0:0:
58,70,56530,1,10,0:0:0:0:
205,164,56719,2,0,P|276:176|272:242,1,148.50000453186,2|0,0:0|0:0,0:0:0:0:
264,308,57096,2,0,P|260:283|255:258,1,49.5000015106202,0|0,3:0|0:0,0:0:0:0:
355,222,57285,2,0,P|368:172|375:153,1,49.5000015106202,2|0,0:0|0:0,0:0:0:0:
182,21,57473,6,0,P|204:97|222:166,1,148.50000453186,6|0,3:0|0:0,0:0:0:0:
214,179,57851,1,2,0:0:0:0:
292,332,58039,1,10,0:0:0:0:
347,278,58228,1,2,0:0:0:0:
347,278,58322,1,0,0:0:0:0:
347,278,58417,1,2,3:0:0:0:
181,346,58605,1,2,0:0:0:0:
347,278,58794,2,0,L|472:308,1,99.0000030212403,10|2,0:0|0:0,0:0:0:0:
456,292,59077,1,0,0:0:0:0:
456,292,59171,5,10,0:0:0:0:
264,202,59360,1,10,0:0:0:0:
367,381,59549,1,10,0:0:0:0:
435,128,59737,1,10,0:0:0:0:
435,128,60115,1,10,0:0:0:0:
467,150,60209,1,8,0:0:0:0:
476,188,60304,1,10,0:0:0:0:
459,223,60398,1,8,0:0:0:0:
425,237,60492,6,0,B|390:234|356:221|356:221|328:234|302:256|302:256|271:244|213:237,1,215.999993408203,6|0,3:0|0:0,0:0:0:0:
105,143,61058,2,0,P|129:197|182:183,1,107.999996704102,10|0,0:0|0:0,0:0:0:0:
236,353,61436,2,0,P|269:312|228:270,1,107.999996704102,2|0,3:0|0:0,0:0:0:0:
96,269,61813,1,10,0:0:0:0:
245,181,62002,6,0,L|214:18,1,161.999995056153,2|0,0:0|0:0,0:0:0:0:
229,12,62379,1,2,0:0:0:0:
144,89,62568,1,10,0:0:0:0:
315,134,62756,2,0,P|369:124|440:114,1,107.999996704102,2|0,0:0|3:0,0:0:0:0:
469,63,63039,1,0,0:0:0:0:
469,63,63134,2,0,L|400:75,1,53.9999983520508,10|0,0:0|0:0,0:0:0:0:
330,11,63322,1,8,0:0:0:0:
429,189,63511,6,0,B|474:187|481:237|481:237|437:338,1,161.999995056153,6|0,3:0|0:0,0:0:0:0:
441,328,63888,1,2,0:0:0:0:
264,230,64077,1,10,0:0:0:0:
288,301,64266,1,2,0:0:0:0:
318,149,64454,1,2,3:0:0:0:
157,236,64643,1,2,0:0:0:0:
318,149,64832,2,0,P|324:118|333:81,1,53.9999983520508,10|0,0:0|0:0,0:0:0:0:
168,39,65020,6,0,P|127:21|94:91,1,107.999996704102,2|0,0:0|3:0,0:0:0:0:
220,192,65398,2,0,P|238:151|169:117,1,107.999996704102,2|8,0:0|0:0,0:0:0:0:
75,252,65775,2,0,P|183:233|257:227,1,161.999995056153,2|0,0:0|0:0,0:0:0:0:
243,214,66153,1,2,0:0:0:0:
150,306,66341,1,10,0:0:0:0:
375,316,66530,6,0,B|420:344|420:344|291:367,1,161.999995056153,6|0,0:0|0:0,0:0:0:0:
300,353,66907,1,2,0:0:0:0:
417,195,67096,1,10,0:0:0:0:
438,263,67285,1,2,0:0:0:0:
276,208,67473,1,2,3:0:0:0:
438,263,67662,2,0,B|461:238|461:238|429:152,1,107.999996704102,2|8,0:0|0:0,0:0:0:0:
194,199,68039,6,0,P|292:205|282:141,1,161.999995056153,2|0,0:0|0:0,0:0:0:0:
348,120,68417,2,0,L|331:171,1,53.9999983520508,2|0,0:0|0:0,0:0:0:0:
328,324,68605,1,10,0:0:0:0:
460,278,68794,1,2,0:0:0:0:
328,324,68983,2,0,L|209:299,2,107.999996704102,2|2|8,3:0|0:0|0:0,0:0:0:0:
62,263,69549,6,0,B|121:252|121:252|156:284|156:284|243:266,1,175.499991966248,6|0,0:0|0:0,0:0:0:0:
230,256,69926,1,2,0:0:0:0:
79,187,70115,1,10,0:0:0:0:
139,355,70304,1,2,0:0:0:0:
139,355,70398,1,0,0:0:0:0:
139,355,70492,1,2,3:0:0:0:
8,314,70681,1,2,0:0:0:0:
172,224,70870,1,10,0:0:0:0:
32,0,71058,6,0,B|14:16|20:44|20:44|53:128|53:128|72:163|14:214,1,188.999994232178,6|0,0:0|0:0,0:0:0:0:
37,192,71436,1,10,0:0:0:0:
189,64,71624,1,10,0:0:0:0:
222,222,71813,1,10,0:0:0:0:
71,98,72002,1,8,0:0:0:0:
314,35,72190,2,0,P|281:27|231:11,1,62.9999980773926,10|8,0:0|0:0,0:0:0:0:
76,112,72379,2,0,P|143:98|186:93,1,62.9999980773926,10|8,0:0|0:0,0:0:0:0:
395,216,72568,6,0,B|312:266|285:191|278:121|173:201,1,215.999993408203,6|0,3:0|0:0,0:0:0:0:
373,337,73134,2,0,L|409:211,1,107.999996704102,10|0,0:0|0:0,0:0:0:0:
405,222,73417,1,0,0:0:0:0:
405,222,73511,1,2,3:0:0:0:
299,312,73700,1,2,0:0:0:0:
471,295,73888,1,10,0:0:0:0:
346,146,74077,6,0,P|298:126|263:215,1,161.999995056153,2|0,0:0|0:0,0:0:0:0:
268,218,74454,1,2,0:0:0:0:
191,109,74643,1,10,0:0:0:0:
84,178,74832,2,0,L|58:26,1,107.999996704102,2|0,0:0|3:0,0:0:0:0:
72,55,75115,1,0,0:0:0:0:
72,55,75209,1,10,0:0:0:0:
167,116,75398,1,10,0:0:0:0:
9,207,75587,6,0,P|85:197|103:278,1,161.999995056153,6|0,3:0|0:0,0:0:0:0:
103,280,75964,1,2,0:0:0:0:
260,300,76153,2,0,B|290:280|290:280|264:190,1,107.999996704102,10|2,0:0|0:0,0:0:0:0:
154,79,76530,2,0,B|126:101|126:101|150:189,1,107.999996704102,2|2,3:0|0:0,0:0:0:0:
186,225,76813,1,0,0:0:0:0:
186,225,76907,2,0,L|168:158,1,53.9999983520508,10|0,0:0|0:0,0:0:0:0:
272,28,77096,6,0,P|343:42|341:95,1,107.999996704102,2|0,0:0|3:0,0:0:0:0:
488,111,77473,2,0,P|417:125|419:178,1,107.999996704102,2|8,0:0|0:0,0:0:0:0:
296,225,77851,2,0,B|348:215|400:183|400:183|468:214|429:294,1,215.999993408203,2|2,0:0|0:0,0:0:0:0:
322,147,78417,1,10,0:0:0:0:
189,366,78605,6,0,B|176:318|176:318|190:270|190:270|182:249|171:193,1,161.999995056153,6|0,0:0|0:0,0:0:0:0:
182,193,78983,1,2,0:0:0:0:
105,309,79171,1,10,0:0:0:0:
255,220,79360,1,2,0:0:0:0:
105,309,79549,1,2,3:0:0:0:
79,185,79737,1,2,0:0:0:0:
201,320,79926,2,0,P|192:348|187:378,1,53.9999983520508,10|0,0:0|0:0,0:0:0:0:
76,177,80115,6,0,B|80:146|34:112|34:112|173:164,1,215.999993408203,2|0,0:0|0:0,0:0:0:0:
275,50,80681,2,0,L|166:65,1,107.999996704102,10|2,0:0|0:0,0:0:0:0:
68,15,81058,1,2,3:0:0:0:
160,159,81247,1,2,0:0:0:0:
257,26,81436,1,10,0:0:0:0:
464,184,81624,6,0,B|382:220|357:151|350:81|245:161,1,215.999993408203,6|0,0:0|0:0,0:0:0:0:
427,116,82190,2,0,B|452:90|452:90|422:1,1,107.999996704102,10|0,0:0|0:0,0:0:0:0:
301,217,82568,1,2,3:0:0:0:
335,91,82756,1,2,0:0:0:0:
501,191,82945,2,0,P|475:193|434:200,1,53.9999983520508,10|0,0:0|0:0,0:0:0:0:
354,273,83134,6,0,P|440:282|412:366,1,161.999995056153,2|0,0:0|0:0,0:0:0:0:
434,359,83511,1,8,0:0:0:0:
257,315,83700,1,8,0:0:0:0:
283,246,83888,1,8,0:0:0:0:
398,182,84077,1,14,0:0:0:0:
238,118,84266,5,10,0:0:0:0:
203,101,84360,1,8,0:0:0:0:
193,64,84454,1,10,0:0:0:0:
215,33,84549,1,8,0:0:0:0:
247,27,84643,6,0,P|227:73|195:168,1,144,2|2,0:0|0:0,0:0:0:0:
7,174,85209,2,0,P|52:188|80:200,1,72,2|2,0:0|0:0,0:0:0:0:
199,300,85587,1,2,0:0:0:0:
243,243,85775,1,2,0:0:0:0:
192,191,85964,1,2,0:0:0:0:
102,319,86153,6,0,P|184:330|187:395,1,144,2|2,0:0|0:0,0:0:0:0:
266,325,86719,2,0,L|248:244,1,72,2|2,0:0|0:0,0:0:0:0:
360,222,87096,2,0,P|372:164|384:125,2,72,2|2|2,0:0|0:0|0:0,0:0:0:0:
447,238,87662,6,0,P|355:249|275:270,1,144,2|0,0:0|0:0,0:0:0:0:
225,198,88228,1,2,0:0:0:0:
225,198,88605,1,2,0:0:0:0:
272,138,88794,1,2,0:0:0:0:
341,167,88983,1,2,0:0:0:0:
394,113,89171,1,2,0:0:0:0:
