osu file format v14

[General]
AudioFilename: audio.mp3
AudioLeadIn: 0
PreviewTime: 60020
Countdown: 0
SampleSet: Soft
StackLeniency: 0.7
Mode: 0
LetterboxInBreaks: 0
WidescreenStoryboard: 1

[Editor]
DistanceSpacing: 0.8
BeatDivisor: 4
GridSize: 4
TimelineZoom: 1

[Metadata]
Title:Hoshi o Tsunagete (TV Size)
TitleUnicode:星をつなげて (TV Size)
Artist:Gothic x Luck
ArtistUnicode:Gothic×Luck
Creator:rosario wknd
Version:Normal
Source:けものフレンズ2
Tags:kemono friends 2 けものフレンズ furenzu kemofure ed ending japanese pop jpop j-pop western parotia カンザシフウチョウ greater lophorina カタカケフウチョウ kan madoka 菅 まどか yagi mashiro 八木 ましろ デビューEP starry story EP animals animal birds
BeatmapID:3546446
BeatmapSetID:1723936

[Difficulty]
HPDrainRate:3.5
CircleSize:4
OverallDifficulty:4
ApproachRate:5.5
SliderMultiplier:1.2
SliderTickRate:1

[Events]
//Background and Video events
0,0,"birdsofafeather.png",0,0
//Break Periods
//Storyboard Layer 0 (Background)
//Storyboard Layer 1 (Fail)
//Storyboard Layer 2 (Pass)
//Storyboard Layer 3 (Foreground)
//Storyboard Layer 4 (Overlay)
//Storyboard Sound Samples

[TimingPoints]
304,377.358490566038,4,2,1,40,1,0
304,-100,4,2,1,40,0,0
2002,-100,4,2,1,40,0,0
3322,-100,4,2,1,40,0,0
5775,-100,4,2,1,45,0,0
6341,-100,4,2,1,50,0,0
12379,-100,4,2,1,40,0,0
12568,-100,4,2,1,40,0,0
24454,-100,4,2,1,45,0,0
36530,-100,4,2,1,40,0,0
54454,-100,4,2,1,45,0,0
57473,-100,4,2,1,50,0,0
60115,-100,4,2,1,55,0,0
60492,-90.9090909090909,4,2,1,65,0,1
71058,-90.9090909090909,4,2,1,70,0,1
72568,-90.9090909090909,4,2,1,65,0,1
84643,-111.111111111111,4,2,1,40,0,0
88228,-111.111111111111,4,2,1,30,0,0

[Colours]
Combo1 : 128,0,255
Combo2 : 255,255,128
Combo3 : 128,255,255
Combo4 : 17,17,255

[HitObjects]
89,49,304,6,0,P|25:61|34:120,1,120,2|0,3:0|0:0,0:0:0:0:
48,147,870,2,0,L|12:299,1,120,2|2,0:0|0:0,0:0:0:0:
64,349,1624,1,2,0:0:0:0:
170,301,2002,1,0,0:0:0:0:
170,301,2190,2,0,B|233:277|248:317|258:395|350:334,1,180
358,310,2945,1,0,0:0:0:0:
432,250,3322,6,0,B|423:202|423:202|428:183|428:183|418:119,1,120,2|0,3:0|0:0,0:0:0:0:
399,88,3888,2,0,P|349:39|304:82,1,120,2|2,0:0|0:0,0:0:0:0:
250,131,4643,1,2,0:0:0:0:
311,204,5020,2,0,P|318:236|331:274,1,60,2|2,0:0|0:0,0:0:0:0:
316,308,5398,2,0,B|308:345|308:345|211:333,1,120,2|0,0:0|0:0,0:0:0:0:
182,330,5964,2,0,L|107:344,1,60,2|2,0:0|0:0,0:0:0:0:
87,380,6341,6,0,P|75:321|61:262,1,120,6|0,3:0|3:0,0:0:0:0:
24,231,6907,1,0,0:0:0:0:
24,231,7096,2,0,P|8:176|88:153,1,120,0|10,3:0|0:0,0:0:0:0:
93,165,7662,1,2,0:0:0:0:
167,104,8039,1,0,0:0:0:0:
167,104,8228,2,0,L|315:78,1,120,0|0,3:0|3:0,0:0:0:0:
322,113,8794,1,0,0:0:0:0:
322,113,8983,2,0,L|420:136,1,60,10|2,0:0|0:0,0:0:0:0:
426,114,9360,6,0,B|469:125|469:125|444:240,1,120,2|0,3:0|3:0,0:0:0:0:
366,240,10115,2,0,L|385:312,1,60,0|2,3:0|0:0,0:0:0:0:
344,328,10492,1,10,0:0:0:0:
344,328,10681,2,0,P|265:318|276:273,1,120,2|2,0:0|0:0,0:0:0:0:
277,251,11247,2,0,L|258:167,1,60,2|14,3:0|0:0,0:0:0:0:
305,168,11624,1,2,3:0:0:0:
241,95,12002,1,10,0:0:0:0:
159,145,12379,6,0,P|99:131|17:117,1,120,6|2,3:0|3:0,0:0:0:0:
44,24,13134,2,0,P|104:38|186:52,1,120,2|2,3:0|3:0,0:0:0:0:
202,74,13700,1,2,0:0:0:0:
202,74,13888,2,0,P|262:37|303:69,1,120,0|0,3:0|3:0,0:0:0:0:
359,133,14643,2,0,P|334:197|316:263,1,120,0|2,3:0|3:0,0:0:0:0:
385,316,15398,6,0,P|447:298|510:290,2,120,0|2|2,3:0|3:0|3:0,0:0:0:0:
362,358,16341,1,2,0:0:0:0:
362,358,16530,2,0,P|331:353|259:339,1,60,2|2,3:0|0:0,0:0:0:0:
257,333,16907,2,0,B|232:255|232:255|278:214,1,120,0|0,3:0|3:0,0:0:0:0:
344,183,17662,1,0,3:0:0:0:
294,101,18039,1,10,3:2:0:0:
364,36,18417,6,0,P|433:59|429:104,1,120,4|2,3:0|3:0,0:0:0:0:
410,138,18983,1,2,0:0:0:0:
410,138,19171,2,0,L|439:256,1,120,2|2,3:0|3:0,0:0:0:0:
366,317,19926,2,0,P|313:303|235:287,1,120,2|0,3:0|3:0,0:0:0:0:
185,217,20681,1,0,3:0:0:0:
246,143,21058,2,0,B|257:132|257:132|228:65,1,60,2|2,3:0|0:0,0:0:0:0:
195,71,21436,6,0,B|148:80|148:80|125:71|125:71|78:78,2,120,2|2|0,3:0|3:0|3:0,0:0:0:0:
268,8,22568,1,2,3:0:0:0:
342,68,22945,2,0,P|369:114|301:158,1,120,0|10,3:0|3:2,0:0:0:0:
312,204,23511,1,2,0:0:0:0:
312,204,23700,2,0,P|286:206|223:215,1,60,2|2,3:0|3:0,0:0:0:0:
214,180,24077,1,10,3:2:0:0:
140,241,24454,6,0,P|119:288|187:330,1,120,6|8,3:0|0:0,0:0:0:0:
201,358,25020,1,2,0:0:0:0:
201,358,25209,1,2,3:0:0:0:
285,312,25587,1,10,0:0:0:0:
372,351,25964,2,0,P|394:270|411:222,1,120,0|8,3:0|0:0,0:0:0:0:
373,200,26530,1,2,0:0:0:0:
373,200,26719,2,0,P|350:207|282:218,1,60,0|2,3:0|0:0,0:0:0:0:
276,185,27096,1,10,0:0:0:0:
206,251,27473,6,0,B|136:237|136:237|133:169,1,120,2|10,3:0|0:0,0:0:0:0:
38,175,28228,2,0,P|53:119|69:54,1,120,2|10,3:0|0:0,0:0:0:0:
106,30,28794,1,2,0:0:0:0:
106,30,28983,2,0,P|176:42|174:92,1,120,0|10,3:0|0:0,0:0:0:0:
211,116,29549,1,2,0:0:0:0:
211,116,29737,2,0,L|306:102,1,60,2|2,3:0|0:0,0:0:0:0:
300,69,30115,1,10,0:0:0:0:
382,117,30492,6,0,L|347:254,1,120,4|8,3:0|0:0,0:0:0:0:
373,276,31058,1,2,0:0:0:0:
373,276,31247,1,2,3:0:0:0:
311,349,31624,1,10,0:0:0:0:
227,301,32002,2,0,P|155:315|162:364,2,120,0|8|0,3:0|0:0|3:0,0:0:0:0:
267,275,32945,1,2,0:0:0:0:
267,275,33134,2,0,B|282:264|282:264|252:179,1,60,10|2,0:0|0:0,0:0:0:0:
243,183,33511,6,0,P|256:120|274:46,1,120,2|10,3:0|0:0,0:0:0:0:
193,6,34266,2,0,P|181:68|162:143,1,120,0|10,3:0|0:0,0:0:0:0:
121,135,34832,2,0,P|48:145|51:202,1,120,6|2,0:0|0:0,0:0:0:0:
63,222,35398,2,0,L|44:311,1,60,10|6,0:0|0:0,0:0:0:0:
78,319,35775,1,2,3:0:0:0:
78,319,35964,2,0,L|65:377,2,60,2|10|10,0:0|0:0|0:0,0:0:0:0:
125,314,36530,6,0,L|268:293,1,120,4|2,3:0|3:0,0:0:0:0:
337,317,37285,2,0,L|351:386,2,60,2|2|10,3:0|0:0|0:0,0:0:0:0:
366,279,37851,2,0,P|382:215|340:195,1,120,6|2,0:0|0:0,0:0:0:0:
298,212,38417,1,2,3:0:0:0:
298,212,38605,2,0,B|247:203|247:203|241:196|241:196|162:181,1,120,6|2,0:0|0:0,0:0:0:0:
125,108,39360,6,0,P|156:46|209:65,1,120,6|2,0:0|0:0,0:0:0:0:
231,85,39926,1,2,3:0:0:0:
324,64,40304,2,0,P|333:37|346:8,2,60,2|2|10,3:0|0:0|0:0,0:0:0:0:
359,96,40870,2,0,B|387:155|345:183|269:178|330:285,1,180,6|10,0:0|0:0,0:0:0:0:
349,286,41624,1,2,0:0:0:0:
300,368,42002,2,0,P|265:360|213:351,1,60,2|2,3:0|0:0,0:0:0:0:
207,321,42379,6,0,L|72:338,1,120,6|2,0:0|0:0,0:0:0:0:
57,299,42945,1,2,3:0:0:0:
102,214,43322,1,2,3:0:0:0:
102,214,43511,2,0,P|92:179|80:127,1,60,2|10,0:0|0:0,0:0:0:0:
61,114,43888,2,0,B|75:74|75:74|177:98,1,120,6|2,0:0|0:0,0:0:0:0:
222,155,44643,2,0,B|297:172|297:172|311:132,1,120,6|2,0:0|0:0,0:0:0:0:
347,99,45209,1,8,0:0:0:0:
347,99,45398,6,0,P|322:28|278:47,1,120,6|2,0:0|0:0,0:0:0:0:
257,63,45964,1,2,3:0:0:0:
168,27,46341,2,0,P|115:38|13:58,1,120,2|8,3:0|0:0,0:0:0:0:
29,94,46907,1,6,0:0:0:0:
75,178,47285,1,0,0:0:0:0:
75,178,47473,2,0,L|49:262,2,60,0|0|0,3:0|0:0|3:0,0:0:0:0:
119,159,48039,2,0,P|150:166|200:176,1,60,10|10,0:0|0:0,0:0:0:0:
214,203,48417,6,0,B|199:259|199:259|192:263|192:263|173:338,1,120,6|2,3:0|0:0,0:0:0:0:
211,350,48983,1,2,3:0:0:0:
288,293,49360,1,2,3:0:0:0:
288,293,49549,2,0,L|375:280,1,60,2|10,0:0|0:0,0:0:0:0:
378,247,49926,2,0,P|408:199|356:156,1,120,6|2,0:0|0:0,0:0:0:0:
330,131,50492,1,2,3:0:0:0:
330,131,50681,2,0,P|300:83|352:40,1,120,6|2,0:0|0:0,0:0:0:0:
425,6,51436,6,0,P|437:64|451:133,1,120,6|2,0:0|0:0,0:0:0:0:
473,164,52002,2,0,L|453:235,1,60,2|2,3:0|0:0,0:0:0:0:
425,258,52379,2,0,P|451:331|453:340,2,60,2|2|10,3:0|0:0|0:0,0:0:0:0:
380,239,52945,2,0,P|349:229|320:300,1,120,6|0,0:0|0:0,0:0:0:0:
278,324,53511,1,8,3:2:0:0:
189,286,53888,1,0,3:0:0:0:
189,286,54077,2,0,L|173:202,1,60,10|10,0:0|0:0,0:0:0:0:
221,206,54454,6,0,P|234:148|254:81,1,120,6|2,3:0|0:0,0:0:0:0:
182,22,55209,2,0,P|123:36|66:54,1,120,2|2,0:0|0:0,0:0:0:0:
36,91,55775,1,10,0:0:0:0:
36,91,55964,2,0,P|104:124|92:173,1,120,6|2,0:0|0:0,0:0:0:0:
156,236,56719,2,0,P|166:291|221:303,1,120,2|0,0:0|3:0,0:0:0:0:
263,280,57285,1,2,0:0:0:0:
263,280,57473,6,0,B|288:203|288:203|247:161,1,120,6|2,3:0|0:0,0:0:0:0:
226,141,58039,2,0,L|243:72,1,60,10|2,0:0|0:0,0:0:0:0:
274,48,58417,2,0,P|344:38|357:107,1,120,2|10,3:0|0:0,0:0:0:0:
391,112,58983,1,2,0:0:0:0:
391,112,59171,2,0,P|428:104|479:101,2,60,10|10|10,0:0|0:0|0:0,0:0:0:0:
366,153,59737,1,10,0:0:0:0:
429,225,60115,2,0,L|408:296,1,60,10|10,0:0|0:0,0:0:0:0:
381,319,60492,6,0,B|327:335|327:335|326:345|326:345|259:365,1,132.00000402832,6|0,3:0|0:0,0:0:0:0:
213,345,61058,2,0,P|206:311|194:278,1,66.0000020141602,10|0,0:0|0:0,0:0:0:0:
152,250,61436,2,0,P|172:174|228:192,1,132.00000402832,2|10,3:0|0:0,0:0:0:0:
259,196,62002,1,2,0:0:0:0:
337,125,62379,2,0,P|326:94|316:44,1,66.0000020141602,2|10,0:0|0:0,0:0:0:0:
269,41,62756,2,0,P|190:75|197:97,1,132.00000402832,2|10,0:0|0:0,0:0:0:0:
213,144,63322,1,8,0:0:0:0:
213,144,63511,6,0,B|238:216|238:216|216:227|189:248,1,132.00000402832,6|2,3:0|0:0,0:0:0:0:
168,293,64077,2,0,L|87:275,1,66.0000020141602,10|2,0:0|0:0,0:0:0:0:
62,245,64454,2,0,L|-25:263,2,66.0000020141602,2|2|10,3:0|0:0|0:0,0:0:0:0:
101,209,65020,1,2,0:0:0:0:
35,125,65398,1,2,0:0:0:0:
95,38,65775,2,0,B|132:30|169:13|169:13|185:45|203:68,1,132.00000402832,2|2,0:0|0:0,0:0:0:0:
225,103,66341,1,10,0:0:0:0:
225,103,66530,6,0,P|292:111|304:36,1,132.00000402832,6|2,0:0|0:0,0:0:0:0:
355,26,67096,2,0,L|436:47,1,66.0000020141602,10|2,0:0|0:0,0:0:0:0:
469,58,67473,1,2,3:0:0:0:
469,58,67662,2,0,P|472:95|483:146,1,66.0000020141602,2|8,0:0|0:0,0:0:0:0:
431,150,68039,2,0,B|381:176|381:176|423:265,1,132.00000402832,2|2,0:0|0:0,0:0:0:0:
448,284,68605,1,10,0:0:0:0:
348,320,68983,2,0,P|342:353|330:394,2,66.0000020141602,2|2|8,3:0|0:0|0:0,0:0:0:0:
315,278,69549,6,0,P|230:274|227:313,1,132.00000402832,6|2,0:0|0:0,0:0:0:0:
178,325,70115,2,0,P|150:317|93:308,1,66.0000020141602,10|2,0:0|0:0,0:0:0:0:
83,271,70492,1,2,3:0:0:0:
83,271,70681,2,0,P|96:238|107:189,1,66.0000020141602,2|10,0:0|0:0,0:0:0:0:
146,186,71058,2,0,B|179:154|163:112|163:112|111:97,1,132.00000402832,6|10,0:0|0:0,0:0:0:0:
91,50,71624,1,10,0:0:0:0:
91,50,71813,1,10,0:0:0:0:
4,109,72190,2,0,L|27:188,1,66.0000020141602,10|10,0:0|0:0,0:0:0:0:
61,208,72568,6,0,L|34:348,1,132.00000402832,6|0,3:0|0:0,0:0:0:0:
79,367,73134,2,0,P|141:347|144:337,1,66.0000020141602,10|0,0:0|0:0,0:0:0:0:
162,307,73511,2,0,P|155:272|142:216,2,66.0000020141602,2|2|10,3:0|0:0|0:0,0:0:0:0:
212,323,74077,2,0,B|264:315|264:315|288:327|288:327|360:316,1,132.00000402832,2|2,0:0|0:0,0:0:0:0:
371,276,74643,1,10,0:0:0:0:
371,276,74832,1,2,0:0:0:0:
292,205,75209,2,0,L|317:123,1,66.0000020141602,10|10,0:0|0:0,0:0:0:0:
342,98,75587,6,0,P|422:109|408:169,1,132.00000402832,6|2,3:0|0:0,0:0:0:0:
393,187,76153,2,0,P|403:229|413:276,1,66.0000020141602,10|2,0:0|0:0,0:0:0:0:
376,293,76530,1,2,3:0:0:0:
376,293,76719,2,0,P|368:324|359:360,1,66.0000020141602,2|10,0:0|0:0,0:0:0:0:
307,361,77096,1,2,0:0:0:0:
223,297,77473,1,0,0:0:0:0:
133,353,77851,2,0,P|53:324|98:258,1,132.00000402832,2|2,0:0|0:0,0:0:0:0:
80,245,78417,1,10,0:0:0:0:
80,245,78605,6,0,L|48:89,1,132.00000402832,6|2,0:0|0:0,0:0:0:0:
79,69,79171,2,0,P|117:79|166:89,1,66.0000020141602,10|2,0:0|0:0,0:0:0:0:
195,76,79549,2,0,P|199:38|172:15,2,66.0000020141602,2|2|10,3:0|0:0|0:0,0:0:0:0:
218,123,80115,2,0,B|296:103|296:103|312:128|344:163,1,132.00000402832,2|0,0:0|0:0,0:0:0:0:
355,188,80681,1,10,0:0:0:0:
446,135,81058,1,2,3:0:0:0:
446,135,81247,2,0,P|451:97|465:59,1,66.0000020141602,2|10,0:0|0:0,0:0:0:0:
459,17,81624,6,0,P|387:-2|411:81,1,132.00000402832,6|0,0:0|0:0,0:0:0:0:
335,78,82190,2,0,L|255:59,1,66.0000020141602,10|0,0:0|0:0,0:0:0:0:
236,21,82568,1,2,3:0:0:0:
236,21,82756,2,0,L|139:42,1,66.0000020141602,2|10,0:0|0:0,0:0:0:0:
137,75,83134,1,2,0:0:0:0:
43,124,83511,2,0,P|25:106|42:52,2,66.0000020141602,8|8|8,0:0|0:0|0:0,0:0:0:0:
80,160,84077,2,0,P|68:194|56:244,1,66.0000020141602,14|10,0:0|0:0,0:0:0:0:
77,272,84454,1,10,0:0:0:0:
77,272,84643,6,0,P|157:285|222:306,1,107.999996704102,2|2,0:0|0:0,0:0:0:0:
208,257,85209,1,2,0:0:0:0:
285,218,85587,2,0,L|374:196,2,53.9999983520508,2|2|2,0:0|0:0|0:0,0:0:0:0:
253,188,86153,2,0,B|225:162|225:162|272:62,1,107.999996704102,2|2,0:0|0:0,0:0:0:0:
280,66,86719,1,0,0:0:0:0:
355,107,87096,1,2,0:0:0:0:
355,107,87285,2,0,L|442:95,1,53.9999983520508,2|2,0:0|0:0,0:0:0:0:
449,113,87662,6,0,P|481:162|399:195,1,161.999995056153,2|2,0:0|0:0,0:0:0:0:
358,269,88605,2,0,L|282:291,2,53.9999983520508,2|2|2,0:0|0:0|0:0,0:0:0:0:
396,289,89171,1,2,0:0:0:0:
