osu file format v14

[General]
AudioFilename: audio.mp3
AudioLeadIn: 0
PreviewTime: 60020
Countdown: 0
SampleSet: Soft
StackLeniency: 0.7
Mode: 0
LetterboxInBreaks: 0
WidescreenStoryboard: 1

[Editor]
DistanceSpacing: 1
BeatDivisor: 4
GridSize: 4
TimelineZoom: 1

[Metadata]
Title:Hoshi o Tsunagete (TV Size)
TitleUnicode:星をつなげて (TV Size)
Artist:Gothic x Luck
ArtistUnicode:Gothic×Luck
Creator:rosario wknd
Version:Hard
Source:けものフレンズ2
Tags:kemono friends 2 けものフレンズ furenzu kemofure ed ending japanese pop jpop j-pop western parotia カンザシフウチョウ greater lophorina カタカケフウチョウ kan madoka 菅 まどか yagi mashiro 八木 ましろ デビューEP starry story EP animals animal birds
BeatmapID:3523848
BeatmapSetID:1723936

[Difficulty]
HPDrainRate:5
CircleSize:4.5
OverallDifficulty:6
ApproachRate:8
SliderMultiplier:1.5
SliderTickRate:1

[Events]
//Background and Video events
0,0,"birdsofafeather.png",0,0
//Break Periods
//Storyboard Layer 0 (Background)
//Storyboard Layer 1 (Fail)
//Storyboard Layer 2 (Pass)
//Storyboard Layer 3 (Foreground)
//Storyboard Layer 4 (Overlay)
//Storyboard Sound Samples

[TimingPoints]
304,377.358490566038,4,2,1,40,1,0
304,-111.111111111111,4,2,1,40,0,0
2002,-125,4,2,1,40,0,0
3322,-111.111111111111,4,2,1,40,0,0
5775,-111.111111111111,4,2,1,45,0,0
6341,-90.9090909090908,4,2,1,50,0,0
12379,-90.9090909090908,4,2,1,40,0,0
12568,-100,4,2,1,40,0,0
24454,-90.9090909090909,4,2,1,45,0,0
36530,-100,4,2,1,40,0,0
54454,-90.9090909090909,4,2,1,45,0,0
57473,-90.9090909090909,4,2,1,50,0,0
60115,-90.9090909090909,4,2,1,55,0,0
60492,-83.3333333333333,4,2,1,65,0,1
71058,-76.9230769230769,4,2,1,70,0,1
72568,-83.3333333333333,4,2,1,65,0,1
84643,-111.111111111111,4,2,1,40,0,0
88228,-111.111111111111,4,2,1,30,0,0
88605,-125,4,2,1,30,0,0

[Colours]
Combo1 : 128,0,255
Combo2 : 255,255,128
Combo3 : 128,255,255
Combo4 : 17,17,255

[HitObjects]
131,364,304,5,2,3:0:0:0:
83,307,492,2,0,L|35:291,2,33.7499989700318,2|0|2,0:0|0:0|0:0,0:0:0:0:
139,258,870,2,0,P|121:199|112:163,1,67.4999979400635,2|0,0:0|0:0,0:0:0:0:
54,165,1247,1,2,0:0:0:0:
148,50,1624,5,2,0:0:0:0:
148,50,2002,2,0,L|200:62,1,30,2|0,0:0|0:0,0:0:0:0:
212,65,2190,2,0,P|229:119|172:154,1,120,2|0,0:0|0:0,0:0:0:0:
128,197,2756,1,0,0:0:0:0:
128,197,2945,2,0,L|155:312,1,90
160,323,3322,5,2,3:0:0:0:
231,283,3511,1,2,0:0:0:0:
231,283,3605,1,0,0:0:0:0:
231,283,3700,1,2,0:0:0:0:
297,328,3888,2,0,P|362:321|395:319,1,67.4999979400635,2|0,0:0|0:0,0:0:0:0:
432,372,4266,2,0,B|382:348|382:348|424:250,1,134.999995880127,2|2,0:0|0:0,0:0:0:0:
413,274,5020,5,2,0:0:0:0:
478,226,5209,1,2,0:0:0:0:
420,168,5398,2,0,P|384:115|428:86,1,101.249996910095,2|0,0:0|0:0,0:0:0:0:
436,75,5775,2,0,L|496:92,2,33.7499989700318,2|2|2,0:0|0:0|0:0,0:0:0:0:
376,17,6153,1,2,0:0:0:0:
376,17,6247,1,2,0:0:0:0:
376,17,6341,6,0,P|321:28|279:34,1,82.5000025177003,6|0,3:0|0:0,0:0:0:0:
285,114,6719,2,0,P|328:106|366:99,1,82.5000025177003,0|0,3:0|0:0,0:0:0:0:
447,85,7096,1,0,3:0:0:0:
475,175,7285,2,0,P|457:227|448:263,1,82.5000025177003,2|10,0:0|0:0,0:0:0:0:
500,318,7662,6,0,B|469:322|439:333|439:333|397:308|397:308|371:319|345:321,1,165.000005035401,2|0,0:0|0:0,0:0:0:0:
275,364,8228,1,0,3:0:0:0:
215,306,8417,1,0,0:0:0:0:
215,306,8605,2,0,L|233:222,1,82.5000025177003,0|0,3:0|0:0,0:0:0:0:
263,197,8888,1,2,0:0:0:0:
263,197,8983,2,0,L|252:142,2,41.2500012588501,10|2|2,0:0|0:0|0:0,0:0:0:0:
339,255,9360,6,0,P|394:246|407:216,1,82.5000025177003,2|0,3:0|0:0,0:0:0:0:
461,165,9737,2,0,P|425:121|393:125,1,82.5000025177003,0|0,3:0|0:0,0:0:0:0:
340,177,10115,1,0,3:0:0:0:
265,104,10304,1,2,0:0:0:0:
320,42,10492,1,10,0:0:0:0:
265,104,10681,6,0,B|172:79|172:79|164:113|132:146,1,165.000005035401,2|2,0:0|0:0,0:0:0:0:
201,192,11247,2,0,L|221:294,1,82.5000025177003,2|14,3:0|0:0,0:0:0:0:
153,326,11624,1,2,3:0:0:0:
80,285,11813,1,2,3:0:0:0:
80,285,11907,1,0,3:0:0:0:
80,285,12002,1,10,0:0:0:0:
128,218,12190,1,2,3:0:0:0:
60,127,12379,5,6,3:0:0:0:
60,127,12568,2,0,L|40:39,2,75,2|2|2,0:0|3:0|0:0,0:0:0:0:
124,166,13134,1,2,3:0:0:0:
124,166,13322,2,0,P|121:213|70:222,1,75,2|2,0:0|3:0,0:0:0:0:
50,307,13700,6,0,P|111:299|149:296,1,75,2|0,0:0|3:0,0:0:0:0:
187,338,14077,2,0,P|224:332|261:328,1,75,2|0,0:0|3:0,0:0:0:0:
326,364,14454,2,0,B|338:346|372:330|372:330|319:227,1,150,2|2,0:0|0:0,0:0:0:0:
275,194,15020,2,0,L|304:93,1,75,2|0,3:0|0:0,0:0:0:0:
315,121,15304,1,0,0:0:0:0:
315,121,15398,5,0,3:0:0:0:
390,56,15587,1,2,0:0:0:0:
325,20,15775,2,0,L|250:31,1,75,2|2,3:0|0:0,0:0:0:0:
194,81,16153,1,2,3:0:0:0:
194,81,16341,1,2,0:0:0:0:
245,135,16530,1,2,3:0:0:0:
208,219,16719,6,0,B|198:236|198:236|214:299,1,75,2|0,0:0|3:0,0:0:0:0:
287,283,17096,2,0,B|297:266|297:266|281:203,1,75,2|0,0:0|3:0,0:0:0:0:
364,167,17473,2,0,B|416:183|416:183|418:188|418:188|502:211,1,112.5,2|0,0:0|0:0,0:0:0:0:
468,201,17851,1,2,0:0:0:0:
429,264,18039,2,0,L|451:349,1,75,10|0,3:2|0:0,0:0:0:0:
426,360,18322,1,0,0:0:0:0:
426,360,18417,5,4,3:0:0:0:
354,338,18605,1,2,0:0:0:0:
354,338,18794,2,0,L|264:352,1,75,2|2,3:0|0:0,0:0:0:0:
208,326,19171,2,0,P|176:294|195:251,1,75,2|2,3:0|0:0,0:0:0:0:
231,212,19549,1,2,3:0:0:0:
175,161,19737,1,2,0:0:0:0:
118,210,19926,5,2,3:0:0:0:
118,210,20115,2,0,P|77:215|13:227,1,75,2|0,0:0|3:0,0:0:0:0:
60,300,20492,2,0,B|107:291|135:303|125:380|204:346,1,150,2|2,0:0|0:0,0:0:0:0:
245,306,21058,1,2,3:0:0:0:
245,306,21247,1,2,0:0:0:0:
307,369,21436,6,0,B|346:374|357:330|357:330|311:241,1,150,2|2,3:0|3:0,0:0:0:0:
260,214,22002,2,0,L|418:244,1,150,2|2,0:0|0:0,0:0:0:0:
467,197,22568,1,2,3:0:0:0:
379,146,22756,6,0,P|369:95|447:113,1,150,2|2,0:0|0:0,0:0:0:0:
443,98,23228,1,2,0:0:0:0:
443,98,23322,1,10,3:2:0:0:
474,172,23511,2,0,P|496:168|524:163,2,37.5,2|2|2,0:0|0:0|3:0,0:0:0:0:
425,229,23888,1,2,3:0:0:0:
425,229,23983,1,0,3:0:0:0:
425,229,24077,1,10,3:2:0:0:
360,191,24266,1,2,3:0:0:0:
276,246,24454,5,6,3:0:0:0:
276,246,24643,2,0,L|309:341,1,82.5000025177003,2|8,0:0|0:0,0:0:0:0:
249,375,25020,1,2,0:0:0:0:
190,328,25209,1,2,3:0:0:0:
126,366,25398,2,0,P|73:342|79:307,1,82.5000025177003,2|10,0:0|0:0,0:0:0:0:
105,258,25775,6,0,P|80:180|73:161,1,82.5000025177003,2|0,0:0|3:0,0:0:0:0:
151,158,26153,2,0,P|176:80|183:61,1,82.5000025177003,2|8,0:0|0:0,0:0:0:0:
128,22,26530,2,0,P|52:18|60:99,1,165.000005035401,2|2,0:0|0:0,0:0:0:0:
78,113,27002,1,2,0:0:0:0:
78,113,27096,2,0,P|104:107|152:100,2,41.2500012588501,10|2|2,0:0|0:0|0:0,0:0:0:0:
59,145,27379,1,2,0:0:0:0:
59,145,27473,1,2,3:0:0:0:
131,204,27662,5,2,0:0:0:0:
131,204,27851,2,0,P|116:255|106:292,1,82.5000025177003,10|2,0:0|0:0,0:0:0:0:
133,353,28228,1,2,3:0:0:0:
203,329,28417,2,0,P|246:336|309:350,1,82.5000025177003,2|10,0:0|0:0,0:0:0:0:
311,244,28794,6,0,P|352:278|341:314,1,82.5000025177003,2|0,0:0|3:0,0:0:0:0:
413,380,29171,2,0,P|421:327|458:319,1,82.5000025177003,2|10,0:0|0:0,0:0:0:0:
489,264,29549,1,2,0:0:0:0:
437,212,29737,1,2,3:0:0:0:
483,153,29926,1,2,0:0:0:0:
437,212,30115,2,0,P|395:201|342:192,1,82.5000025177003,10|2,0:0|0:0,0:0:0:0:
343,176,30398,1,0,0:0:0:0:
343,176,30492,1,4,3:0:0:0:
404,110,30681,6,0,P|407:52|373:33,1,82.5000025177003,2|8,0:0|0:0,0:0:0:0:
324,68,31058,1,2,0:0:0:0:
253,44,31247,2,0,P|214:51|142:60,2,82.5000025177003,2|2|10,3:0|0:0|0:0,0:0:0:0:
324,68,31813,6,0,B|340:125|340:125|307:161,1,82.5000025177003,2|0,0:0|3:0,0:0:0:0:
260,180,32190,2,0,B|244:197|244:197|260:254,1,82.5000025177003,2|8,0:0|0:0,0:0:0:0:
304,314,32568,2,0,B|333:277|333:277|216:297,1,165.000005035401,2|2,0:0|0:0,0:0:0:0:
186,317,33039,1,2,0:0:0:0:
186,317,33134,2,0,L|201:376,2,41.2500012588501,10|2|2,0:0|0:0|0:0,0:0:0:0:
157,293,33417,1,2,0:0:0:0:
157,293,33511,6,0,B|160:267|163:241|163:241|202:207|202:207|206:169|220:123,1,165.000005035401,2|10,3:0|0:0,0:0:0:0:
285,125,34077,2,0,P|297:44|227:46,1,165.000005035401,2|2,0:0|0:0,0:0:0:0:
175,86,34643,1,10,0:0:0:0:
88,21,34832,6,0,B|45:49|45:49|83:136,1,123.75000377655,6|0,0:0|0:0,0:0:0:0:
90,128,35209,1,2,0:0:0:0:
42,185,35398,2,0,P|32:229|13:291,1,82.5000025177003,10|6,0:0|0:0,0:0:0:0:
75,316,35775,2,0,P|118:302|166:291,1,82.5000025177003,2|2,3:0|0:0,0:0:0:0:
208,344,36153,1,10,0:0:0:0:
295,322,36341,1,10,0:0:0:0:
295,322,36436,1,8,0:0:0:0:
295,322,36530,1,4,3:0:0:0:
254,258,36719,6,0,P|270:199|282:161,2,75,2|2|2,0:0|3:0|0:0,0:0:0:0:
295,322,37285,2,0,P|332:298|370:314,1,75,2|2,3:0|0:0,0:0:0:0:
419,259,37662,1,10,0:0:0:0:
419,259,37851,6,0,B|461:260|461:211|461:211|419:126,1,150,6|2,0:0|0:0,0:0:0:0:
393,75,38417,1,2,3:0:0:0:
393,75,38605,2,0,P|443:66|430:152,1,150,6|2,0:0|0:0,0:0:0:0:
389,189,39171,1,10,0:0:0:0:
307,155,39360,6,0,B|220:168|220:168|221:206|200:239,1,150,6|2,0:0|0:0,0:0:0:0:
258,281,39926,2,0,P|263:330|224:344,1,75,2|2,3:0|0:0,0:0:0:0:
181,381,40304,2,0,P|125:365|96:361,2,75,2|2|10,3:0|0:0|0:0,0:0:0:0:
139,290,40870,6,0,B|136:266|132:238|132:238|93:204|93:204|89:166|77:133,1,150,6|0,0:0|0:0,0:0:0:0:
20,120,41436,1,10,0:0:0:0:
74,40,41624,2,0,P|138:44|142:101,1,112.5,2|0,0:0|0:0,0:0:0:0:
180,103,42002,2,0,P|203:99|241:95,2,37.5,2|0|2,3:0|3:0|0:0,0:0:0:0:
144,178,42379,6,0,B|248:162|248:162|233:175|212:209,1,150,6|2,0:0|0:0,0:0:0:0:
194,267,42945,2,0,P|208:322|214:349,1,75,2|2,3:0|0:0,0:0:0:0:
282,366,43322,1,2,3:0:0:0:
282,366,43511,1,2,0:0:0:0:
333,311,43700,1,10,0:0:0:0:
275,242,43888,6,0,P|258:188|331:150,1,150,6|2,0:0|0:0,0:0:0:0:
403,139,44454,1,2,3:0:0:0:
403,139,44643,2,0,B|358:150|329:138|340:63|259:93,1,150,6|2,0:0|0:0,0:0:0:0:
221,34,45209,1,8,0:0:0:0:
155,94,45398,6,0,B|120:178|120:178|151:191|179:211,1,150,6|2,0:0|0:0,0:0:0:0:
244,226,45964,2,0,L|263:313,1,75,2|2,3:0|0:0,0:0:0:0:
206,373,46341,2,0,P|160:309|105:336,1,150,2|8,3:0|0:0,0:0:0:0:
71,346,46813,1,0,0:0:0:0:
71,346,46907,6,0,P|16:324|63:253,1,150,6|0,0:0|0:0,0:0:0:0:
84,191,47473,2,0,L|-9:168,2,75,0|0|0,3:0|0:0|3:0,0:0:0:0:
144,146,48039,1,10,0:0:0:0:
100,84,48228,1,10,0:0:0:0:
187,30,48417,6,0,B|235:12|273:44|273:44|268:82|286:110,1,150,6|2,3:0|0:0,0:0:0:0:
333,154,48983,2,0,P|399:145|439:141,1,75,2|2,3:0|0:0,0:0:0:0:
453,84,49360,1,2,3:0:0:0:
453,84,49549,2,0,P|453:40|409:22,1,75,2|10,0:0|0:0,0:0:0:0:
373,90,49926,6,0,L|402:243,1,150,6|2,0:0|0:0,0:0:0:0:
456,288,50492,1,2,3:0:0:0:
456,288,50681,2,0,B|465:269|487:251|487:251|355:272,1,150,6|2,0:0|0:0,0:0:0:0:
321,227,51247,1,8,0:0:0:0:
249,282,51436,6,0,P|176:268|193:195,1,150,6|2,0:0|0:0,0:0:0:0:
237,156,52002,2,0,P|225:100|218:69,1,75,2|2,3:0|0:0,0:0:0:0:
277,33,52379,2,0,P|318:47|359:57,2,75,2|2|10,3:0|0:0|0:0,0:0:0:0:
220,100,52945,6,0,B|167:111|167:111|144:148|144:148|64:165,1,150,6|0,0:0|0:0,0:0:0:0:
20,183,53511,2,0,B|8:199|8:199|22:255,1,75,8|0,3:2|0:0,0:0:0:0:
49,322,53888,2,0,B|102:308|102:308|118:320,1,75,0|10,3:0|0:0,0:0:0:0:
137,338,54171,1,8,0:0:0:0:
137,338,54266,1,10,0:0:0:0:
224,364,54454,6,0,P|300:337|244:291,1,165.000005035401,6|2,3:0|0:0,0:0:0:0:
201,252,55020,1,10,0:0:0:0:
201,252,55209,2,0,P|125:225|181:179,1,165.000005035401,2|2,0:0|0:0,0:0:0:0:
231,158,55775,1,10,0:0:0:0:
304,216,55964,6,0,B|366:204|366:204|388:174|388:174|461:160,1,165.000005035401,6|2,0:0|0:0,0:0:0:0:
493,100,56530,1,10,0:0:0:0:
493,100,56719,2,0,L|471:7,1,82.5000025177003,2|0,0:0|3:0,0:0:0:0:
403,42,57096,2,0,P|379:34|351:26,2,41.2500012588501,0|0|2,3:0|0:0|0:0,0:0:0:0:
423,131,57473,6,0,B|385:129|344:160|344:160|294:144|316:79,1,165.000005035401,6|2,3:0|0:0,0:0:0:0:
244,63,58039,2,0,P|207:69|148:80,1,82.5000025177003,10|2,0:0|0:0,0:0:0:0:
106,126,58417,2,0,P|65:118|24:111,2,82.5000025177003,2|2|10,3:0|0:0|0:0,0:0:0:0:
144,189,58983,1,2,0:0:0:0:
206,133,59171,5,10,0:0:0:0:
253,190,59360,1,10,0:0:0:0:
206,247,59549,1,10,0:0:0:0:
253,304,59738,1,10,0:0:0:0:
253,304,60115,1,10,0:0:0:0:
279,293,60209,1,8,0:0:0:0:
307,298,60304,1,10,0:0:0:0:
330,314,60398,1,8,0:0:0:0:
346,340,60492,6,0,B|401:366|438:349|436:231|537:326,1,179.999994506836,6|0,3:0|0:0,0:0:0:0:
477,209,61058,2,0,P|443:174|479:124,1,89.9999972534181,10|0,0:0|0:0,0:0:0:0:
446,57,61436,2,0,L|348:80,1,89.9999972534181,2|0,3:0|0:0,0:0:0:0:
307,140,61813,1,10,0:0:0:0:
253,78,62002,6,0,P|211:61|190:146,1,134.999995880127,2|0,0:0|0:0,0:0:0:0:
191,141,62379,1,2,0:0:0:0:
243,202,62568,1,10,0:0:0:0:
180,253,62756,2,0,P|205:319|213:353,1,89.9999972534181,2|0,0:0|3:0,0:0:0:0:
282,375,63134,1,10,0:0:0:0:
344,293,63322,1,8,0:0:0:0:
344,293,63417,1,0,0:0:0:0:
344,293,63511,6,0,B|333:276|307:280|307:280|211:303|211:303|176:311|160:279,1,179.999994506836,6|2,3:0|0:0,0:0:0:0:
109,246,64077,1,10,0:0:0:0:
171,194,64266,1,2,0:0:0:0:
109,246,64454,2,0,P|60:238|67:171,2,89.9999972534181,2|2|10,3:0|0:0|0:0,0:0:0:0:
102,155,65020,6,0,P|112:98|121:42,1,89.9999972534181,2|0,0:0|3:0,0:0:0:0:
192,113,65398,2,0,P|201:59|211:0,1,89.9999972534181,2|8,0:0|0:0,0:0:0:0:
293,18,65775,2,0,B|295:44|316:72|316:72|190:39,1,179.999994506836,2|2,0:0|0:0,0:0:0:0:
108,24,66341,1,10,0:0:0:0:
108,24,66436,1,0,0:0:0:0:
108,24,66530,6,0,P|48:26|63:110,1,134.999995880127,6|0,0:0|0:0,0:0:0:0:
48,106,66907,1,2,0:0:0:0:
108,159,67096,1,10,0:0:0:0:
108,159,67285,1,2,0:0:0:0:
53,218,67473,2,0,P|70:262|81:311,2,89.9999972534181,2|2|8,3:0|0:0|0:0,0:0:0:0:
108,159,68039,6,0,B|157:152|157:152|189:172|189:172|277:159,1,134.999995880127,2|0,0:0|0:0,0:0:0:0:
255,146,68417,1,2,0:0:0:0:
316,93,68605,2,0,P|383:106|390:128,1,89.9999972534181,10|2,0:0|0:0,0:0:0:0:
341,185,68983,1,2,3:0:0:0:
341,185,69171,2,0,L|360:283,1,89.9999972534181,2|8,0:0|0:0,0:0:0:0:
428,351,69549,6,0,B|447:297|397:281|397:281|282:299,1,179.999994506836,6|2,0:0|0:0,0:0:0:0:
247,351,70115,1,10,0:0:0:0:
181,302,70304,2,0,P|154:295|126:289,2,44.999998626709,2|0|2,0:0|0:0|3:0,0:0:0:0:
233,240,70681,2,0,B|252:221|252:221|224:146,1,89.9999972534181,2|10,0:0|0:0,0:0:0:0:
139,110,71058,6,0,P|132:38|195:64,1,146.249993305207,6|0,0:0|0:0,0:0:0:0:
197,52,71436,1,10,0:0:0:0:
271,6,71624,1,10,0:0:0:0:
271,6,71813,1,10,0:0:0:0:
321,77,72002,1,8,0:0:0:0:
249,126,72190,1,10,0:0:0:0:
228,153,72285,1,8,0:0:0:0:
226,186,72379,1,10,0:0:0:0:
246,213,72473,1,8,0:0:0:0:
274,227,72568,6,0,B|298:219|329:205|329:205|383:233|383:233|407:221|454:215,1,179.999994506836,6|0,3:0|0:0,0:0:0:0:
472,291,73134,2,0,P|422:314|430:372,1,89.9999972534181,10|0,0:0|0:0,0:0:0:0:
342,378,73511,1,2,3:0:0:0:
278,327,73700,2,0,P|235:319|162:303,1,89.9999972534181,2|10,0:0|0:0,0:0:0:0:
124,357,74077,6,0,B|171:322|171:322|121:229,1,134.999995880127,2|0,0:0|0:0,0:0:0:0:
126,237,74454,1,2,0:0:0:0:
170,169,74643,1,10,0:0:0:0:
236,216,74832,2,0,P|283:208|298:162,1,89.9999972534181,2|0,0:0|3:0,0:0:0:0:
252,106,75209,1,10,0:0:0:0:
311,31,75398,1,10,0:0:0:0:
311,31,75492,1,0,0:0:0:0:
311,31,75587,6,0,B|366:5|403:22|401:140|502:45,1,179.999994506836,6|2,3:0|0:0,0:0:0:0:
494,147,76153,2,0,P|477:200|464:241,1,89.9999972534181,10|2,0:0|0:0,0:0:0:0:
394,269,76530,1,2,3:0:0:0:
435,338,76719,1,2,0:0:0:0:
394,269,76907,1,10,0:0:0:0:
308,322,77096,6,0,P|252:300|253:262,1,89.9999972534181,2|0,0:0|3:0,0:0:0:0:
188,222,77473,2,0,P|227:176|263:190,1,89.9999972534181,2|8,0:0|0:0,0:0:0:0:
280,108,77851,2,0,P|288:183|382:166,1,179.999994506836,2|2,0:0|0:0,0:0:0:0:
430,118,78417,1,10,0:0:0:0:
344,62,78605,6,0,P|288:70|191:83,1,134.999995880127,6|0,0:0|0:0,0:0:0:0:
192,61,78983,1,2,0:0:0:0:
116,31,79171,2,0,P|62:41|62:79,1,89.9999972534181,10|2,0:0|0:0,0:0:0:0:
110,130,79549,2,0,P|97:183|88:220,2,89.9999972534181,2|2|10,3:0|0:0|0:0,0:0:0:0:
182,188,80115,6,0,B|222:163|270:175|270:175|306:122|248:79,1,179.999994506836,2|0,0:0|0:0,0:0:0:0:
328,43,80681,2,0,P|379:54|372:107,1,89.9999972534181,10|2,0:0|0:0,0:0:0:0:
434,149,81058,1,2,3:0:0:0:
355,171,81247,2,0,L|329:278,1,89.9999972534181,2|10,0:0|0:0,0:0:0:0:
429,308,81624,6,0,B|316:334|316:334|358:330|375:380,1,179.999994506836,6|0,0:0|0:0,0:0:0:0:
448,349,82190,2,0,P|459:302|479:234,1,89.9999972534181,10|0,0:0|0:0,0:0:0:0:
413,203,82568,1,2,3:0:0:0:
413,203,82756,1,2,0:0:0:0:
348,251,82945,1,10,0:0:0:0:
270,202,83134,6,0,P|199:194|196:259,1,134.999995880127,2|0,0:0|0:0,0:0:0:0:
187,258,83511,1,8,0:0:0:0:
184,339,83700,1,8,0:0:0:0:
106,361,83888,1,8,0:0:0:0:
61,293,84077,1,14,0:0:0:0:
112,229,84266,1,10,0:0:0:0:
125,205,84360,1,8,0:0:0:0:
123,178,84454,1,10,0:0:0:0:
106,156,84549,1,8,0:0:0:0:
81,146,84643,6,0,P|30:142|25:63,1,134.999995880127,2|2,0:0|0:0,0:0:0:0:
74,21,85209,2,0,L|162:39,1,67.4999979400635,2|2,0:0|0:0,0:0:0:0:
198,80,85587,2,0,L|287:68,2,67.4999979400635,2|2|2,0:0|0:0|0:0,0:0:0:0:
145,154,86153,6,0,B|129:206|129:206|139:234|139:234|118:300,1,134.999995880127,2|2,0:0|0:0,0:0:0:0:
174,337,86719,2,0,P|207:343|239:301,1,67.4999979400635,2|2,0:0|0:0,0:0:0:0:
284,270,87096,1,2,0:0:0:0:
284,270,87285,2,0,P|332:281|372:291,1,67.4999979400635,2|2,0:0|0:0,0:0:0:0:
388,353,87662,6,0,L|357:210,1,134.999995880127,2|0,0:0|0:0,0:0:0:0:
410,167,88228,1,2,0:0:0:0:
410,167,88605,2,0,L|475:180,2,60,2|2|2,0:0|0:0|0:0,0:0:0:0:
337,150,89171,1,2,0:0:0:0:
