osu file format v14

[General]
AudioFilename: audio.mp3
AudioLeadIn: 0
PreviewTime: 48686
Countdown: 0
SampleSet: Normal
StackLeniency: 0.7
Mode: 1
LetterboxInBreaks: 0
WidescreenStoryboard: 1

[Editor]
DistanceSpacing: 1.2
BeatDivisor: 4
GridSize: 32
TimelineZoom: 1

[Metadata]
Title:Fansa (Cut Ver.)
TitleUnicode:팬서비스 (Cut Ver.)
Artist:Gosegu
ArtistUnicode:고세구
Creator:arien666
Version:Muzukashii
Source:
Tags:korean pop kpop k-pop fan service ファンサ HoneyWorks 成海萌奈 Narumi Mona 夏川椎菜 Natsukawa Shiina fanservice virtual youtuber vtuber cover confession executive committee なつかわ しいな 好きすぎてやばい。〜告白実行委員会キャラクターソング集〜 sukisugite yabai Kokuhaku Jikko IinKai character song collection ハニーワークス ~アイドルシリーズ~ idol series short version 이세계아이돌 ISEGYE IDOL marksman666
BeatmapID:4491067
BeatmapSetID:2132914

[Difficulty]
HPDrainRate:7
CircleSize:5
OverallDifficulty:5
ApproachRate:9
SliderMultiplier:1.4
SliderTickRate:1

[Events]
//Background and Video events
0,0,"potatosnightmare.jpg",0,0
Video,-20,"potatosnightmare.mp4"
//Break Periods
//Storyboard Layer 0 (Background)
//Storyboard Layer 1 (Fail)
//Storyboard Layer 2 (Pass)
//Storyboard Layer 3 (Foreground)
//Storyboard Layer 4 (Overlay)
//Storyboard Sound Samples

[TimingPoints]
852,394.736842105263,4,1,0,50,1,0
16641,340.909090909091,4,1,0,70,1,0
38459,-100,4,1,0,60,0,0
49368,-100,4,1,0,80,0,1
51328,-100,4,1,0,100,0,1
51839,-100,4,1,0,80,0,1
54055,-100,4,1,0,100,0,1
54567,-100,4,1,0,80,0,1
62317,-100,4,1,0,100,0,1
62748,-100,4,1,0,80,0,1
65045,-100,4,1,0,100,0,1
65476,-100,4,1,0,80,0,1
71186,-100,4,1,0,80,0,0
72550,-100,4,1,0,60,0,0

[HitObjects]
256,192,852,5,8,0:0:0:0:
256,192,1246,1,0,0:0:0:0:
256,192,1444,1,0,0:0:0:0:
256,192,1641,1,8,0:0:0:0:
256,192,2036,1,8,0:0:0:0:
256,192,2430,1,0,0:0:0:0:
256,192,3220,1,8,0:0:0:0:
256,192,3615,1,0,0:0:0:0:
256,192,4009,1,8,0:0:0:0:
256,192,4404,1,0,0:0:0:0:
256,192,4601,1,0,0:0:0:0:
256,192,4799,1,8,0:0:0:0:
256,192,5194,1,8,0:0:0:0:
256,192,5588,1,0,0:0:0:0:
256,192,6378,1,8,0:0:0:0:
256,192,6773,1,8,0:0:0:0:
256,192,7167,1,0,0:0:0:0:
256,192,7562,1,8,0:0:0:0:
256,192,8351,1,8,0:0:0:0:
256,192,8746,1,0,0:0:0:0:
256,192,9141,1,8,0:0:0:0:
256,192,9338,1,8,0:0:0:0:
256,192,9536,1,0,0:0:0:0:
256,192,10325,1,0,0:0:0:0:
256,192,10720,1,8,0:0:0:0:
256,192,11115,1,0,0:0:0:0:
256,192,11312,1,0,0:0:0:0:
256,192,11509,1,8,0:0:0:0:
256,192,11904,1,8,0:0:0:0:
256,192,12101,1,8,0:0:0:0:
256,192,12299,1,0,0:0:0:0:
256,192,12694,1,8,0:0:0:0:
256,192,13088,1,0,0:0:0:0:
256,192,13483,1,0,0:0:0:0:
256,192,14273,1,0,0:0:0:0:
256,192,14470,1,0,0:0:0:0:
256,192,14667,1,8,0:0:0:0:
256,192,14865,1,8,0:0:0:0:
256,192,15062,8,0,16246,0:0:0:0:
256,192,16641,5,4,0:0:0:0:
256,192,16981,1,8,0:0:0:0:
256,192,17322,1,8,0:0:0:0:
256,192,17493,1,0,0:0:0:0:
256,192,17663,1,8,0:0:0:0:
256,192,18004,1,0,0:0:0:0:
256,192,18345,1,8,0:0:0:0:
256,192,18686,1,0,0:0:0:0:
256,192,18856,1,0,0:0:0:0:
256,192,19027,1,8,0:0:0:0:
256,192,19368,1,0,0:0:0:0:
256,192,19709,1,8,0:0:0:0:
256,192,20050,1,8,0:0:0:0:
256,192,20220,1,0,0:0:0:0:
256,192,20391,1,8,0:0:0:0:
256,192,20731,1,0,0:0:0:0:
256,192,21072,1,8,0:0:0:0:
256,192,21413,1,8,0:0:0:0:
256,192,21584,1,8,0:0:0:0:
256,192,21754,1,0,0:0:0:0:
256,192,21925,1,0,0:0:0:0:
256,192,22095,1,8,0:0:0:0:
256,192,22436,1,0,0:0:0:0:
256,192,22777,1,8,0:0:0:0:
256,192,22947,1,8,0:0:0:0:
256,192,23118,1,0,0:0:0:0:
256,192,23459,1,8,0:0:0:0:
256,192,23800,1,0,0:0:0:0:
256,192,24141,1,0,0:0:0:0:
256,192,24311,1,0,0:0:0:0:
256,192,24481,1,8,0:0:0:0:
256,192,24822,1,0,0:0:0:0:
256,192,25163,1,8,0:0:0:0:
256,192,25504,1,0,0:0:0:0:
256,192,25675,1,0,0:0:0:0:
256,192,25845,1,8,0:0:0:0:
256,192,26186,1,0,0:0:0:0:
256,192,26527,1,8,0:0:0:0:
256,192,26697,1,0,0:0:0:0:
256,192,26868,1,8,0:0:0:0:
256,192,26953,1,8,0:0:0:0:
256,192,27038,1,8,0:0:0:0:
256,192,27209,1,8,0:0:0:0:
256,192,27550,1,4,0:0:0:0:
256,192,27891,1,8,0:0:0:0:
256,192,28061,1,0,0:0:0:0:
256,192,28231,1,0,0:0:0:0:
256,192,28402,1,0,0:0:0:0:
256,192,28572,1,8,0:0:0:0:
256,192,28913,1,0,0:0:0:0:
256,192,29254,1,8,0:0:0:0:
256,192,29425,1,0,0:0:0:0:
256,192,29595,1,0,0:0:0:0:
256,192,29680,1,0,0:0:0:0:
256,192,29766,1,0,0:0:0:0:
256,192,29936,1,8,0:0:0:0:
256,192,30277,1,0,0:0:0:0:
256,192,30618,1,8,0:0:0:0:
256,192,30788,1,0,0:0:0:0:
256,192,30959,1,0,0:0:0:0:
256,192,31129,1,0,0:0:0:0:
256,192,31300,1,8,0:0:0:0:
256,192,31641,1,0,0:0:0:0:
256,192,31981,1,8,0:0:0:0:
256,192,32322,1,0,0:0:0:0:
256,192,32408,1,0,0:0:0:0:
256,192,32493,1,0,0:0:0:0:
256,192,32663,1,8,0:0:0:0:
256,192,32834,1,8,0:0:0:0:
256,192,33004,1,0,0:0:0:0:
256,192,33345,1,8,0:0:0:0:
256,192,33516,1,8,0:0:0:0:
256,192,33686,1,0,0:0:0:0:
256,192,33856,1,0,0:0:0:0:
256,192,34027,1,8,0:0:0:0:
256,192,34368,1,0,0:0:0:0:
256,192,34709,1,8,0:0:0:0:
256,192,34879,1,0,0:0:0:0:
256,192,35050,1,0,0:0:0:0:
256,192,35135,1,0,0:0:0:0:
256,192,35220,1,0,0:0:0:0:
256,192,35391,1,8,0:0:0:0:
256,192,35731,1,0,0:0:0:0:
256,192,36072,1,8,0:0:0:0:
256,192,36243,1,8,0:0:0:0:
256,192,36413,1,0,0:0:0:0:
256,192,36584,1,0,0:0:0:0:
256,192,36754,1,8,0:0:0:0:
256,192,37095,1,0,0:0:0:0:
256,192,37351,1,8,0:0:0:0:
256,192,37436,1,8,0:0:0:0:
256,192,37606,1,0,0:0:0:0:
256,192,37777,1,0,0:0:0:0:
256,192,38033,1,8,0:0:0:0:
256,192,38118,1,8,0:0:0:0:
256,192,38459,1,4,0:0:0:0:
256,192,38970,1,0,0:0:0:0:
256,192,39141,1,8,0:0:0:0:
256,192,39481,1,0,0:0:0:0:
256,192,39822,1,0,0:0:0:0:
256,192,40163,1,8,0:0:0:0:
256,192,40334,1,0,0:0:0:0:
256,192,40675,1,0,0:0:0:0:
256,192,40845,1,8,0:0:0:0:
256,192,41186,1,0,0:0:0:0:
256,192,41697,1,0,0:0:0:0:
256,192,41868,1,8,0:0:0:0:
256,192,42209,1,8,0:0:0:0:
256,192,42550,1,0,0:0:0:0:
256,192,42891,1,8,0:0:0:0:
256,192,43061,1,0,0:0:0:0:
256,192,43572,1,0,0:0:0:0:
256,192,43913,1,8,0:0:0:0:
256,192,44254,1,8,0:0:0:0:
256,192,44425,1,0,0:0:0:0:
256,192,44595,1,0,0:0:0:0:
256,192,44936,1,0,0:0:0:0:
256,192,45277,1,8,0:0:0:0:
256,192,45618,1,8,0:0:0:0:
256,192,45788,1,8,0:0:0:0:
256,192,45959,1,0,0:0:0:0:
256,192,46300,1,8,0:0:0:0:
256,192,46641,1,0,0:0:0:0:
256,192,46981,1,0,0:0:0:0:
256,192,47322,1,8,0:0:0:0:
256,192,47663,1,8,0:0:0:0:
256,192,48004,1,0,0:0:0:0:
256,192,48686,1,0,0:0:0:0:
256,192,48942,1,8,0:0:0:0:
256,192,49027,1,8,0:0:0:0:
256,192,49368,1,4,0:0:0:0:
256,192,49709,1,8,0:0:0:0:
256,192,49879,1,0,0:0:0:0:
256,192,50050,1,0,0:0:0:0:
256,192,50135,1,0,0:0:0:0:
256,192,50220,1,0,0:0:0:0:
256,192,50391,1,8,0:0:0:0:
256,192,50561,1,8,0:0:0:0:
256,192,50731,1,0,0:0:0:0:
256,192,51072,1,8,0:0:0:0:
256,192,51243,1,0,0:0:0:0:
256,192,51413,1,12,0:0:0:0:
256,192,51754,1,12,0:0:0:0:
256,192,52095,1,0,0:0:0:0:
256,192,52436,1,8,0:0:0:0:
256,192,52606,1,0,0:0:0:0:
256,192,52777,1,0,0:0:0:0:
256,192,52862,1,0,0:0:0:0:
256,192,52947,1,0,0:0:0:0:
256,192,53118,1,8,0:0:0:0:
256,192,53288,1,0,0:0:0:0:
256,192,53459,1,0,0:0:0:0:
256,192,53800,1,0,0:0:0:0:
256,192,53970,1,0,0:0:0:0:
256,192,54141,1,12,0:0:0:0:
256,192,54481,1,12,0:0:0:0:
256,192,54822,1,0,0:0:0:0:
256,192,55163,1,8,0:0:0:0:
256,192,55504,1,8,0:0:0:0:
256,192,55675,1,0,0:0:0:0:
256,192,55845,1,8,0:0:0:0:
256,192,56186,1,0,0:0:0:0:
256,192,56527,1,8,0:0:0:0:
256,192,56697,1,8,0:0:0:0:
256,192,56868,1,0,0:0:0:0:
256,192,57209,1,0,0:0:0:0:
256,192,57550,1,0,0:0:0:0:
256,192,57720,1,0,0:0:0:0:
256,192,57891,1,8,0:0:0:0:
256,192,58061,1,0,0:0:0:0:
256,192,58146,1,0,0:0:0:0:
256,192,58231,1,0,0:0:0:0:
256,192,58402,1,0,0:0:0:0:
256,192,58572,1,8,0:0:0:0:
256,192,58913,1,8,0:0:0:0:
256,192,59084,1,8,0:0:0:0:
256,192,59254,1,0,0:0:0:0:
256,192,59339,1,0,0:0:0:0:
256,192,59425,1,0,0:0:0:0:
256,192,59595,1,8,0:0:0:0:
256,192,59680,1,8,0:0:0:0:
256,192,59766,1,8,0:0:0:0:
256,192,59936,1,0,0:0:0:0:
256,192,60277,1,4,0:0:0:0:
256,192,60618,1,8,0:0:0:0:
256,192,60788,1,8,0:0:0:0:
256,192,60959,1,0,0:0:0:0:
256,192,61044,1,0,0:0:0:0:
256,192,61129,1,0,0:0:0:0:
256,192,61300,1,8,0:0:0:0:
256,192,61470,1,8,0:0:0:0:
256,192,61641,1,0,0:0:0:0:
256,192,61981,1,8,0:0:0:0:
256,192,62152,1,0,0:0:0:0:
256,192,62322,1,12,0:0:0:0:
256,192,62663,1,12,0:0:0:0:
256,192,63004,1,0,0:0:0:0:
256,192,63345,1,8,0:0:0:0:
256,192,63516,1,0,0:0:0:0:
256,192,63686,1,0,0:0:0:0:
256,192,63771,1,0,0:0:0:0:
256,192,63856,1,0,0:0:0:0:
256,192,64027,1,8,0:0:0:0:
256,192,64197,1,0,0:0:0:0:
256,192,64368,1,0,0:0:0:0:
256,192,64709,1,8,0:0:0:0:
256,192,64879,1,0,0:0:0:0:
256,192,65050,1,12,0:0:0:0:
256,192,65391,1,12,0:0:0:0:
256,192,65731,1,0,0:0:0:0:
256,192,66072,1,8,0:0:0:0:
256,192,66413,1,8,0:0:0:0:
256,192,66584,1,0,0:0:0:0:
256,192,66754,1,8,0:0:0:0:
256,192,67095,1,0,0:0:0:0:
256,192,67436,1,8,0:0:0:0:
256,192,67606,1,8,0:0:0:0:
256,192,67777,1,0,0:0:0:0:
256,192,68118,1,0,0:0:0:0:
256,192,68459,1,0,0:0:0:0:
256,192,68629,1,8,0:0:0:0:
256,192,68800,1,8,0:0:0:0:
256,192,68970,1,0,0:0:0:0:
256,192,69055,1,0,0:0:0:0:
256,192,69141,1,0,0:0:0:0:
256,192,69311,1,8,0:0:0:0:
256,192,69481,1,8,0:0:0:0:
256,192,69822,1,8,0:0:0:0:
256,192,69993,1,8,0:0:0:0:
256,192,70163,1,0,0:0:0:0:
256,192,70334,1,0,0:0:0:0:
256,192,70504,1,8,0:0:0:0:
256,192,70618,1,8,0:0:0:0:
256,192,70731,1,8,0:0:0:0:
256,192,70845,1,8,0:0:0:0:
256,192,71186,1,4,0:0:0:0:
256,192,71356,8,0,72550,0:0:0:0:
256,192,73402,5,0,0:0:0:0:
256,192,73572,1,8,0:0:0:0:
256,192,73913,1,4,0:0:0:0:
256,192,74254,1,8,0:0:0:0:
256,192,74595,1,8,0:0:0:0:
256,192,74766,1,0,0:0:0:0:
256,192,74936,1,8,0:0:0:0:
256,192,75106,1,8,0:0:0:0:
256,192,75277,1,0,0:0:0:0:
256,192,75618,1,8,0:0:0:0:
256,192,75959,1,0,0:0:0:0:
256,192,76129,1,0,0:0:0:0:
256,192,76300,1,8,0:0:0:0:
256,192,76641,1,0,0:0:0:0:
256,192,76981,1,8,0:0:0:0:
256,192,77322,1,8,0:0:0:0:
256,192,77493,1,0,0:0:0:0:
256,192,77663,1,8,0:0:0:0:
256,192,77834,1,8,0:0:0:0:
256,192,78004,1,0,0:0:0:0:
256,192,78089,1,0,0:0:0:0:
256,192,78345,1,8,0:0:0:0:
256,192,78686,1,0,0:0:0:0:
256,192,78856,1,0,0:0:0:0:
256,192,79027,1,8,0:0:0:0:
256,192,79368,1,0,0:0:0:0:
256,192,79709,1,8,0:0:0:0:
256,192,79879,1,0,0:0:0:0:
256,192,79964,1,0,0:0:0:0:
256,192,80050,1,0,0:0:0:0:
256,192,80220,1,0,0:0:0:0:
256,192,80391,1,8,0:0:0:0:
256,192,80731,1,0,0:0:0:0:
256,192,81072,1,8,0:0:0:0:
256,192,81243,1,8,0:0:0:0:
256,192,81328,1,8,0:0:0:0:
256,192,81413,1,8,0:0:0:0:
256,192,81584,1,0,0:0:0:0:
256,192,81754,1,8,0:0:0:0:
256,192,82095,1,0,0:0:0:0:
256,192,82436,1,0,0:0:0:0:
256,192,82777,1,8,0:0:0:0:
256,192,83118,1,8,0:0:0:0:
256,192,83459,1,0,0:0:0:0:
256,192,83629,1,0,0:0:0:0:
256,192,83800,1,8,0:0:0:0:
256,192,83970,1,0,0:0:0:0:
256,192,84055,1,0,0:0:0:0:
256,192,84141,1,0,0:0:0:0:
256,192,84311,1,8,0:0:0:0:
256,192,84481,1,8,0:0:0:0:
256,192,84652,1,0,0:0:0:0:
256,192,84822,1,12,0:0:0:0:
256,192,84993,8,0,85845,0:0:0:0:
256,192,86016,5,0,0:0:0:0:
256,192,86101,1,0,0:0:0:0:
256,192,86186,1,0,0:0:0:0:
