osu file format v14

[General]
AudioFilename: audio.mp3
AudioLeadIn: 0
PreviewTime: 89339
Countdown: 0
SampleSet: Soft
StackLeniency: 0.4
Mode: 0
LetterboxInBreaks: 0
WidescreenStoryboard: 0

[Editor]
Bookmarks: 82236,103544,109341,117306,127988,131955
DistanceSpacing: 1.1
BeatDivisor: 4
GridSize: 32
TimelineZoom: 2.4

[Metadata]
Title:Tranz
TitleUnicode:Tranz
Artist:Gorillaz
ArtistUnicode:Gorillaz
Creator:Rdzeniu
Version:Dopamine
Source:
Tags:gorillaz dopamine tranz rdzeniu humanz dance like me burn
BeatmapID:1775318
BeatmapSetID:848979

[Difficulty]
HPDrainRate:6.4
CircleSize:4
OverallDifficulty:8.5
ApproachRate:9
SliderMultiplier:1.8
SliderTickRate:1

[Events]
//Background and Video events
0,0,"jw0u5dM.png",0,0
//Break Periods
//Storyboard Layer 0 (Background)
//Storyboard Layer 1 (Fail)
//Storyboard Layer 2 (Pass)
//Storyboard Layer 3 (Foreground)
//Storyboard Sound Samples

[TimingPoints]
3673,443.984016575403,4,2,0,50,1,0
3673,-333.333333333333,4,2,0,50,0,0
4116,-100,4,2,0,50,0,0
12662,-100,4,2,0,5,0,0
12773,-100,4,2,0,50,0,0
13772,-100,4,2,0,5,0,0
13883,-100,4,2,0,50,0,0
14826,-100,4,2,0,5,0,0
14992,-100,4,2,0,50,0,0
15048,-100,4,2,0,5,0,0
15214,-100,4,2,0,50,0,0
21929,-100,4,2,0,5,0,0
22095,-100,4,2,0,50,0,0
22151,-100,4,2,0,5,0,0
22317,-100,4,2,0,50,0,0
24426,-100,4,2,0,5,0,0
24537,-100,4,2,0,50,0,0
25979,-100,4,2,0,5,0,0
26090,-100,4,2,0,50,0,0
27755,-100,4,2,0,5,0,0
27866,-100,4,2,0,50,0,0
29031,-100,4,2,0,5,0,0
29198,-100,4,2,0,50,0,0
29253,-100,4,2,0,5,0,0
29420,-100,4,2,0,50,0,0
30641,-100,4,2,0,5,0,0
30752,-100,4,2,0,50,0,0
38631,-100,4,2,0,5,0,0
38742,-100,4,2,0,50,0,0
39630,-83.3333333333333,4,2,0,50,0,0
46733,-76.9230769230769,4,2,0,50,0,0
53724,-76.9230769230769,4,2,0,5,0,0
53835,-76.9230769230769,4,2,0,50,0,0
60938,-100,4,2,0,50,0,0
70926,-83.3333333333333,4,2,0,50,0,0
71037,-83.3333333333333,4,2,0,5,0,0
71148,-83.3333333333333,4,2,0,50,0,0
71259,-83.3333333333333,4,2,0,5,0,0
71370,-133.333333333333,4,2,0,50,0,0
71481,-133.333333333333,4,2,0,5,0,0
71592,-100,4,2,0,50,0,0
77030,-100,4,2,0,5,0,0
77141,-100,4,2,0,50,0,0
77252,-100,4,2,0,5,0,0
77363,-100,4,2,0,50,0,0
77474,-100,4,2,0,5,0,0
77585,-100,4,2,0,50,0,0
82246,-83.3333333333333,4,2,0,50,0,0
89349,-76.9230769230769,4,2,0,50,0,0
133316,-66.6666666666667,4,2,0,50,0,0
139088,-100,4,2,0,50,0,0
145747,-76.9230769230769,4,2,0,50,0,0
150853,-100,4,2,0,50,0,0

[HitObjects]
256,188,3673,6,0,L|256:151,1,26.9999991760254
78,102,4116,5,0,0:0:0:0:
231,49,4338,1,0,0:0:0:0:
12,44,4560,1,0,0:0:0:0:
231,49,4782,1,0,0:0:0:0:
78,102,5004,1,0,0:0:0:0:
231,49,5226,1,0,0:0:0:0:
61,187,5448,1,0,0:0:0:0:
169,115,5670,5,0,0:0:0:0:
141,275,5892,1,0,0:0:0:0:
169,115,6114,1,0,0:0:0:0:
203,331,6336,1,0,0:0:0:0:
236,175,6558,1,0,0:0:0:0:
370,266,6780,1,0,0:0:0:0:
236,175,7002,1,0,0:0:0:0:
447,234,7224,5,0,0:0:0:0:
262,276,7446,1,0,0:0:0:0:
325,127,7668,6,0,L|440:148,1,90
281,48,8112,2,0,L|192:64,1,90
192,64,8556,1,0,0:0:0:0:
227,222,8778,1,0,0:0:0:0:
116,34,9000,1,0,0:0:0:0:
153,192,9222,6,0,L|129:97,1,90
33,233,9666,1,0,0:0:0:0:
222,266,9888,1,0,0:0:0:0:
104,377,10110,2,0,L|80:282,1,90
227,363,10554,1,0,0:0:0:0:
153,192,10776,1,0,0:0:0:0:
222,266,10998,1,0,0:0:0:0:
219,117,11220,5,0,0:0:0:0:
219,117,11442,2,0,L|217:20,1,90
84,119,11886,1,0,0:0:0:0:
222,213,12108,1,0,0:0:0:0:
222,213,12330,2,0,L|225:375,1,135
224,347,12774,5,0,0:0:0:0:
321,353,12996,1,0,0:0:0:0:
375,275,13218,1,0,0:0:0:0:
318,200,13440,1,0,0:0:0:0:
219,215,13662,2,0,L|209:168,1,45
209,170,13884,1,0,0:0:0:0:
63,108,14106,1,0,0:0:0:0:
63,108,14328,2,0,L|223:114,1,135
197,113,14772,6,0,L|215:76,1,22.5
330,118,14994,2,0,L|312:80,1,22.5
258,224,15216,1,0,0:0:0:0:
330,118,15438,1,0,0:0:0:0:
379,241,15660,1,0,0:0:0:0:
379,241,15882,1,0,0:0:0:0:
166,288,16104,1,0,0:0:0:0:
139,202,16326,6,0,L|172:308,1,90
279,352,16770,1,0,0:0:0:0:
95,323,16992,1,0,0:0:0:0:
236,288,17214,2,0,L|262:202,1,90
262,202,17658,1,0,0:0:0:0:
373,362,17880,1,0,0:0:0:0:
257,323,18102,1,0,0:0:0:0:
220,138,18324,6,0,P|268:127|323:146,1,90
255,322,18768,1,0,0:0:0:0:
165,192,18990,2,0,P|121:203|78:193,1,90
137,303,19434,1,0,0:0:0:0:
120,123,19656,1,0,0:0:0:0:
120,123,19878,1,0,0:0:0:0:
245,237,20100,6,0,P|233:193|243:150,1,90
255,322,20544,1,0,0:0:0:0:
322,194,20766,2,0,P|331:237|320:280,1,90
245,237,21210,1,0,0:0:0:0:
322,60,21432,1,0,0:0:0:0:
322,60,21654,2,0,L|389:61,1,45
456,62,21876,2,0,L|457:100,1,22.5
456,62,22098,2,0,L|455:39,1,22.5
404,197,22320,6,0,P|447:208|490:198,1,90
446,320,22764,1,0,0:0:0:0:
446,320,22986,1,0,0:0:0:0:
332,152,23208,2,0,P|320:195|330:238,1,90
227,353,23652,2,0,P|238:309|228:266,1,90
146,88,24096,1,0,0:0:0:0:
110,213,24318,2,0,L|100:260,1,45
82,328,24540,1,0,0:0:0:0:
169,349,24762,1,0,0:0:0:0:
169,349,24984,2,0,L|77:326,1,90
255,349,25428,6,0,P|222:321|208:271,1,90
81,327,25872,2,0,P|66:286|74:253,1,45
14,273,26094,2,0,P|22:231|57:194,1,90
47,67,26538,1,0,0:0:0:0:
239,169,26760,1,0,0:0:0:0:
239,169,26982,1,0,0:0:0:0:
237,27,27204,6,0,P|269:54|283:104,1,90
401,37,27648,2,0,P|415:77|408:111,1,45
468,91,27870,2,0,P|460:133|424:170,1,90
302,176,28314,1,0,0:0:0:0:
501,282,28536,1,0,0:0:0:0:
501,282,28758,1,0,0:0:0:0:
331,327,28980,2,0,L|321:363,1,22.5
422,350,29202,2,0,L|412:314,1,22.5
380,176,29424,5,0,0:0:0:0:
277,248,29646,2,0,L|200:310,1,90
206,304,30090,1,0,0:0:0:0:
278,125,30312,1,0,0:0:0:0:
351,237,30534,2,0,L|336:302,1,45
328,333,30756,5,0,0:0:0:0:
461,203,30978,1,0,0:0:0:0:
310,148,31200,1,0,0:0:0:0:
461,203,31422,1,0,0:0:0:0:
457,158,31532,1,0,0:0:0:0:
452,111,31643,1,0,0:0:0:0:
452,111,31865,1,0,0:0:0:0:
401,248,32087,2,0,P|441:278|493:270,1,90
334,153,32531,5,0,0:0:0:0:
339,371,32753,1,0,0:0:0:0:
222,265,32975,2,0,P|233:223|222:173,1,90
132,271,33419,2,0,P|146:313|177:345,1,90,0|0,0:0|0:0,2:0:0:0:
282,326,33863,1,0,0:0:0:0:
141,184,34085,1,0,0:0:0:0:
266,181,34307,5,0,0:0:0:0:
219,263,34529,1,0,0:0:0:0:
198,303,34640,1,0,0:0:0:0:
178,344,34751,1,0,2:0:0:0:
352,262,34973,2,0,L|383:366,1,90
377,348,35417,1,0,0:0:0:0:
279,193,35639,5,0,0:0:0:0:
236,74,35861,2,0,P|280:63|333:77,1,90
196,177,36305,1,0,0:0:0:0:
360,179,36527,1,0,0:0:0:0:
196,177,36749,1,0,0:0:0:0:
319,257,36971,2,0,P|362:265|406:254,1,90
238,256,37415,2,0,P|194:264|150:253,1,90
111,123,37859,5,0,0:0:0:0:
66,278,38081,1,0,0:0:0:0:
181,90,38303,1,0,0:0:0:0:
150,253,38525,2,0,L|151:318,1,45
152,353,38747,1,0,0:0:0:0:
302,285,38969,1,0,0:0:0:0:
76,354,39191,1,0,0:0:0:0:
224,302,39413,1,0,0:0:0:0:
63,196,39635,6,0,P|116:183|159:139,1,107.999996704102
86,98,40079,2,0,P|139:114|198:97,1,107.999996704102
156,26,40523,2,0,P|193:66|253:81,1,107.999996704102
256,274,40967,1,0,0:0:0:0:
256,274,41189,1,0,0:0:0:0:
449,196,41411,6,0,P|396:183|353:139,1,107.999996704102
425,98,41855,2,0,P|372:114|313:97,1,107.999996704102
355,26,42299,2,0,P|318:66|258:81,1,107.999996704102
256,274,42743,1,0,0:0:0:0:
256,274,42965,1,0,0:0:0:0:
39,205,43187,6,0,P|38:258|64:336,1,107.999996704102
153,114,43631,2,0,P|154:167|128:245,1,107.999996704102
378,205,44075,6,0,P|378:258|365:310,1,107.999996704102
264,113,44519,2,0,P|263:166|276:218,1,107.999996704102
432,49,44963,6,0,L|290:38,1,107.999996704102
80,49,45407,2,0,L|222:38,1,107.999996704102
474,53,45851,6,0,L|332:42,1,107.999996704102
38,53,46295,2,0,L|145:44,1,107.999996704102
144,220,46739,1,0,0:0:0:0:
242,82,46961,1,0,0:0:0:0:
380,181,47183,1,0,0:0:0:0:
280,318,47405,1,0,0:0:0:0:
209,156,47627,5,0,0:0:0:0:
301,248,47849,1,0,0:0:0:0:
209,339,48071,1,0,0:0:0:0:
118,248,48293,1,0,0:0:0:0:
301,248,48515,6,0,L|415:287,1,116.999994644165
211,248,48959,2,0,L|100:285,1,116.999994644165
256,170,49403,1,0,0:0:0:0:
256,170,49625,1,0,0:0:0:0:
198,27,49847,2,0,P|256:23|323:29,1,116.999994644165
256,170,50291,5,0,0:0:0:0:
409,227,50513,2,0,L|457:113,1,116.999994644165
321,214,50957,2,0,L|369:328,1,116.999994644165
226,249,51401,1,0,0:0:0:0:
322,70,51623,1,0,0:0:0:0:
196,170,51845,1,0,0:0:0:0:
341,237,52067,5,0,0:0:0:0:
322,70,52289,1,0,0:0:0:0:
358,115,52400,1,0,0:0:0:0:
393,159,52511,1,0,0:0:0:0:
220,96,52733,1,0,0:0:0:0:
447,104,52955,1,0,0:0:0:0:
220,214,53177,1,0,0:0:0:0:
448,220,53399,1,0,0:0:0:0:
328,220,53621,2,0,P|343:281|325:319,1,58.4999973220826
320,329,53843,5,0,0:0:0:0:
351,128,54065,1,0,0:0:0:0:
271,272,54287,5,0,0:0:0:0:
240,71,54509,1,0,0:0:0:0:
328,220,54731,5,0,0:0:0:0:
359,19,54953,1,0,0:0:0:0:
166,88,55175,1,0,0:0:0:0:
356,125,55397,2,0,P|295:129|238:172,1,116.999994644165
287,280,55841,1,0,0:0:0:0:
173,169,56063,1,0,0:0:0:0:
81,257,56285,1,0,0:0:0:0:
258,66,56507,5,0,0:0:0:0:
91,163,56729,1,0,0:0:0:0:
289,143,56951,5,0,0:0:0:0:
41,98,57173,1,0,0:0:0:0:
81,257,57395,2,0,L|112:376,1,116.999994644165
203,225,57839,2,0,L|173:111,1,116.999994644165
337,117,58283,1,0,0:0:0:0:
173,111,58505,1,0,0:0:0:0:
363,43,58727,5,0,0:0:0:0:
300,220,58949,1,0,0:0:0:0:
299,312,59171,5,0,0:0:0:0:
207,220,59392,1,0,0:0:0:0:
299,129,59614,1,0,0:0:0:0:
390,220,59836,1,0,0:0:0:0:
299,104,60058,5,0,0:0:0:0:
414,220,60280,1,0,0:0:0:0:
298,336,60502,1,0,0:0:0:0:
183,220,60724,1,0,0:0:0:0:
214,348,60946,6,0,P|172:333|123:328,1,90
28,360,61390,2,0,P|43:318|48:269,1,90
26,148,61834,1,0,0:0:0:0:
48,272,62056,1,0,0:0:0:0:
76,83,62278,1,0,0:0:0:0:
93,208,62500,1,0,0:0:0:0:
194,133,62722,6,0,P|175:92|170:34,1,90
268,175,63166,2,0,P|262:219|243:260,1,90
123,309,63610,1,0,0:0:0:0:
243,261,63832,1,0,0:0:0:0:
53,276,64054,1,0,0:0:0:0:
198,333,64276,2,0,L|329:352,1,90
287,345,64720,1,0,0:0:0:0:
366,257,64942,6,0,P|385:216|390:158,1,90
301,195,65386,2,0,P|306:150|325:109,1,90
479,195,65830,2,0,P|473:150|454:109,1,90
350,37,66274,1,0,0:0:0:0:
223,34,66496,1,0,0:0:0:0:
390,134,66718,1,0,0:0:0:0:
289,210,66940,1,0,0:0:0:0:
286,83,67162,1,0,0:0:0:0:
289,210,67384,1,0,0:0:0:0:
223,34,67606,1,0,0:0:0:0:
230,160,67828,1,0,0:0:0:0:
373,92,68050,6,0,P|330:50|283:39,1,90
406,168,68494,1,0,0:0:0:0:
462,31,68716,2,0,P|482:70|482:115,1,90
443,248,69160,1,0,0:0:0:0:
373,92,69382,1,0,0:0:0:0:
328,206,69604,1,0,0:0:0:0:
244,174,69826,6,0,P|292:188|356:226,1,90
429,326,70270,1,0,0:0:0:0:
429,326,70492,2,0,P|381:340|317:378,1,90
217,364,70936,2,0,L|186:315,1,53.9999983520508
191,243,71158,2,0,L|222:194,1,53.9999983520508
297,275,71380,2,0,L|268:256,1,33.7500012874604
132,174,71602,5,0,0:0:0:0:
250,121,71824,1,0,0:0:0:0:
121,83,72046,1,0,0:0:0:0:
266,26,72268,1,0,0:0:0:0:
121,83,72490,1,0,0:0:0:0:
250,121,72712,1,0,0:0:0:0:
49,137,72934,2,0,L|142:178,1,90
255,218,73378,5,0,0:0:0:0:
137,271,73600,1,0,0:0:0:0:
290,309,73822,1,0,0:0:0:0:
112,362,74044,1,0,0:0:0:0:
326,310,74266,1,0,0:0:0:0:
116,272,74488,1,0,0:0:0:0:
329,215,74710,1,0,0:0:0:0:
172,175,74932,1,0,0:0:0:0:
213,157,75043,1,0,0:0:0:0:
254,139,75154,5,0,0:0:0:0:
194,253,75376,1,0,0:0:0:0:
131,103,75598,2,0,P|102:136|89:199,1,90
214,106,76042,2,0,P|201:63|171:29,1,90
46,76,76486,1,0,0:0:0:0:
172,29,76708,1,0,0:0:0:0:
119,185,76930,6,0,L|159:142,1,45
198,181,77152,2,0,L|228:148,1,45
277,177,77374,2,0,L|307:144,1,45
356,173,77596,2,0,L|426:101,1,90
476,224,78040,1,0,0:0:0:0:
474,58,78262,1,0,0:0:0:0:
315,68,78484,2,0,B|291:52|291:52|324:39|357:46,1,90
392,196,78928,2,0,B|416:180|416:180|383:167|350:174,1,90
203,213,79372,6,0,B|179:229|179:229|212:242|245:235,1,90
211,106,79816,1,0,0:0:0:0:
96,184,80038,1,0,0:0:0:0:
136,319,80260,1,0,0:0:0:0:
275,321,80482,5,0,0:0:0:0:
322,189,80704,1,0,0:0:0:0:
96,184,80926,1,0,0:0:0:0:
255,232,81148,1,0,0:0:0:0:
36,245,81370,1,0,0:0:0:0:
196,84,81592,1,0,0:0:0:0:
174,246,81814,2,0,P|197:288|247:317,1,90
381,235,82258,6,0,P|391:312|381:354,1,107.999996704102
414,161,82702,2,0,P|403:213|409:267,1,107.999996704102
385,87,83146,2,0,P|395:164|385:206,1,107.999996704102
255,321,83590,1,0,0:0:0:0:
255,321,83812,1,0,0:0:0:0:
131,235,84034,6,0,P|121:312|131:354,1,107.999996704102
98,161,84478,2,0,P|108:213|102:267,1,107.999996704102
127,87,84922,2,0,P|117:164|127:206,1,107.999996704102
256,63,85366,1,0,0:0:0:0:
256,63,85588,1,0,0:0:0:0:
301,250,85810,6,0,P|351:232|373:178,1,107.999996704102
227,260,86254,2,0,P|249:307|299:325,1,107.999996704102
225,185,86698,2,0,P|175:202|152:250,1,107.999996704102
298,184,87141,2,0,P|280:134|232:111,1,107.999996704102
232,111,87585,6,0,P|280:134|298:184,1,107.999996704102
152,250,88029,2,0,P|175:202|225:185,1,107.999996704102
299,325,88473,2,0,P|249:307|227:260,1,107.999996704102
373,184,88917,2,0,P|350:232|301:250,1,107.999996704102
232,111,89361,5,0,0:0:0:0:
248,73,89472,1,0,0:0:0:0:
277,44,89583,1,0,0:0:0:0:
314,27,89694,1,0,0:0:0:0:
354,24,89805,1,0,0:0:0:0:
394,33,89916,1,0,0:0:0:0:
429,48,90027,5,0,0:0:0:0:
459,78,90138,1,0,0:0:0:0:
443,116,90249,1,0,0:0:0:0:
412,139,90360,5,0,0:0:0:0:
440,167,90471,1,0,0:0:0:0:
455,204,90582,1,0,0:0:0:0:
448,243,90693,1,0,0:0:0:0:
420,272,90804,1,0,0:0:0:0:
381,281,90915,1,0,0:0:0:0:
341,280,91026,1,0,0:0:0:0:
303,266,91137,6,0,P|275:246|261:188,1,58.4999973220826
298,142,91359,2,0,P|326:162|340:220,1,58.4999973220826
217,165,91581,2,0,P|210:136|216:108,1,58.4999973220826
160,213,91803,2,0,P|153:241|159:269,1,58.4999973220826
186,296,92025,1,0,0:0:0:0:
33,270,92247,1,0,0:0:0:0:
263,225,92469,1,0,0:0:0:0:
111,165,92691,5,0,0:0:0:0:
102,125,92802,1,0,0:0:0:0:
112,85,92913,1,0,0:0:0:0:
139,55,93024,1,0,0:0:0:0:
176,39,93135,1,0,0:0:0:0:
217,42,93246,1,0,0:0:0:0:
224,81,93357,5,0,0:0:0:0:
230,121,93468,1,0,0:0:0:0:
248,157,93579,1,0,0:0:0:0:
276,187,93690,1,0,0:0:0:0:
312,206,93801,5,0,0:0:0:0:
313,77,94023,1,0,0:0:0:0:
264,266,94245,1,0,0:0:0:0:
379,134,94467,2,0,L|414:206,1,58.4999973220826
468,120,94689,2,0,L|442:67,1,58.4999973220826
404,186,94911,2,0,L|439:258,1,58.4999973220826
442,67,95133,2,0,L|416:14,1,58.4999973220826
318,14,95355,6,0,L|292:66,1,58.4999973220826
305,239,95577,2,0,L|330:186,1,58.4999973220826
292,67,95799,2,0,L|266:119,1,58.4999973220826
330,187,96021,2,0,L|355:134,1,58.4999973220826
237,185,96243,2,0,L|211:237,1,58.4999973220826
170,322,96465,5,0,0:0:0:0:
136,344,96576,1,0,0:0:0:0:
96,349,96687,1,0,0:0:0:0:
58,334,96798,1,0,0:0:0:0:
32,303,96909,1,0,0:0:0:0:
23,263,97020,1,0,0:0:0:0:
35,227,97131,5,0,0:0:0:0:
75,218,97242,1,0,0:0:0:0:
106,192,97353,1,0,0:0:0:0:
121,154,97464,1,0,0:0:0:0:
112,111,97575,5,0,0:0:0:0:
150,123,97686,1,0,0:0:0:0:
191,119,97797,1,0,0:0:0:0:
226,100,97908,1,0,0:0:0:0:
252,68,98019,1,0,0:0:0:0:
255,27,98130,1,0,0:0:0:0:
227,8,98241,6,0,L|309:27,1,58.4999973220826
373,90,98463,2,0,L|316:103,1,58.4999973220826
241,177,98685,2,0,L|323:196,1,58.4999973220826
401,205,98907,2,0,L|333:331,2,116.999994644165
467,88,99573,1,0,0:0:0:0:
297,190,99795,6,0,P|244:149|229:92,1,116.999994644165
353,121,100239,2,0,P|385:179|377:237,1,116.999994644165
356,261,100572,1,0,0:0:0:0:
324,286,100683,1,0,0:0:0:0:
286,303,100794,1,0,0:0:0:0:
246,308,100905,1,0,0:0:0:0:
206,303,101016,1,0,0:0:0:0:
168,287,101127,1,0,0:0:0:0:
136,262,101238,1,0,0:0:0:0:
115,225,101349,5,0,0:0:0:0:
146,199,101460,1,0,0:0:0:0:
169,165,101571,1,0,0:0:0:0:
179,125,101682,1,0,0:0:0:0:
175,83,101793,1,0,0:0:0:0:
214,94,101904,1,0,0:0:0:0:
252,111,102015,1,0,0:0:0:0:
289,94,102126,1,0,0:0:0:0:
328,83,102237,6,0,L|396:67,1,58.4999973220826
469,147,102459,2,0,L|401:131,1,58.4999973220826
334,214,102681,2,0,L|402:198,1,58.4999973220826
475,278,102903,2,0,L|407:262,1,58.4999973220826
340,345,103125,2,0,L|408:329,1,58.4999973220826
287,281,103347,2,0,L|219:297,1,58.4999973220826
189,303,103569,5,0,0:0:0:0:
233,81,103791,1,0,0:0:0:0:
68,235,104013,1,0,0:0:0:0:
143,43,104235,5,0,0:0:0:0:
253,240,104457,1,0,0:0:0:0:
48,145,104679,1,0,0:0:0:0:
181,311,104901,5,0,0:0:0:0:
212,86,105123,1,0,0:0:0:0:
57,247,105345,2,0,L|200:238,1,116.999994644165
341,220,105789,2,0,L|457:212,1,116.999994644165
321,349,106233,5,0,0:0:0:0:
184,212,106455,1,0,0:0:0:0:
321,75,106677,1,0,0:0:0:0:
457,212,106899,1,0,0:0:0:0:
321,75,107121,2,0,L|337:197,1,116.999994644165
336,191,107565,2,0,L|352:313,1,116.999994644165
219,351,108009,2,0,L|209:272,1,58.4999973220826
203,217,108231,2,0,L|193:138,1,58.4999973220826
184,87,108453,5,0,0:0:0:0:
106,303,108675,2,0,L|90:186,1,116.999994644165
276,252,109119,1,0,0:0:0:0:
264,88,109341,1,0,0:0:0:0:
404,157,109563,1,0,0:0:0:0:
195,158,109785,1,0,0:0:0:0:
384,234,110007,1,0,0:0:0:0:
329,21,110229,1,0,0:0:0:0:
276,252,110451,6,0,P|307:312|361:344,1,116.999994644165
382,338,110784,1,0,0:0:0:0:
426,326,110894,1,0,0:0:0:0:
462,297,111005,1,0,0:0:0:0:
482,254,111116,5,0,0:0:0:0:
394,78,111339,1,0,0:0:0:0:
369,268,111561,1,0,0:0:0:0:
281,95,111783,5,0,0:0:0:0:
457,184,112006,1,0,0:0:0:0:
267,209,112228,1,0,0:0:0:0:
406,88,112449,1,0,0:0:0:0:
382,121,112559,1,0,0:0:0:0:
368,159,112670,1,0,0:0:0:0:
365,200,112781,1,0,0:0:0:0:
361,240,112892,1,0,0:0:0:0:
346,278,113003,1,0,0:0:0:0:
313,305,113115,1,0,0:0:0:0:
273,311,113225,1,0,0:0:0:0:
237,293,113336,5,0,0:0:0:0:
435,332,113559,1,0,0:0:0:0:
288,196,113781,1,0,0:0:0:0:
462,127,114003,5,0,0:0:0:0:
263,90,114225,1,0,0:0:0:0:
224,102,114335,1,0,0:0:0:0:
193,128,114446,1,0,0:0:0:0:
175,165,114557,1,0,0:0:0:0:
172,205,114668,5,0,0:0:0:0:
182,242,114780,1,0,0:0:0:0:
179,282,114891,1,0,0:0:0:0:
161,319,115002,1,0,0:0:0:0:
130,345,115113,1,0,0:0:0:0:
92,358,115223,1,0,0:0:0:0:
52,350,115334,2,0,P|27:330|10:301,1,58.4999973220826
51,181,115556,2,0,P|76:201|93:230,1,58.4999973220826
102,257,115778,5,0,0:0:0:0:
120,292,115888,1,0,0:0:0:0:
154,315,115999,1,0,0:0:0:0:
195,318,116110,1,0,0:0:0:0:
231,301,116221,1,0,0:0:0:0:
256,268,116332,1,0,0:0:0:0:
273,232,116444,1,0,0:0:0:0:
298,199,116555,1,0,0:0:0:0:
334,182,116666,1,0,0:0:0:0:
375,185,116777,1,0,0:0:0:0:
408,210,116888,6,0,P|432:235|449:268,1,58.4999973220826
486,166,117110,2,0,P|462:141|445:108,1,58.4999973220826
483,36,117332,2,0,P|411:36|359:100,1,116.999994644165
349,262,117776,5,0,0:0:0:0:
349,279,117886,1,0,0:0:0:0:
349,297,117997,1,0,0:0:0:0:
260,172,118220,2,0,L|258:288,1,116.999994644165
168,117,118664,2,0,L|166:233,1,116.999994644165
89,64,119108,1,0,0:0:0:0:
89,64,119330,1,0,0:0:0:0:
169,233,119552,6,0,L|167:116,1,116.999994644165
258,288,119996,2,0,L|256:171,1,116.999994644165
347,343,120440,2,0,L|345:226,1,116.999994644165
343,58,120884,1,0,0:0:0:0:
343,58,121106,1,0,0:0:0:0:
188,92,121328,6,0,B|134:119|131:95|67:118,1,116.999994644165
21,227,121772,2,0,P|32:297|92:339,1,116.999994644165
194,327,122216,2,0,P|231:283|236:226,1,116.999994644165
127,289,122660,1,0,0:0:0:0:
127,289,122882,1,0,0:0:0:0:
298,177,123104,6,0,P|219:150|171:179,1,116.999994644165
347,238,123548,2,0,P|374:159|345:111,1,116.999994644165
285,289,123992,2,0,P|364:316|412:287,1,116.999994644165
237,229,124436,1,0,0:0:0:0:
237,229,124658,1,0,0:0:0:0:
444,236,124880,6,0,P|481:302|470:358,1,116.999994644165
396,169,125324,2,0,P|471:162|518:194,1,116.999994644165
321,201,125768,2,0,P|331:126|373:87,1,116.999994644165
368,268,126212,1,0,0:0:0:0:
368,268,126434,1,0,0:0:0:0:
198,236,126656,6,0,P|161:302|172:358,1,116.999994644165
246,169,127100,2,0,P|170:162|123:194,1,116.999994644165
321,201,127544,2,0,P|310:126|268:87,1,116.999994644165
274,268,127988,1,0,0:0:0:0:
274,268,128210,1,0,0:0:0:0:
93,338,128432,6,0,L|152:157,1,175.499991966248
124,96,128876,6,0,L|183:277,1,175.499991966248
154,337,129320,6,0,L|208:170,1,175.499991966248
185,98,129764,6,0,L|244:279,1,175.499991966248
215,339,130208,6,0,L|269:172,1,175.499991966248
246,100,130652,6,0,L|305:281,1,175.499991966248
329,339,131096,6,0,P|354:258|416:190,1,175.499991966248
413,192,131540,6,0,P|355:128|329:45,1,175.499991966248
328,44,131984,5,0,0:0:0:0:
138,23,132205,1,0,0:0:0:0:
276,149,132427,1,0,0:0:0:0:
212,221,132650,5,0,0:0:0:0:
233,31,132871,1,0,0:0:0:0:
107,169,133093,1,0,0:0:0:0:
321,232,133316,1,0,0:0:0:0:
424,171,133538,2,0,P|434:259|287:354,1,270.000010299683
228,228,134204,2,0,L|183:318,1,67.5000025749208
148,352,134426,2,0,L|117:291,1,67.5000025749208
85,226,134648,5,0,0:0:0:0:
305,266,134870,1,0,0:0:0:0:
145,107,135092,1,0,0:0:0:0:
351,140,135314,1,0,0:0:0:0:
197,286,135536,2,0,P|306:362|416:270,1,270.000010299683
423,263,136091,5,0,0:0:0:0:
424,222,136201,1,0,0:0:0:0:
413,184,136312,1,0,0:0:0:0:
389,151,136423,1,0,0:0:0:0:
357,127,136534,1,0,0:0:0:0:
318,115,136645,1,0,0:0:0:0:
276,116,136757,1,0,0:0:0:0:
237,128,136868,1,0,0:0:0:0:
204,151,136979,1,0,0:0:0:0:
181,184,137090,1,0,0:0:0:0:
170,223,137201,1,0,0:0:0:0:
175,271,137312,5,0,0:0:0:0:
129,257,137422,1,0,0:0:0:0:
92,228,137533,1,0,0:0:0:0:
68,188,137644,1,0,0:0:0:0:
62,139,137756,2,0,P|76:107|105:68,1,67.5000025749208
169,70,137978,2,0,P|202:63|233:51,1,67.5000025749208
307,30,138200,2,0,P|340:36|371:48,1,67.5000025749208
421,106,138422,2,0,P|439:133|453:164,1,67.5000025749208
483,236,138644,2,0,P|415:233|378:154,1,135.000005149842
395,347,139088,5,0,0:0:0:0:
301,174,139310,1,0,0:0:0:0:
286,366,139532,1,0,0:0:0:0:
175,206,139754,5,0,0:0:0:0:
361,267,139976,1,0,0:0:0:0:
174,316,140198,1,0,0:0:0:0:
254,150,140420,5,0,0:0:0:0:
271,344,140642,1,0,0:0:0:0:
61,207,140864,5,0,0:0:0:0:
87,233,140975,1,0,0:0:0:0:
125,244,141086,1,0,0:0:0:0:
166,245,141197,1,0,0:0:0:0:
200,225,141308,5,0,0:0:0:0:
239,216,141419,1,0,0:0:0:0:
280,217,141530,1,0,0:0:0:0:
318,228,141641,1,0,0:0:0:0:
347,260,141752,5,0,0:0:0:0:
409,112,141974,1,0,0:0:0:0:
492,253,142196,1,0,0:0:0:0:
409,79,142418,1,0,0:0:0:0:
316,255,142639,2,0,P|257:312|141:317,1,180,0|0,0:3|0:3,0:3:0:0:
122,311,143193,5,0,0:0:0:0:
96,280,143304,1,0,0:0:0:0:
84,241,143415,1,0,0:0:0:0:
85,201,143526,1,0,0:0:0:0:
101,164,143637,1,0,0:0:0:0:
128,134,143748,1,0,0:0:0:0:
164,116,143859,1,0,0:0:0:0:
204,112,143970,5,0,0:0:0:0:
240,135,144082,1,0,0:0:0:0:
280,130,144193,1,0,0:0:0:0:
316,112,144304,1,0,0:0:0:0:
345,80,144415,2,0,B|367:59|379:35|379:35|414:79|470:104,1,135
437,86,144859,2,0,P|463:154|415:233,1,135
442,210,145303,2,0,P|416:277|464:356,1,135
437,333,145747,6,0,L|355:313,1,58.4999973220826
344,249,145969,2,0,L|261:269,1,58.4999973220826
260,269,146191,1,0,0:0:0:0:
231,275,146301,1,0,0:0:0:0:
202,281,146412,1,0,0:0:0:0:
174,287,146523,1,0,0:0:0:0:
144,292,146635,6,0,L|186:173,1,116.999994644165
228,60,147079,2,0,L|237:148,1,58.4999973220826
318,166,147301,2,0,L|323:107,1,58.4999973220826
399,43,147523,2,0,L|404:101,1,58.4999973220826
427,187,147745,2,0,B|452:161|481:148|481:148|477:237|422:316,1,233.999989288331
364,337,148410,5,0,0:0:0:0:
246,209,148633,1,0,0:0:0:0:
252,351,148855,1,0,0:0:0:0:
354,199,149077,1,0,0:0:0:0:
364,337,149299,2,0,L|300:286,1,58.4999973220826
257,251,149521,2,0,L|211:287,1,58.4999973220826
149,335,149743,5,0,0:0:0:0:
133,173,149965,1,0,0:0:0:0:
67,287,150187,1,0,0:0:0:0:
50,124,150409,1,0,0:0:0:0:
208,165,150631,1,0,0:0:0:0:
50,124,150853,2,0,P|69:82|126:39,1,90
255,28,151297,1,0,0:0:0:0:
255,28,151519,6,0,P|285:56|304:90,1,45
298,152,151741,2,0,P|312:168|330:183,1,45
424,178,151963,2,0,P|441:192|456:209,1,45
457,307,152185,2,0,P|442:323|424:338,1,45
329,340,152407,2,0,P|311:325|296:308,1,45
238,232,152629,2,0,P|220:246|205:263,1,45
153,341,152851,2,0,P|135:326|120:309,1,45
94,217,153073,2,0,P|95:192|102:167,1,45
139,88,153295,6,0,P|161:77|186:71,1,45
217,69,153517,1,0,0:0:0:0:
252,75,153627,1,0,0:0:0:0:
286,88,153738,1,0,0:0:0:0:
316,106,153849,1,0,0:0:0:0:
343,130,153960,1,0,0:0:0:0:
362,157,154072,2,0,P|405:141|444:162,1,90
442,159,154405,5,0,0:0:0:0:
265,223,154627,1,0,0:0:0:0:
397,265,154849,1,0,0:0:0:0:
397,265,155071,1,0,0:0:0:0:
326,324,155293,1,0,0:0:0:0:
476,308,155515,1,0,0:0:0:0:
397,265,155737,2,0,L|396:220,1,45
396,220,155959,2,0,L|398:333,1,90
396,58,156403,2,0,L|395:13,1,45
396,58,156625,6,0,L|397:182,1,90
396,147,157069,1,0,0:0:0:0:
276,191,157291,2,0,P|241:145|180:108,1,90
214,247,157735,2,0,P|179:218|153:181,2,90
324,307,158401,1,0,0:0:0:0:
324,307,158623,6,0,P|363:263|386:210,1,90
388,158,159067,2,0,P|410:119|441:86,1,90
441,86,159511,1,0,0:0:0:0:
353,41,159733,1,0,0:0:0:0:
260,58,159955,1,0,0:0:0:0:
214,137,160177,1,0,0:0:0:0:
