osu file format v14

[General]
AudioFilename: audio.mp3
AudioLeadIn: 0
PreviewTime: -1
Countdown: 2
SampleSet: None
StackLeniency: 0.6
Mode: 0
LetterboxInBreaks: 0
WidescreenStoryboard: 1

[Editor]
DistanceSpacing: 0.8
BeatDivisor: 1
GridSize: 32
TimelineZoom: 0.2

[Metadata]
Title:Gorillaz Andromeda(Zhu remix)(Demo)
TitleUnicode:Gorillaz Andromeda(Zhu remix)(Demo)
Artist:Gorillaz
ArtistUnicode:Gorillaz
Creator:nambler
Version:Insane
Source:
Tags:#Gorillaz#Andromeda(Zhu remix)#Gorillaz _feat._D.R.A.M.
BeatmapID:1278586
BeatmapSetID:605131

[Difficulty]
HPDrainRate:6
CircleSize:5
OverallDifficulty:7
ApproachRate:9
SliderMultiplier:1.4
SliderTickRate:1

[Events]
//Background and Video events
0,0,"0-1.jpg",0,0
//Break Periods
//Storyboard Layer 0 (Background)
//Storyboard Layer 1 (Fail)
//Storyboard Layer 2 (Pass)
//Storyboard Layer 3 (Foreground)
//Storyboard Sound Samples

[TimingPoints]
3.6982632349864,250.789830508474,4,1,0,0,1,0

[Colours]
Combo1 : 0,0,0
Combo2 : 0,0,128

[HitObjects]
192,96,505,6,0,L|32:96,1,140
32,160,1006,2,0,L|192:160,1,140
480,32,1508,6,0,L|320:32,1,140
320,96,2010,2,0,L|480:96,1,140
480,160,2511,2,0,L|320:160,1,140
128,96,3420,5,0,0:0:0:0:
160,96,4204,1,0,0:0:0:0:
128,64,4517,2,0,B|32:192|64:192|64:128,1,140
96,224,5019,6,0,B|192:352|192:320|256:224,1,140
256,256,5521,2,0,B|352:128|320:128|288:64,1,140
288,64,6022,2,0,B|128:32|96:96|32:128,1,140
96,96,6524,6,0,P|32:224|32:256,1,140
32,288,7025,2,0,P|160:352|192:320,1,140
192,320,7527,2,0,P|320:224|288:192,1,140
352,256,8028,6,0,P|480:192|480:224,1,140
416,64,8530,2,0,B|192:32|192:64|256:96,1,140
256,160,9753,5,0,0:0:0:0:
128,288,10035,2,0,P|192:128|256:128,1,140
192,128,10536,2,0,P|320:192|320:224,1,140
320,224,11038,6,0,B|160:256|160:160|160:128,1,140
192,128,11540,2,0,P|352:128|352:160,1,140
352,96,12292,1,0,0:0:0:0:
384,128,12543,5,0,0:0:0:0:
416,160,12793,1,0,0:0:0:0:
384,192,13044,1,0,0:0:0:0:
352,224,13295,1,0,0:0:0:0:
320,192,13546,1,0,0:0:0:0:
288,160,13797,5,0,0:0:0:0:
256,128,14047,1,0,0:0:0:0:
224,128,14298,1,0,0:0:0:0:
96,32,14549,6,0,L|32:160,1,140
32,224,15051,2,0,L|160:64,1,140
64,256,15552,2,0,L|256:128,1,140
64,288,16054,6,0,L|224:256,1,140
64,320,16555,2,0,L|224:352,1,140
480,32,17308,2,0,P|352:96|320:128,1,140
352,128,17809,6,0,P|480:64|480:64,1,140
480,128,18311,2,0,L|352:192,1,140
256,160,19220,5,0,0:0:0:0:
160,64,19565,2,0,L|32:192,1,140
288,352,20066,2,0,L|448:224,1,140
224,32,20568,6,0,L|96:128,1,140
288,352,21070,2,0,L|416:224,1,140
256,160,22386,5,0,0:0:0:0:
256,160,23577,5,0,0:0:0:0:
224,32,24079,2,0,P|64:160|64:192,1,140
160,192,24581,2,0,P|288:96|256:64,1,140
224,32,25082,6,0,P|96:96|96:128,1,140
288,192,25584,2,0,P|128:192|96:160,1,140
160,128,26336,2,0,L|352:96,1,140
352,96,26838,6,0,L|480:160,1,140
480,224,27339,2,0,L|288:128,1,140
320,160,28719,5,0,0:0:0:0:
288,192,29095,2,0,L|448:288,1,140
384,288,29596,2,0,L|256:224,1,140
224,256,30098,6,0,L|352:320,1,140
320,352,30600,2,0,L|192:288,1,140
352,160,31885,5,0,0:0:0:0:
384,160,33076,5,0,0:0:0:0:
384,96,33609,2,0,B|128:64|128:96|96:128,1,280
128,160,34361,2,0,L|288:128,1,140
