osu file format v14

[General]
AudioFilename: audio.mp3
AudioLeadIn: 0
PreviewTime: -1
Countdown: 1
SampleSet: None
StackLeniency: 0.7
Mode: 0
LetterboxInBreaks: 0
WidescreenStoryboard: 0

[Editor]
DistanceSpacing: 0.6
BeatDivisor: 4
GridSize: 4
TimelineZoom: 1

[Metadata]
Title:Feel Good Inc (DnB Remix)
TitleUnicode:Feel Good Inc (DnB Remix)
Artist:Gorillaz
ArtistUnicode:Gorillaz
Creator:Sensokaku
Version:Insane
Source:
Tags:
BeatmapID:2171150
BeatmapSetID:1038654

[Difficulty]
HPDrainRate:5
CircleSize:4
OverallDifficulty:9
ApproachRate:9
SliderMultiplier:1.7
SliderTickRate:1

[Events]
//Background and Video events
0,0,"maxresdefault (12).jpg",0,0
//Break Periods
//Storyboard Layer 0 (Background)
//Storyboard Layer 1 (Fail)
//Storyboard Layer 2 (Pass)
//Storyboard Layer 3 (Foreground)
//Storyboard Layer 4 (Overlay)
//Storyboard Sound Samples

[TimingPoints]
1200.35838150289,343.073173241852,4,1,0,100,1,0

[HitObjects]
258,104,12178,5,0,0:0:0:0:
374,268,12521,1,0,0:0:0:0:
254,104,14751,5,0,0:0:0:0:
254,104,14923,1,0,0:0:0:0:
138,268,15266,1,0,0:0:0:0:
254,104,17667,1,0,0:0:0:0:
138,268,18010,1,0,0:0:0:0:
258,104,20240,5,0,0:0:0:0:
258,104,20412,1,0,0:0:0:0:
374,268,20755,1,0,0:0:0:0:
437,232,21613,5,0,0:0:0:0:
359,121,21784,1,0,0:0:0:0:
358,287,22127,1,0,0:0:0:0:
270,57,22298,1,0,0:0:0:0:
270,337,22642,1,0,0:0:0:0:
160,14,22813,1,0,0:0:0:0:
349,93,23157,5,0,0:0:0:0:
349,93,23242,1,0,0:0:0:0:
349,93,23328,2,0,P|347:140|334:181,1,85
260,293,24014,1,0,0:0:0:0:
174,95,24186,1,0,0:0:0:0:
124,296,24529,5,0,0:0:0:0:
124,296,24615,1,0,0:0:0:0:
124,296,24700,2,0,P|127:254|144:216,1,85
286,90,25387,1,0,0:0:0:0:
347,286,25558,1,0,0:0:0:0:
360,163,25901,5,0,0:0:0:0:
360,163,25987,1,0,0:0:0:0:
360,163,26073,2,0,P|318:178|264:179,1,85
125,201,26759,1,0,0:0:0:0:
325,305,26930,1,0,0:0:0:0:
133,103,27274,5,0,0:0:0:0:
133,103,27359,1,0,0:0:0:0:
133,103,27445,2,0,P|179:133|215:138,1,85
382,191,28131,1,0,0:0:0:0:
136,310,28303,1,0,0:0:0:0:
407,63,28646,5,0,0:0:0:0:
425,80,28731,1,0,0:0:0:0:
443,97,28817,1,0,0:0:0:0:
459,198,28989,1,0,0:0:0:0:
294,315,29503,1,0,0:0:0:0:
183,110,29675,1,0,0:0:0:0:
161,267,30018,5,0,0:0:0:0:
142,284,30104,1,0,0:0:0:0:
119,295,30190,1,0,0:0:0:0:
20,286,30361,1,0,0:0:0:0:
81,88,30876,1,0,0:0:0:0:
315,206,31047,1,0,0:0:0:0:
210,67,31390,6,0,L|197:13,2,42.5
239,241,31733,1,0,0:0:0:0:
424,187,32248,2,0,L|458:82,1,85
347,319,32763,6,0,L|375:365,2,42.5
237,148,33106,1,0,0:0:0:0:
435,92,33620,2,0,L|435:202,1,85
315,290,34135,5,0,0:0:0:0:
134,136,34306,1,0,0:0:0:0:
257,242,34478,1,0,0:0:0:0:
79,88,34649,1,0,0:0:0:0:
197,94,34821,5,0,0:0:0:0:
378,248,34992,1,0,0:0:0:0:
255,142,35164,1,0,0:0:0:0:
433,296,35335,1,0,0:0:0:0:
261,343,35507,5,0,0:0:0:0:
236,334,35593,1,0,0:0:0:0:
214,320,35679,1,0,0:0:0:0:
113,219,35850,1,0,0:0:0:0:
270,51,36365,1,0,0:0:0:0:
329,301,36536,1,0,0:0:0:0:
315,94,36879,5,0,0:0:0:0:
134,248,37050,1,0,0:0:0:0:
257,142,37222,1,0,0:0:0:0:
79,296,37393,1,0,0:0:0:0:
197,290,37565,5,0,0:0:0:0:
378,136,37736,1,0,0:0:0:0:
255,242,37908,1,0,0:0:0:0:
433,88,38079,1,0,0:0:0:0:
455,230,38252,5,0,0:0:0:0:
439,250,38338,1,0,0:0:0:0:
419,265,38423,1,0,0:0:0:0:
230,331,38595,1,0,0:0:0:0:
112,144,39109,2,0,L|194:70,1,85
197,94,39624,5,0,0:0:0:0:
378,248,39795,1,0,0:0:0:0:
255,142,39967,1,0,0:0:0:0:
433,296,40138,1,0,0:0:0:0:
315,290,40310,5,0,0:0:0:0:
134,136,40481,1,0,0:0:0:0:
257,242,40653,1,0,0:0:0:0:
79,88,40824,1,0,0:0:0:0:
87,255,40996,5,0,0:0:0:0:
200,343,41168,1,0,0:0:0:0:
143,297,41339,1,0,0:0:0:0:
34,209,41511,1,0,0:0:0:0:
38,72,41682,1,0,0:0:0:0:
171,28,41854,1,0,0:0:0:0:
303,80,42026,5,0,0:0:0:0:
332,169,42197,1,0,0:0:0:0:
248,152,42369,1,0,0:0:0:0:
303,80,42540,1,0,0:0:0:0:
332,169,42712,1,0,0:0:0:0:
374,263,42883,1,0,0:0:0:0:
323,349,43055,1,0,0:0:0:0:
222,352,43226,1,0,0:0:0:0:
159,277,43398,1,0,0:0:0:0:
215,95,43569,5,0,0:0:0:0:
383,54,43741,1,0,0:0:0:0:
418,225,43912,1,0,0:0:0:0:
266,288,44084,1,0,0:0:0:0:
103,206,44256,1,0,0:0:0:0:
158,45,44427,2,0,P|318:122|328:135,1,170
392,284,44942,1,0,0:0:0:0:
