osu file format v14

[General]
AudioFilename: audio.mp3
AudioLeadIn: 0
PreviewTime: -1
Countdown: 1
SampleSet: None
StackLeniency: 0.7
Mode: 0
LetterboxInBreaks: 0
WidescreenStoryboard: 0

[Editor]
DistanceSpacing: 0.9
BeatDivisor: 4
GridSize: 4
TimelineZoom: 1

[Metadata]
Title:Charger (feat. Grace Jones)
TitleUnicode:Charger (feat. Grace Jones)
Artist:Gorillaz
ArtistUnicode:Gorillaz
Creator:despicablealex
Version:Extreme
Source:
Tags:
BeatmapID:1317679
BeatmapSetID:625289

[Difficulty]
HPDrainRate:10
CircleSize:7
OverallDifficulty:10
ApproachRate:10
SliderMultiplier:1.4
SliderTickRate:1

[Events]
//Background and Video events
0,0,"Gorillaz-Humanz-album-cover-art.jpg",0,0
//Break Periods
//Storyboard Layer 0 (Background)
//Storyboard Layer 1 (Fail)
//Storyboard Layer 2 (Pass)
//Storyboard Layer 3 (Foreground)
//Storyboard Sound Samples

[TimingPoints]
0,468.75,4,1,0,100,1,0

[Colours]
Combo1 : 128,255,128
Combo2 : 255,128,128
Combo3 : 0,242,242
Combo4 : 255,255,128

[HitObjects]
128,64,13828,5,0,0:0:0:0:
132,76,14648,1,0,0:0:0:0:
132,88,15585,1,0,0:0:0:0:
128,104,16406,1,0,0:0:0:0:
128,120,17343,1,0,0:0:0:0:
124,136,18164,1,0,0:0:0:0:
124,152,19101,1,0,0:0:0:0:
124,164,19921,1,0,0:0:0:0:
124,180,20742,1,0,0:0:0:0:
120,192,21562,1,0,0:0:0:0:
120,208,22500,1,0,0:0:0:0:
120,224,23437,1,0,0:0:0:0:
120,236,24257,1,0,0:0:0:0:
120,244,25078,1,0,0:0:0:0:
120,252,25898,1,0,0:0:0:0:
120,264,26718,1,0,0:0:0:0:
120,272,27421,1,0,0:0:0:0:
192,152,28125,5,0,0:0:0:0:
300,144,28593,1,0,0:0:0:0:
296,224,29179,1,0,0:0:0:0:
268,128,29765,5,0,0:0:0:0:
216,168,30351,1,0,0:0:0:0:
228,192,30703,1,0,0:0:0:0:
228,192,30937,1,0,0:0:0:0:
228,192,31171,1,0,0:0:0:0:
288,148,31523,1,0,0:0:0:0:
236,200,31992,1,0,0:0:0:0:
192,200,32343,1,0,0:0:0:0:
156,160,32812,1,0,0:0:0:0:
156,160,33046,1,0,0:0:0:0:
156,160,33164,1,0,0:0:0:0:
156,160,33398,1,0,0:0:0:0:
156,160,33632,1,0,0:0:0:0:
156,160,33867,1,0,0:0:0:0:
156,160,33984,1,0,0:0:0:0:
156,160,34218,1,0,0:0:0:0:
156,160,34453,1,0,0:0:0:0:
220,144,35156,5,0,0:0:0:0:
220,144,35625,1,0,0:0:0:0:
220,144,36093,1,0,0:0:0:0:
200,144,36796,5,0,0:0:0:0:
200,144,37031,1,0,0:0:0:0:
200,144,37265,1,0,0:0:0:0:
200,144,37617,1,0,0:0:0:0:
200,144,37851,1,0,0:0:0:0:
200,144,38085,1,0,0:0:0:0:
216,128,38671,5,0,0:0:0:0:
216,128,38906,1,0,0:0:0:0:
216,128,39140,1,0,0:0:0:0:
216,128,39375,1,0,0:0:0:0:
216,128,39609,1,0,0:0:0:0:
216,128,39843,1,0,0:0:0:0:
216,128,40312,1,0,0:0:0:0:
216,128,40546,1,0,0:0:0:0:
216,128,40781,1,0,0:0:0:0:
216,128,41132,1,0,0:0:0:0:
216,128,41484,1,0,0:0:0:0:
216,128,41953,5,0,0:0:0:0:
216,128,42187,1,0,0:0:0:0:
216,128,42539,1,0,0:0:0:0:
216,128,42890,1,0,0:0:0:0:
112,120,43710,5,0,0:0:0:0:
112,120,43945,1,0,0:0:0:0:
112,120,44179,1,0,0:0:0:0:
112,120,44414,1,0,0:0:0:0:
112,120,44648,1,0,0:0:0:0:
112,120,44765,1,0,0:0:0:0:
256,108,45585,5,0,0:0:0:0:
256,108,45820,1,0,0:0:0:0:
256,108,46054,1,0,0:0:0:0:
256,108,46171,1,0,0:0:0:0:
256,108,46406,1,0,0:0:0:0:
256,108,46640,1,0,0:0:0:0:
256,108,46875,1,0,0:0:0:0:
256,108,47109,1,0,0:0:0:0:
256,108,47343,1,0,0:0:0:0:
256,108,47578,1,0,0:0:0:0:
256,108,47812,1,0,0:0:0:0:
256,108,48046,1,0,0:0:0:0:
256,108,48281,1,0,0:0:0:0:
256,108,48515,1,0,0:0:0:0:
256,108,48984,5,0,0:0:0:0:
256,108,49218,1,0,0:0:0:0:
256,108,49570,1,0,0:0:0:0:
256,108,49921,1,0,0:0:0:0:
104,108,50742,5,0,0:0:0:0:
104,108,50976,1,0,0:0:0:0:
104,108,51210,1,0,0:0:0:0:
104,108,51445,1,0,0:0:0:0:
104,108,51679,1,0,0:0:0:0:
104,108,51914,1,0,0:0:0:0:
208,104,53085,5,0,0:0:0:0:
208,104,53320,1,0,0:0:0:0:
208,104,53554,1,0,0:0:0:0:
208,104,53789,1,0,0:0:0:0:
208,104,54023,1,0,0:0:0:0:
208,104,54257,1,0,0:0:0:0:
208,104,54492,1,0,0:0:0:0:
208,104,54726,1,0,0:0:0:0:
208,104,54960,1,0,0:0:0:0:
208,104,55195,1,0,0:0:0:0:
208,104,55429,1,0,0:0:0:0:
244,104,55664,1,0,0:0:0:0:
248,104,55898,1,0,0:0:0:0:
248,100,56132,1,0,0:0:0:0:
248,100,56367,1,0,0:0:0:0:
248,100,56601,1,0,0:0:0:0:
248,104,56835,1,0,0:0:0:0:
248,100,57421,5,0,0:0:0:0:
96,80,58476,1,0,0:0:0:0:
176,80,59531,5,0,0:0:0:0:
176,80,60000,1,0,0:0:0:0:
176,80,60468,1,0,0:0:0:0:
224,108,61171,5,0,0:0:0:0:
224,108,61406,1,0,0:0:0:0:
224,108,61640,1,0,0:0:0:0:
224,108,61875,1,0,0:0:0:0:
224,108,62109,1,0,0:0:0:0:
224,108,62343,1,0,0:0:0:0:
232,108,62812,5,0,0:0:0:0:
232,108,63164,1,0,0:0:0:0:
232,108,63515,1,0,0:0:0:0:
232,108,63867,1,0,0:0:0:0:
232,108,64453,5,0,0:0:0:0:
232,108,64687,1,0,0:0:0:0:
232,108,64921,1,0,0:0:0:0:
232,108,65156,1,0,0:0:0:0:
232,108,65390,1,0,0:0:0:0:
232,108,65625,1,0,0:0:0:0:
232,108,65859,1,0,0:0:0:0:
232,108,66093,1,0,0:0:0:0:
232,108,66562,5,0,0:0:0:0:
232,108,66914,1,0,0:0:0:0:
232,108,67148,1,0,0:0:0:0:
232,108,67500,1,0,0:0:0:0:
232,108,67734,1,0,0:0:0:0:
176,116,67968,1,0,0:0:0:0:
172,116,68203,1,0,0:0:0:0:
172,112,68437,1,0,0:0:0:0:
172,112,68671,1,0,0:0:0:0:
172,112,68906,1,0,0:0:0:0:
172,116,69140,1,0,0:0:0:0:
172,112,69375,1,0,0:0:0:0:
172,112,69609,1,0,0:0:0:0:
172,112,69843,1,0,0:0:0:0:
172,116,70078,1,0,0:0:0:0:
172,112,70312,1,0,0:0:0:0:
172,112,70429,1,0,0:0:0:0:
172,112,70664,1,0,0:0:0:0:
172,116,70898,1,0,0:0:0:0:
176,112,71132,1,0,0:0:0:0:
176,112,71367,1,0,0:0:0:0:
176,112,71601,1,0,0:0:0:0:
176,112,71835,1,0,0:0:0:0:
176,112,72070,1,0,0:0:0:0:
176,112,72304,1,0,0:0:0:0:
176,112,72539,1,0,0:0:0:0:
176,112,72773,1,0,0:0:0:0:
176,112,73007,1,0,0:0:0:0:
176,112,73242,1,0,0:0:0:0:
176,112,73476,1,0,0:0:0:0:
176,112,73593,1,0,0:0:0:0:
176,112,73828,1,0,0:0:0:0:
176,112,74062,1,0,0:0:0:0:
176,112,74296,1,0,0:0:0:0:
176,112,74531,1,0,0:0:0:0:
176,112,74765,1,0,0:0:0:0:
176,112,75117,1,0,0:0:0:0:
176,112,75351,1,0,0:0:0:0:
176,112,75585,1,0,0:0:0:0:
232,132,75820,1,0,0:0:0:0:
300,180,76054,1,0,0:0:0:0:
240,164,76289,1,0,0:0:0:0:
152,112,76640,1,0,0:0:0:0:
184,96,76992,1,0,0:0:0:0:
256,124,77343,1,0,0:0:0:0:
180,180,77695,1,0,0:0:0:0:
244,112,78046,1,0,0:0:0:0:
208,172,78398,1,0,0:0:0:0:
132,124,78984,1,0,0:0:0:0:
288,64,79335,1,0,0:0:0:0:
128,172,79687,1,0,0:0:0:0:
340,176,80039,1,0,0:0:0:0:
120,212,80390,1,0,0:0:0:0:
200,108,80742,1,0,0:0:0:0:
256,104,81093,1,0,0:0:0:0:
252,232,81445,1,0,0:0:0:0:
316,140,81914,1,0,0:0:0:0:
160,192,82265,1,0,0:0:0:0:
264,272,82617,1,0,0:0:0:0:
100,240,82968,1,0,0:0:0:0:
144,136,83671,5,0,0:0:0:0:
200,120,84023,1,0,0:0:0:0:
288,124,84375,1,0,0:0:0:0:
348,212,84726,1,0,0:0:0:0:
140,208,85546,5,0,0:0:0:0:
140,208,85781,1,0,0:0:0:0:
192,188,86015,1,0,0:0:0:0:
248,168,86250,1,0,0:0:0:0:
312,112,86484,1,0,0:0:0:0:
312,112,86718,1,0,0:0:0:0:
196,136,87304,5,0,0:0:0:0:
196,136,87539,1,0,0:0:0:0:
204,140,87773,1,0,0:0:0:0:
240,164,88007,1,0,0:0:0:0:
248,172,88242,1,0,0:0:0:0:
256,184,88359,1,0,0:0:0:0:
264,192,88593,1,0,0:0:0:0:
268,192,88828,1,0,0:0:0:0:
272,196,89062,1,0,0:0:0:0:
272,200,89296,1,0,0:0:0:0:
272,200,89531,1,0,0:0:0:0:
272,200,89765,1,0,0:0:0:0:
264,160,90351,5,0,0:0:0:0:
160,136,90703,1,0,0:0:0:0:
160,136,90937,1,0,0:0:0:0:
160,156,91171,1,0,0:0:0:0:
160,156,91523,1,0,0:0:0:0:
272,128,92343,5,0,0:0:0:0:
272,128,92578,1,0,0:0:0:0:
220,140,92812,1,0,0:0:0:0:
216,144,93046,1,0,0:0:0:0:
212,152,93281,1,0,0:0:0:0:
220,164,93515,1,0,0:0:0:0:
220,168,93750,1,0,0:0:0:0:
224,168,93867,1,0,0:0:0:0:
252,172,94218,1,0,0:0:0:0:
256,180,94453,1,0,0:0:0:0:
244,184,94687,1,0,0:0:0:0:
224,200,94921,1,0,0:0:0:0:
212,208,95156,1,0,0:0:0:0:
208,216,95390,1,0,0:0:0:0:
224,224,95625,1,0,0:0:0:0:
232,232,95859,1,0,0:0:0:0:
208,240,96093,1,0,0:0:0:0:
188,244,96328,1,0,0:0:0:0:
168,240,96562,1,0,0:0:0:0:
160,232,96796,1,0,0:0:0:0:
152,224,96914,1,0,0:0:0:0:
156,156,97617,5,0,0:0:0:0:
156,156,97851,1,0,0:0:0:0:
156,156,98085,1,0,0:0:0:0:
156,156,98320,1,0,0:0:0:0:
156,156,98437,1,0,0:0:0:0:
156,156,98671,1,0,0:0:0:0:
176,152,99257,5,0,0:0:0:0:
176,152,99609,1,0,0:0:0:0:
184,148,99843,1,0,0:0:0:0:
196,148,100078,1,0,0:0:0:0:
200,148,100312,1,0,0:0:0:0:
200,144,100546,1,0,0:0:0:0:
200,144,100664,1,0,0:0:0:0:
216,144,100898,1,0,0:0:0:0:
224,148,101250,1,0,0:0:0:0:
228,160,101484,1,0,0:0:0:0:
224,176,101718,1,0,0:0:0:0:
184,216,101953,1,0,0:0:0:0:
136,108,102187,1,0,0:0:0:0:
244,152,102656,1,0,0:0:0:0:
196,184,103007,1,0,0:0:0:0:
196,184,103242,1,0,0:0:0:0:
196,184,103476,1,0,0:0:0:0:
196,184,103710,1,0,0:0:0:0:
196,184,103945,1,0,0:0:0:0:
252,128,104414,1,0,0:0:0:0:
252,128,104531,1,0,0:0:0:0:
252,128,104765,1,0,0:0:0:0:
252,128,105000,1,0,0:0:0:0:
252,128,105234,1,0,0:0:0:0:
252,128,105468,1,0,0:0:0:0:
252,128,105937,5,0,0:0:0:0:
204,128,106171,1,0,0:0:0:0:
184,136,106406,1,0,0:0:0:0:
176,160,106640,1,0,0:0:0:0:
184,164,106875,1,0,0:0:0:0:
192,168,107109,1,0,0:0:0:0:
204,164,107343,1,0,0:0:0:0:
220,160,107578,1,0,0:0:0:0:
220,160,107812,1,0,0:0:0:0:
224,152,108046,1,0,0:0:0:0:
232,144,108164,1,0,0:0:0:0:
240,136,108398,1,0,0:0:0:0:
240,132,108632,1,0,0:0:0:0:
260,132,108867,1,0,0:0:0:0:
276,144,109101,1,0,0:0:0:0:
288,160,109335,1,0,0:0:0:0:
288,172,109570,1,0,0:0:0:0:
280,180,109804,1,0,0:0:0:0:
264,188,110039,1,0,0:0:0:0:
248,192,110273,1,0,0:0:0:0:
224,192,110507,1,0,0:0:0:0:
212,148,111210,5,0,0:0:0:0:
216,140,111445,1,0,0:0:0:0:
216,140,111679,1,0,0:0:0:0:
216,140,111914,1,0,0:0:0:0:
216,140,112148,1,0,0:0:0:0:
216,140,112265,1,0,0:0:0:0:
216,140,112500,1,0,0:0:0:0:
216,140,112734,1,0,0:0:0:0:
216,140,112968,1,0,0:0:0:0:
216,140,113203,1,0,0:0:0:0:
252,148,113437,1,0,0:0:0:0:
240,176,113671,1,0,0:0:0:0:
216,188,113906,1,0,0:0:0:0:
104,96,114257,1,0,0:0:0:0:
292,140,114609,1,0,0:0:0:0:
136,192,114843,1,0,0:0:0:0:
328,136,115195,1,0,0:0:0:0:
308,96,115429,1,0,0:0:0:0:
120,148,115781,1,0,0:0:0:0:
252,148,116132,1,0,0:0:0:0:
156,224,116484,1,0,0:0:0:0:
112,212,116718,1,0,0:0:0:0:
200,108,116953,1,0,0:0:0:0:
264,124,117304,1,0,0:0:0:0:
120,200,117656,1,0,0:0:0:0:
144,92,118125,1,0,0:0:0:0:
352,208,118476,1,0,0:0:0:0:
32,204,118945,1,0,0:0:0:0:
212,124,119296,1,0,0:0:0:0:
172,248,119648,1,0,0:0:0:0:
108,136,120000,1,0,0:0:0:0:
312,180,120351,1,0,0:0:0:0:
160,228,120703,1,0,0:0:0:0:
132,160,121289,1,0,0:0:0:0:
228,144,121640,1,0,0:0:0:0:
184,160,122226,1,0,0:0:0:0:
372,80,122812,1,0,0:0:0:0:
160,68,123281,1,0,0:0:0:0:
256,164,123632,1,0,0:0:0:0:
168,184,123984,1,0,0:0:0:0:
212,120,124218,1,0,0:0:0:0:
352,132,124687,1,0,0:0:0:0:
192,200,125039,1,0,0:0:0:0:
192,112,125507,1,0,0:0:0:0:
192,112,125742,1,0,0:0:0:0:
192,112,125976,1,0,0:0:0:0:
256,108,126210,1,0,0:0:0:0:
284,108,126562,1,0,0:0:0:0:
224,172,126914,1,0,0:0:0:0:
148,172,127265,1,0,0:0:0:0:
144,164,127617,1,0,0:0:0:0:
152,144,127851,1,0,0:0:0:0:
160,120,128085,1,0,0:0:0:0:
196,116,128320,1,0,0:0:0:0:
212,116,128437,1,0,0:0:0:0:
232,132,128671,1,0,0:0:0:0:
252,152,128906,1,0,0:0:0:0:
252,152,129375,5,0,0:0:0:0:
252,152,129609,1,0,0:0:0:0:
240,156,129843,1,0,0:0:0:0:
224,160,130078,1,0,0:0:0:0:
208,168,130312,1,0,0:0:0:0:
200,176,130429,1,0,0:0:0:0:
192,188,130664,1,0,0:0:0:0:
196,200,131015,1,0,0:0:0:0:
212,208,131250,1,0,0:0:0:0:
224,208,131367,1,0,0:0:0:0:
256,208,131601,1,0,0:0:0:0:
256,208,131835,1,0,0:0:0:0:
264,200,132070,1,0,0:0:0:0:
272,196,132304,1,0,0:0:0:0:
272,184,132539,1,0,0:0:0:0:
272,172,132773,1,0,0:0:0:0:
268,164,133007,1,0,0:0:0:0:
268,160,133125,1,0,0:0:0:0:
240,152,133359,1,0,0:0:0:0:
224,148,133593,1,0,0:0:0:0:
200,152,133828,1,0,0:0:0:0:
180,164,134062,1,0,0:0:0:0:
168,172,134296,1,0,0:0:0:0:
168,184,134531,1,0,0:0:0:0:
164,192,134765,1,0,0:0:0:0:
168,204,135000,1,0,0:0:0:0:
176,212,135234,1,0,0:0:0:0:
188,228,135468,1,0,0:0:0:0:
208,232,135703,1,0,0:0:0:0:
228,224,135820,1,0,0:0:0:0:
240,216,136054,1,0,0:0:0:0:
244,208,136289,1,0,0:0:0:0:
248,200,136523,1,0,0:0:0:0:
240,192,136757,1,0,0:0:0:0:
232,184,136992,1,0,0:0:0:0:
216,176,137226,1,0,0:0:0:0:
204,176,137460,1,0,0:0:0:0:
184,192,137695,1,0,0:0:0:0:
180,208,137929,1,0,0:0:0:0:
184,224,138164,1,0,0:0:0:0:
204,240,138398,1,0,0:0:0:0:
224,224,138750,1,0,0:0:0:0:
224,212,139101,5,0,0:0:0:0:
224,212,139335,1,0,0:0:0:0:
216,208,139570,1,0,0:0:0:0:
216,208,139804,1,0,0:0:0:0:
208,204,140039,1,0,0:0:0:0:
196,196,140273,1,0,0:0:0:0:
184,192,140507,1,0,0:0:0:0:
184,192,140742,1,0,0:0:0:0:
176,184,140976,1,0,0:0:0:0:
176,180,141210,1,0,0:0:0:0:
180,172,141445,1,0,0:0:0:0:
184,164,141562,1,0,0:0:0:0:
192,156,141914,1,0,0:0:0:0:
200,152,142031,1,0,0:0:0:0:
204,148,142265,1,0,0:0:0:0:
212,144,142500,1,0,0:0:0:0:
236,148,142734,1,0,0:0:0:0:
260,160,142968,1,0,0:0:0:0:
264,172,143203,1,0,0:0:0:0:
252,184,143437,1,0,0:0:0:0:
236,196,143671,1,0,0:0:0:0:
208,204,144023,1,0,0:0:0:0:
176,204,144140,1,0,0:0:0:0:
168,192,144492,1,0,0:0:0:0:
168,184,144726,1,0,0:0:0:0:
168,172,144960,1,0,0:0:0:0:
172,164,145195,1,0,0:0:0:0:
192,160,145429,1,0,0:0:0:0:
196,160,145664,1,0,0:0:0:0:
208,160,145898,1,0,0:0:0:0:
220,168,146132,1,0,0:0:0:0:
224,172,146367,1,0,0:0:0:0:
224,176,146601,1,0,0:0:0:0:
228,184,146835,1,0,0:0:0:0:
224,188,147070,1,0,0:0:0:0:
224,192,147304,1,0,0:0:0:0:
216,196,147539,1,0,0:0:0:0:
212,200,147773,1,0,0:0:0:0:
204,200,148007,1,0,0:0:0:0:
200,200,148242,1,0,0:0:0:0:
196,200,148476,1,0,0:0:0:0:
192,200,148710,1,0,0:0:0:0:
192,200,149062,1,0,0:0:0:0:
176,80,149414,1,0,0:0:0:0:
228,72,149765,1,0,0:0:0:0:
240,92,150117,1,0,0:0:0:0:
196,128,150703,1,0,0:0:0:0:
324,88,151054,1,0,0:0:0:0:
232,160,151406,1,0,0:0:0:0:
352,80,151757,1,0,0:0:0:0:
92,64,152109,1,0,0:0:0:0:
288,184,152460,1,0,0:0:0:0:
128,220,152812,1,0,0:0:0:0:
240,76,153164,1,0,0:0:0:0:
288,244,153515,1,0,0:0:0:0:
200,276,154182,1,0,0:0:0:0:
192,152,154335,1,0,0:0:0:0:
232,128,154804,1,0,0:0:0:0:
272,192,155156,1,0,0:0:0:0:
212,240,155507,1,0,0:0:0:0:
328,216,155859,1,0,0:0:0:0:
212,156,156210,1,0,0:0:0:0:
248,132,156445,1,0,0:0:0:0:
296,120,156796,1,0,0:0:0:0:
188,176,157148,1,0,0:0:0:0:
216,216,157500,1,0,0:0:0:0:
92,264,157851,1,0,0:0:0:0:
92,264,158085,1,0,0:0:0:0:
124,188,158671,5,0,0:0:0:0:
196,136,159140,1,0,0:0:0:0:
208,136,159492,1,0,0:0:0:0:
148,224,159726,1,0,0:0:0:0:
256,216,160078,1,0,0:0:0:0:
296,204,160312,1,0,0:0:0:0:
112,80,161132,1,0,0:0:0:0:
180,68,161484,1,0,0:0:0:0:
300,96,161835,1,0,0:0:0:0:
124,184,162187,1,0,0:0:0:0:
432,200,162539,1,0,0:0:0:0:
112,212,163007,1,0,0:0:0:0:
356,124,163359,1,0,0:0:0:0:
212,184,163828,1,0,0:0:0:0:
344,216,164179,1,0,0:0:0:0:
168,236,164531,1,0,0:0:0:0:
320,136,164882,1,0,0:0:0:0:
144,200,165234,1,0,0:0:0:0:
300,244,165585,1,0,0:0:0:0:
184,184,166054,1,0,0:0:0:0:
280,148,166406,1,0,0:0:0:0:
288,152,166875,5,0,0:0:0:0:
176,176,167226,1,0,0:0:0:0:
256,200,167460,1,0,0:0:0:0:
288,208,167695,1,0,0:0:0:0:
136,224,168164,1,0,0:0:0:0:
336,200,168632,1,0,0:0:0:0:
136,160,168984,1,0,0:0:0:0:
340,160,169335,1,0,0:0:0:0:
188,176,169687,1,0,0:0:0:0:
292,192,169921,1,0,0:0:0:0:
284,208,170156,1,0,0:0:0:0:
208,220,170390,1,0,0:0:0:0:
284,216,170742,1,0,0:0:0:0:
220,188,171210,1,0,0:0:0:0:
308,136,171679,1,0,0:0:0:0:
156,184,172031,1,0,0:0:0:0:
348,192,172382,1,0,0:0:0:0:
216,208,172734,1,0,0:0:0:0:
276,216,173085,1,0,0:0:0:0:
316,216,173320,1,0,0:0:0:0:
192,124,174140,5,0,0:0:0:0:
340,112,174492,1,0,0:0:0:0:
212,196,174843,1,0,0:0:0:0:
400,176,175195,1,0,0:0:0:0:
208,184,175546,1,0,0:0:0:0:
308,160,175898,1,0,0:0:0:0:
300,144,176250,1,0,0:0:0:0:
244,124,176718,1,0,0:0:0:0:
368,120,177070,1,0,0:0:0:0:
272,168,177421,1,0,0:0:0:0:
396,176,177890,1,0,0:0:0:0:
292,196,178242,1,0,0:0:0:0:
232,100,178828,1,0,0:0:0:0:
456,80,179179,1,0,0:0:0:0:
100,224,179531,1,0,0:0:0:0:
396,156,179882,1,0,0:0:0:0:
240,172,180234,1,0,0:0:0:0:
376,136,180585,1,0,0:0:0:0:
160,160,180937,1,0,0:0:0:0:
376,168,181289,1,0,0:0:0:0:
336,192,181640,1,0,0:0:0:0:
164,200,181875,1,0,0:0:0:0:
256,168,182109,1,0,0:0:0:0:
368,128,182343,1,0,0:0:0:0:
256,140,182578,1,0,0:0:0:0:
208,144,182812,1,0,0:0:0:0:
312,144,183046,1,0,0:0:0:0:
336,148,183398,1,0,0:0:0:0:
160,160,183632,1,0,0:0:0:0:
224,156,183867,1,0,0:0:0:0:
112,88,183984,1,0,0:0:0:0:
240,60,184335,1,0,0:0:0:0:
44,160,184687,1,0,0:0:0:0:
248,200,185039,1,0,0:0:0:0:
96,220,185390,1,0,0:0:0:0:
300,200,185742,1,0,0:0:0:0:
232,96,186093,1,0,0:0:0:0:
96,144,186445,1,0,0:0:0:0:
268,152,186914,1,0,0:0:0:0:
128,212,187265,1,0,0:0:0:0:
344,172,187617,1,0,0:0:0:0:
152,128,188085,1,0,0:0:0:0:
308,136,188437,1,0,0:0:0:0:
176,184,188671,1,0,0:0:0:0:
112,120,189492,5,0,0:0:0:0:
112,120,189609,1,0,0:0:0:0:
136,120,189843,1,0,0:0:0:0:
136,120,190078,1,0,0:0:0:0:
144,124,190195,1,0,0:0:0:0:
148,124,190429,1,0,0:0:0:0:
152,128,190664,1,0,0:0:0:0:
156,136,190898,1,0,0:0:0:0:
160,144,191132,1,0,0:0:0:0:
160,144,191367,1,0,0:0:0:0:
156,152,191601,1,0,0:0:0:0:
152,160,191835,1,0,0:0:0:0:
148,164,192070,1,0,0:0:0:0:
144,168,192304,1,0,0:0:0:0:
140,176,192539,1,0,0:0:0:0:
144,180,192773,1,0,0:0:0:0:
148,196,193125,1,0,0:0:0:0:
152,200,193242,1,0,0:0:0:0:
160,208,193593,1,0,0:0:0:0:
164,208,193828,1,0,0:0:0:0:
168,208,193945,1,0,0:0:0:0:
180,208,194296,1,0,0:0:0:0:
184,208,194531,1,0,0:0:0:0:
192,208,194765,1,0,0:0:0:0:
192,208,195000,1,0,0:0:0:0:
200,208,195117,1,0,0:0:0:0:
208,204,195351,1,0,0:0:0:0:
212,200,195585,1,0,0:0:0:0:
216,200,195820,1,0,0:0:0:0:
232,192,196171,1,0,0:0:0:0:
232,192,196406,1,0,0:0:0:0:
236,188,196640,1,0,0:0:0:0:
236,184,196875,1,0,0:0:0:0:
236,180,197109,1,0,0:0:0:0:
236,176,197343,1,0,0:0:0:0:
236,172,197695,1,0,0:0:0:0:
236,168,197929,1,0,0:0:0:0:
232,168,198164,1,0,0:0:0:0:
224,160,198515,1,0,0:0:0:0:
220,160,198750,1,0,0:0:0:0:
220,156,199101,1,0,0:0:0:0:
220,152,199335,1,0,0:0:0:0:
220,152,199570,1,0,0:0:0:0:
220,148,199804,1,0,0:0:0:0:
224,148,200039,1,0,0:0:0:0:
224,144,200273,1,0,0:0:0:0:
224,144,200507,1,0,0:0:0:0:
224,144,200742,1,0,0:0:0:0:
228,140,200976,1,0,0:0:0:0:
232,136,201210,1,0,0:0:0:0:
236,136,201562,1,0,0:0:0:0:
236,136,201796,1,0,0:0:0:0:
248,136,202031,1,0,0:0:0:0:
248,136,202382,1,0,0:0:0:0:
252,136,202617,1,0,0:0:0:0:
256,136,202851,1,0,0:0:0:0:
256,136,203085,1,0,0:0:0:0:
256,136,203437,1,0,0:0:0:0:
260,136,203671,1,0,0:0:0:0:
260,136,203906,1,0,0:0:0:0:
264,144,204257,1,0,0:0:0:0:
268,144,204492,1,0,0:0:0:0:
268,144,204726,1,0,0:0:0:0:
268,148,204960,1,0,0:0:0:0:
268,148,205195,1,0,0:0:0:0:
268,152,205429,1,0,0:0:0:0:
268,152,205664,1,0,0:0:0:0:
268,148,205898,1,0,0:0:0:0:
268,152,206132,1,0,0:0:0:0:
268,152,206367,1,0,0:0:0:0:
268,156,206718,1,0,0:0:0:0:
268,160,206953,1,0,0:0:0:0:
268,160,207187,1,0,0:0:0:0:
268,164,207421,1,0,0:0:0:0:
264,164,207656,1,0,0:0:0:0:
264,168,207890,1,0,0:0:0:0:
260,172,208242,1,0,0:0:0:0:
260,172,208476,1,0,0:0:0:0:
256,176,208710,1,0,0:0:0:0:
252,180,208945,1,0,0:0:0:0:
248,184,209296,1,0,0:0:0:0:
248,184,209531,1,0,0:0:0:0:
248,188,209765,1,0,0:0:0:0:
252,196,210117,1,0,0:0:0:0:
252,196,210351,1,0,0:0:0:0:
256,200,210703,1,0,0:0:0:0:
256,204,210937,1,0,0:0:0:0:
256,208,211289,1,0,0:0:0:0:
252,208,211523,1,0,0:0:0:0:
248,212,211757,1,0,0:0:0:0:
248,212,211992,1,0,0:0:0:0:
248,212,212226,1,0,0:0:0:0:
