osu file format v14

[General]
AudioFilename: audio.mp3
AudioLeadIn: 0
PreviewTime: -1
Countdown: 0
SampleSet: Normal
StackLeniency: 0.7
Mode: 0
LetterboxInBreaks: 0
WidescreenStoryboard: 1

[Editor]
Bookmarks: 53360,125901
DistanceSpacing: 0.3
BeatDivisor: 8
GridSize: 32
TimelineZoom: 2.699999

[Metadata]
Title:Detki Tancuyut
TitleUnicode:Detki Tancuyut
Artist:Gorilla Zippo (Basta)
ArtistUnicode:Gorilla Zippo (Basta)
Creator:WillyFoxxx
Version:Insane
Source:Gorilla Zippo (Basta)
Tags:Basta Noggano EDM Dance Gorilla Zippo RU Russian Russia Electro House
BeatmapID:4512336
BeatmapSetID:2143413

[Difficulty]
HPDrainRate:7
CircleSize:3
OverallDifficulty:4
ApproachRate:9
SliderMultiplier:3.49999990463257
SliderTickRate:2

[Events]
//Background and Video events
0,0,"black 1920x1080.jpg",0,0
//Break Periods
2,94625,96560
2,121920,123184
//Storyboard Layer 0 (Background)
//Storyboard Layer 1 (Fail)
//Storyboard Layer 2 (Pass)
//Storyboard Layer 3 (Foreground)
//Storyboard Layer 4 (Overlay)
//Storyboard Sound Samples

[TimingPoints]
0,491.803278688525,4,1,0,77,1,0

[HitObjects]
256,192,13278,12,0,15245,0:0:0:0:
89,112,15737,6,0,P|107:72|137:41,1,87.4999976158143
204,106,15983,2,0,P|243:100|293:110,1,87.4999976158143
278,194,16229,2,0,P|317:212|346:245,1,87.4999976158143
253,286,16475,2,0,P|250:330|218:376,1,87.4999976158143
161,262,16721,2,0,P|215:169|220:167,2,87.4999976158143
187,57,17213,1,0,0:0:0:0:
179,54,17336,1,0,0:0:0:0:
171,52,17459,2,0,P|82:67|76:71,1,87.4999976158143
145,142,17704,2,0,P|191:168|260:161,1,87.4999976158143
299,221,17950,2,0,P|324:182|331:135,1,87.4999976158143
296,50,18196,2,0,P|250:63|213:95,1,87.4999976158143
136,57,18442,2,0,P|117:125|126:159,1,87.4999976158143
153,253,18688,2,0,P|107:243|73:210,2,87.4999976158143
304,278,19180,1,0,0:0:0:0:
310,284,19303,1,0,0:0:0:0:
317,289,19426,2,0,P|361:308|413:304,1,87.4999976158143
397,204,19672,2,0,P|390:161|366:126,1,87.4999976158143
281,184,19918,2,0,P|189:146|183:147,1,87.4999976158143
110,161,20163,2,0,P|83:76|84:71,1,87.4999976158143
182,55,20409,2,0,P|224:29|267:22,1,87.4999976158143
316,100,20655,2,0,P|360:102|398:124,2,87.4999976158143
406,302,21147,1,0,0:0:0:0:
412,296,21270,1,0,0:0:0:0:
417,290,21393,2,0,P|436:246|432:194,1,87.4999976158143
385,110,21639,2,0,P|285:92|264:96,1,87.4999976158143
189,108,21885,2,0,P|132:203|132:209,1,87.4999976158143
184,288,22131,2,0,P|291:293|297:289,1,87.4999976158143
379,254,22377,2,0,P|405:146|404:141,1,87.4999976158143
347,70,22622,2,0,P|302:65|250:83,2,87.4999976158143
330,178,23114,1,0,0:0:0:0:
323,183,23237,1,0,0:0:0:0:
316,187,23360,2,0,P|272:206|220:202,1,87.4999976158143
144,141,23606,2,0,P|162:45|170:36,1,87.4999976158143
268,41,23852,2,0,P|360:62|368:67,1,87.4999976158143
414,171,24098,2,0,P|329:218|322:218,1,87.4999976158143
207,194,24344,2,0,P|233:104|239:97,1,87.4999976158143
299,198,24590,2,0,P|304:243|286:295,2,87.4999976158143
106,62,25081,2,0,P|58:157|57:169,1,87.4999976158143
85,249,25327,2,0,P|182:295|189:295,1,87.4999976158143
273,302,25573,2,0,P|298:208|296:199,1,87.4999976158143
414,203,25819,2,0,P|478:122|484:119,1,87.4999976158143
404,44,26065,2,0,P|357:49|302:97,1,87.4999976158143
298,171,26311,2,0,P|281:211|251:242,1,87.4999976158143
144,216,26557,2,0,P|117:246|99:296,2,87.4999976158143
437,285,27049,1,0,0:0:0:0:
430,290,27172,1,0,0:0:0:0:
423,294,27295,2,0,P|379:313|327:309,1,87.4999976158143
219,313,27540,2,0,P|168:309|123:275,1,87.4999976158143
76,195,27786,2,0,P|81:134|97:101,1,87.4999976158143
199,134,28032,2,0,P|277:192|285:192,1,87.4999976158143
379,200,28278,2,0,P|457:134|458:131,1,87.4999976158143
403,57,28524,2,0,P|311:88|300:87,1,87.4999976158143
276,199,28770,2,0,P|271:250|245:302,1,87.4999976158143
143,310,29016,2,0,P|90:217|89:204,1,87.4999976158143
111,127,29262,2,0,P|171:56|186:51,1,87.4999976158143
276,52,29508,2,0,P|362:116|366:124,1,87.4999976158143
449,109,29754,2,0,P|428:208|423:216,1,87.4999976158143
362,290,30000,2,0,P|262:272|259:269,3,87.4999976158143
271,265,30491,2,0,P|229:251|186:259,3,87.4999976158143
172,248,30983,2,0,L|117:172,4,87.4999976158143
189,41,31721,1,0,0:0:0:0:
201,43,31844,1,0,0:0:0:0:
147,197,32090,2,0,B|184:274|38:296|74:151|153:196,1,174.999995231629
450,48,32704,1,0,0:0:0:0:
187,281,32950,1,0,0:0:0:0:
193,47,33196,1,0,0:0:0:0:
451,277,33442,1,0,0:0:0:0:
313,150,33688,1,0,0:0:0:0:
324,150,33811,1,0,0:0:0:0:
74,154,34057,2,0,B|156:118|136:186|63:255|252:240|197:147,1,218.749994039536
384,49,34672,2,0,L|464:103,4,87.4999976158143
108,127,35409,1,0,0:0:0:0:
219,268,35594,2,0,P|243:207|314:135,1,131.249996423721
400,289,36024,1,0,0:0:0:0:
384,76,36270,1,0,0:0:0:0:
158,68,36639,1,0,0:0:0:0:
148,63,36762,1,0,0:0:0:0:
137,58,36885,1,0,0:0:0:0:
348,250,37131,1,0,0:0:0:0:
81,263,37377,2,0,B|103:301|149:252|94:217|79:258,3,87.4999976158143
156,56,37991,2,0,P|269:61|397:107,1,218.749994039536
406,281,38606,1,0,0:0:0:0:
185,167,38852,1,0,0:0:0:0:
388,66,39098,1,0,0:0:0:0:
438,246,39344,1,0,0:0:0:0:
216,299,39590,2,0,L|339:133,1,174.999995231629
126,54,40081,1,0,0:0:0:0:
64,248,40327,1,0,0:0:0:0:
151,52,40573,2,0,P|239:76|248:88,4,87.4999976158143
422,188,41311,1,0,0:0:0:0:
217,307,41557,1,0,0:0:0:0:
227,306,41680,1,0,0:0:0:0:
368,148,41987,1,0,0:0:0:0:
183,55,42233,2,0,P|54:263|54:267,1,218.749994039536
57,235,42663,1,0,0:0:0:0:
58,246,42786,1,0,0:0:0:0:
255,294,43032,1,0,0:0:0:0:
364,103,43278,1,0,0:0:0:0:
360,246,43524,1,0,0:0:0:0:
368,253,43647,1,0,0:0:0:0:
132,303,43893,2,0,P|107:183|135:51,1,218.749994039536
317,52,44508,1,0,0:0:0:0:
322,62,44631,1,0,0:0:0:0:
325,72,44754,1,0,0:0:0:0:
89,107,45000,2,0,B|38:259|301:261|271:194|216:59|415:11|521:114|479:322|434:294|260:355|304:185|176:325,2,743.749979734421
95,99,47213,2,0,P|191:54|266:61,1,174.999995231629
261,79,47704,2,0,P|175:78|99:120,1,174.999995231629
104,141,48196,2,0,P|200:96|275:103,1,174.999995231629
270,120,48688,2,0,P|184:119|108:161,2,174.999995231629
228,255,49426,1,0,0:0:0:0:
343,316,49672,2,0,P|458:164|460:157,1,174.999995231629
340,62,50163,1,0,0:0:0:0:
162,124,50409,1,0,0:0:0:0:
152,306,50655,2,0,P|235:281|299:222,1,174.999995231629
417,99,51147,2,0,P|321:54|246:61,1,174.999995231629
250,79,51638,2,0,P|336:78|413:120,1,174.999995231629
408,141,52130,2,0,P|312:96|237:103,1,174.999995231629
241,120,52622,2,0,P|327:119|404:161,2,174.999995231629
284,255,53360,1,0,0:0:0:0:
169,316,53606,2,0,P|54:164|52:157,1,174.999995231629
172,62,54097,1,0,0:0:0:0:
350,124,54343,1,0,0:0:0:0:
359,306,54589,2,0,P|276:281|213:222,1,174.999995231629
135,38,55081,2,0,L|8:166,1,174.999995231629
141,249,55573,2,0,L|209:88,1,174.999995231629
303,88,56065,2,0,L|374:258,1,174.999995231629
500,162,56557,2,0,L|377:38,1,174.999995231629
80,89,57049,2,0,P|112:60|153:43,1,87.4999976158143
200,113,57295,2,0,P|159:130|127:159,1,87.4999976158143
178,226,57540,2,0,P|210:197|251:181,1,87.4999976158143
303,247,57786,2,0,P|262:264|230:293,1,87.4999976158143
307,333,58032,2,0,P|385:277|351:176,1,174.999995231629
152,51,58524,2,0,P|234:76|298:135,1,174.999995231629
377,319,59016,2,0,L|504:191,1,174.999995231629
370,108,59508,2,0,L|302:269,1,174.999995231629
209,269,60000,2,0,L|138:99,1,174.999995231629
12,195,60492,6,0,L|135:319,1,174.999995231629
256,192,60983,12,0,62459,0:0:0:0:
0,146,62889,5,0,0:0:0:0:
1,158,62943,6,0,P|70:221|73:221,1,87.4999976158143
107,154,63189,6,0,P|70:132|53:93,1,87.4999976158143
132,74,63435,6,0,P|159:36|199:19,1,87.4999976158143
251,86,63681,6,0,P|211:103|190:141,1,87.4999976158143
267,172,63927,6,0,P|289:209|326:231,1,87.4999976158143
382,163,64173,6,0,P|344:142|327:102,1,87.4999976158143
404,82,64419,6,0,P|443:64|465:27,1,87.4999976158143
512,106,64665,6,0,P|484:139|444:156,1,87.4999976158143
502,212,64856,1,0,0:0:0:0:
497,222,64911,6,0,P|456:239|408:234,1,87.4999976158143
421,318,65156,6,0,P|375:308|332:265,1,87.4999976158143
301,353,65402,6,0,P|274:321|253:273,1,87.4999976158143
291,194,65648,6,0,P|319:228|339:269,1,87.4999976158143
254,280,65894,6,0,P|183:188|176:121,1,174.999995231629
353,131,66386,6,0,P|303:110|257:100,1,87.4999976158143
204,148,66632,2,0,P|154:123|132:74,1,87.4999976158143
205,51,66816,1,0,0:0:0:0:
210,44,66878,2,0,P|252:19|298:24,1,87.4999976158143
286,103,67124,2,0,P|328:124|355:174,1,87.4999976158143
335,235,67370,2,0,P|293:260|247:255,1,87.4999976158143
275,171,67616,2,0,P|233:150|207:98,1,87.4999976158143
161,53,67861,2,0,P|124:122|137:232,1,174.999995231629
260,145,68352,6,0,P|308:141|364:160,1,87.4999976158143
349,64,68598,6,0,P|390:82|424:137,1,87.4999976158143
473,51,68790,1,0,0:0:0:0:
478,58,68844,6,0,P|498:98|497:160,1,87.4999976158143
450,211,69091,6,0,P|426:173|423:110,1,87.4999976158143
342,120,69337,6,0,P|363:74|413:55,1,87.4999976158143
309,19,69583,6,0,P|281:54|265:107,1,87.4999976158143
297,171,69829,2,0,P|376:123|434:36,1,174.999995231629
297,336,70266,1,0,0:0:0:0:
288,336,70320,2,0,P|241:323|204:289,1,87.4999976158143
145,349,70566,2,0,P|133:306|138:259,1,87.4999976158143
216,291,70758,1,0,0:0:0:0:
218,282,70812,2,0,P|214:239|193:201,1,87.4999976158143
136,264,71058,2,0,P|112:224|112:178,1,87.4999976158143
165,114,71304,2,0,P|114:88|95:42,1,87.4999976158143
176,35,71550,2,0,P|218:56|247:92,1,87.4999976158143
168,127,71796,2,0,P|138:197|214:254,1,174.999995231629
385,118,72233,1,0,0:0:0:0:
385,107,72288,6,0,P|367:68|330:46,1,87.4999976158143
301,120,72534,6,0,P|255:116|212:128,1,87.4999976158143
273,198,72725,1,0,0:0:0:0:
264,203,72779,6,0,P|228:233|215:280,1,87.4999976158143
302,271,73025,2,0,P|348:274|402:225,1,87.4999976158143
331,192,73271,2,0,P|322:147|277:114,1,87.4999976158143
251,189,73517,2,0,P|211:168|161:185,1,87.4999976158143
138,101,73763,2,0,P|89:161|87:270,1,174.999995231629
308,84,74200,1,0,0:0:0:0:
318,80,74255,2,0,L|419:62,1,87.4999976158143
394,149,74501,2,0,L|467:227,1,87.4999976158143
380,252,74692,1,0,0:0:0:0:
376,261,74747,2,0,P|306:320|298:321,1,87.4999976158143
300,226,74993,2,0,P|238:159|235:158,1,87.4999976158143
222,245,75238,2,0,P|158:313|157:317,1,87.4999976158143
250,322,75484,2,0,P|289:305|308:267,1,87.4999976158143
380,216,75730,2,0,P|379:304|329:373,1,174.999995231629
397,154,76167,1,0,0:0:0:0:
407,152,76223,6,0,P|446:136|468:99,1,87.4999976158143
362,220,76406,1,0,0:0:0:0:
373,221,76469,6,0,P|417:224|457:207,1,87.4999976158143
308,268,76659,1,0,0:0:0:0:
315,274,76714,6,0,P|355:292|399:290,1,87.4999976158143
227,275,76898,1,0,0:0:0:0:
230,282,76960,6,0,P|257:317|293:342,1,87.4999976158143
233,212,77144,1,0,0:0:0:0:
223,213,77206,6,0,P|184:229|162:266,1,87.4999976158143
266,146,77390,1,0,0:0:0:0:
257,144,77452,6,0,P|213:141|173:158,1,87.4999976158143
324,96,77636,1,0,0:0:0:0:
315,91,77697,6,0,P|275:73|231:75,1,87.4999976158143
406,91,77882,1,0,0:0:0:0:
400,83,77943,6,0,P|373:48|337:23,1,87.4999976158143
320,111,78189,2,0,P|239:180|239:184,4,87.4999976158143
80,157,78934,6,0,P|161:117|254:134,1,174.999995231629
435,89,79426,2,0,P|358:49|259:60,1,174.999995231629
270,163,79856,1,0,0:0:0:0:
276,156,79912,1,0,0:0:0:0:
475,37,80157,1,0,0:0:0:0:
298,168,80409,2,0,P|257:184|217:171,2,87.4999976158143
94,18,80901,2,0,P|163:71|256:88,1,174.999995231629
420,94,81393,2,0,P|351:152|252:163,1,174.999995231629
242,229,81823,1,0,0:0:0:0:
236,222,81879,1,0,0:0:0:0:
37,103,82125,1,0,0:0:0:0:
217,217,82377,2,0,P|258:230|298:215,2,87.4999976158143
69,122,82868,2,0,P|238:122|244:119,1,174.999995231629
444,193,83360,2,0,P|359:212|274:193,1,174.999995231629
274,286,83790,1,0,0:0:0:0:
280,280,83847,1,0,0:0:0:0:
479,161,84094,1,0,0:0:0:0:
296,295,84344,2,0,P|255:311|215:298,2,87.4999976158143
67,207,84836,2,0,P|236:207|242:204,1,174.999995231629
446,285,85328,2,0,P|359:304|276:285,1,174.999995231629
237,352,85758,1,0,0:0:0:0:
232,346,85816,1,0,0:0:0:0:
33,227,86063,1,0,0:0:0:0:
216,345,86311,2,0,P|257:358|297:343,2,87.4999976158143
91,286,86803,2,0,P|183:269|250:200,1,174.999995231629
434,343,87295,2,0,P|346:341|271:300,1,174.999995231629
371,187,87663,1,0,0:0:0:0:
337,167,87786,1,0,0:0:0:0:
298,156,87909,1,0,0:0:0:0:
257,153,88032,1,0,0:0:0:0:
216,155,88155,2,0,P|171:166|130:195,5,87.4999976158143
396,63,89016,1,0,0:0:0:0:
449,253,89262,1,0,0:0:0:0:
252,322,89508,1,0,0:0:0:0:
147,133,89754,1,0,0:0:0:0:
344,252,90000,1,0,0:0:0:0:
164,121,90245,1,0,0:0:0:0:
416,115,90491,2,0,P|382:219|379:222,1,87.4999976158143
344,142,90737,2,0,P|309:228|301:236,1,87.4999976158143
270,159,90983,2,0,P|214:238|209:241,1,87.4999976158143
192,162,91229,2,0,P|117:227|112:229,1,87.4999976158143
115,149,91475,2,0,P|69:185|47:240,1,87.4999976158143
105,9,91721,2,0,P|166:62|259:80,1,174.999995231629
414,81,92090,1,0,0:0:0:0:
409,90,92213,2,0,P|348:143|255:161,1,174.999995231629
99,161,92581,1,0,0:0:0:0:
104,170,92704,2,0,P|165:223|258:241,1,174.999995231629
416,245,93073,1,0,0:0:0:0:
410,255,93196,2,0,P|349:308|256:326,1,174.999995231629
172,322,93565,1,0,0:0:0:0:
164,315,93688,2,0,B|59:239|180:73|256:192|304:279|428:80|319:-37|173:58,1,524.999985694885
256,192,98360,12,0,106229,0:0:0:0:
250,293,107028,6,0,B|104:191|59:90|213:8|319:12|266:249|232:246|188:12|295:7|445:95|394:192|254:297,1,656.249982118607
254,200,108196,1,0,0:0:0:0:
241,176,108319,1,0,0:0:0:0:
224,155,108442,1,0,0:0:0:0:
203,138,108565,1,0,0:0:0:0:
179,127,108688,1,0,0:0:0:0:
153,123,108811,1,0,0:0:0:0:
126,126,108934,1,0,0:0:0:0:
101,135,109057,1,0,0:0:0:0:
82,154,109180,2,0,P|61:202|70:248,3,87.4999976158143
77,258,109672,2,0,P|112:281|170:272,4,87.4999976158143
304,80,110409,2,0,L|369:146,1,87.4999976158143
368,240,110655,2,0,L|302:305,1,87.4999976158143
208,304,110901,2,0,L|143:238,1,87.4999976158143
144,144,111147,2,0,L|210:79,1,87.4999976158143
304,80,111393,2,0,L|369:146,1,87.4999976158143
364,257,111639,1,0,0:0:0:0:
344,273,111762,1,0,0:0:0:0:
326,291,111885,1,0,0:0:0:0:
144,240,112130,2,0,L|210:305,1,87.4999976158143
304,304,112376,2,0,L|369:238,1,87.4999976158143
368,144,112622,2,0,L|302:79,1,87.4999976158143
208,80,112868,2,0,L|143:146,1,87.4999976158143
144,240,113114,2,0,L|210:305,1,87.4999976158143
304,304,113360,2,0,L|369:238,1,87.4999976158143
368,144,113606,1,0,0:0:0:0:
350,126,113729,1,0,0:0:0:0:
334,106,113852,1,0,0:0:0:0:
234,107,114098,2,0,P|196:129|170:174,1,87.4999976158143
275,274,114344,2,0,P|313:252|339:207,1,87.4999976158143
195,110,114590,2,0,P|169:146|154:190,1,87.4999976158143
313,273,114836,2,0,P|341:234|354:185,1,87.4999976158143
163,131,115081,2,0,P|145:171|141:216,1,87.4999976158143
341,261,115327,2,0,P|359:218|361:166,1,87.4999976158143
312,85,115573,1,0,0:0:0:0:
285,76,115696,1,0,0:0:0:0:
259,68,115819,1,0,0:0:0:0:
325,148,116065,2,0,P|333:191|328:235,1,87.4999976158143
185,232,116311,2,0,P|179:189|189:147,1,87.4999976158143
351,174,116557,2,0,P|347:217|330:258,1,87.4999976158143
158,213,116803,2,0,P|163:169|181:130,1,87.4999976158143
374,207,117048,2,0,P|360:249|335:284,1,87.4999976158143
140,175,117294,2,0,P|155:134|181:99,1,87.4999976158143
287,75,117540,1,0,0:0:0:0:
308,90,117663,1,0,0:0:0:0:
332,106,117786,1,0,0:0:0:0:
66,90,118032,2,0,P|90:137|159:160,1,87.4999976158143
146,77,118278,2,0,P|173:95|203:157,1,87.4999976158143
118,155,118524,2,0,P|142:202|211:225,1,87.4999976158143
197,142,118770,2,0,P|234:169|254:223,1,87.4999976158143
172,218,119016,2,0,P|196:265|265:288,1,87.4999976158143
251,205,119262,2,0,P|288:232|308:286,1,87.4999976158143
383,249,119508,2,0,P|324:157|231:120,1,174.999995231629
446,90,120000,2,0,P|422:137|353:160,1,87.4999976158143
369,78,120246,2,0,P|332:105|312:159,1,87.4999976158143
394,155,120492,2,0,P|370:202|301:225,1,87.4999976158143
315,142,120738,2,0,P|278:169|258:223,1,87.4999976158143
340,218,120984,2,0,P|316:265|247:288,1,87.4999976158143
261,205,121230,2,0,P|224:232|204:286,1,87.4999976158143
174,343,121475,2,0,P|100:293|65:181,1,174.999995231629
97,98,123934,5,0,0:0:0:0:
90,123,124057,1,0,0:0:0:0:
100,147,124180,1,0,0:0:0:0:
121,162,124303,1,0,0:0:0:0:
136,184,124426,1,0,0:0:0:0:
138,210,124549,1,0,0:0:0:0:
129,234,124672,1,0,0:0:0:0:
107,247,124795,1,0,0:0:0:0:
83,256,124918,2,0,P|41:252|5:222,6,87.4999976158143
1,214,125901,6,0,P|70:151|73:151,1,87.4999976158143
107,218,126147,6,0,P|70:240|53:279,1,87.4999976158143
132,298,126393,6,0,P|159:336|199:353,1,87.4999976158143
251,286,126639,6,0,P|211:269|190:231,1,87.4999976158143
267,200,126885,6,0,P|289:163|326:141,1,87.4999976158143
382,209,127131,6,0,P|344:230|327:270,1,87.4999976158143
404,290,127377,6,0,P|443:308|465:345,1,87.4999976158143
512,266,127623,6,0,P|484:233|444:216,1,87.4999976158143
505,156,127814,1,0,0:0:0:0:
497,150,127869,6,0,P|456:133|408:138,1,87.4999976158143
421,54,128114,6,0,P|375:64|332:107,1,87.4999976158143
301,19,128360,6,0,P|274:51|253:99,1,87.4999976158143
291,178,128606,6,0,P|319:144|339:103,1,87.4999976158143
254,92,128852,6,0,P|183:184|176:251,1,174.999995231629
353,241,129344,6,0,P|303:262|257:272,1,87.4999976158143
204,224,129590,2,0,P|154:249|132:298,1,87.4999976158143
205,321,129774,1,0,0:0:0:0:
210,328,129836,2,0,P|252:353|298:348,1,87.4999976158143
286,269,130082,2,0,P|328:248|355:198,1,87.4999976158143
335,137,130328,2,0,P|293:112|247:117,1,87.4999976158143
275,201,130574,2,0,P|233:222|207:274,1,87.4999976158143
161,319,130819,2,0,P|124:250|137:140,1,174.999995231629
260,227,131310,6,0,P|308:231|364:212,1,87.4999976158143
349,308,131556,6,0,P|390:290|424:235,1,87.4999976158143
473,321,131748,1,0,0:0:0:0:
478,314,131802,6,0,P|498:274|497:212,1,87.4999976158143
450,161,132049,6,0,P|426:199|423:262,1,87.4999976158143
342,252,132295,6,0,P|363:298|413:317,1,87.4999976158143
309,353,132541,6,0,P|281:318|265:265,1,87.4999976158143
297,201,132787,2,0,P|376:249|434:336,1,174.999995231629
297,36,133224,1,0,0:0:0:0:
288,36,133278,2,0,P|241:49|204:83,1,87.4999976158143
145,23,133524,2,0,P|133:66|138:113,1,87.4999976158143
216,81,133716,1,0,0:0:0:0:
218,90,133770,2,0,P|214:133|193:171,1,87.4999976158143
136,108,134016,2,0,P|112:148|112:194,1,87.4999976158143
165,258,134262,2,0,P|114:284|95:330,1,87.4999976158143
176,337,134508,2,0,P|218:316|247:280,1,87.4999976158143
168,245,134754,2,0,P|138:175|214:118,1,174.999995231629
385,254,135191,1,0,0:0:0:0:
385,265,135246,6,0,P|367:304|330:326,1,87.4999976158143
301,252,135492,6,0,P|255:256|212:244,1,87.4999976158143
273,174,135683,1,0,0:0:0:0:
264,169,135737,6,0,P|228:139|215:92,1,87.4999976158143
302,101,135983,2,0,P|348:98|402:147,1,87.4999976158143
331,180,136229,2,0,P|322:225|277:258,1,87.4999976158143
251,183,136475,2,0,P|211:204|161:187,1,87.4999976158143
138,271,136721,2,0,P|89:211|87:102,1,174.999995231629
308,288,137158,1,0,0:0:0:0:
318,292,137213,2,0,L|419:310,1,87.4999976158143
394,223,137459,2,0,L|467:145,1,87.4999976158143
380,120,137650,1,0,0:0:0:0:
376,111,137705,2,0,P|306:52|298:51,1,87.4999976158143
300,146,137951,2,0,P|238:213|235:214,1,87.4999976158143
222,127,138196,2,0,P|158:59|157:55,1,87.4999976158143
250,50,138442,2,0,P|289:67|308:105,1,87.4999976158143
380,156,138688,2,0,P|379:68|329:-1,1,174.999995231629
397,218,139125,1,0,0:0:0:0:
407,220,139181,6,0,P|446:236|468:273,1,87.4999976158143
362,152,139364,1,0,0:0:0:0:
373,151,139427,6,0,P|417:148|457:165,1,87.4999976158143
308,104,139617,1,0,0:0:0:0:
315,98,139672,6,0,P|355:80|399:82,1,87.4999976158143
227,97,139856,1,0,0:0:0:0:
230,90,139918,6,0,P|257:55|293:30,1,87.4999976158143
233,160,140102,1,0,0:0:0:0:
223,159,140164,6,0,P|184:143|162:106,1,87.4999976158143
266,226,140348,1,0,0:0:0:0:
257,228,140410,6,0,P|213:231|173:214,1,87.4999976158143
324,276,140594,1,0,0:0:0:0:
315,281,140655,6,0,P|275:299|231:297,1,87.4999976158143
406,281,140840,1,0,0:0:0:0:
400,289,140901,6,0,P|373:324|337:349,1,87.4999976158143
320,261,141147,2,0,P|239:192|239:188,4,87.4999976158143
77,178,141885,5,0,0:0:0:0:
282,304,142377,1,0,0:0:0:0:
343,142,142622,1,0,0:0:0:0:
152,35,142991,1,0,0:0:0:0:
90,237,143360,1,0,0:0:0:0:
299,55,143852,1,0,0:0:0:0:
396,238,144221,1,0,0:0:0:0:
186,197,144590,1,0,0:0:0:0:
357,47,144959,1,0,0:0:0:0:
169,2,145327,1,0,0:0:0:0:
343,2,145819,5,0,0:0:0:0:
170,189,146311,1,0,0:0:0:0:
354,223,146556,1,0,0:0:0:0:
102,239,146925,1,0,0:0:0:0:
215,55,147294,1,0,0:0:0:0:
442,240,147786,1,0,0:0:0:0:
395,57,148155,1,0,0:0:0:0:
226,168,148524,1,0,0:0:0:0:
343,328,148893,1,0,0:0:0:0:
441,167,149261,1,0,0:0:0:0:
96,301,149754,5,0,0:0:0:0:
319,295,150246,1,0,0:0:0:0:
241,148,150491,1,0,0:0:0:0:
425,29,150860,1,0,0:0:0:0:
422,237,151229,1,0,0:0:0:0:
215,55,151721,1,0,0:0:0:0:
119,225,152090,1,0,0:0:0:0:
312,195,152459,1,0,0:0:0:0:
155,47,152828,1,0,0:0:0:0:
343,2,153196,1,0,0:0:0:0:
77,178,153688,5,0,0:0:0:0:
193,295,154180,1,0,0:0:0:0:
280,171,154425,1,0,0:0:0:0:
109,44,154794,1,0,0:0:0:0:
90,237,155163,1,0,0:0:0:0:
297,55,155655,1,0,0:0:0:0:
393,225,156024,1,0,0:0:0:0:
200,195,156393,1,8,0:0:0:0:
357,47,156762,1,4,0:0:0:0:
169,2,157130,1,4,0:0:0:0:
318,126,157868,1,0,0:0:0:0:
319,258,158114,1,0,0:0:0:0:
415,318,158360,2,0,P|443:191|410:55,1,262.499992847443
