osu file format v14

[General]
AudioFilename: audio.mp3
AudioLeadIn: 0
PreviewTime: -1
Countdown: 0
SampleSet: Normal
StackLeniency: 0.7
Mode: 0
LetterboxInBreaks: 0
WidescreenStoryboard: 1

[Editor]
Bookmarks: 64426,65901,66639,67377,92459,110163
DistanceSpacing: 0.4
BeatDivisor: 16
GridSize: 32
TimelineZoom: 2

[Metadata]
Title:Detki Tancuyut
TitleUnicode:Detki Tancuyut
Artist:Gorilla Zippo (Basta)
ArtistUnicode:Gorilla Zippo (Basta)
Creator:WillyFoxxx
Version:Hard
Source:Gorilla Zippo (Basta)
Tags:Basta Noggano EDM Dance Gorilla Zippo RU Russian Russia Electro House
BeatmapID:4537955
BeatmapSetID:2143413

[Difficulty]
HPDrainRate:7
CircleSize:3
OverallDifficulty:7
ApproachRate:9
SliderMultiplier:2.99999990463257
SliderTickRate:4

[Events]
//Background and Video events
0,0,"black 1920x1080.jpg",0,0
//Break Periods
2,94520,97477
//Storyboard Layer 0 (Background)
//Storyboard Layer 1 (Fail)
//Storyboard Layer 2 (Pass)
//Storyboard Layer 3 (Foreground)
//Storyboard Layer 4 (Overlay)
//Storyboard Sound Samples

[TimingPoints]
7885,491.803278688525,4,1,0,55,1,0
15737,-100,4,1,0,75,0,1
31475,-100,4,1,0,55,0,0
62950,-100,4,1,0,75,0,1
78688,-100,4,1,0,55,0,0
110163,-100,4,1,0,75,0,1
125778,-100,4,1,0,55,0,0
125901,-100,4,1,0,75,0,1
141639,-100,4,1,0,55,0,0

[HitObjects]
256,192,13295,12,0,15262,0:0:0:0:
98,56,15754,6,0,P|257:139|272:234,1,149.999990463257
310,204,16246,1,8,0:0:0:0:
441,127,16492,2,0,P|447:201|385:286,1,149.999990463257
257,304,16984,1,0,0:0:0:0:
263,171,17230,5,8,0:0:0:0:
177,68,17476,1,0,0:0:0:0:
106,213,17721,1,0,0:0:0:0:
245,301,17967,1,0,0:0:0:0:
386,215,18213,2,4,P|360:139|272:98,3,149.999990463257
165,170,19197,5,8,0:0:0:0:
103,44,19443,1,0,0:0:0:0:
253,50,19689,1,0,0:0:0:0:
300,186,19935,1,0,0:0:0:0:
128,157,20180,1,8,0:0:0:0:
246,42,20426,1,0,0:0:0:0:
266,240,20672,1,0,0:0:0:0:
382,127,20918,1,0,0:0:0:0:
253,40,21164,6,4,P|181:4|84:27,1,149.999990463257
76,125,21656,2,4,B|139:188|247:147,1,149.999990463257
431,139,22148,6,4,B|354:108|293:169,1,149.999990463257
329,285,22640,2,4,P|402:290|468:256,1,149.999990463257
362,69,23131,5,8,0:0:0:0:
185,69,23377,1,0,0:0:0:0:
277,204,23623,1,0,0:0:0:0:
110,202,23869,1,0,0:0:0:0:
195,324,24115,1,8,0:0:0:0:
25,318,24361,2,2,P|63:157|202:39,1,299.999980926514
2,44,25098,5,8,0:0:0:0:
179,44,25344,1,0,0:0:0:0:
87,179,25590,1,0,0:0:0:0:
270,176,25836,1,0,0:0:0:0:
169,298,26082,1,8,0:0:0:0:
350,294,26328,2,2,P|307:120|175:20,1,299.999980926514
60,147,27066,6,4,P|189:234|196:232,1,149.999990463257
273,226,27557,2,4,P|237:161|169:135,1,149.999990463257
182,230,28049,6,4,P|311:317|318:315,1,149.999990463257
395,309,28540,2,4,P|359:244|291:218,1,149.999990463257
117,272,29033,5,8,0:0:0:0:
37,103,29279,1,0,0:0:0:0:
209,117,29525,1,0,0:0:0:0:
234,294,29771,1,0,0:0:0:0:
91,191,30016,1,8,0:0:0:0:
212,64,30262,1,0,0:0:0:0:
391,83,30508,1,0,0:0:0:0:
268,194,30754,1,0,0:0:0:0:
83,72,31000,5,8,0:0:0:0:
76,92,31123,1,8,0:0:0:0:
71,113,31246,1,8,0:0:0:0:
68,135,31369,1,8,0:0:0:0:
67,155,31492,2,10,P|89:235|157:275,1,149.999990463257
159,274,31861,1,0,0:0:0:0:
251,130,32107,1,0,0:0:0:0:
426,105,32353,1,0,0:0:0:0:
424,256,32721,6,0,P|265:306|259:304,3,149.999990463257
142,250,33705,1,0,0:0:0:0:
137,236,33828,1,0,0:0:0:0:
133,221,33951,1,8,0:0:0:0:
173,70,34197,1,0,0:0:0:0:
336,68,34443,1,0,0:0:0:0:
231,190,34689,6,0,P|72:240|66:238,3,149.999990463257
119,75,35672,5,0,0:0:0:0:
128,66,35795,1,0,0:0:0:0:
138,57,35918,1,8,0:0:0:0:
306,65,36164,1,0,0:0:0:0:
395,202,36410,1,0,0:0:0:0:
290,322,36656,2,0,P|197:293|166:218,1,149.999990463257
31,327,37148,1,0,0:0:0:0:
51,158,37394,5,0,0:0:0:0:
156,42,37639,1,0,0:0:0:0:
168,41,37762,1,0,0:0:0:0:
178,40,37885,1,8,0:0:0:0:
211,196,38131,2,0,P|294:189|364:119,1,149.999990463257
219,46,38623,2,0,P|136:52|95:137,3,149.999990463257
90,258,39607,5,0,0:0:0:0:
236,331,39853,1,8,0:0:0:0:
282,175,40098,1,0,0:0:0:0:
111,170,40344,1,0,0:0:0:0:
198,39,40590,2,0,P|266:-1|363:21,2,149.999990463257
121,164,41328,5,0,0:0:0:0:
186,300,41574,1,0,0:0:0:0:
193,308,41697,1,0,0:0:0:0:
201,314,41820,1,8,0:0:0:0:
358,283,42066,1,0,0:0:0:0:
389,135,42312,2,0,P|351:58|268:47,1,149.999990463257
284,45,42680,2,0,P|224:74|211:138,2,112.499992847443
432,113,43295,5,0,0:0:0:0:
366,263,43541,1,0,0:0:0:0:
263,137,43787,1,8,0:0:0:0:
190,288,44033,1,0,0:0:0:0:
73,171,44279,1,0,0:0:0:0:
172,42,44525,1,0,0:0:0:0:
351,55,44771,1,8,0:0:0:0:
244,187,45016,6,4,P|187:258|108:275,1,149.999990463257
150,173,45508,6,4,P|192:112|260:84,1,149.999990463257
251,299,46000,6,4,P|319:271|362:211,1,149.999990463257
378,108,46492,6,4,P|310:136|268:196,1,149.999990463257
258,197,46984,1,0,0:0:0:0:
70,144,47230,6,0,L|167:23,1,149.999990463257
258,87,47721,2,0,L|161:212,1,149.999990463257
254,268,48213,6,0,L|351:147,1,149.999990463257
442,211,48704,2,0,L|345:336,1,149.999990463257
161,329,49197,6,0,L|70:211,1,149.999990463257
164,150,49688,2,0,L|258:268,1,149.999990463257
345,205,50180,6,0,L|254:87,1,149.999990463257
348,26,50671,2,0,L|442:144,1,149.999990463257
505,318,51164,5,0,0:0:0:0:
344,322,51410,1,0,0:0:0:0:
391,238,51656,5,0,0:0:0:0:
236,242,51902,1,0,0:0:0:0:
266,137,52148,5,0,0:0:0:0:
120,141,52394,1,0,0:0:0:0:
163,48,52639,5,0,0:0:0:0:
180,23,52762,1,0,0:0:0:0:
209,17,52885,1,0,0:0:0:0:
236,28,53008,1,0,0:0:0:0:
256,49,53131,5,0,0:0:0:0:
400,95,53377,1,0,0:0:0:0:
433,248,53623,1,0,0:0:0:0:
303,332,53869,1,0,0:0:0:0:
151,308,54115,2,0,P|66:256|56:180,1,149.999990463257
154,204,54607,6,0,L|269:105,1,149.999990463257
272,6,55098,2,0,P|339:35|370:101,1,149.999990463257
271,99,55590,2,0,P|301:165|369:194,1,149.999990463257
370,98,56082,2,0,P|437:127|468:193,1,149.999990463257
365,190,56574,6,0,L|249:294,1,149.999990463257
252,384,57066,2,0,P|184:354|153:288,1,149.999990463257
253,290,57557,2,0,P|222:223|154:194,1,149.999990463257
153,288,58049,2,0,P|85:258|54:192,1,149.999990463257
155,194,58541,2,0,P|124:127|56:98,1,149.999990463257
238,113,59033,5,0,0:0:0:0:
245,122,59279,1,0,0:0:0:0:
98,289,59525,1,0,0:0:0:0:
103,296,59771,1,0,0:0:0:0:
340,293,60016,1,0,0:0:0:0:
346,301,60262,1,0,0:0:0:0:
411,85,60508,1,0,0:0:0:0:
416,93,60754,1,0,0:0:0:0:
216,51,61000,5,0,0:0:0:0:
190,66,61123,1,0,0:0:0:0:
175,92,61246,1,0,0:0:0:0:
169,121,61369,1,0,0:0:0:0:
170,150,61492,1,0,0:0:0:0:
176,179,61615,1,0,0:0:0:0:
184,207,61738,1,0,0:0:0:0:
182,236,61861,1,0,0:0:0:0:
170,263,61984,1,8,0:0:0:0:
151,286,62107,1,8,0:0:0:0:
124,299,62230,1,8,0:0:0:0:
94,305,62353,1,8,0:0:0:0:
64,299,62476,1,8,0:0:0:0:
38,283,62598,1,8,0:0:0:0:
16,261,62721,1,8,0:0:0:0:
7,232,62844,1,8,0:0:0:0:
7,201,62967,2,0,P|56:126|127:118,1,149.999990463257
124,115,63459,5,8,0:0:0:0:
98,302,63705,2,0,P|131:238|201:216,1,149.999990463257
216,216,64197,1,0,0:0:0:0:
92,109,64443,2,0,P|125:44|195:22,1,149.999990463257
209,22,64935,1,0,0:0:0:0:
290,161,65180,6,0,P|323:225|393:247,1,149.999990463257
407,248,65672,5,0,0:0:0:0:
388,71,65918,6,0,P|354:135|284:157,1,149.999990463257
271,157,66410,5,10,0:0:0:0:
430,227,66656,6,0,P|396:291|326:313,1,149.999990463257
313,314,67148,5,0,0:0:0:0:
142,313,67394,6,0,P|175:248|245:226,1,149.999990463257
259,226,67886,5,0,0:0:0:0:
95,179,68131,6,0,P|128:114|198:92,1,149.999990463257
212,92,68623,5,0,0:0:0:0:
152,245,68869,6,0,P|185:310|254:332,1,149.999990463257
268,331,69361,5,8,0:0:0:0:
279,169,69607,6,0,P|312:104|382:82,1,149.999990463257
396,82,70099,5,0,0:0:0:0:
394,238,70344,6,0,P|360:303|291:325,1,149.999990463257
277,324,70836,5,0,0:0:0:0:
128,288,71082,5,0,0:0:0:0:
245,156,71328,1,8,0:0:0:0:
70,127,71574,1,0,0:0:0:0:
199,250,71820,1,0,0:0:0:0:
237,89,72066,1,0,0:0:0:0:
350,212,72312,1,8,0:0:0:0:
209,302,72557,1,0,0:0:0:0:
104,166,72803,1,0,0:0:0:0:
269,167,73049,1,0,0:0:0:0:
396,61,73295,1,8,0:0:0:0:
438,222,73541,1,0,0:0:0:0:
301,327,73787,6,0,P|220:320|158:243,1,149.999990463257
74,130,74279,2,0,P|188:19|196:17,1,149.999990463257
344,41,74771,2,0,P|430:172|430:175,1,149.999990463257
240,171,75262,2,0,P|90:227|89:228,1,149.999990463257
263,334,75754,2,0,P|412:265|417:258,1,149.999990463257
229,190,76246,2,0,P|118:87|117:84,1,149.999990463257
293,24,76738,2,0,P|401:131|402:134,1,149.999990463257
289,252,77230,2,0,P|177:137|176:133,1,149.999990463257
38,32,77721,2,0,P|51:200|52:202,1,149.999990463257
148,303,78213,5,8,0:0:0:0:
177,307,78336,1,8,0:0:0:0:
207,306,78459,1,8,0:0:0:0:
236,299,78582,1,8,0:0:0:0:
263,286,78705,1,8,0:0:0:0:
186,141,78951,6,0,L|251:88,6,74.9999952316285
80,18,79935,1,8,0:0:0:0:
215,114,80180,1,8,0:0:0:0:
110,253,80426,6,0,P|273:279|279:277,1,149.999990463257
222,121,80918,6,0,L|287:68,6,74.9999952316285
334,276,81902,1,8,0:0:0:0:
408,125,82148,1,8,0:0:0:0:
238,93,82394,6,0,P|75:119|69:117,1,149.999990463257
249,260,82885,6,0,L|184:207,6,74.9999952316285
203,66,83869,6,0,P|351:104|356:108,2,149.999990463257
74,177,84607,5,8,0:0:0:0:
175,325,84853,6,0,L|240:272,6,74.9999952316285
103,172,85836,6,0,P|203:42|207:39,2,149.999990463257
183,316,86574,1,0,0:0:0:0:
313,219,86820,1,0,0:0:0:0:
429,322,87066,1,8,0:0:0:0:
452,152,87312,1,0,0:0:0:0:
290,87,87557,1,0,0:0:0:0:
118,159,87803,6,0,L|59:111,6,74.9999952316285
68,297,88787,6,0,B|459:343|558:7|208:-76|99:-27|47:344|400:351,1,1049.9999332428
456,190,90754,1,0,0:0:0:0:
354,65,91000,1,8,0:0:0:0:
285,226,91246,1,0,0:0:0:0:
186,81,91492,1,0,0:0:0:0:
22,137,91738,1,0,0:0:0:0:
113,283,91984,1,8,0:0:0:0:
210,138,92230,1,0,0:0:0:0:
395,135,92476,5,0,0:0:0:0:
393,165,92599,5,0,0:0:0:0:
385,194,92722,5,0,0:0:0:0:
371,221,92845,5,0,0:0:0:0:
356,248,92968,5,0,0:0:0:0:
335,270,93091,5,0,0:0:0:0:
307,282,93214,5,0,0:0:0:0:
277,284,93337,5,0,0:0:0:0:
248,275,93460,5,8,0:0:0:0:
222,258,93583,6,8,L|163:210,6,74.9999952316285
256,192,98377,12,0,107230,0:0:0:0:
205,151,108213,5,0,0:0:0:0:
209,180,108336,1,0,0:0:0:0:
221,203,108459,1,0,0:0:0:0:
238,221,108582,1,0,0:0:0:0:
266,236,108705,1,0,0:0:0:0:
288,243,108827,1,0,0:0:0:0:
317,245,108950,1,0,0:0:0:0:
346,246,109073,1,0,0:0:0:0:
375,242,109196,1,8,0:0:0:0:
401,227,109319,1,8,0:0:0:0:
423,207,109442,1,8,0:0:0:0:
440,182,109565,1,8,0:0:0:0:
451,154,109688,1,8,0:0:0:0:
453,124,109811,1,8,0:0:0:0:
448,94,109934,1,8,0:0:0:0:
437,65,110057,1,8,0:0:0:0:
414,56,110180,6,0,P|255:139|240:234,1,149.999990463257
202,204,110672,1,8,0:0:0:0:
71,127,110918,2,0,P|65:201|127:286,1,149.999990463257
255,304,111410,1,0,0:0:0:0:
249,171,111656,5,8,0:0:0:0:
335,68,111902,1,0,0:0:0:0:
406,213,112147,1,0,0:0:0:0:
267,301,112393,1,0,0:0:0:0:
126,215,112639,2,0,P|152:139|240:98,3,149.999990463257
347,170,113623,5,8,0:0:0:0:
409,44,113869,1,0,0:0:0:0:
259,50,114115,1,0,0:0:0:0:
212,186,114361,1,0,0:0:0:0:
384,157,114606,1,8,0:0:0:0:
266,42,114852,1,0,0:0:0:0:
246,240,115098,1,0,0:0:0:0:
130,127,115344,1,0,0:0:0:0:
259,40,115590,6,0,P|331:4|428:27,1,149.999990463257
436,125,116082,2,0,B|373:188|265:147,1,149.999990463257
81,139,116574,6,0,B|158:108|219:169,1,149.999990463257
183,285,117066,2,0,P|110:290|44:256,1,149.999990463257
147,49,117557,5,8,0:0:0:0:
327,69,117803,1,0,0:0:0:0:
232,184,118049,1,0,0:0:0:0:
402,202,118295,1,0,0:0:0:0:
314,304,118541,1,8,0:0:0:0:
487,318,118787,2,2,P|449:157|310:39,1,299.999980926514
511,28,119524,5,8,0:0:0:0:
333,44,119770,1,0,0:0:0:0:
426,163,120016,1,0,0:0:0:0:
242,176,120262,1,0,0:0:0:0:
344,283,120508,1,8,0:0:0:0:
162,294,120754,2,2,P|205:120|337:20,1,299.999980926514
452,147,121492,6,0,P|323:234|316:232,1,149.999990463257
239,226,121983,2,0,P|275:161|343:135,1,149.999990463257
330,230,122475,6,0,P|201:317|194:315,1,149.999990463257
117,309,122966,2,0,P|153:244|221:218,1,149.999990463257
395,272,123459,5,8,0:0:0:0:
475,103,123705,1,0,0:0:0:0:
322,40,123951,2,0,P|269:96|268:100,5,74.9999952316285
259,109,124689,2,0,P|239:140|207:160,5,74.9999952316285
190,172,125426,2,8,P|137:228|136:232,4,74.9999952316285
72,64,126164,5,0,0:0:0:0:
245,33,126410,1,8,0:0:0:0:
195,186,126656,2,4,P|381:156|390:151,2,149.999990463257
63,303,127394,5,8,0:0:0:0:
243,331,127639,1,0,0:0:0:0:
391,234,127885,2,0,P|366:67|365:65,1,149.999990463257
241,201,128377,1,8,0:0:0:0:
235,48,128623,2,4,P|80:116|77:120,2,149.999990463257
391,107,129361,5,8,0:0:0:0:
228,169,129607,1,0,0:0:0:0:
396,258,129853,2,0,P|225:308|220:307,1,149.999990463257
297,152,130344,1,8,0:0:0:0:
187,29,130590,2,4,P|77:144|76:148,2,149.999990463257
356,59,131328,5,8,0:0:0:0:
481,161,131574,1,0,0:0:0:0:
495,314,131820,2,0,P|336:364|332:363,1,149.999990463257
202,296,132312,1,8,0:0:0:0:
320,197,132557,2,4,P|266:49|262:44,2,149.999990463257
191,303,133295,1,8,0:0:0:0:
43,193,133541,1,0,0:0:0:0:
78,29,133787,2,0,P|243:8|250:9,1,149.999990463257
279,158,134279,1,8,0:0:0:0:
99,271,134525,2,4,P|251:329|257:329,2,149.999990463257
114,105,135262,5,8,0:0:0:0:
266,45,135508,1,0,0:0:0:0:
434,69,135754,2,0,P|500:224|500:225,1,149.999990463257
334,197,136246,1,8,0:0:0:0:
155,258,136492,2,4,P|314:324|318:324,2,149.999990463257
70,121,137230,5,8,0:0:0:0:
79,293,137476,1,0,0:0:0:0:
210,194,137721,2,0,P|297:61|301:59,1,149.999990463257
449,67,138213,1,8,0:0:0:0:
289,139,138459,2,4,P|168:27|165:17,2,149.999990463257
423,229,139197,5,8,0:0:0:0:
272,318,139443,1,0,0:0:0:0:
108,304,139689,1,0,0:0:0:0:
83,286,139812,1,0,0:0:0:0:
61,264,139935,1,0,0:0:0:0:
45,238,140057,1,0,0:0:0:0:
33,210,140180,1,0,0:0:0:0:
25,181,140303,1,0,0:0:0:0:
22,151,140426,1,0,0:0:0:0:
28,121,140549,1,0,0:0:0:0:
38,93,140672,1,0,0:0:0:0:
57,70,140795,1,8,0:0:0:0:
82,55,140918,1,8,0:0:0:0:
111,47,141041,1,8,0:0:0:0:
143,40,141164,2,14,P|187:36|236:67,4,74.9999952316285
79,202,141902,5,0,0:0:0:0:
284,328,142394,1,0,0:0:0:0:
345,166,142639,1,0,0:0:0:0:
96,53,143008,1,0,0:0:0:0:
92,261,143377,1,4,0:0:0:0:
301,79,143869,1,0,0:0:0:0:
398,262,144238,1,0,0:0:0:0:
188,221,144607,1,0,0:0:0:0:
359,71,144976,1,0,0:0:0:0:
171,26,145329,1,4,0:0:0:0:
345,26,145836,5,0,0:0:0:0:
197,172,146328,1,0,0:0:0:0:
356,247,146573,1,0,0:0:0:0:
104,263,146942,1,0,0:0:0:0:
217,79,147311,1,4,0:0:0:0:
444,264,147803,1,0,0:0:0:0:
397,81,148172,1,0,0:0:0:0:
228,192,148541,1,0,0:0:0:0:
345,352,148910,1,0,0:0:0:0:
443,191,149278,1,4,0:0:0:0:
98,325,149771,5,0,0:0:0:0:
321,319,150263,1,0,0:0:0:0:
243,172,150508,1,0,0:0:0:0:
427,53,150877,1,0,0:0:0:0:
424,261,151246,1,4,0:0:0:0:
217,79,151738,1,0,0:0:0:0:
121,249,152107,1,0,0:0:0:0:
314,219,152476,1,0,0:0:0:0:
157,71,152845,1,0,0:0:0:0:
345,26,153213,1,4,0:0:0:0:
79,202,153705,5,0,0:0:0:0:
195,319,154197,1,0,0:0:0:0:
282,195,154442,1,0,0:0:0:0:
111,68,154811,1,0,0:0:0:0:
92,261,155195,1,4,0:0:0:0:
299,79,155672,1,0,0:0:0:0:
395,249,156041,1,0,0:0:0:0:
202,219,156410,1,8,0:0:0:0:
359,71,156779,1,12,0:0:0:0:
171,26,157147,1,14,0:0:0:0:
