osu file format v14

[General]
AudioFilename: audio.mp3
AudioLeadIn: 0
PreviewTime: -1
Countdown: 1
SampleSet: None
StackLeniency: 0.7
Mode: 0
LetterboxInBreaks: 0
WidescreenStoryboard: 0

[Editor]
Bookmarks: 25508,46758,59258
DistanceSpacing: 0.7
BeatDivisor: 4
GridSize: 4
TimelineZoom: 1.7

[Metadata]
Title:netsaosa
TitleUnicode:netsaosa
Artist:Goreshit
ArtistUnicode:Goreshit
Creator:ItashaS13
Version:BIG SEVEN SAKURA AR10
Source:
Tags:breakcore lolicore
BeatmapID:1753386
BeatmapSetID:837399

[Difficulty]
HPDrainRate:2.5
CircleSize:4.2
OverallDifficulty:8
ApproachRate:10
SliderMultiplier:1.6
SliderTickRate:1

[Events]
//Background and Video events
0,0,"MutsuuNagato.jpg",0,0
//Break Periods
//Storyboard Layer 0 (Background)
//Storyboard Layer 1 (Fail)
//Storyboard Layer 2 (Pass)
//Storyboard Layer 3 (Foreground)
//Storyboard Sound Samples

[TimingPoints]
-742,312.5,4,2,0,30,1,0
4153,-166.666666666667,4,2,0,30,0,0
4253,-25,4,2,0,30,0,0
8008,-90.9090909090909,4,2,0,30,0,0
25508,-66.6666666666667,4,2,0,30,0,0
25976,-33.3333333333333,4,2,0,30,0,0
26758,-66.6666666666667,4,2,0,30,0,0
27226,-90.9090909090909,4,2,0,30,0,0
30820,-66.6666666666667,4,2,0,30,0,0
37383,-33.3333333333333,4,2,0,30,0,0
37539,-66.6666666666667,4,2,0,30,0,0
38320,-50,4,2,0,30,0,0
39258,-66.6666666666667,4,2,0,30,0,0
45976,-33.3333333333333,4,2,0,30,0,0
46758,-47.6190476190476,4,2,0,30,0,1
51445,-33.3333333333333,4,2,0,30,0,1
51758,-47.6190476190476,4,2,0,30,0,1
58554,-25,4,2,0,30,0,1
58945,-47.6190476190476,4,2,0,30,0,1
59258,-58.8235294117647,4,2,0,30,0,0
59883,-33.3333333333333,4,2,0,30,0,0
60039,-47.6190476190476,4,2,0,30,0,0
79570,-25,4,2,0,30,0,0
79883,-47.6190476190476,4,2,0,30,0,0
81758,-25,4,2,0,30,0,1

[HitObjects]
256,192,195,5,0,0:0:0:0:
256,192,351,1,0,0:0:0:0:
256,192,2304,5,0,0:0:0:0:
256,192,3008,5,0,0:0:0:0:
256,192,3737,5,0,0:0:0:0:
362,280,3945,5,0,0:0:0:0:
362,280,4049,1,0,0:0:0:0:
362,280,4153,2,0,B|356:247|366:226|366:226|305:214|349:269|248:306|209:256,1,215.999993408203
256,192,5351,5,0,0:0:0:0:
256,192,5820,5,0,0:0:0:0:
152,99,6028,5,0,0:0:0:0:
152,99,6758,5,0,0:0:0:0:
256,192,6862,12,0,7903,0:0:0:0:
89,315,8008,6,0,L|52:252,1,44.0000013427735
142,236,8164,2,0,L|105:173,1,44.0000013427735
65,107,8320,1,0,0:0:0:0:
208,50,8477,1,0,0:0:0:0:
194,91,8555,1,0,0:0:0:0:
198,135,8633,1,0,0:0:0:0:
219,173,8711,1,0,0:0:0:0:
253,200,8789,6,0,L|311:167,1,44.0000013427735
345,247,8945,2,0,L|402:213,1,44.0000013427735
489,152,9101,1,0,0:0:0:0:
489,152,9179,1,0,0:0:0:0:
489,152,9258,2,0,P|469:221|468:311,1,132.00000402832
470,312,9570,1,0,0:0:0:0:
470,312,9726,1,0,0:0:0:0:
374,167,9883,5,0,0:0:0:0:
349,156,9961,1,0,0:0:0:0:
321,157,10039,2,0,L|269:173,1,44.0000013427735
216,314,10195,1,0,0:0:0:0:
216,314,10273,1,0,0:0:0:0:
216,314,10351,2,0,L|211:250,1,44.0000013427735
169,184,10508,5,0,0:0:0:0:
128,167,10586,1,0,0:0:0:0:
93,141,10664,1,0,0:0:0:0:
71,103,10742,1,0,0:0:0:0:
69,60,10820,1,0,0:0:0:0:
99,73,10898,1,0,0:0:0:0:
120,111,10976,1,0,0:0:0:0:
121,155,11054,1,0,0:0:0:0:
111,198,11133,5,0,0:0:0:0:
150,178,11211,1,0,0:0:0:0:
193,170,11289,1,0,0:0:0:0:
237,173,11367,1,0,0:0:0:0:
278,188,11445,5,0,0:0:0:0:
278,188,11523,1,0,0:0:0:0:
278,188,11601,1,0,0:0:0:0:
278,188,11679,1,0,0:0:0:0:
278,188,11758,2,0,L|309:144,1,44.0000013427735
382,189,11914,2,0,L|412:144,1,44.0000013427735
474,45,12070,1,0,0:0:0:0:
474,45,12226,1,0,0:0:0:0:
481,188,12383,1,0,0:0:0:0:
344,67,12539,1,0,0:0:0:0:
321,53,12617,1,0,0:0:0:0:
295,48,12695,2,0,L|270:47,4,22.0000006713867
104,120,13008,5,0,0:0:0:0:
104,120,13164,2,0,L|90:167,1,44.0000013427735
223,138,13320,1,0,0:0:0:0:
207,179,13398,1,0,0:0:0:0:
191,220,13476,1,0,0:0:0:0:
196,262,13554,1,0,0:0:0:0:
201,305,13633,2,0,L|162:363,1,44.0000013427735
96,305,13789,2,0,L|57:363,1,44.0000013427735
308,309,13945,1,0,0:0:0:0:
223,138,14101,1,0,0:0:0:0:
196,134,14179,1,0,0:0:0:0:
169,137,14258,6,0,L|146:62,1,44.0000013427735
116,231,14414,1,0,0:0:0:0:
108,262,14492,2,0,L|85:337,1,44.0000013427735
291,185,14648,1,0,0:0:0:0:
299,154,14726,2,0,L|322:79,1,44.0000013427735
340,0,14883,1,0,0:0:0:0:
414,143,15039,1,0,0:0:0:0:
283,219,15195,1,0,0:0:0:0:
489,85,15351,1,0,0:0:0:0:
505,125,15429,1,0,0:0:0:0:
502,168,15507,5,0,0:0:0:0:
480,206,15585,1,0,0:0:0:0:
443,229,15664,2,0,L|390:192,1,44.0000013427735
311,111,15820,1,0,0:0:0:0:
311,111,15976,1,0,0:0:0:0:
185,67,16133,1,0,0:0:0:0:
175,109,16211,1,0,0:0:0:0:
184,152,16289,1,0,0:0:0:0:
196,194,16367,1,0,0:0:0:0:
189,237,16445,2,0,L|133:251,1,44.0000013427735
166,337,16601,2,0,P|144:352|109:350,1,44.0000013427735
0,282,16758,6,0,P|25:267|56:268,1,44.0000013427735
75,137,16914,2,0,P|87:157|88:193,1,44.0000013427735
123,347,17070,2,0,P|150:346|166:337,1,44.0000013427735
146,247,17226,2,0,P|178:246|200:231,1,44.0000013427735
239,85,17383,2,0,P|251:112|252:141,1,44.0000013427735
297,284,17539,1,0,0:0:0:0:
307,326,17617,1,0,0:0:0:0:
318,369,17695,1,0,0:0:0:0:
466,120,18008,5,0,0:0:0:0:
442,83,18086,1,0,0:0:0:0:
403,64,18164,2,0,L|341:49,1,44.0000013427735
288,240,18320,2,0,L|300:298,1,44.0000013427735
263,122,18476,1,0,0:0:0:0:
239,85,18554,1,0,0:0:0:0:
200,66,18632,2,0,L|137:50,1,44.0000013427735
70,212,18789,2,0,L|62:169,1,44.0000013427735
26,56,18945,1,0,0:0:0:0:
63,33,19023,1,0,0:0:0:0:
106,29,19101,1,0,0:0:0:0:
321,35,19258,5,0,0:0:0:0:
321,35,19414,1,0,0:0:0:0:
177,206,19570,5,0,0:0:0:0:
177,206,19726,1,0,0:0:0:0:
131,90,19883,1,0,0:0:0:0:
173,80,19961,1,0,0:0:0:0:
216,87,20039,1,0,0:0:0:0:
181,293,20195,1,0,0:0:0:0:
181,293,20351,1,0,0:0:0:0:
381,294,20508,5,0,0:0:0:0:
338,303,20586,1,0,0:0:0:0:
295,296,20664,1,0,0:0:0:0:
328,131,20820,1,0,0:0:0:0:
328,131,20976,1,0,0:0:0:0:
145,119,21133,1,0,0:0:0:0:
295,296,21289,1,0,0:0:0:0:
294,120,21445,1,0,0:0:0:0:
145,265,21601,6,0,L|95:319,1,44.0000013427735
52,235,21758,2,0,L|2:289,1,44.0000013427735
182,355,21914,1,0,0:0:0:0:
226,188,22070,1,0,0:0:0:0:
226,188,22226,1,0,0:0:0:0:
63,353,22383,1,0,0:0:0:0:
102,161,22539,1,0,0:0:0:0:
247,299,22695,1,0,0:0:0:0:
226,188,22851,1,0,0:0:0:0:
252,153,22929,1,0,0:0:0:0:
289,129,23007,5,0,0:0:0:0:
386,305,23164,1,0,0:0:0:0:
490,132,23320,1,0,0:0:0:0:
398,21,23476,1,0,0:0:0:0:
389,46,23554,1,0,0:0:0:0:
386,72,23633,2,0,P|390:116|399:133,1,44.0000013427735
387,271,23789,2,0,P|391:249|390:227,1,44.0000013427735
280,157,23945,1,0,0:0:0:0:
280,157,24101,1,0,0:0:0:0:
434,134,24258,6,0,P|457:112|467:75,1,44.0000013427735
463,240,24414,2,0,P|451:221|434:207,1,44.0000013427735
343,158,24570,2,0,L|266:156,1,44.0000013427735
178,34,24726,2,0,L|156:31,1,22.0000006713867
171,77,24804,2,0,L|132:68,1,22.0000006713867
165,121,24883,2,0,L|126:113,1,22.0000006713867
158,164,24961,2,0,L|123:158,1,22.0000006713867
152,208,25039,2,0,L|88:237,1,44.0000013427735
63,327,25195,2,0,L|127:298,1,44.0000013427735
271,237,25351,2,0,L|206:265,1,44.0000013427735
39,132,25508,6,0,B|86:89|75:21|75:21|103:82|175:76,1,240.000009155274
310,28,25976,2,0,L|243:14,1,60.0000022888184
299,70,26054,2,0,L|229:71,1,60.0000022888184
304,113,26133,2,0,L|236:147,1,60.0000022888184
512,163,26289,1,0,0:0:0:0:
512,163,26445,1,0,0:0:0:0:
364,308,26601,1,0,0:0:0:0:
304,113,26758,6,0,B|216:31|216:31|138:123,1,240.000009155274
84,285,27226,2,0,P|63:280|45:269,1,44.0000013427735
0,139,27383,1,0,0:0:0:0:
240,266,27539,1,0,0:0:0:0:
115,188,27695,1,0,0:0:0:0:
116,159,27773,2,0,L|148:104,1,44.0000013427735
332,22,28008,6,0,P|333:59|360:87,1,44.0000013427735
478,192,28164,1,0,0:0:0:0:
474,0,28320,2,0,P|439:12|420:46,1,44.0000013427735
357,191,28476,1,0,0:0:0:0:
416,104,28633,1,0,0:0:0:0:
151,38,28789,1,0,0:0:0:0:
108,22,28945,1,0,0:0:0:0:
116,65,29023,1,0,0:0:0:0:
125,108,29101,1,0,0:0:0:0:
134,151,29179,1,0,0:0:0:0:
143,194,29257,5,0,0:0:0:0:
24,36,29414,2,0,B|30:63|30:63|26:80|26:80|34:111|34:111|24:122|24:122|38:127|38:127|44:150|44:150|59:163|59:163|72:213,1,176.000005371094
122,334,29883,1,0,0:0:0:0:
140,314,29961,1,0,0:0:0:0:
159,296,30039,2,0,B|183:272|183:272|203:264|203:264|235:228,1,88.000002685547
251,25,30351,1,0,0:0:0:0:
397,183,30508,5,0,0:0:0:0:
105,185,30664,1,0,0:0:0:0:
341,340,30820,2,0,L|342:257,1,60.0000022888184
254,320,30976,2,0,L|254:231,1,60.0000022888184
165,340,31133,2,0,L|164:257,1,60.0000022888184
252,103,31289,1,0,0:0:0:0:
341,340,31445,1,0,0:0:0:0:
297,340,31523,1,0,0:0:0:0:
253,340,31601,1,0,0:0:0:0:
209,340,31679,1,0,0:0:0:0:
165,340,31758,6,0,B|123:347|123:347|114:359|114:359|77:363|77:363|121:329|108:271|108:271|119:215,1,240.000009155274
87,92,32226,2,0,B|74:129|29:131|29:131|63:134|63:134|80:149|80:149|118:127|166:152|166:152|194:137,1,240.000009155274
272,49,32695,1,0,0:0:0:0:
294,37,32773,2,0,P|374:31|421:60,1,120.000004577637
444,32,33008,6,0,L|510:16,2,60.0000022888184
423,68,33320,6,0,L|439:142,1,60.0000022888184
341,130,33476,2,0,L|357:204,1,60.0000022888184
255,359,33633,1,0,0:0:0:0:
255,185,33789,1,0,0:0:0:0:
100,195,33945,2,0,L|84:269,1,60.0000022888184
182,257,34101,2,0,L|166:331,1,60.0000022888184
388,286,34258,5,0,0:0:0:0:
512,222,34414,1,0,0:0:0:0:
412,108,34570,1,0,0:0:0:0:
406,152,34648,1,0,0:0:0:0:
400,197,34726,1,0,0:0:0:0:
394,241,34804,1,0,0:0:0:0:
388,286,34882,1,0,0:0:0:0:
512,222,35039,1,0,0:0:0:0:
331,101,35195,1,0,0:0:0:0:
287,99,35273,1,0,0:0:0:0:
262,134,35351,1,0,0:0:0:0:
277,174,35429,1,0,0:0:0:0:
320,183,35508,6,0,P|275:132|187:134,1,120.000004577637
76,165,35820,1,0,0:0:0:0:
156,23,35976,1,0,0:0:0:0:
175,36,36054,1,0,0:0:0:0:
198,41,36133,2,0,L|270:33,1,60.0000022888184
320,183,36289,2,0,L|392:175,1,60.0000022888184
473,50,36445,1,0,0:0:0:0:
473,50,36523,1,0,0:0:0:0:
473,50,36601,2,0,L|460:142,1,60.0000022888184
476,251,36758,6,0,P|468:199|458:187,1,60.0000022888184
340,315,36914,2,0,P|364:268|363:252,1,60.0000022888184
186,268,37070,2,0,P|232:244|241:231,1,60.0000022888184
336,137,37226,1,0,0:0:0:0:
337,125,37304,1,0,0:0:0:0:
335,113,37383,2,0,L|356:32,2,60.0000022888184
248,101,37539,2,0,B|206:101|206:101|197:81|197:81|178:97|160:80|160:80|129:51|100:72|100:72|77:43|37:38,1,240.000009155274
0,146,38008,5,0,0:0:0:0:
116,325,38164,1,0,0:0:0:0:
183,316,38242,1,0,0:0:0:0:
239,287,38320,2,0,L|273:186,1,80
248,101,38476,2,0,L|180:30,1,80
436,133,38633,2,0,L|326:158,1,80
272,186,38789,1,0,0:0:0:0:
342,0,38945,1,0,0:0:0:0:
461,119,39101,1,0,0:0:0:0:
467,133,39179,1,0,0:0:0:0:
468,149,39258,6,0,P|448:220|371:246,1,120.000004577637
272,186,39570,1,0,0:0:0:0:
344,30,39726,1,0,0:0:0:0:
381,322,39883,1,0,0:0:0:0:
468,149,40039,1,0,0:0:0:0:
468,149,40117,1,0,0:0:0:0:
468,149,40195,2,0,L|369:126,1,60.0000022888184
272,186,40351,2,0,L|173:209,1,60.0000022888184
91,120,40508,2,0,L|-8:97,1,60.0000022888184
285,104,40664,2,0,L|292:35,1,60.0000022888184
354,289,40820,5,0,0:0:0:0:
313,332,40898,1,0,0:0:0:0:
272,377,40976,1,0,0:0:0:0:
137,298,41133,2,0,B|131:260|131:260|107:245|107:245|104:212|79:196,1,120.000004577637
113,27,41445,1,0,0:0:0:0:
72,66,41523,1,0,0:0:0:0:
91,120,41601,1,0,0:0:0:0:
147,125,41679,1,0,0:0:0:0:
176,77,41758,6,0,L|102:63,1,60.0000022888184
355,193,41914,2,0,L|291:193,1,60.0000022888184
176,307,42070,2,0,L|102:321,1,60.0000022888184
36,198,42226,1,0,0:0:0:0:
334,328,42383,1,0,0:0:0:0:
205,194,42539,1,0,0:0:0:0:
343,300,42695,1,0,0:0:0:0:
395,99,42851,1,0,0:0:0:0:
440,352,43008,5,0,0:0:0:0:
264,83,43164,1,0,0:0:0:0:
512,264,43320,5,0,0:0:0:0:
203,174,43476,1,0,0:0:0:0:
334,328,43633,5,0,0:0:0:0:
321,354,43711,1,0,0:0:0:0:
296,371,43789,1,0,0:0:0:0:
266,371,43867,1,0,0:0:0:0:
241,357,43945,1,0,0:0:0:0:
395,99,44101,1,0,0:0:0:0:
281,273,44258,2,0,L|288:343,1,60.0000022888184
264,83,44414,2,0,L|257:13,1,60.0000022888184
81,10,44570,1,0,0:0:0:0:
32,227,44726,1,0,0:0:0:0:
294,66,44883,1,0,0:0:0:0:
184,254,45039,1,0,0:0:0:0:
177,254,45117,1,0,0:0:0:0:
169,251,45195,2,0,L|128:198,1,60.0000022888184
203,45,45351,2,0,L|234:111,1,60.0000022888184
117,364,45508,5,0,0:0:0:0:
368,290,45664,1,0,0:0:0:0:
368,290,45742,1,0,0:0:0:0:
368,290,45820,1,0,0:0:0:0:
448,20,45976,2,0,L|470:104,4,60.0000022888184
345,22,46445,1,0,0:0:0:0:
345,22,46601,1,0,0:0:0:0:
460,202,46758,6,0,P|464:254|434:302,1,83.9999974365235
328,259,46914,2,0,B|344:294|344:294|368:365,1,83.9999974365235
512,338,47070,1,0,0:0:0:0:
437,149,47226,2,0,B|402:152|402:152|353:138,1,83.9999974365235
345,22,47383,2,0,B|311:27|311:27|307:42|272:65,1,83.9999974365235
328,259,47539,1,0,0:0:0:0:
143,171,47695,1,0,0:0:0:0:
75,30,47851,1,0,0:0:0:0:
75,30,47929,1,0,0:0:0:0:
75,30,48008,6,0,B|68:69|68:69|80:94|80:94|48:110|53:149|53:149|42:202,1,167.999994873047
267,368,48320,1,0,0:0:0:0:
229,228,48476,1,0,0:0:0:0:
73,318,48633,1,0,0:0:0:0:
33,327,48711,1,0,0:0:0:0:
4,299,48789,1,0,0:0:0:0:
13,260,48867,1,0,0:0:0:0:
50,245,48945,1,0,0:0:0:0:
78,214,49023,1,0,0:0:0:0:
96,176,49101,1,0,0:0:0:0:
99,135,49179,1,0,0:0:0:0:
89,94,49258,6,0,B|102:64|65:44|100:-6,1,83.9999974365235
431,41,49414,1,0,0:0:0:0:
431,41,49492,1,0,0:0:0:0:
431,41,49570,2,0,B|409:75|409:75|374:81|340:119,1,83.9999974365235
445,217,49726,1,0,0:0:0:0:
238,76,49883,1,0,0:0:0:0:
185,103,49961,1,0,0:0:0:0:
177,162,50039,1,0,0:0:0:0:
221,201,50117,1,0,0:0:0:0:
278,188,50195,5,0,0:0:0:0:
340,206,50273,1,0,0:0:0:0:
354,269,50351,1,0,0:0:0:0:
305,311,50429,1,0,0:0:0:0:
245,287,50508,6,0,B|217:246|217:246|220:201,1,83.9999974365235
345,182,50664,2,0,B|347:137|347:137|375:97,1,83.9999974365235
49,24,50820,1,0,0:0:0:0:
49,24,50976,1,0,0:0:0:0:
49,24,51133,1,0,0:0:0:0:
101,205,51289,1,0,0:0:0:0:
111,202,51367,1,0,0:0:0:0:
121,199,51445,2,0,B|127:169|127:169|119:152|119:152|119:126,4,60.0000022888184
5,289,51758,6,0,B|35:297|35:297|36:321|36:321|66:329|84:360|84:360|115:335|147:343,1,167.999994873047
305,255,52070,1,0,0:0:0:0:
305,194,52148,1,0,0:0:0:0:
303,129,52226,1,0,0:0:0:0:
268,77,52304,1,0,0:0:0:0:
218,48,52383,2,0,B|180:51|180:51|149:25|71:53,1,83.9999974365235
370,100,52539,2,0,B|408:121|408:121|517:104,1,83.9999974365235
499,274,52695,1,0,0:0:0:0:
495,0,52851,1,0,0:0:0:0:
495,0,52929,1,0,0:0:0:0:
495,0,53008,6,0,B|495:9|495:9|457:21|454:69|454:69|472:96|472:96|436:130|435:166,1,167.999994873047
372,338,53242,1,0,0:0:0:0:
351,323,53320,2,0,B|319:290|300:306|290:253|290:253|202:254,1,167.999994873047
40,31,53633,1,0,0:0:0:0:
241,99,53789,2,0,B|202:113|202:113|134:121,1,83.9999974365235
75,307,53945,1,0,0:0:0:0:
30,142,54101,1,0,0:0:0:0:
30,142,54179,1,0,0:0:0:0:
30,142,54258,5,0,0:0:0:0:
71,133,54336,1,0,0:0:0:0:
116,146,54414,2,0,B|149:171|149:171|169:215,1,83.9999974365235
226,384,54570,2,0,B|259:359|259:359|277:321,1,83.9999974365235
217,49,54726,1,0,0:0:0:0:
405,244,54883,1,0,0:0:0:0:
413,254,54961,1,0,0:0:0:0:
404,253,55039,2,0,L|412:355,1,83.9999974365235
310,0,55195,1,0,0:0:0:0:
302,10,55273,1,0,0:0:0:0:
311,9,55351,2,0,L|303:111,1,83.9999974365235
304,315,55508,6,0,B|269:328|269:328|237:318|237:318|201:340,1,83.9999974365235
259,184,55664,2,0,B|231:149|232:128|232:128|190:113,1,83.9999974365235
461,109,55820,1,0,0:0:0:0:
302,29,55976,1,0,0:0:0:0:
178,324,56133,1,0,0:0:0:0:
410,293,56289,2,0,B|431:257|431:257|465:229,1,83.9999974365235
464,86,56445,1,0,0:0:0:0:
285,245,56601,1,0,0:0:0:0:
93,33,56758,5,0,0:0:0:0:
93,33,56836,1,0,0:0:0:0:
93,33,56914,2,0,B|114:49|114:49|97:88|97:88|94:107,1,83.9999974365235
122,344,57070,2,0,B|124:300|144:287|144:287|146:261|115:235|115:235|126:176,1,167.999994873047
428,56,57383,2,0,B|384:77|384:77|365:117|330:139|330:139|286:112,1,167.999994873047
10,81,57695,2,0,B|64:79|63:79|104:83|104:83|128:60|128:60|225:49,1,167.999994873047
470,191,58008,5,0,0:0:0:0:
320,31,58164,1,0,0:0:0:0:
275,90,58242,1,0,0:0:0:0:
269,160,58320,1,0,0:0:0:0:
448,333,58476,1,0,0:0:0:0:
370,357,58554,2,0,B|363:335|363:335|318:319|291:335|291:335|259:306|159:296,1,160
106,151,58711,1,0,0:0:0:0:
146,61,58789,2,0,B|153:39|153:39|186:48|225:39|225:39|256:40|357:0,1,160
219,324,58945,6,0,B|194:299|199:281|199:281|179:235,1,83.9999974365235
68,88,59101,2,0,B|53:97|40:120|40:120|63:154,1,83.9999974365235
476,64,59258,1,0,0:0:0:0:
455,254,59414,1,0,0:0:0:0:
265,321,59570,1,0,0:0:0:0:
317,104,59726,1,0,0:0:0:0:
327,99,59804,1,0,0:0:0:0:
350,101,59883,2,0,L|303:35,4,60.0000022888184
463,114,60195,2,0,B|468:153|465:158|433:189|433:189|458:193|469:262,1,167.999994873047
75,323,60508,6,0,B|65:290|65:290|58:274|66:253|66:253|62:223|62:223|28:195,1,83.9999974365235
186,353,60664,2,0,B|176:320|176:320|169:304|177:283|177:283|173:253|173:253|139:225,1,83.9999974365235
291,319,60820,2,0,B|281:286|281:286|274:270|282:249|282:249|278:219|278:219|244:191,1,83.9999974365235
43,133,60976,1,0,0:0:0:0:
404,51,61133,1,0,0:0:0:0:
419,262,61289,1,0,0:0:0:0:
419,262,61367,1,0,0:0:0:0:
419,262,61445,2,0,B|378:232|378:232|341:230|341:230|279:199|303:165,1,167.999994873047
329,101,61679,1,0,0:0:0:0:
323,123,61758,6,0,B|281:144|281:144|240:131|128:169,1,167.999994873047
177,20,62070,1,0,0:0:0:0:
40,222,62226,1,0,0:0:0:0:
40,222,62304,1,0,0:0:0:0:
40,222,62383,1,0,0:0:0:0:
116,330,62539,2,0,B|171:349|171:349|199:347|219:340|256:358|256:358|287:352,1,167.999994873047
315,348,62773,1,0,0:0:0:0:
334,340,62851,1,0,0:0:0:0:
347,179,63008,6,0,B|374:148|374:148|382:92|338:120,1,83.9999974365235
486,25,63164,2,0,B|478:39|478:39|454:49|454:49|438:96,1,83.9999974365235
512,241,63320,1,0,0:0:0:0:
504,234,63398,1,0,0:0:0:0:
495,235,63476,2,0,B|472:230|472:230|462:154,1,83.9999974365235
412,47,63633,1,0,0:0:0:0:
370,50,63711,1,0,0:0:0:0:
330,42,63789,1,0,0:0:0:0:
286,57,63867,1,0,0:0:0:0:
249,84,63945,2,0,B|226:119|226:119|173:140,1,83.9999974365235
115,44,64101,2,0,B|56:36|56:36|9:22,1,83.9999974365235
307,181,64258,5,0,0:0:0:0:
7,14,64414,1,0,0:0:0:0:
33,235,64570,1,0,0:0:0:0:
60,187,64648,1,0,0:0:0:0:
96,179,64726,1,0,0:0:0:0:
129,159,64804,1,0,0:0:0:0:
171,161,64882,1,0,0:0:0:0:
397,348,65039,1,0,0:0:0:0:
431,194,65195,1,0,0:0:0:0:
377,179,65273,1,0,0:0:0:0:
346,198,65351,1,0,0:0:0:0:
309,208,65429,1,0,0:0:0:0:
275,220,65508,6,0,P|220:242|152:235,1,83.9999974365235
163,95,65664,1,0,0:0:0:0:
123,294,65820,1,0,0:0:0:0:
307,359,65976,1,0,0:0:0:0:
452,28,66133,1,0,0:0:0:0:
448,187,66289,1,0,0:0:0:0:
138,29,66445,1,0,0:0:0:0:
162,227,66601,1,0,0:0:0:0:
439,356,66758,6,0,B|426:310|426:310|436:282|455:266|436:221|436:221|462:158,1,167.999994873047
272,16,67070,1,0,0:0:0:0:
467,24,67226,1,0,0:0:0:0:
470,50,67304,1,0,0:0:0:0:
459,55,67383,2,0,B|431:66|417:73|415:78|420:121|420:121|399:138|298:114,1,167.999994873047
152,160,67695,1,0,0:0:0:0:
130,234,67773,1,0,0:0:0:0:
137,307,67851,1,0,0:0:0:0:
297,250,68008,6,0,B|341:235|338:256|394:264,1,83.9999974365235
348,146,68164,2,0,B|376:140|376:140|421:95,1,83.9999974365235
502,237,68320,1,0,0:0:0:0:
400,18,68476,1,0,0:0:0:0:
396,242,68633,1,0,0:0:0:0:
451,99,68789,1,0,0:0:0:0:
293,349,68945,1,0,0:0:0:0:
255,139,69101,1,0,0:0:0:0:
215,258,69258,5,0,0:0:0:0:
297,126,69414,1,0,0:0:0:0:
358,328,69570,5,0,0:0:0:0:
159,73,69726,1,0,0:0:0:0:
102,370,69883,5,0,0:0:0:0:
388,0,70039,1,0,0:0:0:0:
491,352,70195,1,0,0:0:0:0:
491,352,70273,1,0,0:0:0:0:
491,352,70351,6,0,B|488:321|488:321|497:249,1,83.9999974365235
203,231,70508,2,0,B|223:239|223:239|302:236,1,83.9999974365235
470,67,70664,2,0,P|487:113|462:181,1,83.9999974365235
93,356,70820,2,0,B|85:321|85:321|3:281,1,83.9999974365235
192,0,70976,1,0,0:0:0:0:
197,8,71054,1,0,0:0:0:0:
197,15,71133,6,0,B|147:60|147:60|127:127,1,83.9999974365235
429,238,71289,2,0,B|390:259|390:259|321:270,1,83.9999974365235
0,223,71445,2,0,B|29:192|29:192|50:119,1,83.9999974365235
379,162,71601,1,0,0:0:0:0:
63,0,71758,5,0,0:0:0:0:
283,372,71914,1,0,0:0:0:0:
481,64,72070,1,0,0:0:0:0:
481,64,72148,1,0,0:0:0:0:
481,64,72226,2,0,B|464:124|464:124|486:181,1,83.9999974365235
394,336,72383,2,0,B|376:287|376:287|342:239,1,83.9999974365235
239,91,72539,2,0,B|270:81|270:81|280:85|280:85|298:66|298:65|355:45,1,83.9999974365235
135,341,72695,2,0,B|131:303|131:303|134:243,1,83.9999974365235
486,206,72851,1,0,0:0:0:0:
486,206,72929,1,0,0:0:0:0:
486,206,73008,6,0,B|459:216|459:216|378:188,1,83.9999974365235
107,12,73164,2,0,B|98:55|98:55|114:121,1,83.9999974365235
249,324,73320,1,0,0:0:0:0:
249,324,73398,1,0,0:0:0:0:
249,324,73476,2,0,B|216:348|217:348|143:345,1,83.9999974365235
17,156,73633,2,0,B|43:119|43:119|103:104,1,83.9999974365235
495,156,73789,2,0,B|469:119|469:119|409:104,1,83.9999974365235
276,27,73945,2,0,B|265:72|265:72|298:130,1,83.9999974365235
109,272,74101,1,0,0:0:0:0:
109,272,74179,1,0,0:0:0:0:
109,272,74258,6,0,B|119:231|119:231|103:163,1,83.9999974365235
65,28,74414,1,0,0:0:0:0:
40,352,74570,1,0,0:0:0:0:
40,352,74726,2,0,B|96:362|96:362|161:338|161:339|168:355|229:323,1,167.999994873047
281,120,75039,1,0,0:0:0:0:
296,352,75195,1,0,0:0:0:0:
440,36,75351,1,0,0:0:0:0:
440,36,75508,5,0,0:0:0:0:
414,224,75664,1,0,0:0:0:0:
403,224,75742,1,0,0:0:0:0:
394,238,75820,2,0,B|376:276|376:276|344:314|344:314|228:303,1,167.999994873047
122,352,76133,1,0,0:0:0:0:
85,106,76289,1,0,0:0:0:0:
85,106,76367,1,0,0:0:0:0:
79,110,76445,2,0,B|66:144|66:144|97:205,1,83.9999974365235
258,39,76601,2,0,L|241:187,1,83.9999974365235
346,308,76758,5,0,0:0:0:0:
361,249,76836,1,0,0:0:0:0:
318,207,76914,1,0,0:0:0:0:
260,223,76992,1,0,0:0:0:0:
244,281,77070,1,0,0:0:0:0:
186,298,77148,1,0,0:0:0:0:
139,260,77226,1,0,0:0:0:0:
142,200,77304,1,0,0:0:0:0:
191,161,77383,2,0,B|204:176|204:176|291:176,1,83.9999974365235
363,71,77539,1,0,0:0:0:0:
83,338,77695,2,0,B|96:353|96:353|183:353,1,83.9999974365235
260,223,77851,1,0,0:0:0:0:
171,39,78008,5,0,0:0:0:0:
171,39,78086,1,0,0:0:0:0:
161,50,78164,2,0,B|201:75|201:75|299:46,1,83.9999974365235
491,54,78320,1,0,0:0:0:0:
36,171,78476,1,0,0:0:0:0:
367,283,78633,1,0,0:0:0:0:
363,290,78711,1,0,0:0:0:0:
339,295,78789,2,0,B|331:255|332:255|348:212|348:212|345:161,1,83.9999974365235
337,23,78945,1,0,0:0:0:0:
427,162,79101,1,0,0:0:0:0:
173,51,79258,5,0,0:0:0:0:
159,134,79336,1,0,0:0:0:0:
146,225,79414,1,0,0:0:0:0:
169,306,79492,1,0,0:0:0:0:
231,347,79570,6,0,B|210:373|178:383|178:383|136:372,4,80
399,339,79883,2,0,B|378:289|378:289|412:244|406:206|369:221|398:146,1,167.999994873047
438,38,80195,1,0,0:0:0:0:
448,34,80273,1,0,0:0:0:0:
459,35,80351,1,0,0:0:0:0:
437,93,80429,1,0,0:0:0:0:
389,132,80507,1,0,0:0:0:0:
327,142,80585,1,0,0:0:0:0:
269,117,80664,2,0,P|256:81|229:34,1,83.9999974365235
144,316,80820,6,0,B|97:343|97:343|27:313,1,83.9999974365235
63,143,80976,1,0,0:0:0:0:
305,341,81133,1,0,0:0:0:0:
312,344,81211,1,0,0:0:0:0:
304,334,81289,2,0,B|287:306|287:306|294:224,1,83.9999974365235
441,52,81445,2,0,B|481:46|481:46|544:107,1,83.9999974365235
133,22,81601,1,0,0:0:0:0:
446,294,81758,6,0,B|413:303|413:303|380:297|380:297|369:275|342:278|342:278|277:271,1,160
94,260,81914,2,0,B|119:246|120:246|126:238|126:238|156:252|158:253|168:233|169:232|209:212|209:212|218:196|218:196|267:184,1,160
365,18,82070,2,0,B|341:37|341:37|359:66|359:66|395:105|395:105|401:139|402:140|397:157|397:157|422:186,1,160
173,73,82226,2,0,B|119:101|119:101|85:134|85:135|79:165|79:165|120:194,1,160
214,353,82383,2,0,B|192:307|192:307|186:266|184:268|151:271|142:269|104:261|99:258,1,160
59,57,82539,2,0,B|51:119|51:119|123:181|123:181|110:237,1,160
326,284,82695,6,0,B|344:209|345:209|363:159|346:130|315:112|321:73,1,160
482,31,82851,2,0,B|458:82|458:82|389:73|389:73|332:124,1,160
467,295,83008,2,0,B|518:311|510:363|417:352|413:219,1,160
179,157,83164,2,0,B|232:126|232:126|255:69|255:69|299:39,1,160
385,206,83320,2,0,B|387:171|386:172|382:306|382:306|314:329,1,160
171,384,83476,2,0,B|211:320|211:320|206:288|179:261|138:222|125:226,1,160
4,269,83633,2,0,B|93:195|94:196|111:101,1,160
56,46,83789,5,0,0:0:0:0:
78,48,83867,1,0,0:0:0:0:
103,44,83945,1,0,0:0:0:0:
124,52,84023,1,0,0:0:0:0:
146,54,84101,1,0,0:0:0:0:
169,57,84179,1,0,0:0:0:0:
193,52,84257,1,0,0:0:0:0:
215,61,84335,1,0,0:0:0:0:
237,63,84414,1,0,0:0:0:0:
260,66,84492,1,0,0:0:0:0:
284,61,84570,1,0,0:0:0:0:
306,70,84648,1,0,0:0:0:0:
328,72,84726,1,0,0:0:0:0:
351,75,84804,1,0,0:0:0:0:
369,79,84883,6,0,B|423:106|424:107|500:211,1,160
456,338,85039,5,0,0:0:0:0:
433,335,85117,1,0,0:0:0:0:
409,340,85195,1,0,0:0:0:0:
387,331,85273,1,0,0:0:0:0:
365,329,85351,1,0,0:0:0:0:
342,326,85429,1,0,0:0:0:0:
319,332,85507,1,0,0:0:0:0:
296,322,85585,1,0,0:0:0:0:
274,320,85664,1,0,0:0:0:0:
251,317,85742,1,0,0:0:0:0:
223,319,85820,6,0,B|189:308|159:324|159:324|116:387|65:302|65:302|92:276|113:234|135:223|135:223|148:220|120:177|114:142|114:142|64:157|-50:67|49:63|51:61|52:59|56:23|56:23|89:16|89:15|122:62|128:83|186:216|171:33|192:66|245:56|245:56|260:110|444:34|444:34|264:193|264:193|382:70|538:224|489:303|489:303|430:184|296:214|296:214|416:244|397:294,1,1920
